Welcome Guest ( Log In | Register )

История благодарностей участнику Cruor ::: Спасибо сказали: 1644 раз(а)
Дата поста: В теме: За сообщение: Спасибо сказали:
Dec 26 2014, 13:17:30 Bloody Rage - Hell Is Life (2014)
Убойнейшее сырье!!! Рекомендую всем.
(1) neoatheist,
Jul 28 2014, 15:23:37 Christinvertion - Embodiment Of Goat Blasphemy/Hail Desecration [compilation] (2012)
Премного благодарен за отменное богохульство в отменном качестве!
(1) Абигор,
Mar 12 2014, 15:24:15 Teitanblood - Death (2014)
Вот он, чистейший сплав дэта и блэка. Шедеврально!
(1) vosmidesijatye,
Mar 6 2014, 17:56:26 Relic Point - VIXI (2014)
(1) Representer,
Jan 8 2014, 11:52:10 Øresund Space Collective - The Black Tomato (2007)
Небольшая подборочка одним архивом:
Register


 ! 

слишком много одинаковых сообщений, остановитесь
 

(1) stor,
Nov 23 2013, 13:47:17 The Disease Concept - Your Destroyer (2013)
Все качества ждут
(1) Daale,
Aug 31 2013, 17:37:18 Astral Cult - Astral Cult (2013)
ЦИТАТА(nomadgg1 @ Aug 30 2013, 17:50:56) *
А вот за предупреждение - спасибо! Качать не буду. Не место бабам в стонере и думе. Не место

Охренел?!
Acid King, Blood Ceremony, Funeral (норвежский), Hela, Jex Thoth, Occultation, Reino Ermitano, Serpentcult, The River, The Wounded Kings, Wooden Stake
и т.д.
(3) BioMax, KVRT, qpMM,
Jun 16 2013, 17:33:08 Doomraiser - Lords Of Mercy (2006)
Flac-rip. cbr 320 kbps. 193 mb.
Register

(6) AHBAnep, kauyumari, marko555, muskatnuss, vosmidesijatye, WillyWonka,
Jun 16 2013, 09:14:40 The Wandering Midget - The Serpent Coven (2008)
Flac-rip. cbr 320 kbps. 137 mb.
Register
(8) brunodiaz, crackedbrain, kauyumari, MEmethuselah, muskatnuss, Urmaaas, vosmidesijatye, Дерсу Узала,
Mar 3 2013, 07:58:17 Ducktails - Backyard [best of/compilation] (2009)


*Artist: Ducktails
*Album: Backyard [best of/compilation]
*Year: 2009
*Genre: Lo-Fi Surf Rock/Psychedelic
*Country: United States
*Format: mp3@CBR320kbps
*Size: 169MB

Tracklist:
1. Crystal Vision 3:13
2. Pizza Time 2:36
3. Rhubarb Girl 1:19
4. Theme To Cruising 4:17
5. Double Dream 1:13
6. Vanaselian (Trees) 1:55
7. Why Am I Here? 6:37
8. Extending Self 4:10
9. Chill Jam 3:25
10. Sun Out My Window 1:58
11. Tropical Heat 3:49
12. Backyard 1:32
13. The Mall 2:13
14. Afternoons Tray Sliders 2:09
15. Boating 1:26
16. Island Flavor 3:13
17. Let's Rock The Beach 4:15
18. Status Quo 3:37
19. Udelco 1:34
20. Neptune City NJ 6:17
21. Dreams In Mirror Field (Excerpt) 12:59
******************************
Total playing time: 1:13:47



[more=Extended info]Tracks 1 - 6 from "1992" Demo
Tracks 7 & 8 from a split tape on DNT Records
Tracks 11 - 20 from "Ducktails II"
Track 21 was recorded in Berlin, Germany, in the spring of 2007

Limited edition, 500 copies.


Input File: 08 Extending Self.mp3
Channels : 2
Sample Rate : 44100
Precision : 16-bit
Duration : 00:04:09.71 = 11012079 samples = 18728 CDDA sectors
File Size : 9.99M
Bit Rate : 320k
Sample Encoding: MPEG audio (layer I, II or III)
Comments :
Title=Extending Self
Artist=Ducktails
Album=Backyard
Tracknumber=8
Genre=Indie

[/more]

Register
(1) igorzz,
Mar 3 2013, 07:56:32 The Lone Crows - The Lone Crows (2012)


*Artist: The Lone Crows
*Album: The Lone Crows
*Year: 2012
*Genre: Stoner Rock/Blues
*Country: United States
*Format: mp3@CBR320kbps
*Size: 131MB

Tracklist:
1. Lone Crow 03:33
2. Can't Go Home Again 05:33
3. Heard You Call 05:15
4. You Got Nothing 04:04
5. Moonshine 05:10
6. The Ghost 06:10
7. When I Move On 04:20
8. The Crawl 05:10
9. Runnin' Through My Head 13:06
10. Blues 04:13
******************************
Total playing time: 56:34



[more=Extended info]Riding the buzz from their premiere single “Moonshine,” The Lone Crows are proud to announce the release of their self-titled debut album. Comprised of ten fast and furious tracks, this album has a good mix of jams and radio worthy songs that cross over several genres. The album musically showcases influences that range from 70’s Blues rock to early 90’s grunge to even 60’s Psychedelic rock. “The Lone Crows” shows growth from the band’s original style extended jams, spot on instrumentation, and more fleshed out song writing. Singer songwriter Tim Barbeau exorcises his inner demons with everything from soulful belting to banshee like shrieks.

released 23 May 2012

The Band

Tim Barbeau- Guitar, Vocals
Julian Manzara- Guitar
Andy Battcher- Bass
Joe Goff- Drums, Percussion

Additional Personnel

Anders Nelson- Organ (Track 9)
Lali Yanez- Album Art
Nick Harrison-Strot- "Moonshine" Cover Art
Tim Barbeau- Engineer, Mixing, Mastering
Andre Boone- Band Manager, Artistic Production


Input File: The Lone Crows - The Lone Crows - 01 Lone Crow.mp3
Channels : 2
Sample Rate : 44100
Precision : 16-bit
Duration : 00:03:33.81 = 9428845 samples = 16035.5 CDDA sectors
File Size : 8.67M
Bit Rate : 324k
Sample Encoding: MPEG audio (layer I, II or III)
Comments :
Title=Lone Crow
Artist=The Lone Crows
Album=The Lone Crows
Tracknumber=1
Year=2012

[/more]

Register
(10) dead can dance, Galactus, igorzz, marilin, MEmethuselah, noisegrinder, qpMM, SatanicPanzer, theAleXX, VALERY,
Mar 2 2013, 08:28:57 Brown Mountain - Brown Mountain (2013)


*Artist: Brown Mountain
*Album: Brown Mountain
*Year: 2013
*Genre: Sludge/Post-Metal
*Country: United States
*Format: mp3@CBR320kbps
*Size: 53MB

Tracklist:
1. The Brown Mountain 07:08
2. Ascension 06:12
3. Winter's Peak 02:00
4. Descension 06:33
******************************
Total playing time: 21:53



[more=Extended info]


Input File: Brown Mountain - Brown Mountain - 03 Winter\'s Peak.mp3
Channels : 2
Sample Rate : 44100
Precision : 16-bit
Duration : 00:02:00.07 = 5295087 samples = 9005.25 CDDA sectors
File Size : 5.08M
Bit Rate : 339k
Sample Encoding: MPEG audio (layer I, II or III)
Comments :
Title=Winter's Peak
Artist=Brown Mountain
Album=Brown Mountain
Tracknumber=3
Year=2013

[/more]

Register
(5) BRUTAL06, Emhyr var Emreis, Hell_Is_Here, marilin, VALERY,
Feb 20 2013, 15:13:04 Troum & Aidan Baker - Nihtes Niht [collaboration] (2013)


*Artist: Troum & Aidan Baker
*Album: Nihtes Niht [collaboration]
*Year: 2013
*Genre: Drone | Ambient
*Country: Germany | Canada
*Format: mp3@CBR320kbps
*Size: 131MB

Tracklist:
01. Sunt 17:40
02. Nort 15:07
03. Westan 10:27
04. Ostan 14:21
******************************
Total playing time: 57:35



[more=Extended info]A collaboration between Aidan Baker and Troum, recorded live March 2011 at GHUTTO-M studios in Bremen, Germany. Released on CD by www.Alone-At-Last.com.
released 31 January 2013
Aidan Baker - electric guitar
Martin Gitschel - guitars, percussion, effects
Stefan Knappe - guitars, accordion

Рецензия


Input File: 03. Westan.mp3
Channels : 2
Sample Rate : 44100
Precision : 16-bit
Duration : 00:10:26.66 = 27635750 samples = 46999.6 CDDA sectors
File Size : 25.1M
Bit Rate : 320k
Sample Encoding: MPEG audio (layer I, II or III)
Comments :
Title=Westan
Artist=Aidan Baker & Troum
Album=Nihtes Niht
Tracknumber=3
Year=2013
Genre=Experimental

[/more]

Register
(16) 666BlackDeath, BATON-duBASSic, Boozer, HA7tur, Hell_Is_Here, Infidel, marilin, Nadja, Premature_Devotion, RUSP73, shial, spiritualdecay666, Typhon88, Un4given, Vertigo, Wolfera,
Feb 17 2013, 13:34:48 Meth Drinker - Meth Drinker (2011)
VBR193kbps 60 mb
Register
(5) abob, Kerkerseele, muskatnuss, qpMM, varlam4,
Feb 6 2013, 19:46:08 Sunn ■]]] - Sirupus Aurantii Corticis (2013)
ЦИТАТА(Semargl2010 @ Feb 6 2013, 22:36:38) *
А можно перезалить, пожалуйста? А то архивчик-то битый какой-то... 6.gif

На бандкампе (через превью) можно качнуть, хоть во флаке.
(1) Semargl2010,
Jan 2 2013, 10:49:13 Plague Mask - Plague Mask [demo] (2012)


*Artist: Plague Mask
*Album: Plague Mask [demo]
*Year: 2012
*Genre: Sludge
*Country: United States
*Format: mp3@CBR320kbps
*Size: 47MB

Tracklist:
1. Intro 02:49
2. Sink And Drown 03:39
3. MKUltra (Covert Intelligence Agency) 02:24
4. Luminal 04:21
5. Botched Swimming Lessons 01:45
6. Plagues 03:24
******************************
Total playing time: 18:22



[more=Extended info]


Input File: 2. Sink And Drown.mp3
Channels : 2
Sample Rate : 44100
Precision : 16-bit
Duration : 00:03:39.53 = 9681273 samples = 16464.8 CDDA sectors
File Size : 9.05M
Bit Rate : 330k
Sample Encoding: MPEG audio (layer I, II or III)
Comments :
Title=Sink And Drown
Artist=Plague Mask
Album=Plague Mask (Demo)
Tracknumber=2
Year=2012
Genre=Sludge

[/more]

Register
(6) Boozer, drbutcher, gwar, Hell_Is_Here, marilin, varlam4,
Jan 2 2013, 10:33:49 Fuckhammer - Hammered To Fuck [ep] (2011)


*Artist: Fuckhammer
*Album: Hammered To Fuck [ep]
*Year: 2011
*Genre: Sludge/Crust/Death Metal
*Country: Ireland
*Format: mp3@CBR320kbps
*Size: 37MB

Tracklist:
1. Born of the Ass 03:34
2. Drone 02:19
3. Hillbillies 03:23
4. Abortion Addict 06:11
******************************
Total playing time: 15:27



[more=Extended info]От участников War Iron


Input File: 04. Abortion Addict.mp3
Channels : 2
Sample Rate : 44100
Precision : 16-bit
Duration : 00:06:10.00 = 16317000 samples = 27750 CDDA sectors
File Size : 15.3M
Bit Rate : 330k
Sample Encoding: MPEG audio (layer I, II or III)
Comments :
Title=Abortion Addict
Artist=Fuckhammer
Album=Hammered To Fuck (ep)
Tracknumber=04
Year=2012
Genre=Sludge

[/more]

Register
(6) crackedbrain, Emhyr var Emreis, Hell_Is_Here, metal73, VALERY, varlam4,
Jan 2 2013, 10:25:46 War Iron - The Faceless Sea (2011)


*Artist: War Iron
*Album: The Faceless Sea
*Year: 2011
*Genre: Sludge/Doom Metal
*Country: Ireland
*Format: mp3@CBR320kbps
*Size: 76MB

Tracklist:
1. Inch Cape 12:09
2. Face the Sea 20:50
******************************
Total playing time: 32:59



[more=Extended info]Группа, в прошлом известная как The Naut, в еще более прошлом - Cosmonaut.

Участники:
Dave McCallum - Bass (See also: Devilmakesthree)
Ross - Bass (See also: Fuckhammer, ex-Two Tales of Woe)
Marty - Drums (See also: Slomatics, ex-The Naut)
Baggy - Vocals (See also: Fuckhammer, Lesshelp, ex-The Naut)


Input File: 01. Inch Cape.mp3
Channels : 2
Sample Rate : 44100
Precision : 16-bit
Duration : 00:12:09.00 = 32148900 samples = 54675 CDDA sectors
File Size : 29.4M
Bit Rate : 323k
Sample Encoding: MPEG audio (layer I, II or III)
Comments :
Title=Inch Cape
Artist=War Iron
Album=The Faceless Sea
Tracknumber=01
Year=2010
Genre=Sludge\Doom Metal

[/more]

Register
(10) Divagate_Spirit, Emhyr var Emreis, Evgundel, Hell_Is_Here, Hroedmar, marilin, MEmethuselah, stub888, VALERY, varlam4,
Jan 1 2013, 14:54:44 Cosmonaut - The Cosmonaut EP [ep] (2001)
cbr 256 kbps. 29 mb
Register
(2) varlam4, Дерсу Узала,
Sep 23 2012, 19:09:37 Suffocation - Souls To Deny (2004)
cbr 320 kbps. 89 mb.
Register
(11) Aresson, boba, ElfinQueen, mad, mardak666, NamEndless, souldeathtoxic, thate_topa, Typhoid, Лицемер, Луч,
Sep 23 2012, 19:07:29 Dying Fetus - Purification Through Violence (1996)
cbr 320 kbps. 66 mb.
Register


+ 2011 remastered
cbr 320 kbps. 81 mb.
Register
(3) Growlpapa, mardak666, Typhoid,
Sep 22 2012, 17:21:50 Centurions Ghost - A Sign Of Things To Come (2005)
cbr 320 kbps. 80 mb.
Register
(3) krmu2, marilin, s810ic1,
Sep 22 2012, 17:20:26 Centurions Ghost - The Great Work (2007)
cbr 320 kbps. 112 mb.
Register
(1) marilin,
Sep 22 2012, 17:18:41 Centurions Ghost - Blessed & Cursed In Equal Meas (2010)
cbr 256 kbps. 90 mb.
Register
(1) marilin,
Sep 22 2012, 17:12:58 3D House Of Beef - Similar Attack Pattern (1998)
cbr 256 kbps. 97 mb.
Register
(4) brutal23, Pitonudote, Svafrlami, VALERY,

11 Pages V   1 2 3 > » 
- Lo-Fi Version Support form
Copyrights and abuse reports form
Time is now: 20th October 2019 - 23:32:15