Welcome Guest ( Log In | Register )

История благодарностей участнику squirol ::: Спасибо сказали: 147 раз(а)
Дата поста: В теме: За сообщение: Спасибо сказали:
Apr 12 2020, 21:50:18 Chemical Tomb - Unsportsmanlike Conduct [ep] (2018)


*Artist: Chemical Tomb
*Album: Unsportsmanlike Conduct [ep]
*Year: 2018
*Genre: Thrash Metal/Crossover
*Country: Serbia
*Format: mp3@CBR320kbps
*Size: 22MB

Tracklist:
1. Anal Queen 03:32
2. Mayocalypse 02:38
3. Thrashing Satan 02:34
******************************
Total playing time: 8:44

[more=Technical info]
Input File: Chemical Tomb - Anal Queen.mp3
Channels : 2
Sample Rate : 44100
Precision : 16-bit
Duration : 00:03:32.23 = 9359343 samples = 15917.2 CDDA sectors
File Size : 8.68M
Bit Rate : 327k
Sample Encoding: MPEG audio (layer I, II or III)
Comments :
Title=Anal queen
Artist=Chemical tomb
Album=Unsportsmanlike conduct
Tracknumber=1
Year=2018

[/more]

Register
(9) boby9052, gwar, HMHamster, infiltrator, morbidangelo, Niknne, Olethros, stumpheavyrock, troll_swamp,
Mar 27 2020, 15:31:12 Пурген - Протест Деталей Механизма (2004)


*Artist: Пурген
*Album: Протест Деталей Механизма
*Year: 2004
*Genre: Hardcore Punk/Crossover
*Country: Russian Federation
*Format: mp3@CBR320kbps
*Size: 131MB

Tracklist:
01. Настоящий человек 01:02
02. Работэйшен = деградейшн 02:28
03. Колумбарий 01:24
04. Понты дороже денег 02:11
05. Кристал нахт 02:51
06. Индустрия смерти 02:17
07. Жизнь - это товар 01:41
08. 90-60-90 02:19
09. FcDonalds 02:07
10. Мегасити 03:05
11. Помойки из людей 02:50
12. Атомная романтика 01:53
13. Фоторобот 01:34
14. Негативные люди 01:53
15. Борьба с пустотой 03:17
16. Мёртвые крысы 03:33
17. Ты так хотела стать... 03:15
18. Анархия 02:05
19. Любовь убивает 02:15
20. Философия 03:01
21. Повесься... 02:36
22. Не голосуй 02:00
23. Реинкарнация 03:22
******************************
Total playing time: 54:59

[more=Technical info]
Input File: Гр. Пурген - 01. Настоящий человек 1990.mp3
Channels : 2
Sample Rate : 44100
Precision : 16-bit
Duration : 00:01:02.96 = 2776448 samples = 4721.85 CDDA sectors
File Size : 2.53M
Bit Rate : 321k
Sample Encoding: MPEG audio (layer I, II or III)
Comments :
Title=Настоящий человек
Artist=Пурген
Album=Протест деталей механизма
Tracknumber=1
Year=2004

[/more]

Register
(3) infiltrator, Olethros, VALERY,
Nov 6 2019, 13:50:32 Throne Of Iron - Crystal Logic [single] (2018)


*Artist: Throne Of Iron
*Album: Crystal Logic [single]
*Year: 2018
*Genre: Heavy Metal
*Country: United States
*Format: mp3@VBR266kbps
*Size: 12MB

Tracklist:
1. Crystal Logic (Manilla Road cover) 05:48
******************************
Total playing time: 5:48

[more=Technical info]
Input File: Throne of Iron - Crystal Logic (Manilla Road cover).mp3
Channels : 2
Sample Rate : 44100
Precision : 16-bit
Duration : 00:05:48.63 = 15374583 samples = 26147.2 CDDA sectors
File Size : 11.6M
Bit Rate : 266k
Sample Encoding: MPEG audio (layer I, II or III)
Comments :
Title=Crystal logic (Manilla road cover)
Artist=Throne of iron
Album=Crystal logic
Tracknumber=1
Year=2018

[/more]

Register
(3) Olethros, Rosen, Wail,
Oct 29 2019, 11:51:11 Hopes Die Last - Six Years Home (2009)


*Artist: Hopes Die Last
*Album: Six Years Home
*Year: 2009
*Genre: Post-Hardcore
*Country: Italy
*Format: mp3@CBR320kbps
*Size: 90MB

Tracklist:
1. Some Like It Cold 4:01
2. Ever The Same, And Always Will Be 3:38
3. Call Me Sick Boy 3:41
4. An Endless Serenade 1:43
5. Under This Red Sky 4:17
6. Good Mourning, Honey 3:38
7. Consider Me Alive 3:24
8. Stuck Inside My Head 3:37
9. Johnny's Light Sucks 4:10
10. Six Years Home 4:22
******************************
Total playing time: 36:31

[more=Technical info]
Input File: 1. Some Like It Cold.mp3
Channels : 2
Sample Rate : 44100
Precision : 16-bit
Duration : 00:04:01.89 = 10667129 samples = 18141.4 CDDA sectors
File Size : 9.80M
Bit Rate : 324k
Sample Encoding: MPEG audio (layer I, II or III)
Comments :
Title=Some Like It Cold
Artist=Hopes Die Last
Album=Six Years Home
Tracknumber=1/10
Year=2009
Genre=Post-hardcore
Discnumber=1/1

[/more]

Register
(1) Olethros,
Oct 29 2019, 10:40:22 Memphis May Fire - Unconditional (2014)


*Artist: Memphis May Fire
*Album: Unconditional
*Year: 2014
*Genre: Metalcore/Post-Hardcore
*Country: United States
*Format: mp3@CBR320kbps
*Size: 105MB

Tracklist:
1. No Ordinary Love 3:56
2. Beneath the Skin 4:12
3. Sleepless Nights 3:41
4. The Answer 4:09
5. Possibilities 4:21
6. Speechless 3:23
7. The Rose 3:43
8. Not Enough 4:03
9. Need to Be 3:37
10. Pharisees 3:53
11. Divinity 4:22
******************************
Total playing time: 43:20

[more=Technical info]
Input File: 01 No Ordinary Love.mp3
Channels : 2
Sample Rate : 44100
Precision : 16-bit
Duration : 00:03:58.89 = 10534829 samples = 17916.4 CDDA sectors
File Size : 9.71M
Bit Rate : 325k
Sample Encoding: MPEG audio (layer I, II or III)
Comments :
Title=No Ordinary Love
Artist=Memphis May Fire
Album=Unconditional
Tracknumber=1
Year=2014

[/more]

Register
(3) infiltrator, Olethros, Rosen,
Oct 29 2019, 10:21:14 Madison Affair - Mmxiii [ep] (2013)


*Artist: Madison Affair
*Album: Mmxiii [ep]
*Year: 2013
*Genre: Metalcore/Post-Hardcore
*Country: Germany
*Format: mp3@CBR320kbps
*Size: 41MB

Tracklist:
1. Sound in My Head 04:04
2. Game Over 03:45
3. Silence 04:24
4. We Are the Wave 04:21
******************************
Total playing time: 16:34

[more=Technical info]
Input File: 1. Sound in My Head.mp3
Channels : 2
Sample Rate : 44100
Precision : 16-bit
Duration : 00:04:04.70 = 10791314 samples = 18352.6 CDDA sectors
File Size : 9.87M
Bit Rate : 323k
Sample Encoding: MPEG audio (layer I, II or III)
Comments :
Title=Sound in My Head
Artist=Madison Affair
Album=MMXIII
Tracknumber=1/4
Year=2013
Genre=Post-hardcore / Metalcore / Electronic
Discnumber=1/1

[/more]

Register
(3) infiltrator, Olethros, Rosen,
Oct 29 2019, 09:57:11 Subjugated Black Death Immolation - Portal To Incantation [demo] (2018)


*Artist: Subjugated Black Death Immolation
*Album: Portal To Incantation [demo]
*Year: 2018
*Genre: Black Metal
*Country: Chile
*Format: mp3@CBR320kbps
*Size: 19MB

Tracklist:
1. Evoken Aberration from the Carnal Stench 01:41
2. Sarcophagus Encourages the Molten Soul 01:03
3. Profanated Empire 02:10
4. Within the Devourment of the Sun 02:02
******************************
Total playing time: 6:56

[more=Technical info]
Input File: 01 Evoken Aberration from the Carnal Stench.mp3
Channels : 2
Sample Rate : 44100
Precision : 16-bit
Duration : 00:01:41.99 = 4497627 samples = 7649.03 CDDA sectors
File Size : 4.23M
Bit Rate : 331k
Sample Encoding: MPEG audio (layer I, II or III)
Comments :
Title=Evoken Aberration from the Carnal Stench
Artist=Subjugated Black Death Immolation
Album=Portal to Incantation
Tracknumber=1
Year=2018

[/more]

Register
(10) 1968_janeart, Hell_Is_Here, infiltrator, marilin, Olethros, Rosen, SilentNidhogg, varlam4, vasiljev_sergej, Wail,
Oct 28 2019, 12:22:58 Subjugated Black Death Immolation - Phlegm Of The Subconscious Soul [demo] (2018)


*Artist: Subjugated Black Death Immolation
*Album: Phlegm Of The Subconscious Soul [demo]
*Year: 2018
*Genre: Black Metal
*Country: Chile
*Format: mp3@CBR320kbps
*Size: 13MB

Tracklist:
1. Phlegm Stain of the Flesh 01:02
2. Sobs of the Immolated Soul 00:51
3. Cryptical Sermon of Moonlight 00:47
4. Excruciate an Exhumed Soul and the Release of the Phlegm of the Impostor 02:14
******************************
Total playing time: 4:54

[more=Technical info]
Input File: 01 Phlegm Stain of the Flesh.mp3
Channels : 2
Sample Rate : 44100
Precision : 16-bit
Duration : 00:01:02.17 = 2741873 samples = 4663.05 CDDA sectors
File Size : 2.61M
Bit Rate : 335k
Sample Encoding: MPEG audio (layer I, II or III)
Comments :
Title=Phlegm Stain of the Flesh
Artist=Subjugated Black Death Immolation
Album=Phlegm of the Subconcious Soul
Tracknumber=1
Year=2018

[/more]

Register
(9) 1968_janeart, Hell_Is_Here, marilin, Olethros, Rosen, SilentNidhogg, varlam4, vasiljev_sergej, Wail,
Sep 30 2013, 10:12:01 For The Fallen Dreams - Wasted Youth (2012)


*Artist: For The Fallen Dreams
*Album: Wasted Youth
*Year: 2012
*Genre: Metalcore
*Country: United States
*Format: mp3@CBR320kbps
*Size: 98MB

Tracklist:
1. Hollow 3:59
2. Resolvent Feelings 3:37
3. Please Don't Hurt 4:29
4. Until It Runs Out 3:12
5. Sober 3:28
6. Living a Lie 3:26
7. Always About You 3:42
8. Moving Forward 3:21
9. Your Funeral 3:09
10. When Push Comes to Shove 3:19
11. No One to Blame 2:58
12. Waking Up Alone 2:03
13. Pretending 2:52
******************************
Total playing time: 43:35

[more=Technical info]
Input File: 01 Hollow_[plixid.com].mp3
Channels : 2
Sample Rate : 44100
Precision : 16-bit
Duration : 00:03:59.91 = 10579943 samples = 17993.1 CDDA sectors
File Size : 9.76M
Bit Rate : 325k
Sample Encoding: MPEG audio (layer I, II or III)
Comments :
Title=Hollow
Artist=For The Fallen Dreams
Album=Wasted Youth
Tracknumber=1
Year=2012
Genre=Hardcore / Melodic Metalcore

[/more]

Register
(3) caro, Ostinato, warrior69,
Dec 12 2012, 15:14:52 Parasite - Punk Metal Massacre (2011)


*Artist: Parasite
*Album: Punk Metal Massacre
*Year: 2011
*Genre: Heavy Metal/Hardcore Punk
*Country: Japan
*Format: mp3@VBR225kbps
*Size: 39MB

Tracklist:
1. Sabbatical Collapse 02:34
2. War Crime 05:44
3. Domestic Animal 03:36
4. Bloody Cross 04:24
5. Phantom 02:29
6. Gate of Destruction 04:47
******************************
Total playing time: 23:34

Register
(7) artscald, Lanceatum, marilin, MEmethuselah, Sickrites, varlam4, wreak,
Nov 22 2012, 21:49:41 Shitfucker - Sexual Maniac [ep] (2011)


*Artist: Shitfucker
*Album: Sexual Maniac [ep]
*Year: 2011
*Genre: Black/Thrash Metal
*Country: United States
*Format: mp3@VBR288kbps
*Size: 26MB

Tracklist:
1. Suck On Me 02:21
2. Nuclear Frost 01:49
3. Sexual Maniac 01:46
4. I Am Dagon 02:19
5. Obsessed Possessed 03:19
******************************
Total playing time: 11:34

[more=Extended info]HD обложка внутри.[/more]

Register
(13) cesar, ENDSMOUTH, Genuine Thrashiac, infiltrator, marilin, MEmethuselah, oldvarg, rpa, Samaritianin, satanas189, varlam4, wgs73, wreak,
Oct 30 2012, 08:25:56 Misfits - Walk Among Us (1982)


*Artist: Misfits
*Album: Walk Among Us
*Year: 1982
*Genre: Horror Punk
*Country: United States
*Format: mp3@CBR320kbps
*Size: 57MB

Tracklist:
1. 20 Eyes 1:41
2. I Turned Into a Martian 1:41
3. All Hell Breaks Loose 1:47
4. Vampira 1:26
5. Nike-A-Go-Go 2:16
6. Hatebreeders 3:08
7. Mommy, Can I Go Out and Kill Tonight (live) 2:01
8. Night of the Living Dead 1:57
9. Skulls 2:00
10. Violent World 1:46
11. Devil's Whorehouse 1:45
12. Astro Zombies 2:14
13. Braineaters 0:56
******************************
Total playing time: 24:38

[more=Extended info]HD обложка внутри.


Input File: 01 - 20 Eyes.mp3
Channels : 2
Sample Rate : 44100
Precision : 16-bit
Duration : 00:01:47.77 = 4752569 samples = 8082.6 CDDA sectors
File Size : 4.48M
Bit Rate : 332k
Sample Encoding: MPEG audio (layer I, II or III)
Comments :
Title=20 Eyes
Artist=The Misfits
Album=Walk Among Us
Tracknumber=01
Year=1982
Genre=Horror Punk

[/more]

Register
(4) ddarkthrone, Jurmagund, Thunderbird, ZA670,
Sep 22 2012, 09:38:43 Ease Of Disgust - Unleash The Beast [ep] (2012)


*Artist: Ease Of Disgust
*Album: Unleash The Beast [ep]
*Year: 2012
*Genre: Deathcore/Death Metal
*Country: Russian Federation
*Format: mp3@VBR319kbps
*Size: 28MB

Tracklist:
1. Unleash the Beast 03:44
2. Approaching the End 04:44
3. Save Your Mercy for the Lepers 04:16
******************************
Total playing time: 12:44

[more=Extended info]


Input File: 01 Unleash The Beast.mp3
Channels : 2
Sample Rate : 44100
Precision : 16-bit
Duration : 00:03:44.31 = 9892203 samples = 16823.5 CDDA sectors
File Size : 9.21M
Bit Rate : 328k
Sample Encoding: MPEG audio (layer I, II or III)
Comments :
Title=Unleash The Beast
Artist=Ease of Disgust
Album=Unleash the beast EP
Tracknumber=1/3
Year=2012
Genre=22

[/more]
Register
(4) An225, Elfrey, shadow666, varlam4,
Sep 9 2012, 20:27:56 Reclusa - The Anticonscience (2011)


*Artist: Reclusa
*Album: The Anticonscience
*Year: 2011
*Genre: Black/Noise/Industrial Death/Doom Metal
*Country: United States
*Format: mp3@CBR128kbps
*Size: 70MB

Tracklist:
1. -98.6F 08:29
2. Frozen Embrace 06:28
3. Systematic Abandonment 05:15
4. Snowcrashed Glare 03:25
5. In the Shadow of Jade 07:12
6. Solitary Definement 06:56
7. The Cursed Gift 04:26
8. Hermit Shell Hollow 06:28
9. The Voice of Sadus 10:36
10. The Black Whirlpool 03:43
11. Chernobyl Winter 08:56
12. The Anticonscience 05:50
******************************
Total playing time: 1:17:44

Register
(3) General, Stringer, varlam4,
Jun 5 2012, 22:29:40 Deathcore
вот так название!
(1) onanass,
Apr 27 2012, 12:44:20 Misfits - Famous Monsters (1999)


*Artist: Misfits
*Album: Famous Monsters
*Year: 1999
*Genre: Horror Punk
*Country: United States
*Format: mp3@CBR192kbps
*Size: 71MB

Tracklist:
1. Kong at the Gates 1:22
2. The Forbidden Zone 2:23
3. Lost in Space 2:27
4. Dust to Dust 2:43
5. Crawling Eye 2:22
6. Witch Hunt 1:31
7. Scream! 2:33
8. Saturday Night 3:28
9. Pumpkin Head 2:16
10. Scarecrow Man 3:10
11. Die Monster Die 2:00
12. Living Hell 2:54
13. Descending Angel 3:46
14. Them 2:43
15. Fiend Club 2:52
16. Hunting Humans 2:06
17. Helena 3:20
18. Kong Unleashed 0:47
19. Devil Doll 2:23
20. 1,000,000 Years B.C. 3:12
21. Helena 2 3:18
******************************
Total playing time: 53:36

[more=Extended info]3 последних трэка - бонусные.[/more]
Register
(1) satanath,
Jul 26 2011, 17:28:31 Defective - Defective [demo] (2010)


*Artist: Defective
*Album: Defective [demo]
*Year: 2010
*Genre: Death Metal
*Country: Germany
*Format: mp3@CBR128kbps
*Size: 24MB

Tracklist:
1. Slow death 04:37
2. Kill or be killed (instrumental - demo) 04:06
3. The abyys within (instrumental - demo) 05:01
4. Obliteration 03:48
5. Fucking undead 04:46
6. D.O.A. 04:41
******************************
Total playing time: 26:59

Register
(3) andreikun, Vombat, zhol,
Jan 4 2011, 10:50:23 Consume The Fetus - Consume The Fetus [demo] (2010)
ЦИТАТА(Moonshtook @ Jan 3 2011, 21:36:05) *
Облога, как будто начало 90-х! Интересно, что по содержанию?

Кстати да, облога реальн как из начала 90-х. Мне напомнил Девоурмент почему-то но одно отличие точно есть - там живые барабаны а тут драм-машина. А так это хороший слэмминг брутал дэс метал, тока я не стал писать так в заголовке потому что вроде как не все признают что существует такой подстиль.
(1) Elfrey,
Jan 3 2011, 15:03:23 Consume The Fetus - Consume The Fetus [demo] (2010)


*Artist: Consume The Fetus
*Album: Consume The Fetus [demo]
*Year: 2010
*Genre: Brutal Death Metal
*Country: United States
*Format: mp3@CBR320kbps
*Size: 40MB

Tracklist:
1. Septic Tank Mortuary 01:39
2. Defiling Cranial Cavities (ft. Mike O'Hara) 02:12
3. Cerebral Ejaculation 03:21
4. Habitual Coprophagia (feat Sir StripsAlot) 01:42
5. Post-Mortem Quandary 01:58
6. Defleshed And Used For Upholestry 02:01
7. Regurgitation of Mutilated Infants 02:27
8. CxTxFx Sample Song 00:54
******************************
Total playing time: 16:14

Register
(8) Elfrey, garretje, Golfzilla, logunarm, maochen, MeathookSeed, Moonshtook, StabWound,
Dec 20 2010, 10:29:45 Purulent Jacuzzi - Vanished In The Cosmic Futility (2010)
Не советую кому-либо покупать диск, вся партия порченная, первые 3 трэка идут как 3 последних. Достаточно подовольствоваться сканами. Ну а сам альбом отличный, очень даже мне доставил...
(1) satanath,
Sep 16 2010, 15:59:28 Cemetery Rapist - Your Daughters Twat Filled With My Cock (2007) (1) zuskr,
Aug 3 2010, 13:57:29 Fetus Feast - Demo [demo] (2010)


*Artist: Fetus Feast
*Album: Demo [demo]
*Year: 2010
*Genre: Brutal Death Metal
*Country: Canada
*Format: mp3@CBR320kbps
*Size: 14MB

Tracklist:
1.Seminal embalming fluid 3:50
2.Augerbit abortion 2:42
******************************
Total playing time: 6:32

Register
(1) beast666,
Aug 3 2010, 12:51:10 The Macabre - Sermon To The Lambs [ep] (2010)


*Artist: The Macabre
*Album: Sermon To The Lambs [ep]
*Year: 2010
*Genre: Brutal Death Metal
*Country: Chile
*Format: mp3@VBR272kbps
*Size: 17MB

Tracklist:
1. Crowned King of the Worms
2. Jesus Died
3. Sermon to the Lambs
******************************
Total playing time: 9:53

Register
(6) -=Lion=-, beast666, Golfzilla, MeathookSeed, StabWound, Vincent,
Dec 17 2009, 20:20:52 Deströyer 666 - Phoenix Rising (2000)
Очень метальный альбом, ащще башкотряс, но в то же время есть и шикарные моменты другого рода.
(1) vosmidesijatye,
Jun 25 2009, 06:45:20 diSEMBOWELMENT - Transcendence Into The Peripheral (1993)
Спасибо огромное!
(1) vosmidesijatye,

2 Pages V   1 2 >
- Lo-Fi Version Support form
Copyrights and abuse reports form
Time is now: 16th July 2020 - 18:35:01