Welcome Guest ( Log In | Register )

История благодарностей участнику Alexis The Best ::: Спасибо сказали: 1423 раз(а)
Дата поста: В теме: За сообщение: Спасибо сказали:
Aug 9 2019, 10:37:49 Mercyful Fate - Melissa (1983)
ЦИТАТА(verner @ 8th August 2019 - 22:45:03) *
Дабы не создавать новую тему, но все же....Неужто реюнион-3?

смотреть в самый центр афиши

уже было на портале:
Новости Heavy/Power металла [post #2370013]
Новости Heavy/Power металла [post #2370699]
(1) verner,
Aug 6 2019, 07:00:13 Нужно добавить разрешённых обменников
ЦИТАТА(6666666 @ 6th August 2019 - 00:10:22) *
Эсет. Просто так он не ругается.

1488.gif

он тупо всё убивает
(1) Krosis,
Jul 3 2019, 10:35:20 Óreiða - Óreiða (2019)
ЦИТАТА(Hey_You @ 2nd July 2019 - 21:51:43) *
По сабжу - неплохой инструментальный тягучий и мелодичный атмосферик без изысков

а ничего, что это как бы "РО Блэк"? а никакой не "мелодичный атмосферик"!
(1) andeimon,
Jul 2 2019, 13:10:47 Лучший Speed Metal
ЦИТАТА(clublen @ 2nd July 2019 - 15:07:19) *
И главное, они все слушали блэк-трэш-металл и болели СПИДом, и так появился СПИД-метал, в основе которого был блэк и трэш.

это надо у адептуса спросить, он в этом большой знаток 15.gif
(1) vosmidesijatye,
Jun 27 2019, 06:10:36 Лучший Speed Metal
ЦИТАТА(Tarelka @ 26th June 2019 - 23:52:25) *
Не вполне, а speed metal и есть. Здесь ваще смотрю в жанрах народ не шарит, да и в музыке в целом тоже.

ага, ещё скажи, что Venom - это чистый спид-метал crazy.gif
или как 80-й, всё быстрое отнеси к спиду: Моторхёд, Бульдозер, Веном...
(2) infiltrator, vosmidesijatye,
Jun 26 2019, 10:15:36 Szivilizs - Ds Tagtroumschtärbä [demo] (2019)
блин, это ж товарищ из The True Incest: срочно качаю!
(1) Bekkerev,
Jun 26 2019, 09:10:10 Лучшие Black Metal релизы 2019
vosmidesijatye, а что на русском уже не получается писать комменты? 1488.gif
(1) Ghostb,
Jun 26 2019, 08:27:43 Чёрный Обелиск - Еще Один День (1992)
ЦИТАТА(vosmidesijatye @ 26th June 2019 - 02:39:34) *
Отличный рок шпарила группа.
Сегодняшняя шляпа ничего общего не имеет с тем, что было при Крупнове.

9.gif 9.gif 9.gif
(1) vosmidesijatye,
Jun 26 2019, 08:19:28 Ritchie Blackmore’s Rainbow - Memories In Rock – Live In Germany (Japanese Edition) [live] (2016)


*Artist: Ritchie Blackmore's Rainbow
*Album: Memories In Rock – Live In Germany (Japanese Edition) [live]
*Year: 2016
*Genre: Hard Rock/Heavy Metal
*Country: United Kingdom
*Format: mp3@CBR192kbps
*Size: 226MB

Tracklist:
CD 1:
1 Highway Star 7:11
2 Spotlight Kid 5:58
3 Mistreated 9:27
4 16th Century Greensleeves 7:15
5 Since You Been Gone 2:51
6 Man On The Silver Mountain 5:18
7 Catch The Rainbow 8:48
8 Difficult To Cure (Beethoven's Ninth) 12:46
9 Perfect Strangers 6:50
10 Stargazer 10:14

CD 2:
1 Long Live Rock 'N' Roll 6:50
2 Child In Time / Woman From Tokyo 11:03
3 Black Night 6:42
4 Smoke On The Water 6:59
Bonus Tracks From Alternative Night
5 Spotlight Kid 5:35
6 Man On The Silver Mountain 5:56
7 Long Live Rock 'N' Roll 8:18
8 Stargazer 9:12
Japanese Bonus Tracks
9 Since You Been Gone 3:01
10 Catch The Rainbow 8:28
******************************
Total playing time: 2:28:42

Preview 1

[more=Extended info]Recorded live in Germany on 16. & 17.06.2016

Compared to the EU release the japanese edition has two additional tracks 2-9 & 2-10
about release[/more]

[more=Technical info]
Input File: 03. Black Night.mp3
Channels : 2
Sample Rate : 44100
Precision : 16-bit
Duration : 00:06:41.00 = 17684100 samples = 30075 CDDA sectors
File Size : 9.68M
Bit Rate : 193k
Sample Encoding: MPEG audio (layer I, II or III)
Comments :
Title=Black Night
Artist=Ritchie Blackmore's Rainbow
Album=Memories In Rock: Live In Germany (CD 2)
Tracknumber=03
Year=2016
Genre=79

[/more]

Register
(8) fabriziomagno, Herrant, Ludwig Hagen, Olethros, Rosen, thenecromancer, wreak, Сварог Барг,
Jun 26 2019, 07:45:55 Ritchie Blackmore's Rainbow - Memories In Rock II [live] (2018)
ЦИТАТА(avkruchinin @ 26th June 2019 - 09:07:34) *
Чего это он, да на старости лет, забил на средневековую музыку и в Радугу ударился.

одумался )
(1) Ghostb,
Jun 26 2019, 07:42:11 Лучшие Black Metal релизы 2019 (4) Eisbar, infiltrator, judaz, TDM,
Jun 25 2019, 15:08:23 Ritchie Blackmore's Rainbow - Memories In Rock II [live] (2018)


*Artist: Ritchie Blackmore's Rainbow
*Album: Memories In Rock II [live]
*Year: 2018
*Genre: Hard Rock/Heavy Metal
*Country: United Kingdom
*Format: mp3@CBR320kbps
*Size: 291MB

Tracklist:
CD 1:
1. Over The Rainbow
2. Spotlight Kid
3. I Surrender
4. Mistreated
5. Since You've Been Gone
6. Man On The Silver Mountain/Woman From Tokyo
7. 16th Century Greensleeves
8. Soldier Of Fortune
9. Perfect Strangers
10. Difficult To Cure
11. All Night Long
12. Child In Time

CD 2:
1. Stargazer
2. Long Live Rock'n'Roll/Lazy
3. Catch The Rainbow
4. Black Night
5. Carry On Jon
6. Temple Of The King
7. Smoke On The Water
8. Waiting For A Sign
******************************
Total playing time: 3:15:07

[more=Extended info]Ritchie Blackmore's Rainbow release called "Memories in Rock II" contain a 2 CD set with the highlights of the 3 shows in London, Glasgow and Birmingham.

Official Sneak Preview
Rainbow - Memories In Rock II Promo[/more]

[more=Technical info]
Input File: 02 - Spotlight Kid (Live).mp3
Channels : 2
Sample Rate : 44100
Precision : 16-bit
Duration : 00:05:02.94 = 13359434 samples = 22720.1 CDDA sectors
File Size : 12.2M
Bit Rate : 323k
Sample Encoding: MPEG audio (layer I, II or III)
Comments :
Title=Spotlight Kid (Live)
Artist=Ritchie Blackmore's Rainbow
Album=Memories in Rock II (CD1)
Tracknumber=02
Year=2018
Discnumber=1/2

[/more]

Register
(6) fabriziomagno, Olethros, Rosen, vosmidesijatye, Wail, wreak,
Jun 25 2019, 10:45:44 Лучший Speed Metal
ЦИТАТА(Samaritianin @ 24th June 2019 - 23:54:21) *
Вот это настоящий спид метал

[youtube]8N2f1Tzdigo[/youtube]

[youtube]s1rZHJAPxEg[/youtube]

[youtube]fR3ICoAqk2M[/youtube]
(1) Emm Human,
Jun 24 2019, 08:57:20 Лучший Speed Metal
ЦИТАТА(adeptus_custodes @ 24th June 2019 - 10:37:44) *
А, адекватные пацаны

ну это к тебе, явно, не относится sirt.gif
(2) Exorcist, infiltrator,
Jun 24 2019, 06:46:07 Лучший Speed Metal
ЦИТАТА(adeptus_custodes @ 22nd June 2019 - 14:04:39) *
Как однако подгорает у любителей фальцетов про голубых эльфов на розовых драконах.

ЦИТАТА(adeptus_custodes @ 22nd June 2019 - 14:11:53) *
Хорошо павер назвал, прям правильно.

да забаньте вы этого тролля, наконец!!!

ЦИТАТА(Exorcist @ 21st June 2019 - 17:43:19) *
Безотносительно личности Alexis The Best (камень был брошен в его огород) с тезисом в целом соглашусь: эти все зашоренные олдфаги "да я слушаю Слэйер с 1976 1985 года что ты мне будешь тут рассказывать" действительно раздражают. Подавляющее большинство из них в своём музыкальном развитии где-то в 1991-м и остановились. В музыке не шарят. Особенно в вышедшей после середины 90-х. Такое впечатление, что часы для них в начале 90-х остановили.

отвечу сразу нескольким товарищам:
ну я вообще-то развиваюсь музыкально и стили разные, несвойственные моему мировосприятию, начал углублённо изучать (писал уже об этом как-то),
ПРОСТО НЕ ОЧЕНЬ ПРИЯТНО, когда какой-то новичок спокойно поливает всех грязью и рассказывает кому и что надо делать!!!

хочется просто взять и послать на йух или морду набить в конце концов
(2) infiltrator, older68,
Jun 21 2019, 14:56:54 Лучший Speed Metal
ЦИТАТА(adeptus_custodes @ 21st June 2019 - 16:49:26) *
Ну конечно, а называть спид металом писклявую комедию типа хеловина или блайнд гардиан это гениальность.

а выдавать своё "имхо" за последнюю инстанцию - это ещё более гениально?!
(3) Exorcist, infiltrator, plfan93,
Jun 21 2019, 14:42:11 Mürmurio - Demo I [demo] (2019)
vosmidesijatye, сорри: не посмотрел, что ссылки сдохли

вот тут всё живое
https://lvsitaniaempeso.blogspot.com/search?q=Murmúrio
(1) vosmidesijatye,
Jun 21 2019, 12:54:39 Bolt Thrower
ЦИТАТА(6666666 @ 21st June 2019 - 14:44:48) *
Абсолютный эскобар с сабжем.

ты реально дурак?
(2) troll_swamp, vosmidesijatye,
Jun 21 2019, 10:47:23 Лучший Speed Metal
ЦИТАТА(vosmidesijatye @ 21st June 2019 - 12:41:45) *
Я попрошу Может, местами наш Адептус и подтралливает, но в стоунере и в музыке вообще он шарит на отлично.

ну конечно, это мы все не шарим!!! crazy.gif 1488.gif 15.gif
(2) infiltrator, vosmidesijatye,
Jun 21 2019, 10:40:18 Лучший Speed Metal
ЦИТАТА(adeptus_custodes @ 21st June 2019 - 00:48:57) *
Вот веном 80ых и есть хрестоматийный спид мэтл. Грубо говоря вся первая волна блэка и есть спид мэтл. А называть немецкий паверок спид металом - колхоз.

ржу-нимагу 14.gif 15.gif
как можно так не разбираться в стилях?!
(4) clublen, Eisbar, Exorcist, infiltrator,
Jun 21 2019, 06:35:29 Bolt Thrower
ЦИТАТА(vosmidesijatye @ 21st June 2019 - 02:48:56) *
квинтэссенция всего того, что должно быть в дэте и чем он является в сферическом воплощении.

Benediction 1993 "Transcend The Rubicon"
(1) troll_swamp,
Jun 19 2019, 10:31:11 Funeral Winds & Inferi - Funeral Winds/Inferi [split] (2003)
2 part of split here:
Inferi - Inferi [ep] (1995)
(2) kimkayoung, thenecromancer,
Jun 18 2019, 09:31:00 Judas Priest - Firepower Tour - Live At Mohegan Sun Arena, Uncasville, Ct, 16. 05. 2019 [bootleg] (2019)
ЦИТАТА(vosmidesijatye @ 18th June 2019 - 10:12:58) *
Непривычно было не узреть в сет листе Painkiller

а Турбо?
ещё и с моей любимой песней Out In The Cold pray.gif
(1) kim666,
Jun 14 2019, 05:44:59 Альбом 2009 года в жанре technical / progressive death. Тур1
Ну я за этот период мало слушал, поэтому как-то так:

Pestilence - Resurrection Macabre +2
Suffocation - Blood Oath +2
(1) Язва,
Jun 9 2019, 19:44:21 Darkness Enshroud - Maleficium - The Psalms Of Diabolus (2019)
ЦИТАТА(RUSP73 @ 9th June 2019 - 18:41:28) *
При разархивации выдает ошибку контрольной суммы...восстановление архива не помогает - скачивал 3 раза(

заархивировал и залил заново - видно комп засбоил при архивировании
Register

проверил - всё скачивается и разархивируется
(7) Anhra Mainyu, dromord, kim666, Mist13Signifier, RUSP73, sethurius, thenecromancer,

28 Pages V   1 2 3 > » 
- Lo-Fi Version Support form
Copyrights and abuse reports form
Time is now: 23rd August 2019 - 10:05:08