Welcome Guest ( Log In | Register )

История благодарностей участнику Bloodn Lord ::: Спасибо сказали: 4245 раз(а)
Дата поста: В теме: За сообщение: Спасибо сказали:
May 16 2019, 15:54:42 October Tide - In Splendor Below (2019)
ЦИТАТА(vosmidesijatye @ 16th May 2019 - 17:51:45) *
но проверенный временем стиль раздают по царски.

+100500
Впрочем, это прям рецензия на альбомsmile3.gif
От них другого я не жду...
(2) infiltrator, vosmidesijatye,
Apr 16 2019, 09:30:32 До Скону - Black Asceticism (2019)
ЦИТАТА(Old Vyaine @ 15th April 2019 - 22:37:47) *
Я вырубил после первого smile1.gif очень скучно.

ВОКАЛ - полный пиз***ц!
Как так??? Запоганить вполне нормальную мелодичненькую готик-блек-рок музыку...
(2) Infidel, infiltrator,
Jan 10 2019, 13:03:33 Якорь - Я Не Вернусь (2019)
ЦИТАТА(Lord_Djaspam @ 4th January 2019 - 12:54:28) *
тут без слез смотреть и слушать невозможно

Рома другим берет))))) Харизмой и своими веселыми пьяненькими историями)))) За это мы и любим его 15.gif
(1) Lord_Djaspam,
Dec 20 2018, 16:19:23 Phlebotomized - Deformation Of Humanity (2019)
ЦИТАТА(aesteticvice @ 20th December 2018 - 14:09:29) *
Phlebotomized return to their roots and finally deliver a follow-up to “Immense Intense Suspense” 25 years later!

ЁППППППППППППППППППППППП

Ахренеть...
Я в шоке... пипец

Скайконтакт - один из лучших альбомов евер!!!
(1) quicksand,
Nov 20 2018, 15:22:32 Comatose Vigil A.K - Comatose Vigil [single] (2018)
ЦИТАТА(aesteticvice @ 19th November 2018 - 18:32:10) *
это второй трэк с будущего альбома, а так-то вокалист разосрался с гитаристом у которого все права, в итоге остался вокалист, чел который писал раньше свалил с другими музыкантами и забрал название вместе с музыкой, теперь A.K

Олег, не с гитаристом, а с клавишником. Зигромsmile3.gif
В группе остался Андрюха Врагомор, который, в общем-то лицом команды всегда и былsmile3.gif Даже в момент, когда Андрей из группы уходил и на его место брали другого вокалиста - Коматозы смотрелись ужаснейше. Потому он всегда возвращался))

В общем ура! smile1.gif Молодец, что не бросил детище.
Кстати, Андрей ещё участвует во многих проектах (не только вокалистом, но и ударником). К примеру: Mare Infinium, Maze Of Feelings (совместный проект с чехами или поляками, не помню точно), Abstract Spirit.
(1) Branis,
Oct 22 2018, 12:20:46 Amaranthe - Helix (2018)
ЦИТАТА(MeatWolf @ 18th October 2018 - 18:31:14) *
Короче, альбом не провал, но из всей их дискографии точно худший. Так-то дебютная Цыхра даже лучше, и ставлю на то, что вторая вообще отправит это в нокаут.

Для меня худший пока что прошлыйsmile3.gif А это действительно, веселенький релизец. С балладкой Dream. Вполне так. Потяжелее предыдущего опуса.
Но до Massive Addiction далековасто.
Да и, если честно, пока не очень понятно куда надо музыкантам развиваться, чтобы было действительно и весело, и интересно, и вкусно. Пусть штампуют альбомы. Для джазов, математики и др. есть свои коллективы.
(1) MeatWolf,
Aug 30 2018, 15:49:38 Omnium Gatherum - The Burning Cold (2018)
С удовольствием послушаю smile1.gif
Но откровений не жду уже с прошлого релиза.
После гениальных New World Shadows и Beyond вряд ли можно сделать что-то лучшеsmile3.gif Надо с этим смириться и принять.
Так что буду ценить "ничего-не-ожидая".
(4) Ghostb, infiltrator, MeatWolf, quicksand,
May 3 2018, 13:37:35 Dimmu Borgir - Eonian (2018)
Я посмотрю все умники тут, конечно, такие... 15.gif 15.gif 15.gif

PS: у Димок были альбомы чуть слабее, менее хитовые..., однако - никогда не было "плохой" музыкиsmile3.gif Шаграт умеет (умел и будет уметь) делать правильное музло. И да, именно Димки стали максимально коммерчески успешной блек-околоблек-формацией - и это колоссальное достижение. Плюс стоит, наверное, понять и принять, что лучше, чем Enthrone Darkness Triumphant или же Puritanical Euphoric Misanthropia не будет никогда. Так что слушаем и получаем удовольствие smile1.gif Чем я и планирую заняться 8.gif
(9) Andrew, Exorcist, Golodomor, infiltrator, maxmagmas, ripper33, tranquillit, verner, Xutun,
Dec 11 2017, 17:14:56 Breakdowns At Tiffany's - Gravity (2017)


*Artist: Breakdowns At Tiffany's
*Album: Gravity
*Year: 2017
*Genre: Metalcore
*Country: Germany
*Format: mp3@CBR320kbps
*Size: 80MB

Tracklist:
01. Gravity 2:20
02. Heart Of Darkness 2:39
03. Constellations 3:15
04. Square Shaped Circle 3:31
05. Prismatic 3:44
06. False Perceptions 3:58
07. No Spit 3:54
08. Ghost 3:23
09. Smother 3:01
10. Cleansing 4:10
******************************
Total playing time: 33:55




metaler.gif ВСЕМ РОК!
[more=Extended info]Чёткий и достаточно вкусный релиз выдали немцы. Этот альбом лично для меня был одним из самых ожидаемых в этом году, но, к сожалению, шедевром не сталsmile3.gif Просто хорошая музыка... Отмечу огненные и красивые Constellations и No Spit. #всемрок от #радиовасилий

PS: прошлый их cd запал мне гораздо больше -Breakdowns At Tiffany's - Constants (2014)[/more]

[more=Technical info]
Input File: 08. Ghost.mp3
Channels : 2
Sample Rate : 48000
Precision : 16-bit
Duration : 00:03:23.79 = 9781776 samples ~ 15284 CDDA sectors
File Size : 8.40M
Bit Rate : 330k
Sample Encoding: MPEG audio (layer I, II or III)
Comments :
Title=Ghost
Artist=Breakdowns At Tiffany's
Album=Gravity
Tracknumber=8/10
Year=2017
Genre=9
Discnumber=1

[/more]

Register
(4) DenisKov, Ostinato, Rosen, varlam4,
Sep 4 2017, 16:58:32 Die Apokalyptischen Reiter - Der Rote Reiter (2017)
ЦИТАТА(Nattfodd @ 28th August 2017 - 15:22:42) *
После провальных и скучных альбомов, что группа клепала последние лет 10, сабж - как бальзам на душу.
Вокал и пафосные припевы на некоторых песнях напоминают Эквилибриум, и это им большой плюс. Конечно, хотелось сюда бешенной бошкотряски в духе Reiders on the Storm, но и за этот альбом спасибо, достойно!

Да, да и ещё раз да! smile3.gif
Очень крепкий альбом выдали немцы. Я прям безумно порадовался. smile1.gif Всё начинается с нереально зажигательной "Wir sind zuruck, zuruck!", от которой реально заряжаешься тем былым немецким огоньком 10-и летней (а то и больше) давности. Быстрая, с фирменным Райтеровским немного грязноватым звуком, с супер вокалом и достаточно клевой немецкой лирикой. Дааа, это те самые Всадники, которых мы все знаем и любим. Напомнило что-то из Samurai и даже с Have A Nice Trip. Кроме боевиков нас ждут и крутые тяжёлые баллады типа Hort Mich An. Круто. Это реально альбом, которые уделывает три последних просто напрочь smile3.gif

Ура! #всемрок
(1) Nattfodd,
Sep 1 2017, 12:35:08 Akercocke - Renaissance In Extremis (2017)
Совершенно не понимаю восторгов на счёт альбома. Впечатление, что какие-то стариканы, не зная "а что же им играть", записали просто набор каких-то типа прог. металл звуков, разбавив всё ужасающим чистым вокалом и временами интересными акустическими гитарами (а это единственно, что понравилось на альбоме). В итоге получился недопрог, недодэт, недометалл, недоальбом. Всё имхо, конечно же. Блековые бластбиты вообще не в кассу. Звучит это откровенно смешно. 1488.gif 16.gif
Тут говорят, что альбом крайне эстетичный и неглупый. Ну, ребят, хз... Чем? Просто к примеру: Animals As Leaders фигачат умные и сложные альбомы. С действительно концептуальной музыкой, техникой, подачей, атмосферой. Что есть здесь? Общая канва какая-то? Я не понял, сорри. Плюс мне показалось, что музыка какая-то вымученная. Неискренне как-то. Не по-настоящему всё...

PS: всё вышесказанное это моё личное мнение и точка)

ЦИТАТА(hammer @ 27th August 2017 - 20:49:42) *
Меня хватило на 1,5 песни.Не слушал их ранее , какой хрен меня дернул?...................

Меня кстати хватило аж на 6 треков)

ЦИТАТА(Old Vyaine @ 26th August 2017 - 23:55:27) *
Показалось, что чистый вокал — единственное, что хоть как-то оправдывает существование сего альбома.

Для меня это только гроул в некоторых темах. и всё. К примеру в Disappear.
(2) Faust_Vulkan_16, Old Vyaine,
Aug 31 2017, 14:03:49 Septicflesh - Codex Omega (2017)
Ну наконец-то! Одна из моих любимейших групп! smile3.gif
Ну прямо-таки ооочень ждал. Послушаю, отпишусь smile1.gif
(3) BleedingSun, Faust_Vulkan_16, infiltrator,
Aug 29 2017, 13:38:46 Shaping The Legacy - Colors Of Infinity (2017)
ЦИТАТА(vosmidesijatye @ 29th August 2017 - 15:27:17) *
Узнаю старого доброго Васяна с его металкором

здрасьте)
(1) vosmidesijatye,
Aug 29 2017, 09:01:26 Nemesis Alpha - Nemesis Alpha (2017)


*Artist: Nemesis Alpha
*Album: Nemesis Alpha
*Year: 2017
*Genre: Melodic Death Metal
*Country: United States
*Format: mp3@CBR320kbps
*Size: 137MB

Tracklist:
01. The Alpha Arises 04:01
02. Shattered 05:09
03. The Monster In Me 04:42
04. Shadow World 04:03
05. Obscurity 03:58
06. The End Of The Masquerade 05:25
07. Under Siege 03:02
08. A Step Away 04:29
09. Insanity 03:35
10. The Haunting 05:03
11. The Endless Maze 03:49
12. A Sinner In Your Shoes 03:01
13. Ordinary 04:02
14. The Last Collapse 04:34
******************************
Total playing time: 58:53



metaler.gif Любителям Бьёрна Стрида посвящается!
[more=Extended info]Сразу о вкусном: на вокале тут небезызвестный и мною любимый Bjorn "Speed" Strid (Soilwork)! И скрим-гроул, и чистый как всегда на высоте. smile3.gif А сам альбом - это осовремененные вариации на тему Soilwork. Конечно, до гениальности шведов этим ребятам как до луны, однако доставить приятное времяпровождение, слушая "как-бы-самих-сойлворков", этот кругляш может! Так что велкомsmile3.gif[/more]

[more=Technical info]
Input File: 01 - The Alpha Arises.mp3
Channels : 2
Sample Rate : 44100
Precision : 16-bit
Duration : 00:04:01.18 = 10635906 samples = 18088.3 CDDA sectors
File Size : 9.81M
Bit Rate : 325k
Sample Encoding: MPEG audio (layer I, II or III)
Comments :
Title=The Alpha Arises
Artist=Nemesis Alpha
Album=Nemesis Alpha
Tracknumber=1/14
Year=2017
Genre=Death Metal

[/more]

Register
(16) 0x13, Andrew, Buregon, DenisKov, gwynnbleid, Metalass, Mplast, realexxx75, Rosen, Rover, SymbyoticEntity, valafar, VALERY, varlam4, vir2al, wreak,
Aug 28 2017, 13:27:02 Die Apokalyptischen Reiter - Der Rote Reiter (2017)
О как!!!
Люблю ооочень немцев до Samurai включительно. Последующие альбомы меня почему-то не трогают... да и как-то прошли мимо что ли...
Надеюсь, что в этом релизе безбашенные чуваки исправятся и выдадут продукт помощнее последних работ smile3.gif
Судя по вашим комментам - так и есть, ура!))

ЦИТАТА(Nattfodd @ 28th August 2017 - 15:22:42) *
После провальных и скучных альбомов, что группа клепала последние лет 10, сабж - как бальзам на душу.
Вокал и пафосные припевы на некоторых песнях напоминают Эквилибриум, и это им большой плюс. Конечно, хотелось сюда бешенной бошкотряски в духе Reiders on the Storm, но и за этот альбом спасибо, достойно!

+100500
(1) fateefffddd,
Aug 28 2017, 12:01:44 Shaping The Legacy - Colors Of Infinity (2017)


*Artist: Shaping The Legacy
*Album: Colors Of Infinity
*Year: 2017
*Genre: Metalcore
*Country: United States
*Format: mp3@CBR320kbps
*Size: 97MB

Tracklist:
01. Intro 0:48
02. Solace 3:21
03. Colors of Infinity 3:34
04. Coexistence 3:06
05. A Future Divided 3:55
06. Mosaic 5:06
07. Ethereal 5:15
08. The New Machine 3:12
09. Flourish 3:35
10. Endeavors 3:43
11. Disconnect 4:24
******************************
Total playing time: 39:59



pray.gif pray.gif pray.gif О да!
[more=Extended info]Однозначно, что войдёт для меня в топ альбомов 2017-ого! smile3.gif Жирнючий металкор (с нотками мдм и пост-хаки) с обалденной лид-гитарой и наикласснейшим гроулом. Мне напомнило симбиоз Breakdowns At Tiffany's и August Burns Red. Достаточно самобытный альбом от пока ещё неиспорченных ребят. smile1.gif Я очень надеюсь, что этот дебютник покажет "некоторым другим группам" как надо фигачить правильное core музло...[/more]

[more=Technical info]
Input File: 02. Solace.mp3
Channels : 2
Sample Rate : 44100
Precision : 16-bit
Duration : 00:03:21.50 = 8886326 samples = 15112.8 CDDA sectors
File Size : 8.47M
Bit Rate : 336k
Sample Encoding: MPEG audio (layer I, II or III)
Comments :
Title=Solace
Artist=Shaping the Legacy
Album=Colors of Infinity
Tracknumber=2/11
Year=2017
Genre=Метал
Discnumber=1/1

[/more]

Register
(4) DenisKov, infozahist, MeatWolf, Rosen,
Aug 17 2017, 14:32:24 Evoken - Promo 2002 [demo] (2002)
ЦИТАТА(6666666 @ 17th August 2017 - 13:38:31) *
Хорошо жить не запретишь.

Ещё бы) конечно, не запретишьsmile3.gif
Работай, Макс, работай smile3.gif Или ты думаешь, что всё само построится вокруг? 15.gif
(2) Faust_Vulkan_16, vosmidesijatye,
Aug 17 2017, 10:10:42 Senmuth - Пастбище Призрачных Туров (2017)
ЦИТАТА(Senmuth @ 16th August 2017 - 16:04:55) *
Приятно слышать, ибо моя музыка как раз и ориентирована на некоторое путешествие во времени, истории и экзотическим местам. Так как мне всё это нравится, я и воплощаю в музыке, где-то компенсируя отсутствие многого, а где-то по горячим следам.

Привет Сэнмут smile1.gif
Да, респект тебе за творчество) я все 237 альбомов не слушал, даже половину не слушал, но однозначно, что ты большой молодец smile3.gif
Скачаю, заценю.
PS: вокал тут есть?
(1) Senmuth,
Jul 24 2017, 11:48:49 Wintersun - The Forest Seasons (2017)
А вы знаете, друзья, я получил огромное удовольствие после нескольких прослушиваний альбома! smile3.gif
Получился настоящий и неподдельный финский мдм/мелоблек духа Norther двухтысячных. Я скучал по такой музыке, честно. А может просто-напросто давненько не ставил в плейер что-либо подобное.
В любом случае этот альбом надо слушать. Особенно в 2017-ом. Грамотные перетекания времён года доставляютsmile3.gif От Осени я вообще выпал в осадок. Это прямо-таки как бальзам на душу - мощный и атмосферный блек, который ураганом проносит тебя по холодному лесу. И плавно перетекает в обжигающую Зиму, где найдётся место и холоду, и замершим воспоминаниям.
Не будут пока ставить оценку, но Яри с компанией большие молодцы, что не поддались современным музыкальным веяниям и выпустили крепкий монолитный кругляш, который будут слушать как старички, так и новое тяж. поколение.
pray.gif metaler.gif #всемрок от #радиовасилий
(2) dragonhead, MeatWolf,
Jun 15 2017, 14:27:30 Wastes - Into The Void Of Human Vacuity (2017)
По прослушке похоже это именно ТО, по чему я скучал.
(2) Faust_Vulkan_16, infiltrator,
Feb 7 2017, 10:40:41 Mors Principium Est - Embers Of A Dying World (2017)
ЦИТАТА(White_eagle @ 7th February 2017 - 12:27:46) *
Конечно же, последние две работы не дотягивают до того уровня.

Именно так.
И это мягко сказано.
(1) BleedingSun,
Feb 6 2017, 13:04:13 Omnium Gatherum - New World Shadows (2011)
ЦИТАТА(6666666 @ 6th February 2017 - 14:50:14) *
И это лучший альбом группы.

Да smile1.gif Соглашусь.
(1) BleedingSun,
Feb 6 2017, 10:50:49 Mors Principium Est - Embers Of A Dying World (2017)
ЦИТАТА(BleedingSun @ 4th February 2017 - 11:55:08) *
Типичный альбом типичных "Морсов", действительно, без "искры".

Эта типичность с каждым разом становится всё более "типичной", сорри за каламбурsmile3.gif Я бы даже занёс этот альбом в разочарования года (а может и никуда не занесу, пофигу). Но нахрена такое выпускать-то? Для галочки?
С удовольствием поставил Unborn.
Мне кажется, что ребятам никогда не приблизиться к тому шедевру.
(1) MeatWolf,
Feb 3 2017, 16:20:12 Mors Principium Est - Embers Of A Dying World (2017)
На мой скромный взгляд - один из скучнейших альбомов Морсов. Послушал и сразу же забыл. Ни одного боевика же, друзья. Как так? Альбом записан в минорных тонах, и дело в том, что я ловил себя на мысле - а где же хоть что-то похожее на Pure, или же The Harmony Remains... До Unborn этому CD как до луны. Конечно, я попробую ещё пару-тройку раз вкусить данное творение, но, как показывает практика, первые впечатления не обманывают. Особенно в мдм-е. smile3.gif Соглашусь, пропала агрессия и напор. Исчезла искренность.
Скорее всего, кругляш может понравится тем, для кого фоновый минорный мелодэт нужен просто для "послушать-хоть-что-нибудь-нормальное-в-стиле". Но, сорри, мимо меня.
Пока понравилась только обложка. Как-то так.
(1) MeatWolf,
Feb 3 2017, 16:08:33 Kreator - Gods Of Violence (2017)
Вот всё бы хорошо... Но НИКОГДА не любил вокал Милле. Он меня просто раздражает, блин. И от Креатора для меня остались только логотип и обложки сидюков...
Я один такой? 1488.gif 21.gif 13.gif
(1) DarkHorde,

55 Pages V   1 2 3 > » 
- Lo-Fi Version Support form
Copyrights and abuse reports form
Time is now: 26th June 2019 - 06:43:29