Welcome Guest ( Log In | Register )

История благодарностей участнику Steinnorik ::: Спасибо сказали: 125 раз(а)
Дата поста: В теме: За сообщение: Спасибо сказали:
Apr 15 2018, 18:37:12 Angel Of Nature - Still Alive (2018)


*Artist: Angel Of Nature
*Album: Still Alive
*Year: 2018
*Genre: Atmospheric Black Metal
*Country: Ukraine
*Format: mp3@VBR220kbps
*Size: 64MB

Tracklist:
01. Autumn Day
02. Leave Behind The Sorrow
03. If Sun Never Comes Up...
04. Keep My Warm
05. Still Alive
06. Spirit Of Mountain Forests
07. The End Of Seasons
******************************
Total playing time: 37:49



[more=Technical info]
Input File: 01 Autumn day.mp3
Channels : 2
Sample Rate : 44100
Precision : 16-bit
Duration : 00:06:51.82 = 18161262 samples = 30886.5 CDDA sectors
File Size : 11.8M
Bit Rate : 229k
Sample Encoding: MPEG audio (layer I, II or III)
Comments :
Title=Autumn day
Album=Still alive
Year=2018

[/more]

Register
(17) 1968_janeart, dasreichss, Emhyr var Emreis, ErikGoth, kim666, krotovich, logunarm, metaljinie, Moonshtook, Ostinato, Rosen, serach, stone88, terron, VALERY, varlam4, vasiljev_sergej,
Dec 25 2017, 15:27:02 Flageladör - Assalto Da Motosserra (2014)
О да,хорош подгон !Давно этих типков слушал!
(1) Samaritianin,
Nov 18 2017, 21:53:10 Cavalera Conspiracy - Psychosis (2017)
ЦИТАТА(aesteticvice @ Nov 18 2017, 18:47:13) *
запырить свеженькую клипачилу

Spectral War (Official Video) | Napalm Records

[youtube]NLal1s6Wv_o[/youtube]



очко,а не клип...деньги есть,а стойное не могут снять,да и запись альбома по звуку желает лучшего...
(2) fateefffddd, infiltrator,
Dec 27 2016, 17:03:22 Kres - 40 Nocy Grudnia (2016)
хорошо альбом!и звук отличный для такого жанра!
(1) Спектр,
Oct 19 2016, 10:55:20 Тінь Сонця - Буремний Край (2016)
ЦИТАТА(Aresson @ Oct 19 2016, 12:09:03) *
а как буремний переводится?


Бурный
(1) Aresson,
May 27 2016, 19:01:19 Yarast - Tunguska 1908 (2016)
толерантны ребата,нету на облоге [мат->бан]Yчего серпа и молота!материал крут!
(1) Glioma,
May 3 2016, 18:36:10 Angel Of Nature - Осенний день [single] (2016)


*Artist: Angel Of Nature
*Album: Осенний день [single]
*Year: 2016
*Genre: Doom/Black Metal
*Country: Ukraine
*Format: mp3@CBR320kbps
*Size: 25MB

Tracklist:
01. Интро
02. Осенний день (feat Herr Akros)
******************************
Total playing time: 8:06



[more=Technical info]
Input File: 01 Интро.mp3
Channels : 2
Sample Rate : 44100
Precision : 16-bit
Duration : 00:01:07.34 = 2969826 samples = 5050.72 CDDA sectors
File Size : 2.69M
Bit Rate : 320k
Sample Encoding: MPEG audio (layer I, II or III)

[/more]

Register
(7) morbidangelo, Rosen, tont, VALERY, varlam4, vasiljev_sergej, yarrsuaa,
Apr 25 2016, 10:39:04 Angel Of Ature - Осенний день [single] (2016)


*Artist: Angel Of Ature
*Album: Осенний день [single]
*Year: 2016
*Genre: Doom/Black Metal
*Country: Ukraine
*Format: mp3@CBR320kbps
*Size: 25MB

Tracklist:
1. Интро
2. Осенний День (feat Herr Akros)
******************************
Total playing time: 8:06



[more=Technical info]
Input File: 01 - Интро.mp3
Channels : 2
Sample Rate : 44100
Precision : 16-bit
Duration : 00:01:07.34 = 2969826 samples = 5050.72 CDDA sectors
File Size : 2.70M
Bit Rate : 321k
Sample Encoding: MPEG audio (layer I, II or III)
Comments :
Title=Èíòðî
Artist=Angel of nature
Album=Single
Year=2016
Genre=Doom/black

[/more]

Register
(1) Rosen,
Jul 4 2015, 10:02:21 Cradle Of Filth - Hammer Of The Witches (2015)
ЦИТАТА(tranquillit @ Jul 4 2015, 11:16:52) *
Всегда поражаюсь, почему в темах известных групп первыми появляются обс*ратели?



а они больше ничего не могут делать как обс..рать,неудачники которые в жизни ничего не добились



к корням вернулись крейдлы!!! 9.gif 9.gif 9.gif
(3) infiltrator, tranquillit, vo140182fav,
Jun 28 2015, 12:06:57 Lindemann - Skills In Pills (2015)
вот все тут какаяют на музыкантов ,что типа ..авно записали и все другое..и что,вам легче от этого стало?думаю музыкантам на вас пох и они бабло рубят себе спокойно,в любой группы есть как поклонники и антипоклонники,так что думаю лучше в теме писать о материале,чем поливать гадостью...вот поливаете,а сами добились чего?или хотите сказать Петр плохой музыкант,Тиль плохой автор текстов и певец?Не думаю
(1) Kaphiel,
Jun 20 2015, 21:40:56 Slayer - Repentless [single] (2015)
ух ты бле...!качает то как metaler.gif на днюху свою жду альбомец)))
(1) vosmidesijatye,
Jun 20 2015, 20:16:40 Fear Factory - Soul Hacker [single] (2015)
ух....вернулись к корням!башню тема сносит!ждем альбом!
(2) Anger, infiltrator,
Apr 22 2015, 21:09:31 Shining - IX – Everyone, Everything, Everywhere, Ends (2015)
ЦИТАТА(acerbus @ Apr 22 2015, 22:09:18) *
Steinnorik, это в котором трэке?



в бонусе есть
(1) acerbus,
Apr 14 2015, 20:17:30 Shining - IX – Everyone, Everything, Everywhere, Ends (2015)
ну ништяк,порадовали,звук хорошо,материал лучше предыдущего,соло партии и акучтические гитары хороши и вокал Коляна радует
(1) vosmidesijatye,
Nov 3 2014, 11:48:14 Folkstone - Oltre... l'Abisso (2014)
ну просто класс!!! headcrab.png повторно уде прослушиваю!!
(1) Blackor,
Feb 23 2014, 15:24:53 Тінь Сонця - Грім в ковальні Бога (2014)


*Artist: Тінь Сонця
*Album: Грім в ковальні Бога
*Year: 2014
*Genre: Folk Metal
*Country: Ukraine
*Format: mp3@CBR192kbps
*Size: 73MB

Tracklist:
01. Меч Арея
02. Сонцечоловік
03. Народна Війна
04. Коли на серці сумно
05. Ніколи не плач
06. Зброї
07. Вітряк
08. Косарі
09. Дикі гуси
10. Додому
11. Меч Арея (Instrumental)
******************************
Total playing time: 50:59



 ! 

Пожалуйста, в следующий раз слово "metalarea" добавляйте в название архива, а не в его описание.
 

Register
(12) Battaleon, fabriziomagno, Fatalv, nekrokilldozer, neoatheist, Phlebotomized, satanas, stone88, tont, varlam4, voldemar13, Vombat,
Dec 31 2013, 13:01:19 Amen - Alpha & Omega (2013)
о,так эти ребята что выпустили альбом репент?!юху!качаю!
(1) GoatFucker,
Dec 28 2013, 17:08:34 Свентояр - Еднiсть (2013)
Респект! metaler.gif Дуже чудово!А взагалі наші словянські дівчата найгарніші!!! pray.gif 19.gif
(1) Samaritianin,
Dec 24 2013, 13:45:42 Біла Вежа - Біла Вежа (2013)
ну не знаю,мне с первым вокалистом было лучше!этот тоже хорошо поет,но все же,не то
(1) Orkkh,
Oct 2 2013, 19:40:34 Soulfly - Savages (2013)


Soulfly IX - Опять приятнейшая неожиданность! Удивительно нежная, проникновенно-красивейшая, эта композиция заслуживает только самых сильных эптетов и наивысших степеней. Обычно я крайне спокойно относился к Соулфлаям, считая их не больше, чем просто ритуальным эдд-он`ом к каждому релизу, но тут...Грация и воздушность показывают, что РАНО еще списывать Макса со счетов и он может еще всем так надрать задницу не в тяжелятине, так в медляках.

ну в сочинении музыки больше роль у Риззо)
а так я тоже уважаю Макса!!!
(1) vosmidesijatye,
Sep 17 2013, 18:26:27 Молот Кашкарова - Зупинись (2013)
ЦИТАТА(Rusty Knight @ Sep 17 2013, 19:46:34) *
Слишком ты спокойно принимаешь критику... Не особо верится, но все равно послушай вышеупомянутого товарища

я просто как бы аматор,все сам делаю и одному сложно,и другой критики я не ожидал,но на ошибках учаться,может новые творения порадуют кого-то)))
спасибо за рекомендацию,обязательно слухану товарища
(1) avkruchinin,
Sep 11 2013, 22:32:02 Молот Кашкарова - Зупинись (2013)


*Artist: Молот Кашкарова
*Album: Зупинись
*Year: 2013
*Genre: Thrash Metal
*Country: Ukraine
*Format: mp3@CBR320kbps
*Size: 85MB

Tracklist:
01. Дай мені волю
02. Війна
03. Ти народився вбивати
04. Врятуй
05. Зупинись
06. Знайди свій шлях
07. День страху
08. Тримай у серці
09. Буржуї
10. Безлад
******************************
Total playing time: 38:00

[more=Technical info]
Input File: 02 Війна.mp3
Channels : 2
Sample Rate : 44100
Precision : 16-bit
Duration : 00:00:10.06 = 443646 samples = 754.5 CDDA sectors
File Size : 403k
Bit Rate : 320k
Sample Encoding: MPEG audio (layer I, II or III)
Comments :
Title=Р’С–Р№РЅР°
Artist=Молот Кашкарова
Album=Р—СѓРїРёРЅРёСЃСЊ
Tracknumber=2
Year=2013
Genre=Thrash Metal

[/more]

Register
(3) avkruchinin, Samaritianin, wgs73,
Jul 3 2013, 11:25:50 Angel Of Nature - The End Of The Times (2013)


*Artist: Angel Of Nature
*Album: The End Of The Times
*Year: 2013
*Genre: Doom/Black Metal
*Country: Ukraine
*Format: mp3@CBR320kbps
*Size: 92MB

Tracklist:
01. Где Твой Светлый Ангел
02. При Холодных Свечах
03. Холодный Месяц
04. Я Один
05. Ветер Смерти
06. Конец Времени
07. Дух Зимы (Bonus)
08. Мёртвый Дождь (Bonus)
******************************
Total playing time: 46:00


Preview 2

[more=Technical info]
Input File: 03 Холодный месяц.mp3
Channels : 2
Sample Rate : 44100
Precision : 16-bit
Duration : 00:04:53.17 = 12928973 samples = 21988 CDDA sectors
File Size : 11.7M
Bit Rate : 320k
Sample Encoding: MPEG audio (layer I, II or III)
Comments :
Title=Õîëîäíûé ìåñÿö
Artist=Angel of nature
Album=The end of the times
Tracknumber=3
Year=2013
Genre=Doom/black

[/more]

Register
(12) 0x13, caro, doomTemplar, maochen, metala, serach, SilentNidhogg, tont, User123, VALERY, vasiljev_sergej, wreak,
Jun 30 2013, 13:50:49 Angel Of Nature - The End Of The Times (2013)


*Artist: Angel Of Nature
*Album: The End Of The Times
*Year: 2013
*Genre: Doom/Black Metal
*Country: Ukraine
*Format: mp3@CBR320kbps
*Size: 92MB

Tracklist:
01 Где твой светлый ангел
02 При холодных свечах
03 Холодный месяц
04 Я один
05 Ветер смерти
06 Конец времени
07 Дух зимы (bonus)
08 Мёртвый дождь (bonus)
******************************
Total playing time: 42:00

Preview 1


[more=Technical info]
Input File: Холодный месяц.mp3
Channels : 2
Sample Rate : 44100
Precision : 16-bit
Duration : 00:00:10.06 = 443646 samples = 754.5 CDDA sectors
File Size : 407k
Bit Rate : 323k
Sample Encoding: MPEG audio (layer I, II or III)
Comments :
Title=Õîëîäíûé ìåñÿö
Artist=Angel of nature
Album=The end of the times
Tracknumber=3
Year=2013
Genre=Doom/black

[/more]

Register
(5) Blackor, KVRT, tont, VALERY, varlam4,
Jun 18 2013, 14:12:11 Amon Amarth - Deceiver Of The Gods (2013)
зашибись!альбом крут!записан хорошо!!!интересный материал,но предыдущего слабше
(2) andrey010577, Emm Human,

2 Pages V   1 2 >
- Lo-Fi Version Support form
Copyrights and abuse reports form
Time is now: 23rd May 2018 - 09:43:37