Welcome Guest ( Log In | Register )

История благодарностей участнику SKuzmin ::: Спасибо сказали: 2069 раз(а)
Дата поста: В теме: За сообщение: Спасибо сказали:
Nov 30 2016, 11:07:50 Kadath & Evoke - Disturbance In My Nocturnal Domain/Evoke [split] (1997)


*Artist: Kadath & Evoke
*Album: Disturbance In My Nocturnal Domain/Evoke [split]
*Year: 1997
*Genre: Brutal Death Metal | Death Metal
*Country: Germany | United Kingdom
*Format: mp3@CBR192kbps
*Size: 14MB

Tracklist:
Kadath:
01. Disturbance In My Nocturnal Domain 5:15
Evoke:
02. As I Bleed 3:02
03. Among Mere Mortals 2:02
******************************
Total playing time: 10:19

Register
(6) Evilded, Hell_Is_Here, Lanceatum, morbidangelo, Rosen, SymbyoticEntity,
Oct 29 2016, 20:30:36 Battalion - Only The Dead Have Seen The End Of War (2014)


*Artist: Battalion
*Album: Only The Dead Have Seen The End Of War
*Year: 2014
*Genre: Death Metal
*Country: Belgium
*Format: mp3@CBR320kbps
*Size: 116MB

Tracklist:
01. Revelation 6:8 1:47
02. Sacrifice To The Nuclear Cross 3:20
03. Hellcommander Reign 3:58
04. This Cancerous Rot 6:09
05. Old, Cold Rivalries 5:05
06. Orb Of Alteration 3:14
07. Volcanic Death 4:38
08. Remembrance, In Blood 5:12
09. Another Taste Of Carrion 5:35
10. The Nucleus Vortex 5:03
11. The Final Congregation 5:02
******************************
Total playing time: 49:03

[more=Technical info]
Input File: 09 - Another Taste Of Carrion.mp3
Channels : 2
Sample Rate : 44100
Precision : 16-bit
Duration : 00:05:35.45 = 14793169 samples = 25158.5 CDDA sectors
File Size : 13.5M
Bit Rate : 322k
Sample Encoding: MPEG audio (layer I, II or III)
Comments :
Title=Another Taste Of Carrion
Artist=Battalion
Album=Only The Dead Have Seen The End Of War
Tracknumber=09
Year=2014
Genre=Death Metal

[/more]

Register
(23) andreikun, artscald, Brann, Buregon, cuimit1349, Darkthronefoad, Emhyr var Emreis, enslaver, Geluelf, Golfzilla, jollo, KVRT, MMMMM, morbidangelo, Ostinato, Rosen, samokot, Semargl2010, SS2998, SymbyoticEntity, varlam4, vov7609, wrath082,
Jun 12 2015, 15:12:08 Jungle Rot - What Horrors Await (2009)
MP3 CBR 320 Kbps Stereo + Covers, 122.83 Mb

Register
(3) Aresson, Radiosilence, Tino,
Jun 12 2015, 14:39:34 Jungle Rot - War Zone (2006)
MP3 CBR 320 Kbps Stereo, 78,6 Mb

Register
(4) cist, Lux, Radiosilence, Tino,
Jun 12 2015, 12:31:32 Jungle Rot - Slaughter The Weak (1997)
Slaughter The Weak [Reissue 2002]:

MP3 CBR 320 Kbps Stereo + Covers, 111.64 Mb:

Register
(5) Arch_enemy95, Aresson, Kazoth, muskatnuss, Radiosilence,
Jun 12 2015, 11:09:33 Jungle Rot - Skin The Living (1996)
Skin The Living [Reissue 2013]:

MP3 CBR 320 Kbps Stereo + Covers, 80.08 Mb:

Register
(3) Evilded, Лицемер, Язва,
Jun 4 2015, 20:07:45 Goregast - Desechos Humanos (2011)
MP3 CBR 320 Kbps Stereo:

Register
(3) AwaitingDawn, THROWER666, Герб,
Jun 3 2015, 22:06:31 Goregast - La Revancha (2007)
Reupload:

Register
(3) cinik999, Spunkynut, Storky,
Jan 6 2015, 04:09:12 Broken Hope - Loathing (1997)
Reupload:

Register
(4) Aresson, Chasm, KVRT, zlvd,
Jan 6 2015, 02:11:17 Broken Hope - Demo 1993 [demo] (1993)
MP3 VBR~172 Kbps Stereo:

Register
(3) Evilded, hell_armageddon, martintrue,
Jan 6 2015, 01:00:34 Broken Hope - Demo 1 [demo] (1990)
Reupload, VBR~217 Kbps:

Register
(3) Alexis The Best, Evilded, hell_armageddon,
Dec 7 2014, 16:07:23 Antarktis Utopia - Traitors (2009)
Reupload:

Register
(3) lawronchik, samokot, varlam4,
Dec 7 2014, 15:32:25 Antarktis Utopia - 030550 (2007)
Reupload:

Register
(2) samokot, varlam4,
Dec 7 2014, 14:47:18 Antarktis Utopia - Views From Above [demo] (2003)
Reupload:

Register
(1) varlam4,
Nov 22 2014, 07:43:15 Koldborn - First Enslavement (2002)
MP3 CBR 320 Kbps Stereo + Covers, 143.8 Mb

Register
(1) Язва,
Nov 11 2014, 15:34:03 Morgoth - Odium (1993)
Morgoth - Odium [Remastered 2014]

MP3 CBR 320 Kbps Stereo + Covers, 217.09 Mb

Register


Register
(9) aargh, Aresson, DowntownGsus, metalfanatic666, pfk505, VTX, Wormtongue, wrath082, Долгая-Дорога-В-Никуда,
Jul 8 2014, 20:01:48 Immortal - Infierno Mexicano [bootleg] (2010)
Reupload:

Register
(1) Pinhead666,
Jul 6 2014, 11:16:03 Immortal & Throne Of Ahaz & Crematory - Funeral Cult Rehearsals [bootleg] (2011)
Reupload:

Register
(2) rom666, Герб,
Jul 6 2014, 09:35:47 Immortal - Live At Metalcamp/Tolmin, Slovenia 21-07-07 [bootleg] (2007)
Reupload:

Register
(2) dermarsoran, infiltrator,
Jul 5 2014, 10:56:17 Immortal - Blashyrkh Kingdom [bootleg] (2006)


*Artist: Immortal
*Album: Blashyrkh Kingdom [bootleg]
*Year: 2006
*Genre: Black Metal
*Country: Norway
*Format: mp3@VBR197kbps
*Size: 80MB

Tracklist:
01. Suffocation Of The Masses 3:56
02. Enslaved In Rot 4:22
03. Left On The State 4:17
04. Diabolical Fullmoon Mysticism 0:43
05. Unholy Forces Of Evil 4:28
06. The Cold Wind Of Funeral Frost 3:41
07. The Sun No Longer Rises (Live) 1:53
08. Withstand The Fall Of Time (Live) 8:44
09. Solarfall (Live) 5:41
10. Blashyrkh (Mighty Ravendark) (Live) 4:41
11. Unholy Forces Of Evil (Live) 5:44
12. Years Of Silent Sorrow (Live) 7:32
13. Waldrock Roar (Live) 0:20
******************************
Total playing time: 56:02

[more=Extended info]Tracks 1-3: "Suffocate" Demo '91
Tracks 4-6: "Immortal" Ep '92
Tracks 7-13: Live In Waldorck Fest (Holland '99)[/more]

Register
(15) Alexis The Best, blacky66, ddarkthrone, fticek, Hell_Is_Here, morbidangelo, Reverend, Rosen, Saalingurth, spiritualdecay666, tont, Ugly13, vasiljev_sergej, wreak, Герб,
Jun 21 2014, 17:45:11 Immortal - Live Soundboard [bootleg] (2000)


*Artist: Immortal
*Album: Live Soundboard [bootleg]
*Year: 2000
*Genre: Black Metal
*Country: Norway
*Format: mp3@CBR320kbps
*Size: 91MB

Tracklist:
01. Intro 1:07
02. Withstand The Fall Of Time 8:52
03. Solarfall 6:00
04. Battles In The North 5:57
05. Years Of Silent Sorrow 8:16
06. Silent Storms In The North Abyss 3:51
07. Unholy Forces Of Evil 5:27
08. Apologies For The Venue Sucking Ass 1:14
******************************
Total playing time: 40:44

[more=Technical info]
Input File: 03 - Solarfall.mp3
Channels : 2
Sample Rate : 44100
Precision : 16-bit
Duration : 00:05:59.26 = 15843542 samples = 26944.8 CDDA sectors
File Size : 14.4M
Bit Rate : 321k
Sample Encoding: MPEG audio (layer I, II or III)
Comments :
Title=Solarfall
Artist=Immortal
Album=Live Soundboard (Bootleg)
Tracknumber=03
Year=2000
Genre=Black Metal

[/more]

Register
(14) 1968_janeart, craP_cillA, dermarsoran, fticek, Hell_Is_Here, infiltrator, morbidangelo, Pinhead666, spiritualdecay666, thenecromancer, tont, vasiljev_sergej, wreak, ZA670,
Jun 21 2014, 11:43:43 Immortal - Live In Wetlands [bootleg] (2000)


*Artist: Immortal
*Album: Live In Wetlands [bootleg]
*Year: 2000
*Genre: Black Metal
*Country: Norway
*Format: mp3@CBR192kbps
*Size: 86MB

Tracklist:
01. Withstand The Fall Of Time 9:34
02. Solarfall 5:52
03. Battles In The North 5:23
04. Unknown 0:27
05. Years Of Silent Sorrow 7:59
06. Unsilent Storms In The North Abyss 3:25
07. Tragedies Blows At Horizon 8:30
08. Unholy Forces Of Evil 5:19
09. Mountains Of Might 6:44
10. The Sun No Longer Rises 4:23
11. Blashyrk (Mighty Raven Dark) 4:49
******************************
Total playing time: 1:02:25

Register
(16) craP_cillA, fticek, goatlord, Hell_Is_Here, marsfarock, morbidangelo, Pinhead666, RENыч, Reverend, rom666, Rosen, spiritualdecay666, tont, vasiljev_sergej, wreak, Герб,
Jun 15 2014, 11:08:38 Immortal - Blizzard Beasts (1997)
MP3 CBR 320 Kbps Stereo + Covers, 101.5 Mb

Register

(7) Aresson, helvetestoner, infiltrator, juanguillermo13, Storky, WX419, Zenial,
Jun 15 2014, 10:43:00 Immortal - Battles In The North (1995)
1996 - Battles In The North (Limited Edition)

MP3 CBR 320 Kbps Stereo, 105.65 Mb
Register


Register
(3) infiltrator, metalmaniac91, soulskinner681,
Jun 14 2014, 19:32:56 Immortal - Call Of The Wintermoon [demo] (1991)


*Artist: Immortal
*Album: Call Of The Wintermoon [demo]
*Year: 1991
*Genre: Black Metal
*Country: Norway
*Format: mp3@CBR320kbps
*Size: 30MB

Tracklist:
01. Suffocate The Masses 3:57
03. Left On The Stake 4:18
02. Enslaved In Rot 4:22
******************************
Total playing time: 12:37

[more=Technical info]
Input File: 02 - Left On The Stake.mp3
Channels : 2
Sample Rate : 44100
Precision : 16-bit
Duration : 00:04:17.47 = 11354207 samples = 19309.9 CDDA sectors
File Size : 10.4M
Bit Rate : 322k
Sample Encoding: MPEG audio (layer I, II or III)
Comments :
Title=Left On The Stake
Artist=Immortal
Album=Call Of The Wintermoon (Demo)
Tracknumber=3
Year=1991
Genre=Black Metal

[/more]

Register
(9) Borderline1991, ddarkthrone, Ostinato, rom666, Rosen, satanist666, tont, vasiljev_sergej, Герб,

20 Pages V   1 2 3 > » 
- Lo-Fi Version Support form
Copyrights and abuse reports form
Time is now: 4th June 2020 - 00:04:43