Welcome Guest ( Log In | Register )

История благодарностей участнику RUDACHUR ::: Спасибо сказали: 41200 раз(а)
Дата поста: В теме: За сообщение: Спасибо сказали:
Feb 13 2020, 10:20:16 Godthrymm - Reflections (2020)
Register


[youtube]jd1Hd31NNJU[/youtube]
(10) BlackMirror, djsema4, gotherion, infiltrator, kolar666, Lux, multizwilling, nikolay81, Olethros, russ777,
Feb 13 2020, 09:48:47 Godthrymm - Reflections (2020)


*Artist: Godthrymm
*Album: Reflections
*Year: 2020
*Genre: Epic Doom Metal
*Country: United Kingdom
*Format: mp3@CBR320kbps
*Size: 124MB

Tracklist:
1. Monsters Lurk Herein 07:37
2. Among The Exalted 05:06
3. The Sea As My Grave 06:43
4. We Are The Dead 06:28
5. The Light Of You 06:49
6. The Grand Reclamation 07:30
7. Cursed Are The Many 09:18
8. Chasmic Sorrows 04:59
******************************
Total playing time: 54:30




[more=Extended info]Shaun Taylor-Steels - Drums.
(See also: Vestige of Virtue, ex-Vagrant God, Combath, Nåe, ex-Anathema, ex-My Dying Bride, ex-Severed Heaven, ex-Solstice, ex-Ironside, ex-Agone)
Hamish Hamilton Glencross - Vocals (lead), Guitars.
(See also: ex-Vallenfyre, ex-My Dying Bride, ex-Solstice, ex-Seer's Tear)
Sasquatch Bob - Bass.
(See also: ex-Let 'Em Burn)[/more]

[more=Technical info]
Input File: 01. Monsters Lurk Herein.mp3
Channels : 2
Sample Rate : 44100
Precision : 16-bit
Duration : 00:07:37.51 = 20176235 samples = 34313.3 CDDA sectors
File Size : 18.5M
Bit Rate : 324k
Sample Encoding: MPEG audio (layer I, II or III)
Comments :
Title=Monsters Lurk Herein
Artist=Godthrymm
Album=Reflections
Tracknumber=01/08
Year=2020
Genre=Doom Metal
Discnumber=1/1

[/more]

Register
(30) AHBAnep, ASkyThatBurns, Buregon, Bzth, djsema4, doomTemplar, EpicDoomLord, gav-gafi, HMHamster, infiltrator, infozahist, Irimias, KVRT, LEGION69, leks, Lux, metala, Niknne, paganheart, poeira, popen13, Rosen, russ777, SaintVitus, stub888, stumpheavyrock, sunkilmoon, VALERY, xska, zdcaixao,
Feb 12 2020, 10:45:45 Sekhmet - Consumed By Void (2019)
Register


[youtube]2aLcKIN9npI[/youtube]
[youtube]G8heCrkQzHQ[/youtube]
(2) DarkHorde, infiltrator,
Feb 12 2020, 10:02:19 Sekhmet - Consumed By Void (2019)


*Artist: Sekhmet
*Album: Consumed By Void
*Year: 2019
*Genre: Black Metal
*Country: Czech Republic
*Format: mp3@CBR320kbps
*Size: 99MB

Tracklist:
01. They Came, They Saw, They Ruined 05:10
02. Worse Than Vermin 05:06
03. Revenge From The Underground 03:41
04. One Last Chance To Repent 04:33
05. The Final Stage Of Mankind 05:16
06. Downfall 01:08
07. A New Form Of Damnation 04:52
08. Humanity's End 04:42
09. Kuoleva Lupaus (Horna Cover) 07:09
10. Vortex To Void 01:24
******************************
Total playing time: 43:01




[more=Technical info]
Input File: 01. They Came, They Saw, They Ruined.mp3
Channels : 2
Sample Rate : 44100
Precision : 16-bit
Duration : 00:05:10.59 = 13697019 samples = 23294.2 CDDA sectors
File Size : 12.4M
Bit Rate : 320k
Sample Encoding: MPEG audio (layer I, II or III)
Comments :
Title=They Came, They Saw, They Ruined
Artist=Sekhmet
Album=Consumed By Void
Tracknumber=1
Year=2019
Genre=Black Metal

[/more]

Register
(19) 1968_janeart, ASkyThatBurns, atavist, caro, DarkHorde, infiltrator, kim666, kimkayoung, LEGION69, multizwilling, Olethros, Ostinato, Rosen, SilentNidhogg, supremo, VALERY, varlam4, vasiljev_sergej, vovenom,
Jan 23 2020, 15:34:14 Konvent - Puritan Masochism (2020)
[youtube]NdR24AURUwU[/youtube]

[youtube]wBkwHWoKQKA[/youtube]
(8) infiltrator, Leshiy666, Lux, Necromayhem, Occultas, Ostin Devil, Samaritianin, woldemort,
Jan 23 2020, 15:27:30 Sadael - Weirdest Projection (2019)
Register
(5) Doooomed, Ice Gnoll, infiltrator, Morgoth, Sanctus,
Jan 23 2020, 15:16:49 Sadael - Weirdest Projection (2019)


*Artist: Sadael
*Album: Weirdest Projection
*Year: 2019
*Genre: Atmospheric Doom/Death Metal
*Country: Armenia
*Format: mp3@CBR320kbps
*Size: 225MB

Tracklist:
01. Once Upon 11:23
02. False Teachers 09:07
03. A Binary Code 08:45
04. Digits Flush Nonsence 08:57
05. Endless Cycle 08:22
06. Master's Tales 07:09
07. Doomed Younger Gods 10:34
08. I See The Same Dreams 07:53
09. Universe Means Divided 04:05
10. Life Sentence 06:53
11. Faceless Rule 03:21
******************************
Total playing time: 1:26:29




[more=Extended info]+ Scans.

[youtube]I5vkEJeNF9k[/youtube][/more]

[more=Technical info]
Input File: 01. Once Upon.mp3
Channels : 2
Sample Rate : 44100
Precision : 16-bit
Duration : 00:11:24.08 = 30168060 samples = 51306.2 CDDA sectors
File Size : 27.4M
Bit Rate : 320k
Sample Encoding: MPEG audio (layer I, II or III)
Comments :
Title=Once Upon
Artist=Sadael
Album=Weirdest Projection
Tracknumber=1
Year=2019
Genre=Atmospheric Doom/Death Metal

[/more]

Register
(22) chefo, Fess, Geralder, infiltrator, krotovich, Ludwig Hagen, metala, oldvarg, Olethros, postal67, Rosen, russ777, Sanctus, SatanicPanzer, sergsazan, Shadechaser, TeamatSE, thenecromancer, tOmV, VALERY, woldemort, Герб,
Jan 22 2020, 17:09:23 Vesperian Sorrow - Regenesis Creation (2019)


*Artist: Vesperian Sorrow
*Album: Regenesis Creation
*Year: 2019
*Genre: Symphonic Black Metal
*Country: United States
*Format: mp3@CBR320kbps
*Size: 125MB

Tracklist:
1. Intro 01:57
2. Invisible Kingdom 07:47
3. Gates To Serpithia 05:08
4. Imprisoned In Gurdon 04:37
5. Regenesis Creation 06:27
6. Quest Of The Exiled 07:28
7. Relinquished 06:44
8. The Forever Vortex 04:13
9. Vanquished 09:57
******************************
Total playing time: 54:18




[more=Extended info]Regenesis Creation (2006) will be released near the end of 2019 by Black Lion Records.
The album has been completely re-recorded and mixed/mastered.

[youtube]1jtMiRW2xpQ[/youtube][/more]

[more=Technical info]
Input File: 2. Invisible Kingdom.mp3
Channels : 2
Sample Rate : 44100
Precision : 16-bit
Duration : 00:07:47.30 = 20608106 samples = 35047.8 CDDA sectors
File Size : 18.8M
Bit Rate : 322k
Sample Encoding: MPEG audio (layer I, II or III)
Comments :
Title=Invisible Kingdom
Artist=Vesperian Sorrow
Album=Regenesis Creation
Tracknumber=2
Year=2019

[/more]

Register
(36) 1968_janeart, as71, atavist, cesar, Daale, demonosz, Femto, finntroll3, Foneg, Ildjarn, infiltrator, ironyserg, kim666, LEGION69, lldma, Ludwig Hagen, Mannard, metala, Mogozoz, morbidangelo, oldvarg, Olethros, Ostinato, Reverend, Rosen, SaintVitus, satanist666, senecazm, sergsazan, talismanFS, TeamatSE, thenecromancer, VALERY, vasiljev_sergej, ZambuL, Сварог Барг,
Jan 22 2020, 15:32:29 In Oblivion - Oblivion [ep] (2020)


*Artist: In Oblivion
*Album: Oblivion [ep]
*Year: 2020
*Genre: Funeral Doom Metal
*Country: United States
*Format: mp3@CBR320kbps
*Size: 62MB

Tracklist:
1. Oblivion 26:20
******************************
Total playing time: 26:20





[more=Technical info]
Input File: 1. Oblivion.mp3
Channels : 2
Sample Rate : 44100
Precision : 16-bit
Duration : 00:26:20.16 = 69684880 samples = 118512 CDDA sectors
File Size : 63.4M
Bit Rate : 321k
Sample Encoding: MPEG audio (layer I, II or III)
Comments :
Title=Oblivion
Artist=In Oblivion
Album=Oblivion
Tracknumber=1
Year=2020

[/more]

Register
(19) autumnwood, Boozer, cesar, Doooomed, fallen, Hell_Is_Here, infiltrator, infozahist, marilin, Olethros, Ostinato, popen13, recber, Rosen, sergsazan, Shadechaser, supremo, VALERY, Герб,
Jan 13 2020, 15:50:33 Новости DOOM Metal
On Thorns I Lay - Threnos (February 21st, 2020) (Lifeforce Records)




[youtube]oAeROCgvLes[/youtube]
(5) avather, infiltrator, Kaphiel, Lux, Old Vyaine,
Jan 13 2020, 15:32:36 Dead Heart Bleeding - Angels Grief (2003)


*Artist: Dead Heart Bleeding
*Album: Angels Grief
*Year: 2003
*Genre: Gothic/Doom Metal
*Country: Germany
*Format: mp3@CBR320kbps
*Size: 264MB

Tracklist:
01. The Darkening 07:34
02. Sadness 04:26
03. Into The Nameless 06:56
04. Thoughts 05:37
05. Emotions 06:19
06. The Little Heaven 01:53
07. Dreaming Your Grief 09:24
08. Chaotic Seasons 06:18
09. Somewhere Someone Dies 03:35
10. The End... Before It Begins 19:31
******************************
Total playing time: 1:11:33

[more=Extended info]+ Scans.

[youtube]J1L4_WoBjYE[/youtube][/more]

[more=Technical info]
Input File: 01. The Darkening.mp3
Channels : 2
Sample Rate : 44100
Precision : 16-bit
Duration : 00:07:34.90 = 20061002 samples = 34117.4 CDDA sectors
File Size : 18.2M
Bit Rate : 320k
Sample Encoding: MPEG audio (layer I, II or III)
Comments :
Title=The Darkening
Artist=Dead Heart Bleeding
Album=Angels Grief
Tracknumber=1
Year=2003
Genre=Gothic Doom/Death Metal

[/more]

Register
(17) ASkyThatBurns, Cartman223, fallen, infiltrator, kluval, krotovich, metala, Olethros, postal67, Rosen, satanist666, senecazm, sergsazan, Shadechaser, thenecromancer, VALERY, varlam4,
Jan 6 2020, 13:13:04 Storm Kvlt - Demo 2019 [demo] (2019)


*Artist: Storm Kvlt
*Album: Demo 2019 [demo]
*Year: 2019
*Genre: Pagan Black Metal
*Country: Germany
*Format: mp3@CBR320kbps
*Size: 64MB

Tracklist:
1. Oskorei 03:41
2. Hermodrs Helritt 05:57
3. Nebelwald 07:49
4. Der Krieg 10:23
******************************
Total playing time: 27:50





[more=Extended info][youtube]2fQWVe7R-bQ[/youtube][/more]

[more=Technical info]
Input File: 1. Oskorei.mp3
Channels : 2
Sample Rate : 44100
Precision : 16-bit
Duration : 00:03:41.66 = 9775250 samples = 16624.6 CDDA sectors
File Size : 8.92M
Bit Rate : 322k
Sample Encoding: MPEG audio (layer I, II or III)
Comments :
Title=Oskorei
Artist=Storm Kvlt
Album=Demo 2019
Tracknumber=1
Year=2019

[/more]

Register
(13) ASkyThatBurns, infiltrator, kim666, morbidangelo, Olethros, robertho777, Rosen, satanist666, stub888, thenecromancer, VALERY, vasiljev_sergej, Сварог Барг,
Jan 6 2020, 13:11:28 Gravröse - The End Street Terror (2019)


*Artist: Gravröse
*Album: The End Street Terror
*Year: 2019
*Genre: Black Metal
*Country: Sweden
*Format: mp3@CBR320kbps
*Size: 95MB

Tracklist:
1. Awakening Of The End Street Mansion 00:28
2. From The Dark Corners They Watch 06:56
3. Figments Of Brooding Imaginations 05:10
4. A Phantasmagoria In The Flesh 06:52
5. Loud Footsteps From The Empty Attic 05:43
6. The Wraith In The Mirror 06:24
7. Invoking The Restless Spirits 08:05
******************************
Total playing time: 39:38



[more=Extended info][youtube]T0y4kToAwGU[/youtube][/more]

[more=Technical info]
Input File: 2. From The Dark Corners They Watch.mp3
Channels : 2
Sample Rate : 44100
Precision : 16-bit
Duration : 00:06:56.31 = 18359271 samples = 31223.2 CDDA sectors
File Size : 16.8M
Bit Rate : 323k
Sample Encoding: MPEG audio (layer I, II or III)
Comments :
Title=From The Dark Corners They Watch
Artist=gravröse
Album=The End Street Terror
Tracknumber=2
Year=2019

[/more]

Register
(28) 1968_janeart, ASkyThatBurns, atavist, Beazth, infiltrator, kim666, Maximvs, morbidangelo, multizwilling, murian, Olethros, Ostinato, rammmirez, rickzammuto, ripper33, robertho777, Rosen, sandr666, satanist666, SilentNidhogg, Sjelekval, stub888, tim47, toly1917, VALERY, vasiljev_sergej, wn129aa, ZA670,
Dec 30 2019, 17:38:44 Visceral Evisceration - The Lost Tapes [compilation] (2019)
Register
(6) Beazth, Brutal, DMIYUR, kalmametallinen, multizwilling, wtk.412,
Dec 30 2019, 08:56:58 Visceral Evisceration - The Lost Tapes [compilation] (2019)


*Artist: Visceral Evisceration
*Album: The Lost Tapes [compilation]
*Year: 2019
*Genre: Doom/Death Metal
*Country: Austria
*Format: mp3@CBR320kbps
*Size: 217MB

Tracklist:
01. At The Epicurian Gynaecologist 10:30
02. Tender Flesh... On The Bier 11:44
03. Knee Deep In Blood I Wade 05:16
04. Muse Perverse 01:23
05. Ganging Menstrual Blood-Broth For Supper 08:53
06. Impassioned Arousal 04:48
07. Magnificence 07:12
08. Welter In Carnal Lust 04:23
09. Blood Drenched Bowels In My Bed 06:48
10. Butchered Magnificence 06:28
11. Tampon Gourment 05:33
12. Heartbeat 02:53
******************************
Total playing time: 1:15:51




[more=Extended info]+ Scans.

Savour Of The Seething Meat ! 1993 Demo: (1-5).
As I Lay Dying 1995 Promotional Tape: (6-8).
Rehearsal August 1991: (9).
Rehearsal Sep-Oct 1994: (10).
Rehearsal Early 1995: (11-12).[/more]

[more=Technical info]
Input File: 03. Knee Deep In Blood I Wade.mp3
Channels : 2
Sample Rate : 44100
Precision : 16-bit
Duration : 00:05:16.08 = 13938952 samples = 23705.7 CDDA sectors
File Size : 12.6M
Bit Rate : 320k
Sample Encoding: MPEG audio (layer I, II or III)
Comments :
Title=Knee Deep In Blood I Wade
Artist=Visceral Evisceration
Album=The Lost Tapes
Tracknumber=3
Year=2019
Genre=Death Metal

[/more]

Register
(32) alikkon, ASkyThatBurns, Boozer, Brutal, cancer1974, chefo, DMIYUR, fallen, FUDEDOR, gav-gafi, Golodomor, Hell_Is_Here, kimkayoung, Korpse, kostja, krotovich, metala, Olethros, Proteus_666, Rarog, Rosen, RunningWild_AT, russ777, sor, terron, thenecromancer, troll_swamp, VALERY, volostakoeto, wanderer73, Xutun, Zenial,
Nov 23 2019, 16:54:26 Midnartiis - In Silent Grove To Dwell (2019)


*Artist: Midnartiis
*Album: In Silent Grove To Dwell
*Year: 2019
*Genre: Neo/Dark Folk
*Country: United States
*Format: mp3@CBR320kbps
*Size: 99MB

Tracklist:
01. A Curtain Over The Stars 01:46
02. In Silent Grove To Dwell 03:35
03. Keening Lupine 04:23
04. A Curtain Over The Stars 03:42
05. Death Leaves The Maiden 02:45
06. Praise To The Muse 01:56
07. Putre Factio 04:19
08. The Fool, The Queen, And The Devil 03:03
09. A Mirror For Witches 03:46
10. Apollonian Blade 03:03
11. What The Lyre Slowly Brings 02:40
12. Honor’s Cloak 03:05
13. The Crossroads 03:36
******************************
Total playing time: 41:39




[more=Extended info]A collection of somber folk songs dealing with myths and archetypes woven into life, steeped in a longing for nature in the midst of modernity.

[youtube]wFQdAK0j9iM[/youtube][/more]

[more=Technical info]
Input File: 02. In Silent Grove To Dwell.mp3
Channels : 2
Sample Rate : 44100
Precision : 16-bit
Duration : 00:03:35.86 = 9519602 samples = 16189.8 CDDA sectors
File Size : 8.73M
Bit Rate : 323k
Sample Encoding: MPEG audio (layer I, II or III)
Comments :
Title=In Silent Grove to Dwell
Artist=Midnartiis
Album=In Silent Grove to Dwell
Tracknumber=2
Year=2019

[/more]

Register
(4) A.L.Rapsod, Cartman223, Olethros, tOmV,
Nov 23 2019, 16:53:15 Arthedain - Infernal Cadence Of The Desolate (2018)


*Artist: Arthedain
*Album: Infernal Cadence Of The Desolate
*Year: 2018
*Genre: Black Metal
*Country: Czech Republic
*Format: mp3@CBR320kbps
*Size: 118MB

Tracklist:
1. A Testament To Failure 06:03
2. Where Nonexistence Is All 03:58
3. Depths Of Isolation 05:25
4. Consuming The Aurora 05:12
5. Infernal Cadence 04:51
6. Arcane Ascension 04:34
7. A Garden Lies Barren 07:20
8. None Shall Remain 04:23
9. As One 05:24
******************************
Total playing time: 47:10




[more=Technical info]
Input File: 7. A Garden Lies Barren.mp3
Channels : 2
Sample Rate : 44100
Precision : 16-bit
Duration : 00:07:20.58 = 19429666 samples = 33043.6 CDDA sectors
File Size : 17.8M
Bit Rate : 323k
Sample Encoding: MPEG audio (layer I, II or III)
Comments :
Title=A Garden Lies Barren
Artist=Arthedain
Album=Infernal Cadence of the Desolate
Tracknumber=7
Year=2018
Genre=Black Metal

[/more]

Register
(25) 1968_janeart, alikkon, atavist, craP_cillA, Frozenkult, Ildjarn, kim666, Korpse, lestllk, Ludwig Hagen, MMMMM, murian, nsk2008, Occultas, Olethros, Ostinato, Rosen, satanist666, SilentNidhogg, VALERY, varlam4, vasiljev_sergej, vovenom, wreak, Авел,
Nov 22 2019, 18:27:04 Samanttha - Bards Elegy (2019)


*Artist: Samanttha
*Album: Bards Elegy
*Year: 2019
*Genre: Funeral Doom/Death Metal
*Country: Brazil
*Format: mp3@CBR320kbps
*Size: 128MB

Tracklist:
1. And Your Pristine Eyes 07:06
2. Banishment 07:31
3. My Own Lament 12:47
4. Rain Of Tears 05:38
5. Moments 09:10
6. The Dreams Voice 06:35
7. And Your Pristine Eyes (Official Fragment Version) 02:41
******************************
Total playing time: 51:28




[more=Extended info]+ Scans.

[youtube]0SurJ9caOoc[/youtube][/more]

[more=Technical info]
Input File: 1. And Your Pristine Eyes.mp3
Channels : 2
Sample Rate : 44100
Precision : 16-bit
Duration : 00:07:05.93 = 18783381 samples = 31944.5 CDDA sectors
File Size : 17.0M
Bit Rate : 320k
Sample Encoding: MPEG audio (layer I, II or III)
Comments :
Title=And Your Pristine Eyes
Artist=Samanttha
Album=Bards Elegy
Tracknumber=1
Year=2019
Genre=Funeral Doom/Death Metal

[/more]

Register
(16) AndreFrancis, autumnwood, Hell_Is_Here, lekram, libertine, metala, Olethros, Rosen, russ777, scorn33, sergsazan, Shadechaser, StoneTemple, VALERY, vyacheslav, wreak,
Nov 20 2019, 16:31:34 Новости Folk/Pagan/Viking
Znich & Rutvica - Рух Сонца (2019)




[youtube]NlZPSO7RZvs[/youtube]
[youtube]WGcSHLa7IBI[/youtube]

(2) Eldarmoon, Old Vyaine,
Nov 1 2019, 19:36:12 Of The Wand & The Moon - Tunes For A Twilight Tears For A Lifetime (2018)


*Artist: Of The Wand & The Moon
*Album: Tunes For A Twilight Tears For A Lifetime
*Year: 2018
*Genre: Neofolk
*Country: Denmark
*Format: mp3@CBR320kbps
*Size: 197MB

Tracklist:
01. A Tomb Of Seasoned Dye 05:32
02. Hail Hail Hail 02:36
03. Shine Black Algiz 03:29
04. I Crave For You 03:06
05. Immer Vorwärts 03:17
06. Hold My Hand 02:29
07. Lucifer 05:33
08. Sunspot 05:28
09. We Are Dust 03:46
10. Heres An Ode 02:48
11. Lost In Emptiness 03:37
12. Wonderful Wonderful Sun 02:40
******************************
Total playing time: 44:21



[more=Extended info][youtube]jmSwE03Fn0A[/youtube][/more]

[more=Technical info]
Input File: Of The Wand & The Moon - Tunes For A Twilight Tears For A Lifetime (1).mp3
Channels : 2
Sample Rate : 48000
Precision : 16-bit
Duration : 00:05:32.07 = 15939216 samples ~ 24905 CDDA sectors
File Size : 13.3M
Bit Rate : 320k
Sample Encoding: MPEG audio (layer I, II or III)
Comments :
Title=A Tomb Of Seasoned Dye
Artist=:Of The Wand & The Moon:
Album=Tunes For A Twilight Tears For A Lifetime
Tracknumber=1
Year=2018
Genre=Acoustic/Neofolk

[/more]

Register
(12) A.L.Rapsod, abob, acerbus, Cartman223, craP_cillA, Druidir, gwar, nord6666, Olethros, thenecromancer, tOmV, whitebros,
Nov 1 2019, 19:34:51 Endless Autumn - Come To My Land [ep] (2008)


*Artist: Endless Autumn
*Album: Come To My Land [ep]
*Year: 2008
*Genre: Atmospheric Gothic/Doom Metal
*Country: Denmark
*Format: mp3@CBR320kbps
*Size: 166MB

Tracklist:
1. You Are Mine 08:06
2. The Land (Part 1 & Part 2) 11:53
3. My Dying Wish 08:25
4. Die Without You 07:05
5. Cities Without Dawn 10:41
******************************
Total playing time: 46:10




[more=Extended info]+ Scans.

[youtube]pcaBDOfqKdM[/youtube][/more]

[more=Technical info]
Input File: 1. You Are Mine.mp3
Channels : 2
Sample Rate : 44100
Precision : 16-bit
Duration : 00:08:05.83 = 21425059 samples = 36437.2 CDDA sectors
File Size : 19.4M
Bit Rate : 320k
Sample Encoding: MPEG audio (layer I, II or III)
Comments :
Title=You Are Mine
Artist=Endless Autumn
Album=Come To My Land
Tracknumber=1
Year=2008
Genre=Gothic Doom Metal

[/more]

Register
(11) chefo, kluval, Ludwig Hagen, nord6666, Olethros, Rosen, satanist666, senecazm, sergsazan, VALERY, varlam4,
Oct 24 2019, 14:13:14 Lord Wind - The Forest Is My Kingdom (2019)


*Artist: Lord Wind
*Album: The Forest Is My Kingdom
*Year: 2019
*Genre: Pagan Folk
*Country: Poland
*Format: mp3@CBR320kbps
*Size: 133MB

Tracklist:
01. Chants On The Forgotten Palace 04:43
02. Severnyj Veter 04:40
03. Leshy 05:54
04. Czarny Kruk 05:44
05. Królowa śniegu 03:44
06. Oj Moroz Moroz 05:18
07. Drzewo Przodków 04:57
08. Pagantiga 04:00
09. Rusalki 05:07
10. Cult Of Seth 05:08
11. Herr Mannelig 07:35
******************************
Total playing time: 56:50




[more=Extended info][youtube]cuP2Hfq7q-o[/youtube]
[youtube]_ybs-S_ZMPQ[/youtube][/more]

[more=Technical info]
Input File: 01 - Chants on the forgotten palace.mp3
Channels : 2
Sample Rate : 44100
Precision : 16-bit
Duration : 00:04:43.76 = 12513684 samples = 21281.8 CDDA sectors
File Size : 11.6M
Bit Rate : 326k
Sample Encoding: MPEG audio (layer I, II or III)
Comments :
Title=Chants on the forgotten palace
Artist=Lord Wind
Album=The Forest Is My Kingdom
Tracknumber=01/11
Year=2019

[/more]

Register
(20) Black Cat, canadaspaceman, Cartman223, Druidir, gwar, Hefir, Infidel, Kazoth, Konst, lafuma, MEmethuselah, Mplast, oldvarg, Olethros, Phlebotomized, Raw1488, satanist666, SSorcerer, Stutthof, thenecromancer,
Oct 15 2019, 18:41:15 The Howling Void & Nyss - Ravens Of The Burning God [split] (2018)
Register
(5) deathic, kimkayoung, libertine, nord6666, senecazm,
Oct 9 2019, 16:56:57 Ghost Creek - I [ep] (2019)


*Artist: Ghost Creek
*Album: I [ep]
*Year: 2019
*Genre: Funeral Doom Metal
*Country: United States
*Format: mp3@CBR320kbps
*Size: 58MB

Tracklist:
1. I Am No One 07:11
2. Sempiternal Torment Of Mind 09:19
3. Winter Of Forgotten Souls 08:56
******************************
Total playing time: 25:26




[more=Technical info]
Input File: 1. I Am No One.mp3
Channels : 2
Sample Rate : 44100
Precision : 16-bit
Duration : 00:07:11.67 = 19036691 samples = 32375.3 CDDA sectors
File Size : 17.4M
Bit Rate : 322k
Sample Encoding: MPEG audio (layer I, II or III)
Comments :
Title=I Am No One
Artist=Ghost Creek
Album=I
Tracknumber=1
Year=2019

[/more]

Register
(8) artscald, Hell_Is_Here, Olethros, Ostinato, Rosen, sergsazan, uncolored, VALERY,
Oct 9 2019, 16:42:35 Fjøsnisse - Heksedreper [ep] (2019)


*Artist: Fjøsnisse
*Album: Heksedreper [ep]
*Year: 2019
*Genre: Black Metal
*Country: Norway
*Format: mp3@CBR320kbps
*Size: 55MB

Tracklist:
1. Sorgens Flamme 04:59
2. Trollbergets Port 02:47
3. Vargham 05:40
4. Djeveldans 05:28
5. Heksedreper 04:52
******************************
Total playing time: 23:46




[more=Extended info][youtube]l00pUnXHZ0o[/youtube][/more]

[more=Technical info]
Input File: 1. Sorgens Flamme.mp3
Channels : 2
Sample Rate : 44100
Precision : 16-bit
Duration : 00:04:59.82 = 13222194 samples = 22486.7 CDDA sectors
File Size : 12.0M
Bit Rate : 321k
Sample Encoding: MPEG audio (layer I, II or III)
Comments :
Title=Sorgens Flamme
Artist= Fjøsnisse
Album=Heksedreper
Tracknumber=1
Year=2019

[/more]

Register
(19) 1968_janeart, artscald, cancer1974, dromord, Ildjarn, kim666, legion01, nord6666, nsk2008, Olethros, Ostinato, robertho777, Rosen, SilentNidhogg, Sjelekval, stub888, Teshub, VALERY, vasiljev_sergej,

85 Pages V   1 2 3 > » 
- Lo-Fi Version Support form
Copyrights and abuse reports form
Time is now: 17th February 2020 - 22:20:10