Welcome Guest ( Log In | Register )

История благодарностей участнику RUDACHUR ::: Спасибо сказали: 40465 раз(а)
Дата поста: В теме: За сообщение: Спасибо сказали:
Sep 3 2019, 16:31:03 Master's Hammer - Demos. [compilation] (2013)
Register
(5) igore2911, Reverend, thenecromancer, vasiljev_sergej, wtk.412,
Sep 2 2019, 09:57:33 Master's Hammer - Demos. [compilation] (2013)


*Artist: Master's Hammer
*Album: Demos. [compilation]
*Year: 2013
*Genre: Black Metal
*Country: Czech Republic
*Format: mp3@CBR320kbps
*Size: 515MB

Tracklist:
CD I :
01. Kovový Chrám 04:53
02. Hej, Čerte Chlupatej 04:13
03. Černej Anděl 03:16
04. Blek Metl 02:05
05. Rychlejší Než Satan 03:52
06. Hodokvas 02:49
07. Hymna Černé Krve 09:57
08. Jáma Pekel 03:51
09. Šánečto 04:49
10. Lucifer 03:53
11. Signum Diabolis 03:35
12. Za Smlouvou Pekelnou 05:36
13. Zapálili Jsme Onen Svět 04:06
14. The Mass 03:11
15. Vzývání Úterní 03:05
16. Černá Svatozář 05:52

CD II :
01. Intro 02:41
02. Duše Nesmrtelných 03:35
03. Vzývání Úterní 03:00
04. Jáma Pekel 04:15
05. Lucifer2 06:02
06. Za Smlouvou Pekelnou 03:47
07. Přivítej Smrt 05:35
08. Šánečto 03:28
09. Intro 01:56
10. Zapálili Jsme Onen Svět 04:36
11. Signum Diabolis 03:34
12. Černá Svatozář 06:30
13. Skryté Síly 03:19
14. Věčný Návrat 03:39
15. The Mass 02:58
16. Vykoupení 05:37
17. Kolem Kotle 09:16

CD III :
01. Intro 02:19
02. Pád Modly 07:36
03. Každý Z Nás... 03:49
04. Géniové 05:18
05. Hnijící Ráj 03:39
06. Útok 07:45
07. Předehra 01:23
08. Mezi Kopci Cesta Je Klikatá 05:16
09. Já Nechci Mnoho Trápiti... 05:29
10. Ten Dvanácterák... 03:52
11. Můj Hejtmane... 06:20
12. Litografické Kalendáře 01:42
13. Já Mizérií Osudu... 05:00
14. Že Vše Jen Podle Mého... 04:32
15. Mediální Kresby 03:57
16. Suchardův Dům 05:53
******************************
Total playing time: 3:36:41






[more=Extended info]+ Scans.

The first official collected edition of Master's Hammer demos. Unchanged sound from the original mastertapes. 3 CDs, 16-page booklet in glossy digipak.

Disc 1:
The Ritual Murder (1987) - tracks 1-7
Live in Zbraslav (18.5.1989) - tracks 8-16

Disc 2:
Finished (1988) - tracks 1-8
The Mass (1989) - tracks 9-17

Disc 3:
The Fall of Idol (1990) - tracks 1-6
Jilemnický okultista (1992) - tracks 7-16[/more]

[more=Technical info]
Input File: 08-Mezi Kopci Cesta Je Klikatá.mp3
Channels : 2
Sample Rate : 44100
Precision : 16-bit
Duration : 00:05:16.99 = 13979259 samples = 23774.2 CDDA sectors
File Size : 12.7M
Bit Rate : 320k
Sample Encoding: MPEG audio (layer I, II or III)
Comments :
Title=Mezi Kopci Cesta Je Klikata
Artist=MASTER'S HAMMER
Album=Demos.
Tracknumber=8
Year=2013
Genre=Black Metal

[/more]

Register
(28) 1968_janeart, Albert66613, artscald, canadaspaceman, craP_cillA, desekrator, Emhyr var Emreis, heinz88, Hell_Is_Here, igore2911, infiltrator, LazarShadow, lestllk, Olethros, Pinhead666, popen13, princeshr, Rosen, Saldiac, stumpheavyrock, supremo, thenecromancer, the_cleanser, the_metalist, tireheb, VALERY, Wail, wreak,
Aug 24 2019, 12:23:43 Funeralopolis - ...Of Death/...Of Prevailing Chaos [compilation] (2019)


*Artist: Funeralopolis
*Album: ...Of Death/...Of Prevailing Chaos [compilation]
*Year: 2019
*Genre: Death/Doom Metal
*Country: Switzerland
*Format: mp3@CBR320kbps
*Size: 128MB

Tracklist:
01. The Wrath (Of The Dead) 05:33
02. Day Of Mourning 04:43
03. Pit Of Death 03:28
04. Devouring Crypts Of Darkness 03:57
05. Existence Beyond 06:56
06. Intro (Tonight I Will Possess Your Corpse) 01:03
07. Euphoric Blasphemy 04:18
08. Curse Of Darkness 04:24
09. Achluophobia 04:07
10. Bo' Nguloth 04:40
11. Beneath Deathless Depths 03:44
12. Tale Of A Mass 09:57
******************************
Total playing time: 56:50




[more=Extended info]Tracks 1-5: "...of Death" demo (2010)
Tracks 6-12: "...of Prevailing Chaos" EP (2013)

[youtube]TEanlJ3c3UY[/youtube][/more]

[more=Technical info]
Input File: 07 Euphoric Blasphemy.mp3
Channels : 2
Sample Rate : 44100
Precision : 16-bit
Duration : 00:04:18.29 = 11390413 samples = 19371.5 CDDA sectors
File Size : 10.5M
Bit Rate : 325k
Sample Encoding: MPEG audio (layer I, II or III)
Comments :
Title=Euphoric Blasphemy
Artist=Funeralopolis
Album=...of Death / ...of Prevailing Chaos
Tracknumber=7
Year=2019

[/more]

Register
(18) artscald, Borderline1991, Doooomed, fuoco, Hell_Is_Here, infiltrator, marilin, metala, Mist13Signifier, Olethros, Rosen, Sanctus, smysl, stumpheavyrock, VALERY, vyacheslav, wreak, Герб,
Aug 19 2019, 11:26:54 Новости DOOM Metal
Fvneral Fvkk - Carnal Confessions (September 27th, 2019)




[youtube]e9L89njemmg[/youtube]
(2) doomsmith, Lux,
Aug 19 2019, 10:54:08 Новости Folk/Pagan/Viking
Ereb Altor - Järtecken (September 23rd, 2019)(Hammerheart Records)




[youtube]Vx0FNWv1RLM[/youtube]
[youtube]OtxP0EgO-9M[/youtube]
(2) Black Cat, Old Vyaine,
Aug 19 2019, 10:25:37 Illimitable Dolor & Promethean Misery - Illimitable Dolor & Promethean Misery [split] (2019)


*Artist: Illimitable Dolor & Promethean Misery
*Album: Illimitable Dolor & Promethean Misery [split]
*Year: 2019
*Genre: Atmospheric Doom/Death Metal | Atmospheric Doom Metal
*Country: Australia | Australia
*Format: mp3@CBR320kbps
*Size: 121MB

Tracklist:
Illimitable Dolor:
1. Kitsuni 06:57
2. Tamtu 18:45
Promethean Misery:
3. Mind At Wrest 13:51
4. Shadow Fell And Followed 13:39
******************************
Total playing time: 53:12






[more=Technical info]
Input File: 1. Kitsuni.mp3
Channels : 2
Sample Rate : 44100
Precision : 16-bit
Duration : 00:06:57.36 = 18405488 samples = 31301.9 CDDA sectors
File Size : 16.7M
Bit Rate : 320k
Sample Encoding: MPEG audio (layer I, II or III)
Comments :
Title=Kitsuni
Artist=Illimitable Dolor
Album=Illimitable Dolor & Promethean Misery
Tracknumber=1
Year=2019
Genre=Doom Metal

[/more]

Register
(27) AHBAnep, ahp, artscald, autumnwood, doomTemplar, Doooomed, Hell_Is_Here, Hey_You, infiltrator, khestanow3001, kluval, KVRT, LEGION69, libertine, Ludwig Hagen, Mist13Signifier, Old Vyaine, Ostinato, Rosen, russ777, SatanicPanzer, Shadechaser, skidnik, tamerz, thenecromancer, wreak, Герб,
Aug 19 2019, 10:24:10 Shroud Of Despondency - Befouled By The Sacred: Love Is A Callus (2019)


*Artist: Shroud Of Despondency
*Album: Befouled By The Sacred: Love Is A Callus
*Year: 2019
*Genre: Progressive Black/Death/Doom Metal
*Country: United States
*Format: mp3@CBR320kbps
*Size: 164MB

Tracklist:
1. A Callous Distance 03:50
2. Aphotic Conditions 06:00
3. Misery Of An Immense Age 07:25
4. Wolfbiter 12:07
5. The Law Of Diminishing Returns 07:35
6. Abundant And Nullified 10:05
7. The Metamorphosis 08:28
8. Cracked Hull 16:03
******************************
Total playing time: 1:11:33



[more=Technical info]
Input File: 2. Aphotic Conditions.mp3
Channels : 2
Sample Rate : 44100
Precision : 16-bit
Duration : 00:06:00.41 = 15893861 samples = 27030.4 CDDA sectors
File Size : 14.5M
Bit Rate : 322k
Sample Encoding: MPEG audio (layer I, II or III)
Comments :
Title=Aphotic Conditions
Artist=Shroud Of Despondency
Album=Befouled by the Sacred:Love Is a Callus
Tracknumber=2
Year=2019

[/more]

Register
(17) artscald, DarkHorde, doomTemplar, Doooomed, garml2, infiltrator, Ludwig Hagen, Mannard, metala, MMMMM, Olethros, Rosen, stumpheavyrock, Tino, vasiljev_sergej, wreak, Нигилист,
Aug 16 2019, 22:50:42 Клипы (не просто, а ЛУЧШИЕ). Обсуждение с объяснением
[youtube]bOgRdyZc8mE[/youtube]
(2) Sanctus, Фо,
Jul 17 2019, 17:14:07 Wald Geist Winter - Teufelskreise (2010)


*Artist: Wald Geist Winter
*Album: Teufelskreise
*Year: 2010
*Genre: Pagan Black Metal
*Country: Germany
*Format: mp3@CBR320kbps
*Size: 66MB

Tracklist:
1. Heimkehr 6:00
2. Der Nacht Entrissen 4:34
3. Schwärze Zersetzt Die Farben Des Morgen 4:34
4. König Lorak 4:08
5. Leblos Im Moor 5:12
6. Kalter Schein 4:59
7. In So Manch Rauer Nacht 4:05
******************************
Total playing time: 33:32



[more=Extended info]Sucellus - Drums, Bass, Guitars (2005-2012)
(See also: Gnipahålan, Odal, Wolfsschrei, ex-Aske, ex-Barastir, ex-Erhabenheit, ex-Isenheim, ex-Raven's Empire, ex-Rusting Sun, ex-Salvation666, ex-Seelengreif, ex-Põhjast)

Herr Eichman - Guitars, Vocals (2005-2012)
(See also: Sarrgh)

[youtube]Yh79iX8CLzk[/youtube][/more]

[more=Technical info]
Input File: 01 Heimkehr.mp3
Channels : 2
Sample Rate : 44100
Precision : 16-bit
Duration : 00:06:01.00 = 15920100 samples = 27075 CDDA sectors
File Size : 14.4M
Bit Rate : 320k
Sample Encoding: MPEG audio (layer I, II or III)
Comments :
Title=Heimkehr
Artist=Wald Geist Winter
Album=Teufelskreise
Tracknumber=1
Year=2010
Genre=Black Metal

[/more]

Register
(13) 1968_janeart, artscald, GorAtheist, Ildjarn, infiltrator, Krosis, Olethros, Ostinato, Rosen, stub888, vasiljev_sergej, wreak, Сварог Барг,
Jul 17 2019, 17:12:43 Consensus - Libertatis Clamor [ep] (2005)


*Artist: Consensus
*Album: Libertatis Clamor [ep]
*Year: 2005
*Genre: Gothic/Doom/Death Metal
*Country: Belgium
*Format: mp3@CBR320kbps
*Size: 87MB

Tracklist:
1. The First Lament: Of Torment And Woe 08:16
2. Feel Me, Free Me 09:30
3. Wonder 06:52
4. Twilight Of Consent 07:14
******************************
Total playing time: 31:52

[more=Extended info]+ Scans.

Music and lyrics composed by Jeroen de Brauwer.
Concept by Jeroen De Brauwer.
Model: Faye Pynaert.

Recorded at Midas Studios in August 2005.
Co-mixed and co-mastered and Consensus.

[youtube]SPa1pF-U5Nw[/youtube][/more]

[more=Technical info]
Input File: 1. The First Lament Of Torment And Woe.mp3
Channels : 2
Sample Rate : 44100
Precision : 16-bit
Duration : 00:08:16.83 = 21910071 samples = 37262 CDDA sectors
File Size : 19.9M
Bit Rate : 320k
Sample Encoding: MPEG audio (layer I, II or III)
Comments :
Title=The First Lament: Of Torment And Woe
Artist=Consensus
Album=Libertatis Clamor
Tracknumber=1
Year=2005
Genre=Doom Metal

[/more]

Register
(13) artscald, Cartman223, GorAtheist, infiltrator, Olethros, Razorbladeswaltz, Rosen, senecazm, sergsazan, Svafrlami, valera2010, VALERY, wreak,
Jul 17 2019, 17:11:02 Evercry - Demise Of The Crown [ep] (1996)


*Artist: Evercry
*Album: Demise Of The Crown [ep]
*Year: 1996
*Genre: Gothic/Doom Metal
*Country: Sweden
*Format: mp3@CBR320kbps
*Size: 57MB

Tracklist:
1. The Stream Of A Dark River 05:49
2. A Silhouette Of Silence 04:04
3. Ethereal Company 04:47
4. Behind A Sorrow Veil 03:34
******************************
Total playing time: 18:14

[more=Extended info]+ Scans.

Recorded by Per Ryberg at FS-Studio, Söderhamn 7-8 & 21/10 -95,
mixed by Per Ryberg & Evercry 22/10 -95.
Management by Per Ryberg
Produced by Evercry & Per Ryberg

All music by Evercry, lyrics by Niklas Brodd[/more]

[more=Technical info]
Input File: 1. The Stream Of A Dark River.mp3
Channels : 2
Sample Rate : 44100
Precision : 16-bit
Duration : 00:05:49.91 = 15430855 samples = 26243 CDDA sectors
File Size : 14.0M
Bit Rate : 320k
Sample Encoding: MPEG audio (layer I, II or III)
Comments :
Title=The Stream Of A Dark River
Artist=Evercry
Album=Demise Of The Crown
Tracknumber=1
Year=1996
Genre=Gothic/Doom Metal

[/more]

Register
(18) artscald, Cartman223, doomsword11, Evilded, GorAtheist, infiltrator, KKK1488, kluval, Mogozoz, Olethros, Rosen, senecazm, sergsazan, stumpheavyrock, valera2010, VALERY, wreak, Xutun,
Jun 1 2019, 21:06:50 Темнозорь - Ведовством Крепка Чёрная Слава Руси (1998)
Register

(2) Eldarmoon, Old Vyaine,
May 13 2019, 16:57:37 Desecrate - Inconsonance (1997)


*Artist: Desecrate
*Album: Inconsonance
*Year: 1997
*Genre: Death/Doom Metal
*Country: Czech Republic
*Format: mp3@CBR320kbps
*Size: 63MB

Tracklist:
1. Foolish Vision? 04:44
2. Angel's Decay... 03:43
3. Irony 03:23
4. I Survived Life 02:46
5. Hallucinations 04:46
6. Intimate Sacrifices 04:48
7. 11 Days 03:55
******************************
Total playing time: 28:05

[more=Extended info][youtube]qsyAWeJhbxA[/youtube][/more]

[more=Technical info]
Input File: 01. Foolish Vision.mp3
Channels : 2
Sample Rate : 44100
Precision : 16-bit
Duration : 00:04:44.07 = 12527531 samples = 21305.3 CDDA sectors
File Size : 11.4M
Bit Rate : 321k
Sample Encoding: MPEG audio (layer I, II or III)
Comments :
Title=Foolish Vision?
Artist=Desecrate
Album=Inconsonance
Tracknumber=01
Year=1997

[/more]

Register
(22) ahp, Ash_1980, chefo, Evilded, infiltrator, Lightbringer, marilin, metala, nord6666, Olethros, pichileon, Proteus_666, Rosen, Sanctus, sergsazan, Shadechaser, stumpheavyrock, VALERY, vyacheslav, Woosad, wreak, Герб,
May 13 2019, 16:56:13 Kemet - Pieces [ep] (1998)


*Artist: Kemet
*Album: Pieces [ep]
*Year: 1998
*Genre: Gothic/Doom Metal
*Country: France
*Format: mp3@CBR320kbps
*Size: 67MB

Tracklist:
1. Embers Of Dawn 06:04
2. La Fin Du Silence 06:30
3. The Breath Through The Stone 05:50
4. This Eternal Bitterness 11:08
******************************
Total playing time: 29:32



[more=Technical info]
Input File: 01. Embers Of Dawn.mp3
Channels : 2
Sample Rate : 44100
Precision : 16-bit
Duration : 00:06:04.64 = 16080492 samples = 27347.8 CDDA sectors
File Size : 14.7M
Bit Rate : 323k
Sample Encoding: MPEG audio (layer I, II or III)
Comments :
Title=Embers Of Dawn
Artist=Kemet
Album=Pieces
Tracknumber=01
Year=1998

[/more]

Register
(16) AHBAnep, Ash_1980, Cartman223, chefo, Evilded, krotovich, marilin, nord6666, Olethros, Rosen, sergsazan, Shadechaser, VALERY, Woosad, wreak, Герб,
May 13 2019, 16:54:47 Desiderium - Demo 1999 [demo] (1999)


*Artist: Desiderium
*Album: Demo 1999 [demo]
*Year: 1999
*Genre: Gothic/Doom Metal
*Country: Norway
*Format: mp3@CBR320kbps
*Size: 53MB

Tracklist:
1. Ode To The Lord Shaper 04:20
2. Falling 05:59
3. As The Macabre Beckons 04:43
4. Desiderium 08:38
******************************
Total playing time: 23:40

[more=Extended info][youtube]1HKuBgZDNCA[/youtube][/more]

[more=Technical info]
Input File: 01. Ode To The Lord Shaper.mp3
Channels : 2
Sample Rate : 44100
Precision : 16-bit
Duration : 00:04:20.82 = 11502162 samples = 19561.5 CDDA sectors
File Size : 10.5M
Bit Rate : 322k
Sample Encoding: MPEG audio (layer I, II or III)
Comments :
Title=Ode To The Lord Shaper
Artist=Desiderium
Album=Demo 1999
Tracknumber=01
Year=1999
Genre=Gothic Doom Metal

[/more]

Register
(13) cancer1974, Cartman223, chefo, Evilded, infiltrator, marilin, nord6666, Olethros, pichileon, Rosen, stumpheavyrock, thenecromancer, Woosad,
May 6 2019, 15:59:22 Lake Of Tears - Demo 1 '93 [demo] (1993)


*Artist: Lake Of Tears
*Album: Demo 1 '93 [demo]
*Year: 1993
*Genre: Gothic/Doom Metal
*Country: Sweden
*Format: mp3@CBR320kbps
*Size: 44MB

Tracklist:
1. Eyes Of The Sky 04:33
2. Netherworld 05:38
3. Upon The Highest Mountain 08:59
******************************
Total playing time: 19:10





[more=Extended info]LP (single sided) limited to 100 + 50 copies. (1 May 2019)

In the series of retrospective reissues, The alliance of CASUS BELLI MUSICA and BEVERINA presents “Demo 1 ‘93” of LAKE OF TEARS, the band that needs no introduction!

“Demo 1 ‘93” consists of three songs –“Eyes Of The Sky”, “Netherworld”, and “Upon The Highest Mountain”. These tracks were subsequently re-recorded and included to the debut album “Greater Art”, but their demo versions are longer and have a somewhat different manner of performance, as well as the special vivid atmosphere of the creative process.

[youtube]LSLjLa10R6k[/youtube][/more]

[more=Technical info]
Input File: 2. Netherworld.mp3
Channels : 2
Sample Rate : 48000
Precision : 16-bit
Duration : 00:05:38.93 = 16268688 samples ~ 25419.8 CDDA sectors
File Size : 13.6M
Bit Rate : 320k
Sample Encoding: MPEG audio (layer I, II or III)
Comments :
Title=Netherworld
Artist=Lake Of Tears
Album=Demo 1 '93
Tracknumber=2
Year=1993
Genre=Gothic/Doom Metal

[/more]

Register
(27) beast666, Cartman223, dafya328, DowntownGsus, dulak, Emhyr var Emreis, gwar, HMHamster, krotovich, mayhem666, Mist13Signifier, nord6666, Olethros, popen13, ripper33, Rosen, sergsazan, Shadechaser, SKuzmin, stumpheavyrock, Stutthof, VALERY, Vardlokkur, Woosad, wreak, Xutun, yurgen_666,
May 5 2019, 19:50:04 Nightly Gale - Dream Of Dark Hour [demo] (1996)


*Artist: Nightly Gale
*Album: Dream Of Dark Hour [demo]
*Year: 1996
*Genre: Doom Metal
*Country: Poland
*Format: mp3@CBR320kbps
*Size: 131MB

Tracklist:
1. Dreamless 01:37
2. One Tear 12:00
3. Green Of Grove 08:49
4. Mystery 07:12
5. Insomnia 01:36
6. Gods In Pain 09:10
7. Dream Of Dark Hour 11:37
8. Forever... 05:44
******************************
Total playing time: 57:45



[more=Extended info][youtube]s4e_4XicDLA[/youtube][/more]

[more=Technical info]
Input File: 02. One Tear.mp3
Channels : 2
Sample Rate : 44100
Precision : 16-bit
Duration : 00:12:00.65 = 31780797 samples = 54049 CDDA sectors
File Size : 28.9M
Bit Rate : 321k
Sample Encoding: MPEG audio (layer I, II or III)
Comments :
Title=One Tear
Artist=Nightly Gale
Album=Dream Of Dark Hour
Tracknumber=02
Year=1996

[/more]

Register
(11) Lux, marilin, Mogozoz, nord6666, Olethros, Rosen, stumpheavyrock, thenecromancer, VALERY, Woosad, дивин,
May 5 2019, 19:48:44 Seraphim - Hope [demo] (1999)


*Artist: Seraphim
*Album: Hope [demo]
*Year: 1999
*Genre: Doom/Death/Gothic Metal
*Country: Germany
*Format: mp3@CBR320kbps
*Size: 107MB

Tracklist:
1. Intro 00:21
2. Name Of God 09:51
3. Goddess 06:13
4. König Der Gedanken 05:42
5. Silent 06:50
6. Rain 12:06
7. Lost 06:23
9. Outro 00:43
******************************
Total playing time: 48:09

[more=Extended info][youtube]co3CvmuiogQ[/youtube][/more]

[more=Technical info]
Input File: 02. Name Of God.mp3
Channels : 2
Sample Rate : 44100
Precision : 16-bit
Duration : 00:09:51.65 = 26091941 samples = 44374 CDDA sectors
File Size : 23.7M
Bit Rate : 321k
Sample Encoding: MPEG audio (layer I, II or III)
Comments :
Title=Name Of God
Artist=Seraphim
Album=Hope
Tracknumber=02
Year=1999

[/more]

Register
(11) Mogozoz, nord6666, Olethros, Rosen, sergsazan, thenecromancer, valera2010, VALERY, wendigo, Woosad, дивин,
May 5 2019, 19:46:46 Beyond Life - Transcending [demo] (2003)


*Artist: Beyond Life
*Album: Transcending [demo]
*Year: 2003
*Genre: Gothic/Doom/Death Metal
*Country: Portugal
*Format: mp3@CBR320kbps
*Size: 52MB

Tracklist:
1. Is This A Dream? 07:04
2. Beyond Death 04:51
3. The Decision 04:03
4. Dawn Of Darkness 04:24
5. Transcending 02:01
******************************
Total playing time: 22:23

[more=Extended info][youtube]cQ6XqFy8lHs[/youtube][/more]

[more=Technical info]
Input File: 02. Beyond Death.mp3
Channels : 2
Sample Rate : 44100
Precision : 16-bit
Duration : 00:04:52.07 = 12880067 samples = 21904.9 CDDA sectors
File Size : 11.9M
Bit Rate : 326k
Sample Encoding: MPEG audio (layer I, II or III)
Comments :
Title=Beyond Death
Artist=Beyond Life
Album=Transcending
Tracknumber=02
Year=2003

[/more]

Register
(11) Cartman223, Mogozoz, nord6666, Olethros, Rosen, sergsazan, stumpheavyrock, thenecromancer, valera2010, VALERY, wendigo,
May 3 2019, 17:22:12 Nymphea Aurora - In Misery...Never Comes Silence... [compilation] (2017)


*Artist: Nymphea Aurora
*Album: In Misery...Never Comes Silence... [compilation]
*Year: 2017
*Genre: Doom/Death Metal
*Country: Netherlands
*Format: mp3@CBR320kbps
*Size: 208MB

Tracklist:
01. Intro 01:47
02. Misery... 07:07
03. Polluted Absolution 06:45
04. In Solitude 03:26
05. Alone With Nature 05:46
06. The Touch Of An Angel 08:17
07. Never Comes Silence 07:09
08. Clouded Eyes 08:24
09. The Touch Of An Angel (Re-recorded) 10:41
10. Solar Eclipse (Live) (Bonus Track) 04:33
******************************
Total playing time: 1:03:55

[more=Extended info]+ Scans.

Tracks 1-6 taken from the demo "Misery", 2005.
Tracks 7-9 taken from the promo "Never Comes Silence", 2008.
Track 10 - bonus live track recorded at "De oefenbunker" in Landgraaf 24-11-2006 (original by Amethist).
All tracks were remastered by John van Manen in September/October 2017.
Pro-printed CD-R released in a standard jewel case with 4-page booklet.

[youtube]HdAq_zHoiRU[/youtube][/more]

[more=Technical info]
Input File: 02. Misery....mp3
Channels : 2
Sample Rate : 44100
Precision : 16-bit
Duration : 00:07:06.92 = 18827128 samples = 32018.9 CDDA sectors
File Size : 17.1M
Bit Rate : 320k
Sample Encoding: MPEG audio (layer I, II or III)
Comments :
Title=Misery...
Artist=Nymphea Aurora
Album=In Misery...Never Comes Silence...
Tracknumber=2
Year=2017
Genre=Doom/Death Metal

[/more]

Register
(9) Ash_1980, chefo, Evilded, nord6666, Ostinato, Rosen, stumpheavyrock, VALERY, Woosad,
May 3 2019, 17:20:27 Dark Sadness - Art & Solitude (1996)


*Artist: Dark Sadness
*Album: Art & Solitude
*Year: 1996
*Genre: Melodic Death/Doom Metal
*Country: Mexico
*Format: mp3@CBR320kbps
*Size: 142MB

Tracklist:
1. Intro 00:35
2. Out Of Focus 04:16
3. Evil Inside 05:21
4. Dark Sadness 04:53
5. Pain And Passion 05:09
6. Art & Solitude 03:23
7. Dark Sadness (Acoustic) 05:32
8. Nothing To Hold (Bonus Track) 05:14
******************************
Total playing time: 34:23

[more=Extended info]+ Scans.

[youtube]DIOeFHz5GFs[/youtube]
[youtube]DRezxeLjI7M[/youtube][/more]

[more=Technical info]
Input File: 2. Out Of Focus.mp3
Channels : 2
Sample Rate : 44100
Precision : 16-bit
Duration : 00:04:16.44 = 11308784 samples = 19232.6 CDDA sectors
File Size : 10.3M
Bit Rate : 320k
Sample Encoding: MPEG audio (layer I, II or III)
Comments :
Title=Out of Focus
Artist=Dark Sadness
Album=Art & Solitude
Tracknumber=2
Year=2017
Genre=Melodic Death/Doom Metal

[/more]

Register
(13) chefo, Evilded, klon71, metala, Mogozoz, nord6666, Olethros, Rosen, stumpheavyrock, VALERY, Woosad, Герб, Сварог Барг,
Apr 10 2019, 17:30:14 Yhdarl - M O R B U S (2019)


*Artist: Yhdarl
*Album: M O R B U S
*Year: 2019
*Genre: Doom/Depressive Black Metal
*Country: Belgium
*Format: mp3@CBR320kbps
*Size: 202MB

Tracklist:
1. The Flesh Refuses The Light 14:54
2. Sky Amongst Infested Stars 14:33
3. Dismembered Sun 11:54
4. The Unfair Betrayal 13:49
5. Insomnia (Faithless Cover) 10:33
6. Morbus 13:20
******************************
Total playing time: 1:19:03




[more=Technical info]
Input File: 3. Dismembered Sun.mp3
Channels : 2
Sample Rate : 44100
Precision : 16-bit
Duration : 00:11:54.46 = 31507774 samples = 53584.6 CDDA sectors
File Size : 28.7M
Bit Rate : 321k
Sample Encoding: MPEG audio (layer I, II or III)
Comments :
Title=Dismembered Sun
Artist=Yhdarl
Album=M O R B U S
Tracknumber=3
Year=2019

[/more]

Register

Register
(26) Ash_1980, Evilded, Hell_Is_Here, infiltrator, khestanow3001, Krosis, krotovich, Lamby90, libertine, Olethros, Ostinato, Reverend, robertho777, Rosen, SatanicPanzer, Shadechaser, SilentNidhogg, stub888, the_cleanser, Tyrone, VALERY, vasiljev_sergej, Whitefish, ZA670, ZambuL, Волос,
Apr 7 2019, 14:33:20 A Dream Of Poe - The Wraith Uncrowned (2019)


*Artist: A Dream Of Poe
*Album: The Wraith Uncrowned
*Year: 2019
*Genre: Gothic/Doom Metal
*Country: Portugal
*Format: mp3@CBR320kbps
*Size: 92MB

Tracklist:
1. Versos Para O Submundo 01:43
2. Jekk Alla Jrid 05:23
3. At The Cape Of Good Hope, The Wraith 05:47
4. In The Wake Of Forgetfulness 05:53
5. Punished 04:37
6. Spirits Of The Dead 07:33
7. The Bringer Of Dawn 05:23
8. Eulogy For The Weary 02:20
******************************
Total playing time: 38:39




[more=Extended info][youtube]_EyR_YFSVy8[/youtube][/more]

[more=Technical info]
Input File: 2. Jekk Alla Jrid.mp3
Channels : 2
Sample Rate : 44100
Precision : 16-bit
Duration : 00:05:23.08 = 14247696 samples = 24230.8 CDDA sectors
File Size : 13.1M
Bit Rate : 324k
Sample Encoding: MPEG audio (layer I, II or III)
Comments :
Title=Jekk Alla Jrid
Artist=A Dream of Poe
Album=The Wraith Uncrowned
Tracknumber=2
Year=2019
Genre=Doom Metal

[/more]

Register
(21) AHBAnep, Alpha_Prime, Ash_1980, avkruchinin, Cartman223, chefo, DenisKov, eyes0re, Ice Gnoll, libertine, metala, Metalass, metaljinie, Mogozoz, nospeedlimit, Olethros, robertho777, Rosen, Shadechaser, valera2010, VALERY,
Mar 20 2019, 15:52:56 Darkthule - Άπειρος Γη [ep] (2019)


*Artist: Darkthule
*Album: Άπειρος Γη [ep]
*Year: 2019
*Genre: Black Metal
*Country: Greece
*Format: mp3@CBR320kbps
*Size: 46MB

Tracklist:
1. Άπειρος Γη 04:43
2. Ιαχή 04:39
3. Άπειρος Γη (6/8/2014) 04:50
4. Ιαχή (6/8/2014) 04:51
******************************
Total playing time: 19:03



[more=Extended info]Lyrics and music composed between 2010 - 2014.
The tracks were recorded in Autumn of 2014.

Strictly limited to 100 hand-numbered copies, retro-style vinyl CD in brown Manila record-style card wallet in brown Manila mailers, including insert. Each copy is individually sealed with red wax.[/more]

[more=Technical info]
Input File: 1. Άπειρος Γη.mp3
Channels : 2
Sample Rate : 44100
Precision : 16-bit
Duration : 00:04:43.39 = 12497587 samples = 21254.4 CDDA sectors
File Size : 11.4M
Bit Rate : 322k
Sample Encoding: MPEG audio (layer I, II or III)
Comments :
Title=Άπειρος Γη
Artist=Darkthule
Album=Άπειρος Γη
Tracknumber=1
Year=2019

[/more]

Register
(28) 1968_janeart, andivi, artscald, Ash_1980, Fatalist77791, Fryz, garmonbozia, Hell_Is_Here, Ildjarn, infiltrator, kefka, kim666, NachtWulf, Olethros, Ostinato, Reverend, robertho777, thenecromancer, the_cleanser, Tyrone, VALERY, varg-38ru, vasiljev_sergej, Velmi, vovenom, wreak, zotyo1975, Волос,
Mar 20 2019, 15:51:37 Ad Cinerem - Of Earth And Ashes [ep] (2019)


*Artist: Ad Cinerem
*Album: Of Earth And Ashes [ep]
*Year: 2019
*Genre: Blackened Doom Metal
*Country: Germany
*Format: mp3@CBR320kbps
*Size: 85MB

Tracklist:
1. Fields Of Memory 05:47
2. At The Edge Of Yesterday 11:06
3. Death Of A Wanderer 11:33
******************************
Total playing time: 28:26




[more=Extended info]+ Scans.

[youtube]TlHl0RcBKAE[/youtube][/more]

[more=Technical info]
Input File: 1. Fields Of Memory.mp3
Channels : 2
Sample Rate : 44100
Precision : 16-bit
Duration : 00:05:47.61 = 15329469 samples = 26070.5 CDDA sectors
File Size : 13.9M
Bit Rate : 320k
Sample Encoding: MPEG audio (layer I, II or III)
Comments :
Title=Fields Of Memory
Artist=Ad Cinerem
Album=Of Earth And Ashes
Tracknumber=1
Year=2019
Genre=Doom Metal

[/more]

Register
(18) artscald, chefo, Hell_Is_Here, Irimias, judaz, lestllk, libertine, Olethros, Ostinato, Razorbladeswaltz, robertho777, Rosen, sergsazan, Shadechaser, TeamatSE, VALERY, vasiljev_sergej, wreak,

84 Pages V   1 2 3 > » 
- Lo-Fi Version Support form
Copyrights and abuse reports form
Time is now: 16th September 2019 - 11:05:50