Welcome Guest ( Log In | Register )

История благодарностей участнику RUDACHUR ::: Спасибо сказали: 40718 раз(а)
Дата поста: В теме: За сообщение: Спасибо сказали:
Nov 1 2019, 19:36:12 Of The Wand & The Moon - Tunes For A Twilight Tears For A Lifetime (2018)


*Artist: Of The Wand & The Moon
*Album: Tunes For A Twilight Tears For A Lifetime
*Year: 2018
*Genre: Neofolk
*Country: Denmark
*Format: mp3@CBR320kbps
*Size: 197MB

Tracklist:
01. A Tomb Of Seasoned Dye 05:32
02. Hail Hail Hail 02:36
03. Shine Black Algiz 03:29
04. I Crave For You 03:06
05. Immer Vorwärts 03:17
06. Hold My Hand 02:29
07. Lucifer 05:33
08. Sunspot 05:28
09. We Are Dust 03:46
10. Heres An Ode 02:48
11. Lost In Emptiness 03:37
12. Wonderful Wonderful Sun 02:40
******************************
Total playing time: 44:21



[more=Extended info][youtube]jmSwE03Fn0A[/youtube][/more]

[more=Technical info]
Input File: Of The Wand & The Moon - Tunes For A Twilight Tears For A Lifetime (1).mp3
Channels : 2
Sample Rate : 48000
Precision : 16-bit
Duration : 00:05:32.07 = 15939216 samples ~ 24905 CDDA sectors
File Size : 13.3M
Bit Rate : 320k
Sample Encoding: MPEG audio (layer I, II or III)
Comments :
Title=A Tomb Of Seasoned Dye
Artist=:Of The Wand & The Moon:
Album=Tunes For A Twilight Tears For A Lifetime
Tracknumber=1
Year=2018
Genre=Acoustic/Neofolk

[/more]

Register
(11) A.L.Rapsod, abob, acerbus, Cartman223, craP_cillA, Druidir, gwar, Olethros, thenecromancer, tOmV, whitebros,
Nov 1 2019, 19:34:51 Endless Autumn - Come To My Land [ep] (2008)


*Artist: Endless Autumn
*Album: Come To My Land [ep]
*Year: 2008
*Genre: Atmospheric Gothic/Doom Metal
*Country: Denmark
*Format: mp3@CBR320kbps
*Size: 166MB

Tracklist:
1. You Are Mine 08:06
2. The Land (Part 1 & Part 2) 11:53
3. My Dying Wish 08:25
4. Die Without You 07:05
5. Cities Without Dawn 10:41
******************************
Total playing time: 46:10




[more=Extended info]+ Scans.

[youtube]pcaBDOfqKdM[/youtube][/more]

[more=Technical info]
Input File: 1. You Are Mine.mp3
Channels : 2
Sample Rate : 44100
Precision : 16-bit
Duration : 00:08:05.83 = 21425059 samples = 36437.2 CDDA sectors
File Size : 19.4M
Bit Rate : 320k
Sample Encoding: MPEG audio (layer I, II or III)
Comments :
Title=You Are Mine
Artist=Endless Autumn
Album=Come To My Land
Tracknumber=1
Year=2008
Genre=Gothic Doom Metal

[/more]

Register
(7) chefo, kluval, Ludwig Hagen, Olethros, Rosen, sergsazan, VALERY,
Oct 24 2019, 14:13:14 Lord Wind - The Forest Is My Kingdom (2019)


*Artist: Lord Wind
*Album: The Forest Is My Kingdom
*Year: 2019
*Genre: Pagan Folk
*Country: Poland
*Format: mp3@CBR320kbps
*Size: 133MB

Tracklist:
01. Chants On The Forgotten Palace 04:43
02. Severnyj Veter 04:40
03. Leshy 05:54
04. Czarny Kruk 05:44
05. Królowa śniegu 03:44
06. Oj Moroz Moroz 05:18
07. Drzewo Przodków 04:57
08. Pagantiga 04:00
09. Rusalki 05:07
10. Cult Of Seth 05:08
11. Herr Mannelig 07:35
******************************
Total playing time: 56:50




[more=Extended info][youtube]cuP2Hfq7q-o[/youtube]
[youtube]_ybs-S_ZMPQ[/youtube][/more]

[more=Technical info]
Input File: 01 - Chants on the forgotten palace.mp3
Channels : 2
Sample Rate : 44100
Precision : 16-bit
Duration : 00:04:43.76 = 12513684 samples = 21281.8 CDDA sectors
File Size : 11.6M
Bit Rate : 326k
Sample Encoding: MPEG audio (layer I, II or III)
Comments :
Title=Chants on the forgotten palace
Artist=Lord Wind
Album=The Forest Is My Kingdom
Tracknumber=01/11
Year=2019

[/more]

Register
(17) Black Cat, canadaspaceman, Cartman223, Druidir, gwar, Hefir, Infidel, Kazoth, Konst, lafuma, MEmethuselah, oldvarg, Olethros, Phlebotomized, Raw1488, SSorcerer, thenecromancer,
Oct 15 2019, 18:41:15 The Howling Void & Nyss - Ravens Of The Burning God [split] (2018)
Register
(3) deathic, kimkayoung, libertine,
Oct 9 2019, 16:56:57 Ghost Creek - I [ep] (2019)


*Artist: Ghost Creek
*Album: I [ep]
*Year: 2019
*Genre: Funeral Doom Metal
*Country: United States
*Format: mp3@CBR320kbps
*Size: 58MB

Tracklist:
1. I Am No One 07:11
2. Sempiternal Torment Of Mind 09:19
3. Winter Of Forgotten Souls 08:56
******************************
Total playing time: 25:26




[more=Technical info]
Input File: 1. I Am No One.mp3
Channels : 2
Sample Rate : 44100
Precision : 16-bit
Duration : 00:07:11.67 = 19036691 samples = 32375.3 CDDA sectors
File Size : 17.4M
Bit Rate : 322k
Sample Encoding: MPEG audio (layer I, II or III)
Comments :
Title=I Am No One
Artist=Ghost Creek
Album=I
Tracknumber=1
Year=2019

[/more]

Register
(8) artscald, Hell_Is_Here, Olethros, Ostinato, Rosen, sergsazan, uncolored, VALERY,
Oct 9 2019, 16:42:35 Fjøsnisse - Heksedreper [ep] (2019)


*Artist: Fjøsnisse
*Album: Heksedreper [ep]
*Year: 2019
*Genre: Black Metal
*Country: Norway
*Format: mp3@CBR320kbps
*Size: 55MB

Tracklist:
1. Sorgens Flamme 04:59
2. Trollbergets Port 02:47
3. Vargham 05:40
4. Djeveldans 05:28
5. Heksedreper 04:52
******************************
Total playing time: 23:46




[more=Extended info][youtube]l00pUnXHZ0o[/youtube][/more]

[more=Technical info]
Input File: 1. Sorgens Flamme.mp3
Channels : 2
Sample Rate : 44100
Precision : 16-bit
Duration : 00:04:59.82 = 13222194 samples = 22486.7 CDDA sectors
File Size : 12.0M
Bit Rate : 321k
Sample Encoding: MPEG audio (layer I, II or III)
Comments :
Title=Sorgens Flamme
Artist= Fjøsnisse
Album=Heksedreper
Tracknumber=1
Year=2019

[/more]

Register
(17) 1968_janeart, artscald, cancer1974, dromord, Ildjarn, kim666, nsk2008, Olethros, Ostinato, robertho777, Rosen, SilentNidhogg, Sjelekval, stub888, Teshub, VALERY, vasiljev_sergej,
Oct 9 2019, 16:39:15 Kings Rot - In The Land Of Mordor​.​.​. [ep] (2018)


*Artist: Kings Rot
*Album: In The Land Of Mordor​.​.​. [ep]
*Year: 2018
*Genre: Black Metal
*Country: Canada
*Format: mp3@CBR320kbps
*Size: 69MB

Tracklist:
1. Evil Arises 03:19
2. Ancient Temple Of The Coffin Spirit 03:55
3. Droning Chime Of The Cacophonous Bell 06:41
4. The Ever Glowing Eye 04:54
5. As The Sun Descends Beyond The Horizon 04:27
6. Towards Seregost... 04:38
******************************
Total playing time: 27:54




[more=Extended info][youtube]arSJ50jNMXw[/youtube][/more]

[more=Technical info]
Input File: 1. Evil Arises.mp3
Channels : 2
Sample Rate : 44100
Precision : 16-bit
Duration : 00:03:19.72 = 8807520 samples = 14978.8 CDDA sectors
File Size : 8.09M
Bit Rate : 324k
Sample Encoding: MPEG audio (layer I, II or III)
Comments :
Title=Evil Arises
Artist=Kings Rot
Album=In The Land Of Mordor...
Tracknumber=1
Year=2018

[/more]

Register
(11) 1968_janeart, artscald, cist, kim666, Olethros, rickzammuto, Rosen, SilentNidhogg, stub888, VALERY, vasiljev_sergej,
Oct 8 2019, 15:18:41 The Howling Void & Nyss - Ravens Of The Burning God [split] (2018)


*Artist: The Howling Void & Nyss
*Album: Ravens Of The Burning God [split]
*Year: 2018
*Genre: Atmospheric Doom Metal | Experimental Black Metal
*Country: United States | France
*Format: mp3@CBR320kbps
*Size: 83MB

Tracklist:
The Howling Void:
1. Darkness In The Daylight 13:06
Nyss:
2. I Am The Light Of The World 07:20
3. We Are Sigils 10:29
******************************
Total playing time: 30:55





[more=Extended info]+ Scans.

Limited to 300 copies in a 6-panel Digipak. (Avantgarde Music)

[youtube]VwBgALGySqA[/youtube][/more]

[more=Technical info]
Input File: 1. Darkness In The Daylight.mp3
Channels : 2
Sample Rate : 44100
Precision : 16-bit
Duration : 00:13:07.06 = 34709478 samples = 59029.7 CDDA sectors
File Size : 31.5M
Bit Rate : 320k
Sample Encoding: MPEG audio (layer I, II or III)
Comments :
Title=Darkness In The Daylight
Artist=The Howling Void
Album=Ravens Of The Burning God
Tracknumber=1
Year=2018
Genre=Doom Metal

[/more]

Register
(28) AndreFrancis, artscald, Boozer, Doooomed, dulak, ErikGoth, gena, Hell_Is_Here, infiltrator, kimkayoung, Lanceatum, lestllk, nadin85, Old Vyaine, popen13, randumbum, robertho777, Rosen, sergsazan, Shadechaser, tamerz, terron, thenecromancer, tOmV, valera2010, VALERY, vasiljev_sergej, yuratroll,
Oct 3 2019, 14:14:27 Nihil - Decadencia [demo] (2019)



[youtube]UyF8v7indYg[/youtube]
(2) KVRT, Sanctus,
Sep 28 2019, 18:54:59 Batyushka - Апостол (2019)
[youtube]cp3RpZEN1VU[/youtube]
(2) Baarin, Kwaad,
Sep 28 2019, 18:47:24 Evisceration - Forlorn: The 25 Year Anniversary Edition [compilation] (2019)
Register


[youtube]eLVXJ2Ihn1U[/youtube]
(4) Evilded, nikolay81, Olethros, robertho777,
Sep 27 2019, 19:02:52 Evisceration - Forlorn: The 25 Year Anniversary Edition [compilation] (2019)


*Artist: Evisceration
*Album: Forlorn: The 25 Year Anniversary Edition [compilation]
*Year: 2019
*Genre: Doom/Death Metal
*Country: Netherlands
*Format: mp3@CBR320kbps
*Size: 217MB

Tracklist:
01. Forlorn 04:42
02. Roadkill 03:51
03. Vice Erosion 04:49
04. Pure 06:44
05. Possession 05:17
06. Under Construction 05:11
07. Invincible Desire 05:57
08. Sado Empathy 06:09
09. Bear The Pain 04:06
10. Soul Artist 06:52
11. Disbelief 04:16
12. Eviscerated 05:14
13. Interdimensional Existence 05:20
14. Equivalent To Homicide 05:09
15. To Whom It May Concern 03:16
******************************
Total playing time: 1:16:53



[more=Extended info][youtube]pNRNdjvgh1U[/youtube]
[youtube]xWPEGdc_xA0[/youtube][/more]

[more=Technical info]
Input File: 01 - Forlorn.mp3
Channels : 2
Sample Rate : 44100
Precision : 16-bit
Duration : 00:04:43.00 = 12480432 samples = 21225.2 CDDA sectors
File Size : 14.1M
Bit Rate : 398k
Sample Encoding: MPEG audio (layer I, II or III)
Comments :
Title=Forlorn
Artist=Evisceration
Album=Forlorn: The 25 Year Anniversary Edition
Tracknumber=1
Year=2019
Genre=Doom/Death Metal
Discnumber=1

[/more]

Register
(23) AHBAnep, andreikun, artscald, Boozer, chefo, gav-gafi, Guns, Hell_Is_Here, Ildjarn, kluval, Mist13Signifier, Ostinato, Razorbladeswaltz, Rosen, russ777, Shadechaser, soulflesh, troll_swamp, vyacheslav, wreak, Zenial, Волос, Герб,
Sep 27 2019, 19:01:14 Ragehammer - War Hawks [demo] (2012)


*Artist: Ragehammer
*Album: War Hawks [demo]
*Year: 2012
*Genre: Black/Thrash Metal
*Country: Poland
*Format: mp3@CBR320kbps
*Size: 62MB

Tracklist:
1. Ragehammer Rising 02:46
2. Prophet Of Genocide 05:16
3. Hate Command 02:41
4. The Wolfpack 05:00
5. Gospel Of The Scum 03:09
******************************
Total playing time: 18:52



[more=Extended info]+ Scans.

[youtube]_CXsoXKsBjk[/youtube][/more]

[more=Technical info]
Input File: 1. Ragehammer Rising.mp3
Channels : 2
Sample Rate : 44100
Precision : 16-bit
Duration : 00:02:46.54 = 7344546 samples = 12490.7 CDDA sectors
File Size : 6.66M
Bit Rate : 320k
Sample Encoding: MPEG audio (layer I, II or III)
Comments :
Title=Ragehammer Rising
Artist=Ragehammer
Album=War Hawks
Tracknumber=1
Year=2012
Genre=Black/Thrash Metal

[/more]

Register
(13) artscald, DarkHorde, lestllk, Ostinato, Rosen, stumpheavyrock, Styx, vasiljev_sergej, Wail, wolverine, wrath082, wreak, wtk.412,
Sep 23 2019, 19:32:55 R.E.T. - Silence (2019)


*Artist: R.E.T.
*Album: Silence
*Year: 2019
*Genre: Gothic/Doom Metal
*Country: Czech Republic
*Format: mp3@CBR320kbps
*Size: 123MB

Tracklist:
1. Čas 05:50
2. Beyond Emptiness 05:43
3. Immortal 04:50
4. Invocation 06:23
5. Exitus Corunat Epus 05:42
6. Luck Of Tears (Cover Dissolving Of Prodigy) 08:15
******************************
Total playing time: 36:43



[more=Extended info]+ Scans.[/more]

[more=Technical info]
Input File: 1. Čas.mp3
Channels : 2
Sample Rate : 44100
Precision : 16-bit
Duration : 00:05:50.87 = 15473499 samples = 26315.5 CDDA sectors
File Size : 14.0M
Bit Rate : 320k
Sample Encoding: MPEG audio (layer I, II or III)
Comments :
Title=Cas
Artist=R-E-T
Album=Silence
Tracknumber=1
Year=2019
Genre=Gothic/Doom Metal

[/more]

Register
(18) artscald, Cartman223, chefo, chipsgott, cryptal, jelly_kt, KVRT, Kwaad, metala, metalwoman, Mogozoz, Olethros, Olrak, postal67, Rosen, sergsazan, Shadechaser, wreak,
Sep 23 2019, 19:31:39 Call Ov The Void - Drowned [ep] (2019)


*Artist: Call Ov The Void
*Album: Drowned [ep]
*Year: 2019
*Genre: Death/Doom Metal
*Country: Mexico
*Format: mp3@CBR320kbps
*Size: 47MB

Tracklist:
1. Borrowed Time 07:09
2. No Place For Light 06:37
3. Lifeless 05:11
******************************
Total playing time: 18:57




[more=Technical info]
Input File: 1. Borrowed Time.mp3
Channels : 2
Sample Rate : 44100
Precision : 16-bit
Duration : 00:07:09.17 = 18926221 samples = 32187.5 CDDA sectors
File Size : 18.1M
Bit Rate : 338k
Sample Encoding: MPEG audio (layer I, II or III)
Comments :
Title=Borrowed Time
Artist=Call ov the Void
Album=Drowned
Tracknumber=1
Year=2019
Genre=Death/Doom Metal
Discnumber=1

[/more]

Register
(11) artscald, chefo, libertine, morbidangelo, Olethros, Rosen, sergsazan, Shadechaser, stumpheavyrock, vyacheslav, wreak,
Sep 3 2019, 16:31:03 Master's Hammer - Demos. [compilation] (2013)
Register
(5) igore2911, Reverend, thenecromancer, vasiljev_sergej, wtk.412,
Sep 2 2019, 09:57:33 Master's Hammer - Demos. [compilation] (2013)


*Artist: Master's Hammer
*Album: Demos. [compilation]
*Year: 2013
*Genre: Black Metal
*Country: Czech Republic
*Format: mp3@CBR320kbps
*Size: 515MB

Tracklist:
CD I :
01. Kovový Chrám 04:53
02. Hej, Čerte Chlupatej 04:13
03. Černej Anděl 03:16
04. Blek Metl 02:05
05. Rychlejší Než Satan 03:52
06. Hodokvas 02:49
07. Hymna Černé Krve 09:57
08. Jáma Pekel 03:51
09. Šánečto 04:49
10. Lucifer 03:53
11. Signum Diabolis 03:35
12. Za Smlouvou Pekelnou 05:36
13. Zapálili Jsme Onen Svět 04:06
14. The Mass 03:11
15. Vzývání Úterní 03:05
16. Černá Svatozář 05:52

CD II :
01. Intro 02:41
02. Duše Nesmrtelných 03:35
03. Vzývání Úterní 03:00
04. Jáma Pekel 04:15
05. Lucifer2 06:02
06. Za Smlouvou Pekelnou 03:47
07. Přivítej Smrt 05:35
08. Šánečto 03:28
09. Intro 01:56
10. Zapálili Jsme Onen Svět 04:36
11. Signum Diabolis 03:34
12. Černá Svatozář 06:30
13. Skryté Síly 03:19
14. Věčný Návrat 03:39
15. The Mass 02:58
16. Vykoupení 05:37
17. Kolem Kotle 09:16

CD III :
01. Intro 02:19
02. Pád Modly 07:36
03. Každý Z Nás... 03:49
04. Géniové 05:18
05. Hnijící Ráj 03:39
06. Útok 07:45
07. Předehra 01:23
08. Mezi Kopci Cesta Je Klikatá 05:16
09. Já Nechci Mnoho Trápiti... 05:29
10. Ten Dvanácterák... 03:52
11. Můj Hejtmane... 06:20
12. Litografické Kalendáře 01:42
13. Já Mizérií Osudu... 05:00
14. Že Vše Jen Podle Mého... 04:32
15. Mediální Kresby 03:57
16. Suchardův Dům 05:53
******************************
Total playing time: 3:36:41






[more=Extended info]+ Scans.

The first official collected edition of Master's Hammer demos. Unchanged sound from the original mastertapes. 3 CDs, 16-page booklet in glossy digipak.

Disc 1:
The Ritual Murder (1987) - tracks 1-7
Live in Zbraslav (18.5.1989) - tracks 8-16

Disc 2:
Finished (1988) - tracks 1-8
The Mass (1989) - tracks 9-17

Disc 3:
The Fall of Idol (1990) - tracks 1-6
Jilemnický okultista (1992) - tracks 7-16[/more]

[more=Technical info]
Input File: 08-Mezi Kopci Cesta Je Klikatá.mp3
Channels : 2
Sample Rate : 44100
Precision : 16-bit
Duration : 00:05:16.99 = 13979259 samples = 23774.2 CDDA sectors
File Size : 12.7M
Bit Rate : 320k
Sample Encoding: MPEG audio (layer I, II or III)
Comments :
Title=Mezi Kopci Cesta Je Klikata
Artist=MASTER'S HAMMER
Album=Demos.
Tracknumber=8
Year=2013
Genre=Black Metal

[/more]

Register
(29) 1968_janeart, Albert66613, artscald, canadaspaceman, craP_cillA, desekrator, Emhyr var Emreis, heinz88, Hell_Is_Here, igore2911, infiltrator, Lanceatum, LazarShadow, lestllk, Olethros, Pinhead666, popen13, princeshr, Rosen, Saldiac, stumpheavyrock, supremo, thenecromancer, the_cleanser, the_metalist, tireheb, VALERY, Wail, wreak,
Aug 24 2019, 12:23:43 Funeralopolis - ...Of Death/...Of Prevailing Chaos [compilation] (2019)


*Artist: Funeralopolis
*Album: ...Of Death/...Of Prevailing Chaos [compilation]
*Year: 2019
*Genre: Death/Doom Metal
*Country: Switzerland
*Format: mp3@CBR320kbps
*Size: 128MB

Tracklist:
01. The Wrath (Of The Dead) 05:33
02. Day Of Mourning 04:43
03. Pit Of Death 03:28
04. Devouring Crypts Of Darkness 03:57
05. Existence Beyond 06:56
06. Intro (Tonight I Will Possess Your Corpse) 01:03
07. Euphoric Blasphemy 04:18
08. Curse Of Darkness 04:24
09. Achluophobia 04:07
10. Bo' Nguloth 04:40
11. Beneath Deathless Depths 03:44
12. Tale Of A Mass 09:57
******************************
Total playing time: 56:50




[more=Extended info]Tracks 1-5: "...of Death" demo (2010)
Tracks 6-12: "...of Prevailing Chaos" EP (2013)

[youtube]TEanlJ3c3UY[/youtube][/more]

[more=Technical info]
Input File: 07 Euphoric Blasphemy.mp3
Channels : 2
Sample Rate : 44100
Precision : 16-bit
Duration : 00:04:18.29 = 11390413 samples = 19371.5 CDDA sectors
File Size : 10.5M
Bit Rate : 325k
Sample Encoding: MPEG audio (layer I, II or III)
Comments :
Title=Euphoric Blasphemy
Artist=Funeralopolis
Album=...of Death / ...of Prevailing Chaos
Tracknumber=7
Year=2019

[/more]

Register
(18) artscald, Borderline1991, Doooomed, fuoco, Hell_Is_Here, infiltrator, marilin, metala, Mist13Signifier, Olethros, Rosen, Sanctus, smysl, stumpheavyrock, VALERY, vyacheslav, wreak, Герб,
Aug 19 2019, 11:26:54 Новости DOOM Metal
Fvneral Fvkk - Carnal Confessions (September 27th, 2019)




[youtube]e9L89njemmg[/youtube]
(2) doomsmith, Lux,
Aug 19 2019, 10:54:08 Новости Folk/Pagan/Viking
Ereb Altor - Järtecken (September 23rd, 2019)(Hammerheart Records)




[youtube]Vx0FNWv1RLM[/youtube]
[youtube]OtxP0EgO-9M[/youtube]
(3) Black Cat, infiltrator, Old Vyaine,
Aug 19 2019, 10:25:37 Illimitable Dolor & Promethean Misery - Illimitable Dolor & Promethean Misery [split] (2019)


*Artist: Illimitable Dolor & Promethean Misery
*Album: Illimitable Dolor & Promethean Misery [split]
*Year: 2019
*Genre: Atmospheric Doom/Death Metal | Atmospheric Doom Metal
*Country: Australia | Australia
*Format: mp3@CBR320kbps
*Size: 121MB

Tracklist:
Illimitable Dolor:
1. Kitsuni 06:57
2. Tamtu 18:45
Promethean Misery:
3. Mind At Wrest 13:51
4. Shadow Fell And Followed 13:39
******************************
Total playing time: 53:12






[more=Technical info]
Input File: 1. Kitsuni.mp3
Channels : 2
Sample Rate : 44100
Precision : 16-bit
Duration : 00:06:57.36 = 18405488 samples = 31301.9 CDDA sectors
File Size : 16.7M
Bit Rate : 320k
Sample Encoding: MPEG audio (layer I, II or III)
Comments :
Title=Kitsuni
Artist=Illimitable Dolor
Album=Illimitable Dolor & Promethean Misery
Tracknumber=1
Year=2019
Genre=Doom Metal

[/more]

Register
(30) AHBAnep, ahp, AndreFrancis, artscald, autumnwood, doomTemplar, Doooomed, GorAtheist, Hell_Is_Here, Hey_You, infiltrator, khestanow3001, kluval, KVRT, LEGION69, libertine, Ludwig Hagen, Mist13Signifier, Old Vyaine, Ostinato, Razorbladeswaltz, Rosen, russ777, SatanicPanzer, Shadechaser, skidnik, tamerz, thenecromancer, wreak, Герб,
Aug 19 2019, 10:24:10 Shroud Of Despondency - Befouled By The Sacred: Love Is A Callus (2019)


*Artist: Shroud Of Despondency
*Album: Befouled By The Sacred: Love Is A Callus
*Year: 2019
*Genre: Progressive Black/Death/Doom Metal
*Country: United States
*Format: mp3@CBR320kbps
*Size: 164MB

Tracklist:
1. A Callous Distance 03:50
2. Aphotic Conditions 06:00
3. Misery Of An Immense Age 07:25
4. Wolfbiter 12:07
5. The Law Of Diminishing Returns 07:35
6. Abundant And Nullified 10:05
7. The Metamorphosis 08:28
8. Cracked Hull 16:03
******************************
Total playing time: 1:11:33



[more=Technical info]
Input File: 2. Aphotic Conditions.mp3
Channels : 2
Sample Rate : 44100
Precision : 16-bit
Duration : 00:06:00.41 = 15893861 samples = 27030.4 CDDA sectors
File Size : 14.5M
Bit Rate : 322k
Sample Encoding: MPEG audio (layer I, II or III)
Comments :
Title=Aphotic Conditions
Artist=Shroud Of Despondency
Album=Befouled by the Sacred:Love Is a Callus
Tracknumber=2
Year=2019

[/more]

Register
(17) artscald, DarkHorde, doomTemplar, Doooomed, garml2, infiltrator, Ludwig Hagen, Mannard, metala, MMMMM, Olethros, Rosen, stumpheavyrock, Tino, vasiljev_sergej, wreak, Нигилист,
Aug 16 2019, 22:50:42 Клипы (не просто, а ЛУЧШИЕ). Обсуждение с объяснением
[youtube]bOgRdyZc8mE[/youtube]
(2) Sanctus, Фо,
Jul 17 2019, 17:14:07 Wald Geist Winter - Teufelskreise (2010)


*Artist: Wald Geist Winter
*Album: Teufelskreise
*Year: 2010
*Genre: Pagan Black Metal
*Country: Germany
*Format: mp3@CBR320kbps
*Size: 66MB

Tracklist:
1. Heimkehr 6:00
2. Der Nacht Entrissen 4:34
3. Schwärze Zersetzt Die Farben Des Morgen 4:34
4. König Lorak 4:08
5. Leblos Im Moor 5:12
6. Kalter Schein 4:59
7. In So Manch Rauer Nacht 4:05
******************************
Total playing time: 33:32



[more=Extended info]Sucellus - Drums, Bass, Guitars (2005-2012)
(See also: Gnipahålan, Odal, Wolfsschrei, ex-Aske, ex-Barastir, ex-Erhabenheit, ex-Isenheim, ex-Raven's Empire, ex-Rusting Sun, ex-Salvation666, ex-Seelengreif, ex-Põhjast)

Herr Eichman - Guitars, Vocals (2005-2012)
(See also: Sarrgh)

[youtube]Yh79iX8CLzk[/youtube][/more]

[more=Technical info]
Input File: 01 Heimkehr.mp3
Channels : 2
Sample Rate : 44100
Precision : 16-bit
Duration : 00:06:01.00 = 15920100 samples = 27075 CDDA sectors
File Size : 14.4M
Bit Rate : 320k
Sample Encoding: MPEG audio (layer I, II or III)
Comments :
Title=Heimkehr
Artist=Wald Geist Winter
Album=Teufelskreise
Tracknumber=1
Year=2010
Genre=Black Metal

[/more]

Register
(13) 1968_janeart, artscald, GorAtheist, Ildjarn, infiltrator, Krosis, Olethros, Ostinato, Rosen, stub888, vasiljev_sergej, wreak, Сварог Барг,
Jul 17 2019, 17:12:43 Consensus - Libertatis Clamor [ep] (2005)


*Artist: Consensus
*Album: Libertatis Clamor [ep]
*Year: 2005
*Genre: Gothic/Doom/Death Metal
*Country: Belgium
*Format: mp3@CBR320kbps
*Size: 87MB

Tracklist:
1. The First Lament: Of Torment And Woe 08:16
2. Feel Me, Free Me 09:30
3. Wonder 06:52
4. Twilight Of Consent 07:14
******************************
Total playing time: 31:52

[more=Extended info]+ Scans.

Music and lyrics composed by Jeroen de Brauwer.
Concept by Jeroen De Brauwer.
Model: Faye Pynaert.

Recorded at Midas Studios in August 2005.
Co-mixed and co-mastered and Consensus.

[youtube]SPa1pF-U5Nw[/youtube][/more]

[more=Technical info]
Input File: 1. The First Lament Of Torment And Woe.mp3
Channels : 2
Sample Rate : 44100
Precision : 16-bit
Duration : 00:08:16.83 = 21910071 samples = 37262 CDDA sectors
File Size : 19.9M
Bit Rate : 320k
Sample Encoding: MPEG audio (layer I, II or III)
Comments :
Title=The First Lament: Of Torment And Woe
Artist=Consensus
Album=Libertatis Clamor
Tracknumber=1
Year=2005
Genre=Doom Metal

[/more]

Register
(13) artscald, Cartman223, GorAtheist, infiltrator, Olethros, Razorbladeswaltz, Rosen, senecazm, sergsazan, Svafrlami, valera2010, VALERY, wreak,

84 Pages V   1 2 3 > » 
- Lo-Fi Version Support form
Copyrights and abuse reports form
Time is now: 18th November 2019 - 01:32:46