Welcome Guest ( Log In | Register )

История благодарностей участнику RUDACHUR ::: Спасибо сказали: 41673 раз(а)
Дата поста: В теме: За сообщение: Спасибо сказали:
Apr 3 2020, 21:32:52 Gospel Of Death - We Are Only Here To Suffer (2020)


*Artist: Gospel Of Death
*Album: We Are Only Here To Suffer
*Year: 2020
*Genre: Funeral Doom Metal/Dark Ambient
*Country: Canada
*Format: mp3@CBR320kbps
*Size: 169MB

Tracklist:
1. The Conqueror Worm 13:21
2. Lost In Infinite Realms 11:55
3. Blood Portal 08:23
4. The Grand Misery 16:03
5. Blackness And Silence 06:34
6. We Are Only Here To Suffer 15:46
******************************
Total playing time: 1:12:02



[more=Technical info]
Input File: 1. The Conqueror Worm.mp3
Channels : 2
Sample Rate : 44100
Precision : 16-bit
Duration : 00:13:21.90 = 35363746 samples = 60142.4 CDDA sectors
File Size : 32.2M
Bit Rate : 321k
Sample Encoding: MPEG audio (layer I, II or III)
Comments :
Title=The Conqueror Worm
Artist=Gospel of Death
Album=We Are Only Here To Suffer
Tracknumber=1
Year=2020

[/more]

Register
(19) Buregon, Corpuscul, Hell_Is_Here, igorzz, infiltrator, kolar666, libertine, marilin, Metalass, Olethros, randumbum, robertho777, russ777, sergsazan, stub888, supremo, uk82, VALERY, wreak,
Apr 3 2020, 20:42:03 Domedagen - Domedagen (2019)


*Artist: Domedagen
*Album: Domedagen
*Year: 2019
*Genre: Doom/Death Metal
*Country: Sweden
*Format: mp3@CBR320kbps
*Size: 125MB

Tracklist:
1. Peace 07:45
2. The Last Defiance 08:22
3. Into Nothingness 07:56
4. Left Here to Conquer 07:59
5. Bliss 07:02
6. Human Blood 06:51
7. Not For Them To Choose 08:43
******************************
Total playing time: 54:38




[more=Technical info]
Input File: 01 - Peace.mp3
Channels : 2
Sample Rate : 44100
Precision : 16-bit
Duration : 00:07:45.22 = 20516070 samples = 34891.3 CDDA sectors
File Size : 18.8M
Bit Rate : 323k
Sample Encoding: MPEG audio (layer I, II or III)
Comments :
Title=Peace
Artist=Domedagen
Album=Domedagen
Tracknumber=1
Year=2019
Genre=Doom/Death Metal
Discnumber=1

[/more]

Register
(16) AHBAnep, HMHamster, infiltrator, lacrimoza, marilin, metala, Mogozoz, morbidangelo, Olethros, Sabbathian, sergsazan, Un4given, VALERY, vyacheslav, wanderer73, wreak,
Apr 3 2020, 19:53:55 Distressed To Marrow - Trust The Filth (2020)


*Artist: Distressed To Marrow
*Album: Trust The Filth
*Year: 2020
*Genre: Doom/Death Metal
*Country: Germany
*Format: mp3@CBR320kbps
*Size: 145MB

Tracklist:
1. Waste 05:37
2. Killing Is Destiny 06:49
3. Trapped Without Cage 06:19
4. Battology 05:48
5. Manipulated 07:11
6. Guantanamo Inc. 06:53
7. The Price Of Existence 09:37
******************************
Total playing time: 48:14




[more=Extended info]+ Scans.

[youtube]VUTalUaLNns[/youtube][/more]

[more=Technical info]
Input File: 1. Waste.mp3
Channels : 2
Sample Rate : 44100
Precision : 16-bit
Duration : 00:05:38.05 = 14907829 samples = 25353.5 CDDA sectors
File Size : 13.5M
Bit Rate : 320k
Sample Encoding: MPEG audio (layer I, II or III)
Comments :
Title=Waste
Artist=Distressed To Marrow
Album=Trust The Filth
Tracknumber=1
Year=2020
Genre=Death/Doom Metal

[/more]

Register
(16) andreikun, HMHamster, infiltrator, lacrimoza, metala, Mogozoz, morbidangelo, oldvarg, Olethros, sergsazan, Shadechaser, terron, VALERY, vyacheslav, wanderer73, wreak,
Apr 3 2020, 19:34:02 Distressed To Marrow - La Violencia (2017)


*Artist: Distressed To Marrow
*Album: La Violencia
*Year: 2017
*Genre: Death/Doom Metal
*Country: Germany
*Format: mp3@CBR320kbps
*Size: 192MB

Tracklist:
1. Violencia Is Born 08:58
2. Absorbing Maggots 08:27
3. Phalance 10:18
4. Right Foot Killer 10:57
5. Metric Medusa 08:28
6. Lick My Bayonet 12:04
7. Violencia Is Dead 09:02
******************************
Total playing time: 1:08:14




[more=Extended info]+ Scans.[/more]

[more=Technical info]
Input File: 1. Violencia Is Born.mp3
Channels : 2
Sample Rate : 44100
Precision : 16-bit
Duration : 00:08:58.13 = 23731489 samples = 40359.7 CDDA sectors
File Size : 21.5M
Bit Rate : 320k
Sample Encoding: MPEG audio (layer I, II or III)
Comments :
Title=Violencia Is Born
Artist=Distressed To Marrow
Album=La Violencia
Tracknumber=1
Year=2017
Genre=Death/Doom Metal

[/more]

Register
(17) andreikun, HMHamster, infiltrator, Mogozoz, morbidangelo, oldvarg, Olethros, russ777, Sabbathian, sergsazan, Shadechaser, stumpheavyrock, VALERY, vyacheslav, wanderer73, wreak, Сварог Барг,
Apr 3 2020, 17:40:42 Officium Triste & Various Artists - Born To Lose, Doomed To Die [compilation] (2019)
Register


[youtube]WdwK9fEqwjw[/youtube]
(2) marilin, robertho777,
Apr 2 2020, 18:35:49 Officium Triste & Various Artists - Born To Lose, Doomed To Die [compilation] (2019)


*Artist: Officium Triste & Various Artists
*Album: Born To Lose, Doomed To Die [compilation]
*Year: 2019
*Genre: Doom/Death Metal
*Country: International
*Format: mp3@CBR320kbps
*Size: 237MB

Tracklist:
01. Norilsk - Intro - Officium Triste (Part II)/Mountains Of Depressiveness 08:02
02. Majestic Downfall - In Pouring Rain 08:38
03. Kurb Saatus - Dreams Of Sorrow 04:36
04. Beyond Our Ruins - Your Eyes 09:12
05. Marche Funèbre - Lonesome 06:46
06. Evadne - Like Atlas 09:34
07. Officium Triste - The Weight Of The World (Editors Сover) 05:11
08. Illimitable Dolor - On The Crossroads Of Souls 07:30
09. Who Dies In Siberian Slush - One With The Sea 09:32
10. My Silent Wake - To The Gallows 07:03
11. Eye Of Solitude - My Charcoal Heart 09:53
12. Façade - This Inner Twist 08:47
13. The Hoppy Forest - The Happy Forest 04:26
14. Officium Triste - Sleepless (Anathema Сover) 04:18
******************************
Total playing time: 1:43:28




[more=Extended info]Compilation album to celebrate the 25th anniversary of Officium Triste. Released on the band's imprint Weeping Willow Records.[/more]

[more=Technical info]
Input File: 01 Norilsk - Intro - Officium Triste (Part II)-Mountains Of Depressiveness.mp3
Channels : 2
Sample Rate : 44100
Precision : 16-bit
Duration : 00:08:02.90 = 21296022 samples = 36217.7 CDDA sectors
File Size : 19.4M
Bit Rate : 321k
Sample Encoding: MPEG audio (layer I, II or III)
Comments :
Title=Norilsk - Intro - Officium Triste (Part II)/Mountains Of Depressiveness
Artist=Officium Triste
Album=Various Artists - Born To Lose, Doomed To Die
Tracknumber=1
Year=2019
Genre=Doom/Death Metal

[/more]

Register
(39) AHBAnep, as71, autumnwood, Boozer, Brutal, Chasm, comradEnemy, deadxramones, doomTemplar, Doooomed, gav-gafi, gena, Hell_Is_Here, infiltrator, krotovich, KVRT, LightWizard, marilin, Metalass, morbidangelo, Necromayhem, nsk2008, Ostinato, popen13, ripper33, russ777, SatanicPanzer, terron, thenecromancer, tOmV, Un4given, VALERY, Victim of fate, wanderer73, wreak, Герб, Козлотролль, Сатаник, Язва,
Apr 2 2020, 16:35:58 The Ruins Of Beverast & Mourning Beloveth - Don't Walk On The Mass Graves [split] (2020)


*Artist: The Ruins Of Beverast & Mourning Beloveth
*Album: Don't Walk On The Mass Graves [split]
*Year: 2020
*Genre: Atmospheric Black/Doom Metal | Doom/Death Metal
*Country: Germany | Ireland
*Format: mp3@CBR320kbps
*Size: 46MB

Tracklist:
The Ruins Of Beverast:
1. Silhouettes Of Death's Grace 09:55
Mourning Beloveth:
2. I Saw A Dying Child In Your Arms 09:36
******************************
Total playing time: 19:31





[more=Extended info]Available on 10" vinyl and
CD Digipack, inside-out print and printed inside as well.
Fold-out miniposter with lyrics, info and illustrations.
Limited to 1000 hand numbered copies.

[youtube]cFWjVJ57kuk[/youtube][/more]

[more=Technical info]
Input File: 1. The Ruins Of Beverast - Silhouettes Of Death's Grace.mp3
Channels : 2
Sample Rate : 44100
Precision : 16-bit
Duration : 00:09:55.81 = 26275221 samples = 44685.7 CDDA sectors
File Size : 23.9M
Bit Rate : 321k
Sample Encoding: MPEG audio (layer I, II or III)
Comments :
Title=Silhouettes Of Death's Grace
Artist=The Ruins Of Beverast
Album=Don't Walk On The Mass Graves (split w. Mourning Beloveth)
Tracknumber=1
Year=2020
Genre=Doom/Death Metal

[/more]

Register
(66) 1968_janeart, A.L.Rapsod, acerbus, AHBAnep, ahp, alikkon, BERZERK, Black Cat, Boozer, Bzth, comradEnemy, deadxramones, deatholocaust, demogogron, DEZZIARA, Dirt_ORFEY, doomTemplar, DrStan, El_Chibo, Falx, Femto, fishish, Fryz, garml2, garmonbozia, gav-gafi, gena, Hell_Is_Here, HMHamster, HviteGuden, Infidel, infiltrator, Lanceatum, libertine, Ludwig Hagen, Lunaris, marilin, Metalass, metaljosue, Moonlover, morbidangelo, nadin85, nemx, OfDoom, Ostinato, Peikko, popen13, randumbum, satanist666, senecazm, sergsazan, SilentNidhogg, smes, soulskinner681, Strygaldwir, tOmV, Un4given, Uriel, VALERY, vasiljev_sergej, wreak, xska, yuratroll, ZambuL, Герб, Козлотролль,
Mar 30 2020, 15:06:51 Сруб - 988 (2019)
Register


[youtube]P8SAtQ4e7Dg[/youtube]
(4) infiltrator, sabr, SAPOGi, sethurius,
Mar 30 2020, 14:14:39 Сруб - 988 (2019)


*Artist: Сруб
*Album: 988
*Year: 2019
*Genre: Dark Folk
*Country: Russian Federation
*Format: mp3@CBR320kbps
*Size: 124MB

Tracklist:
1. Морок 04:40
2. На Смерть Царя 08:42
3. 988 05:21
4. Мой Гроб Пустой 03:38
5. Ожидание Черной Весны 08:15
6. Остынь (Пламя В Тишине Ночной) 06:25
7. Слезы Ручьем 04:44
8. Избавление 08:52
9. Мехом Мертвых Мхов 04:25
******************************
Total playing time: 55:02



[more=Technical info]
Input File: 01 - Морок.mp3
Channels : 2
Sample Rate : 44100
Precision : 16-bit
Duration : 00:04:40.31 = 12361759 samples = 21023.4 CDDA sectors
File Size : 11.3M
Bit Rate : 321k
Sample Encoding: MPEG audio (layer I, II or III)
Comments :
Title=Морок
Artist=Сруб
Album=988
Tracknumber=01
Year=2019
Genre=Post-Punk / Dark Folk / Occult Punk / Witch Punk

[/more]

Register
(18) Aresson, Branis, Brann, Cartman223, DMIYUR, emogrinder, Fryz, gwar, Infidel, infiltrator, oldvarg, Olethros, SAPOGi, sethurius, tOmV, Tular, VALERY, xska,
Mar 27 2020, 20:26:51 BlazeBirth Hall
[youtube]Dtu8-fLvohc[/youtube]
(4) Chasm, infiltrator, Krosis, ptlm,
Mar 4 2020, 15:05:37 Clouds - Durere (2020)


*Artist: Clouds
*Album: Durere
*Year: 2020
*Genre: Atmospheric Doom/Death Metal
*Country: International
*Format: mp3@CBR320kbps
*Size: 137MB

Tracklist:
1. Cold Guiding Light 08:03
2. Empty Hearts 08:45
3. Images And Memories 06:57
4. Above The Sea 09:05
5. The Sailor Waves Goodbye 09:37
6. A Father's Death 08:48
7. The End Of Hope 07:13
******************************
Total playing time: 58:28




[more=Technical info]
Input File: 1. Cold Guiding Light.mp3
Channels : 2
Sample Rate : 44100
Precision : 16-bit
Duration : 00:08:03.09 = 21304093 samples = 36231.5 CDDA sectors
File Size : 19.4M
Bit Rate : 322k
Sample Encoding: MPEG audio (layer I, II or III)
Comments :
Title=Cold Guiding Light
Artist=Clouds Official
Album=DURERE
Tracknumber=1
Year=2020
Genre=Atmospheric Doom/Death Metal

[/more]

Register
(38) AHBAnep, Aresson, BERZERK, BladeOvDarkness, Boozer, cesar, Deada, delgard, DJAHAN, DMIYUR, doomTemplar, eternald, Farung, Femto, gena, infiltrator, infozahist, insufferable, judaz, KVRT, libertine, marilin, MEmethuselah, metala, Moonlover, Morgoth, nadin85, Old Vyaine, Olethros, popen13, pothead, ripper33, SAPOGi, SatanicPanzer, Shadechaser, stone88, TeamatSE, yuratroll,
Feb 26 2020, 14:32:59 Treurwilg - An End To Rumination (2020)
[youtube]k09JCmZiJmo[/youtube]

Register
(2) infiltrator, Sanctus,
Feb 26 2020, 13:24:24 Treurwilg - An End To Rumination (2020)


*Artist: Treurwilg
*Album: An End To Rumination
*Year: 2020
*Genre: Melodic Doom/Death Metal
*Country: Netherlands
*Format: mp3@CBR320kbps
*Size: 112MB

Tracklist:
1. Fragility Of Mankind 06:38
2. In Ruin And Misery 12:03
3. Myosotis 09:30
4. I 07:20
5. Shallow Pools Of Grief 10:12
******************************
Total playing time: 45:43




[more=Technical info]
Input File: 1. Fragility of Mankind.mp3
Channels : 2
Sample Rate : 44100
Precision : 16-bit
Duration : 00:06:38.92 = 17592152 samples = 29918.6 CDDA sectors
File Size : 17.4M
Bit Rate : 350k
Sample Encoding: MPEG audio (layer I, II or III)
Comments :
Title=Fragility of Mankind
Artist=Treurwilg
Album=An End to Rumination
Tracknumber=1
Year=2020
Genre=Melodic Doom/Death Metal
Discnumber=1

[/more]

Register
(22) ASkyThatBurns, chipsgott, DenisKov, doomasfvck, fallen, HMHamster, infiltrator, kimkayoung, libertine, Mogozoz, Olethros, Ostinato, Rosen, Sanctus, SatanicPanzer, senecazm, sergsazan, stumpheavyrock, tOmV, VALERY, wanderer73, Сварог Барг,
Feb 18 2020, 16:33:29 Fiurach - Chaospawner (1999)


*Artist: Fiurach
*Album: Chaospawner
*Year: 1999
*Genre: Epic Black/Thrash Metal
*Country: Italy
*Format: mp3@CBR320kbps
*Size: 98MB

Tracklist:
01. Descent Of The Apocalypse Lord - Part I (The Descent) 05:23
02. Descent Of The Apocalypse Lord - Part II (Invocation And Defeat) 04:04
03. The Rebirth 04:44
04. Enter The Triangle 04:29
05. With Doom... 00:12
06. Impaler's Skullchalice 03:49
07. The Hunt 05:39
08. The Divine Sword Conquest 04:58
09. Om Mani Padme Um 00:48
10. Chaospawner - Part I (One Thousand Years After) 04:19
11. Chaospawner - Part II (The Chaos Spawned) 04:23
******************************
Total playing time: 42:48

[more=Technical info]
Input File: 01. Descent Of The Apocalypse Lord - Part I (The Descent).mp3
Channels : 2
Sample Rate : 44100
Precision : 16-bit
Duration : 00:05:23.29 = 14256913 samples = 24246.5 CDDA sectors
File Size : 12.9M
Bit Rate : 320k
Sample Encoding: MPEG audio (layer I, II or III)
Comments :
Title=Descent Of The Apocalypse Lord - Part 1
Artist=Fuirach
Album=Chaospawner
Tracknumber=1
Year=1999
Genre=Epic Black/Thrash Metal

[/more]

Register
(29) AHBAnep, ASkyThatBurns, atavist, boby9052, Foneg, FUDEDOR, fuoco, gav-gafi, Ildjarn, infiltrator, kimkayoung, Lucifer, Mogozoz, oldvarg, Olethros, poeira, Rosen, SaintVitus, sergsazan, Surt, tamerz, thenecromancer, thrashiac55, toly1917, varlam4, vasiljev_sergej, Victim of fate, Wail, Weru,
Feb 13 2020, 10:20:16 Godthrymm - Reflections (2020)
Register


[youtube]jd1Hd31NNJU[/youtube]
(11) BlackMirror, djsema4, gotherion, infiltrator, kolar666, Lux, multizwilling, nikolay81, Olethros, russ777, wtk.412,
Feb 13 2020, 09:48:47 Godthrymm - Reflections (2020)


*Artist: Godthrymm
*Album: Reflections
*Year: 2020
*Genre: Epic Doom Metal
*Country: United Kingdom
*Format: mp3@CBR320kbps
*Size: 124MB

Tracklist:
1. Monsters Lurk Herein 07:37
2. Among The Exalted 05:06
3. The Sea As My Grave 06:43
4. We Are The Dead 06:28
5. The Light Of You 06:49
6. The Grand Reclamation 07:30
7. Cursed Are The Many 09:18
8. Chasmic Sorrows 04:59
******************************
Total playing time: 54:30




[more=Extended info]Shaun Taylor-Steels - Drums.
(See also: Vestige of Virtue, ex-Vagrant God, Combath, Nåe, ex-Anathema, ex-My Dying Bride, ex-Severed Heaven, ex-Solstice, ex-Ironside, ex-Agone)
Hamish Hamilton Glencross - Vocals (lead), Guitars.
(See also: ex-Vallenfyre, ex-My Dying Bride, ex-Solstice, ex-Seer's Tear)
Sasquatch Bob - Bass.
(See also: ex-Let 'Em Burn)[/more]

[more=Technical info]
Input File: 01. Monsters Lurk Herein.mp3
Channels : 2
Sample Rate : 44100
Precision : 16-bit
Duration : 00:07:37.51 = 20176235 samples = 34313.3 CDDA sectors
File Size : 18.5M
Bit Rate : 324k
Sample Encoding: MPEG audio (layer I, II or III)
Comments :
Title=Monsters Lurk Herein
Artist=Godthrymm
Album=Reflections
Tracknumber=01/08
Year=2020
Genre=Doom Metal
Discnumber=1/1

[/more]

Register
(39) AHBAnep, ASkyThatBurns, Boozer, Brutal, Buregon, Bzth, djsema4, doomTemplar, EpicDoomLord, gav-gafi, HMHamster, infiltrator, infozahist, Irimias, karpenka, KVRT, LEGION69, leks, Lux, MAYH, metala, Mogozoz, Niknne, oldvarg, paganheart, PainMiseryDeath, poeira, popen13, Rosen, russ777, SaintVitus, Shub, stub888, stumpheavyrock, sunkilmoon, VALERY, wreak, xska, zdcaixao,
Feb 12 2020, 10:45:45 Sekhmet - Consumed By Void (2019)
Register


[youtube]2aLcKIN9npI[/youtube]
[youtube]G8heCrkQzHQ[/youtube]
(2) DarkHorde, infiltrator,
Feb 12 2020, 10:02:19 Sekhmet - Consumed By Void (2019)


*Artist: Sekhmet
*Album: Consumed By Void
*Year: 2019
*Genre: Black Metal
*Country: Czech Republic
*Format: mp3@CBR320kbps
*Size: 99MB

Tracklist:
01. They Came, They Saw, They Ruined 05:10
02. Worse Than Vermin 05:06
03. Revenge From The Underground 03:41
04. One Last Chance To Repent 04:33
05. The Final Stage Of Mankind 05:16
06. Downfall 01:08
07. A New Form Of Damnation 04:52
08. Humanity's End 04:42
09. Kuoleva Lupaus (Horna Cover) 07:09
10. Vortex To Void 01:24
******************************
Total playing time: 43:01




[more=Technical info]
Input File: 01. They Came, They Saw, They Ruined.mp3
Channels : 2
Sample Rate : 44100
Precision : 16-bit
Duration : 00:05:10.59 = 13697019 samples = 23294.2 CDDA sectors
File Size : 12.4M
Bit Rate : 320k
Sample Encoding: MPEG audio (layer I, II or III)
Comments :
Title=They Came, They Saw, They Ruined
Artist=Sekhmet
Album=Consumed By Void
Tracknumber=1
Year=2019
Genre=Black Metal

[/more]

Register
(23) 1968_janeart, ASkyThatBurns, atavist, caro, DarkHorde, Ildjarn, infiltrator, kim666, kimkayoung, LEGION69, MMMMM, multizwilling, Olethros, Ostinato, Rosen, satanist666, SilentNidhogg, supremo, VALERY, varlam4, vasiljev_sergej, vovenom, wreak,
Jan 23 2020, 15:34:14 Konvent - Puritan Masochism (2020)
[youtube]NdR24AURUwU[/youtube]

[youtube]wBkwHWoKQKA[/youtube]
(8) infiltrator, Leshiy666, Lux, Necromayhem, Occultas, Ostin Devil, Samaritianin, woldemort,
Jan 23 2020, 15:27:30 Sadael - Weirdest Projection (2019)
Register
(5) Doooomed, Ice Gnoll, infiltrator, Morgoth, Sanctus,
Jan 23 2020, 15:16:49 Sadael - Weirdest Projection (2019)


*Artist: Sadael
*Album: Weirdest Projection
*Year: 2019
*Genre: Atmospheric Doom/Death Metal
*Country: Armenia
*Format: mp3@CBR320kbps
*Size: 225MB

Tracklist:
01. Once Upon 11:23
02. False Teachers 09:07
03. A Binary Code 08:45
04. Digits Flush Nonsence 08:57
05. Endless Cycle 08:22
06. Master's Tales 07:09
07. Doomed Younger Gods 10:34
08. I See The Same Dreams 07:53
09. Universe Means Divided 04:05
10. Life Sentence 06:53
11. Faceless Rule 03:21
******************************
Total playing time: 1:26:29




[more=Extended info]+ Scans.

[youtube]I5vkEJeNF9k[/youtube][/more]

[more=Technical info]
Input File: 01. Once Upon.mp3
Channels : 2
Sample Rate : 44100
Precision : 16-bit
Duration : 00:11:24.08 = 30168060 samples = 51306.2 CDDA sectors
File Size : 27.4M
Bit Rate : 320k
Sample Encoding: MPEG audio (layer I, II or III)
Comments :
Title=Once Upon
Artist=Sadael
Album=Weirdest Projection
Tracknumber=1
Year=2019
Genre=Atmospheric Doom/Death Metal

[/more]

Register
(26) chefo, Fess, Geralder, igorzz, infiltrator, krotovich, Ludwig Hagen, metala, MMMMM, oldvarg, Olethros, postal67, Rosen, russ777, Sanctus, SatanicPanzer, sergsazan, Shadechaser, TeamatSE, thenecromancer, tOmV, VALERY, varlam4, woldemort, wreak, Герб,
Jan 22 2020, 17:09:23 Vesperian Sorrow - Regenesis Creation (2019)


*Artist: Vesperian Sorrow
*Album: Regenesis Creation
*Year: 2019
*Genre: Symphonic Black Metal
*Country: United States
*Format: mp3@CBR320kbps
*Size: 125MB

Tracklist:
1. Intro 01:57
2. Invisible Kingdom 07:47
3. Gates To Serpithia 05:08
4. Imprisoned In Gurdon 04:37
5. Regenesis Creation 06:27
6. Quest Of The Exiled 07:28
7. Relinquished 06:44
8. The Forever Vortex 04:13
9. Vanquished 09:57
******************************
Total playing time: 54:18




[more=Extended info]Regenesis Creation (2006) will be released near the end of 2019 by Black Lion Records.
The album has been completely re-recorded and mixed/mastered.

[youtube]1jtMiRW2xpQ[/youtube][/more]

[more=Technical info]
Input File: 2. Invisible Kingdom.mp3
Channels : 2
Sample Rate : 44100
Precision : 16-bit
Duration : 00:07:47.30 = 20608106 samples = 35047.8 CDDA sectors
File Size : 18.8M
Bit Rate : 322k
Sample Encoding: MPEG audio (layer I, II or III)
Comments :
Title=Invisible Kingdom
Artist=Vesperian Sorrow
Album=Regenesis Creation
Tracknumber=2
Year=2019

[/more]

Register
(38) 1968_janeart, as71, atavist, cesar, Daale, demonosz, dermarsoran, Femto, finntroll3, Foneg, Ildjarn, infiltrator, ironyserg, kim666, LEGION69, lldma, Ludwig Hagen, Mannard, metala, MMMMM, Mogozoz, morbidangelo, oldvarg, Olethros, Ostinato, Reverend, Rosen, SaintVitus, satanist666, senecazm, sergsazan, talismanFS, TeamatSE, thenecromancer, VALERY, vasiljev_sergej, ZambuL, Сварог Барг,
Jan 22 2020, 15:32:29 In Oblivion - Oblivion [ep] (2020)


*Artist: In Oblivion
*Album: Oblivion [ep]
*Year: 2020
*Genre: Funeral Doom Metal
*Country: United States
*Format: mp3@CBR320kbps
*Size: 62MB

Tracklist:
1. Oblivion 26:20
******************************
Total playing time: 26:20





[more=Technical info]
Input File: 1. Oblivion.mp3
Channels : 2
Sample Rate : 44100
Precision : 16-bit
Duration : 00:26:20.16 = 69684880 samples = 118512 CDDA sectors
File Size : 63.4M
Bit Rate : 321k
Sample Encoding: MPEG audio (layer I, II or III)
Comments :
Title=Oblivion
Artist=In Oblivion
Album=Oblivion
Tracknumber=1
Year=2020

[/more]

Register
(20) autumnwood, Boozer, cesar, doomTemplar, Doooomed, fallen, Hell_Is_Here, infiltrator, infozahist, marilin, Olethros, Ostinato, popen13, recber, Rosen, sergsazan, Shadechaser, supremo, VALERY, Герб,
Jan 13 2020, 15:50:33 Новости DOOM Metal
On Thorns I Lay - Threnos (February 21st, 2020) (Lifeforce Records)




[youtube]oAeROCgvLes[/youtube]
(5) avather, infiltrator, Kaphiel, Lux, Old Vyaine,
Jan 13 2020, 15:32:36 Dead Heart Bleeding - Angels Grief (2003)


*Artist: Dead Heart Bleeding
*Album: Angels Grief
*Year: 2003
*Genre: Gothic/Doom Metal
*Country: Germany
*Format: mp3@CBR320kbps
*Size: 264MB

Tracklist:
01. The Darkening 07:34
02. Sadness 04:26
03. Into The Nameless 06:56
04. Thoughts 05:37
05. Emotions 06:19
06. The Little Heaven 01:53
07. Dreaming Your Grief 09:24
08. Chaotic Seasons 06:18
09. Somewhere Someone Dies 03:35
10. The End... Before It Begins 19:31
******************************
Total playing time: 1:11:33

[more=Extended info]+ Scans.

[youtube]J1L4_WoBjYE[/youtube][/more]

[more=Technical info]
Input File: 01. The Darkening.mp3
Channels : 2
Sample Rate : 44100
Precision : 16-bit
Duration : 00:07:34.90 = 20061002 samples = 34117.4 CDDA sectors
File Size : 18.2M
Bit Rate : 320k
Sample Encoding: MPEG audio (layer I, II or III)
Comments :
Title=The Darkening
Artist=Dead Heart Bleeding
Album=Angels Grief
Tracknumber=1
Year=2003
Genre=Gothic Doom/Death Metal

[/more]

Register
(19) ASkyThatBurns, Cartman223, fallen, infiltrator, kluval, krotovich, metala, nord6666, Olethros, postal67, Rosen, satanist666, senecazm, sergsazan, Shadechaser, thenecromancer, VALERY, varlam4, wreak,

86 Pages V   1 2 3 > » 
- Lo-Fi Version Support form
Copyrights and abuse reports form
Time is now: 5th June 2020 - 10:08:28