Welcome Guest ( Log In | Register )

История благодарностей участнику RUDACHUR ::: Спасибо сказали: 42898 раз(а)
Дата поста: В теме: За сообщение: Спасибо сказали:
Jan 13 2021, 15:01:05 Oblivion - Wither Within Neverending Longing [demo] (1998)


*Artist: Oblivion
*Album: Wither Within Neverending Longing [demo]
*Year: 1998
*Genre: Gothic/Doom Metal
*Country: Belgium
*Format: mp3@CBR320kbps
*Size: 89MB

Tracklist:
1. Eres Divina 01:22
2. Anaesthesia 06:19
3. Black Page 03:48
4. Mystic Gemini 05:56
5. Goddess, Mistress In Tears 06:27
6. Anguish 06:34
7. Everlasting 08:51
******************************
Total playing time: 39:17

[more=Technical info]
Input File: 01. Eres Divina.mp3
Channels : 2
Sample Rate : 44100
Precision : 16-bit
Duration : 00:01:22.68 = 3646276 samples = 6201.15 CDDA sectors
File Size : 3.31M
Bit Rate : 320k
Sample Encoding: MPEG audio (layer I, II or III)
Comments :
Title=Eres Divina
Artist=Oblivion
Album=Wither Within Neverending Longing
Tracknumber=01/07
Year=1998

[/more]

Register
(18) Cartman223, chefo, chipsgott, Evilded, infiltrator, Kitalter, metala, nord6666, Olethros, Proteus_666, randumbum, Rosen, sergsazan, stumpheavyrock, valera2010, VALERY, varlam4, Wail,
Jan 13 2021, 14:59:40 Dread Sovereign - Pray To The Devil In Man [ep] (2013)


*Artist: Dread Sovereign
*Album: Pray To The Devil In Man [ep]
*Year: 2013
*Genre: Doom Metal
*Country: Ireland
*Format: mp3@CBR320kbps
*Size: 49MB

Tracklist:
1. Pray To The Devil In Man 06:17
2. Thirteen Clergy To The Flames 05:08
3. We Weild The Spear Of Longinus 09:45
******************************
Total playing time: 21:10




[more=Technical info]
Input File: 1. Pray To The Devil In Man.mp3
Channels : 2
Sample Rate : 44100
Precision : 16-bit
Duration : 00:06:17.10 = 16630154 samples = 28282.6 CDDA sectors
File Size : 15.2M
Bit Rate : 322k
Sample Encoding: MPEG audio (layer I, II or III)
Comments :
Title=Pray To The Devil In Man
Artist=Dread Sovereign
Album=Pray To The Devil In Man
Tracknumber=01
Year=2013
Genre=Doom Metal

[/more]

Register
(17) BandR75, Black Cat, infiltrator, Lux, marilin, metala, Namnlos, Olethros, randumbum, Rosen, russ777, sergsazan, stumpheavyrock, VALERY, varlam4, Wail, wtk.412,
Jan 13 2021, 14:58:23 Deceptive Silence - Regret (2007)


*Artist: Deceptive Silence
*Album: Regret
*Year: 2007
*Genre: Gothic/Doom Metal
*Country: Germany
*Format: mp3@VBR181kbps
*Size: 55MB

Tracklist:
1. Reflections 07:09
2. Selfnegation 11:15
3. On Noahs Ways 14:39
4. Metamorphosis 09:37
******************************
Total playing time: 42:40

[more=Technical info]
Input File: 1. Reflections.mp3
Channels : 2
Sample Rate : 44100
Precision : 16-bit
Duration : 00:07:09.98 = 18961898 samples = 32248.1 CDDA sectors
File Size : 11.4M
Bit Rate : 212k
Sample Encoding: MPEG audio (layer I, II or III)
Comments :
Title=Reflections
Artist=Deceptive Silence
Album=Regret
Tracknumber=1
Year=2007
Genre=Doom-Metal

[/more]

Register
(8) aleon, infiltrator, nord6666, Olethros, Rosen, sergsazan, valera2010, Wail,
Jan 9 2021, 17:35:12 Ethereal Pandemonium - A Winter Solstice Eve (1998)


*Artist: Ethereal Pandemonium
*Album: A Winter Solstice Eve
*Year: 1998
*Genre: Pagan/Gothic/Black/Doom Metal
*Country: Slovakia
*Format: mp3@CBR320kbps
*Size: 89MB

Tracklist:
1. Awaiting... 01:00
2. A Winter Solstice Eve 05:29
3. Prophecy 04:20
4. The Fields Of Tombs 04:48
5. The Depths Of Styx 04:03
6. Overture 01:32
7. 1998 Anno Domini 06:37
8. When The Dusk Comes... Awakening Of The Demons 08:19
******************************
Total playing time: 36:08



[more=Extended info]+ Scans.

[youtube]-5jnb-fzLIM[/youtube][/more]

[more=Technical info]
Input File: 02. A Winter Solstice Eve.mp3
Channels : 2
Sample Rate : 44100
Precision : 16-bit
Duration : 00:05:29.56 = 14533420 samples = 24716.7 CDDA sectors
File Size : 13.5M
Bit Rate : 327k
Sample Encoding: MPEG audio (layer I, II or III)
Comments :
Title=A Winter Solstice Eve
Artist=Ethereal Pandemonium
Album=A Winter Solstice Eve
Tracknumber=2
Year=1998
Genre=Gothic Dark Metal

[/more]

Register
(22) aleon, Cartman223, chefo, infiltrator, Kitalter, metala, nord6666, Occultas, oldvarg, Olethros, randumbum, Rosen, Satyr, sergsazan, Shadechaser, Taakeferd, VALERY, varlam4, volostakoeto, Wail, Xutun, Сварог Барг,
Jan 9 2021, 17:34:05 Dismal - Original Darkness [ep] (2018)


*Artist: Dismal
*Album: Original Darkness [ep]
*Year: 2018
*Genre: Melodic Doom/Death Metal
*Country: Paraguay
*Format: mp3@CBR320kbps
*Size: 53MB

Tracklist:
1. Sad September 05:30
2. Father Of The Souls 06:10
3. Immortal Tears 03:45
4. Original Darkness 05:41
******************************
Total playing time: 21:06




[more=Extended info][youtube]tlFbBZbiRPw[/youtube][/more]

[more=Technical info]
Input File: 1. Sad September.mp3
Channels : 2
Sample Rate : 44100
Precision : 16-bit
Duration : 00:05:30.68 = 14582944 samples = 24800.9 CDDA sectors
File Size : 14.2M
Bit Rate : 343k
Sample Encoding: MPEG audio (layer I, II or III)
Comments :
Title=Sad September
Artist=Dismal
Album=Original Darkness
Tracknumber=1
Year=2018
Genre=Melodic Doom/Death Metal
Discnumber=1

[/more]

Register
(18) infiltrator, lacrimoza, Marek, nord6666, oldvarg, Olethros, randumbum, Rosen, sergsazan, Shadechaser, Sphinx7, Taakeferd, VALERY, varlam4, volostakoeto, vyacheslav, Wail, Сварог Барг,
Jan 9 2021, 15:11:54 Garmarna - Vittrad (1994)


*Artist: Garmarna
*Album: Vittrad
*Year: 1994
*Genre: Nordic Folk
*Country: Sweden
*Format: mp3@CBR320kbps
*Size: 136MB

Tracklist:
01. Straffad Moder & Dotter 05:04
02. Garmgny 03:33
03. Nämndemans-Ola 02:40
04. Kulleritova 00:55
05. Vittrad 04:00
06. Skallen 03:11
07. Flusspolska 01:11
08. Antiokia 03:03
09. Liten Kersti 05:24
10. Inte Sörja VI... 02:53
11. Domschottis 03:46
12. Den Bortsålda 04:23
13. Styvmodern 02:58
14. Klevabergselden 04:58
******************************
Total playing time: 47:59

[more=Extended info]+ Scans.[/more]

[more=Technical info]
Input File: 01. Straffad Moder & Dotter.mp3
Channels : 2
Sample Rate : 44100
Precision : 16-bit
Duration : 00:05:04.69 = 13436653 samples = 22851.5 CDDA sectors
File Size : 12.2M
Bit Rate : 320k
Sample Encoding: MPEG audio (layer I, II or III)
Comments :
Title=Straffad Moder & Dotter (Mother & Daugher Punished)
Artist=Garmarna
Album=Vittrad
Tracknumber=1
Year=1994
Genre=Nordic Folk

[/more]

Register
(8) Brann, Cartman223, gwar, infiltrator, Olethros, Radwind, v.v.m, дивин,
Jan 9 2021, 15:09:40 Garmarna - Garmarna [ep] (1993)


*Artist: Garmarna
*Album: Garmarna [ep]
*Year: 1993
*Genre: Nordic Folk
*Country: Sweden
*Format: mp3@CBR320kbps
*Size: 110MB

Tracklist:
01. Lill-Mats Polska 02:42
02. Skenpolska 03:38
03. Jordbyggarlåten 02:37
04. Herr Olof 03:54
05. Trånpolska 03:55
06. Vallat Fran Hälsingland 00:43
07. Klevabergselden 03:39
Bonus Tracks:
08. Garmgny 02:23
09. Flusspolska 01:43
10. Månpolskan 03:48
11. Antiokia 02:31
12. Skenpolska 03:20
13. Klevabergselden 03:17
******************************
Total playing time: 38:10

[more=Extended info]+ Scans.[/more]

[more=Technical info]
Input File: 02. Skenpolska.mp3
Channels : 2
Sample Rate : 44100
Precision : 16-bit
Duration : 00:03:38.14 = 9619842 samples = 16360.3 CDDA sectors
File Size : 8.73M
Bit Rate : 320k
Sample Encoding: MPEG audio (layer I, II or III)
Comments :
Title=Skenpolska
Artist=Garmarna
Album=Garmarna
Tracknumber=2
Year=1993
Genre=Progressive Folk

[/more]

Register
(7) Brann, Cartman223, gwar, infiltrator, Olethros, Radwind, дивин,
Jan 8 2021, 22:36:44 Storm - Nordavind (1995)
Vinyl - Rip. (mp3@CBR320kbps)
Register

[youtube]lgrlTHYJO4U[/youtube]
(2) Occultas, thenecromancer,
Jan 5 2021, 11:05:44 Nordein - Nordariket (2020)
ЦИТАТА(KKK1488 @ Jan 5 2021, 12:10:55) *
Друзья, ну перезалейте, плиз!


Register
[youtube]rCaNc2upy4c[/youtube]
(2) KKK1488, rommer,
Jan 2 2021, 18:02:33 Old Sea And Mother Serpent - Plutonian (2021)
Register

[youtube]LNA7-5tL0Hs[/youtube]
(3) KVRT, M8R8K, SatanicPanzer,
Jan 2 2021, 15:06:40 Nordein - Nordariket (2020)


*Artist: Nordein
*Album: Nordariket
*Year: 2020
*Genre: Nordic Folk
*Country: Norway
*Format: mp3@CBR320kbps
*Size: 154MB

Tracklist:
1. Tia 10:41
2. Gudar 07:09
3. Máni 06:27
4. Klok Og Tagal 06:02
5. Alvedans 06:29
6. Norner 06:59
7. Norges Sorte Himmel 11:01
******************************
Total playing time: 54:48




[more=Extended info]+ Scans.

[youtube]672Oe7Oo2BA[/youtube][/more]

[more=Technical info]
Input File: 1. Tia.mp3
Channels : 2
Sample Rate : 44100
Precision : 16-bit
Duration : 00:10:41.95 = 28309775 samples = 48145.9 CDDA sectors
File Size : 25.7M
Bit Rate : 320k
Sample Encoding: MPEG audio (layer I, II or III)
Comments :
Title=Tia
Artist=Nordein
Album=Nordariket
Tracknumber=1
Year=2020
Genre=Nordic Folk

[/more]

Register
(17) A.L.Rapsod, cancer1974, Cartman223, dromord, gwar, infiltrator, leks, NappyRob, Occultas, oldvarg, Olethros, rommer, smes, thenecromancer, undeadlich, Vitald, ZA670,
Dec 31 2020, 22:01:27 Old Sea And Mother Serpent - Plutonian (2021)


*Artist: Old Sea And Mother Serpent
*Album: Plutonian
*Year: 2021
*Genre: Stoner/Doom Metal
*Country: Russian Federation
*Format: mp3@CBR320kbps
*Size: 181MB

Tracklist:
1. Wereserpents 20:26
2. The Scrag Temple 25:42
3. Subterranean Solstice 21:19
4. It Seems We Need Help Of A Wizard 11:00
******************************
Total playing time: 1:18:27


Preview 2
Preview 3


[more=Extended info]taplink

Anthony - vox, guitars, bass, drums & keys. (Hroedmar)
Eugene - bass & guitars. (Tnarag)[/more]

[more=Technical info]
Input File: Old Sea and Mother Serpent - Plutonian - 01 Wereserpents.mp3
Channels : 2
Sample Rate : 44100
Precision : 16-bit
Duration : 00:20:26.86 = 54104350 samples = 92014.2 CDDA sectors
File Size : 49.2M
Bit Rate : 321k
Sample Encoding: MPEG audio (layer I, II or III)
Comments :
Title=Wereserpents
Artist=Old Sea and Mother Serpent
Album=Plutonian
Tracknumber=1
Year=2021

[/more]

Register
(23) acerbus, Ash_1980, BERZERK, bOOLty, Boozer, Brutal, HMHamster, infiltrator, KVRT, M8R8K, Morgoth, Olethros, Ostinato, popen13, randumbum, Rosen, Sabbathian, SaintVitus, stumpheavyrock, technoboy69, VALERY, vosmidesijatye, Wail,
Dec 4 2020, 21:02:47 Garmarna - Förbundet (2020)


*Artist: Garmarna
*Album: Förbundet
*Year: 2020
*Genre: Folk Rock
*Country: Sweden
*Format: mp3@CBR320kbps
*Size: 141MB

Tracklist:
1. Ramunder 04:58
2. Två Systrar 05:53
3. Dagen Flyr 03:51
4. Sven i Rosengård 05:24
5. Ur Världen Att Gå 04:52
6. Vägskäl 04:56
7. Lussi Lilla 04:35
8. Avskedet 05:27
9. Din Grav 01:56
******************************
Total playing time: 41:52



[more=Extended info]+ Scans.

[youtube]hLxvS4Frxy8[/youtube][/more]

[more=Technical info]
Input File: 1. Ramunder.mp3
Channels : 2
Sample Rate : 44100
Precision : 16-bit
Duration : 00:04:58.08 = 13145152 samples = 22355.7 CDDA sectors
File Size : 11.9M
Bit Rate : 320k
Sample Encoding: MPEG audio (layer I, II or III)
Comments :
Title=Ramunder
Artist=Garmarna
Album=Forbundet
Tracknumber=1
Year=2020
Genre=Folk/Rock

[/more]

Register
(28) Black Cat, Boozer, Cartman223, chipsgott, djsema4, Forest, fylopaloma, gwar, Infidel, infiltrator, leks, Maximvs, Namnlos, oldvarg, Olethros, Rosen, Shadechaser, Strygaldwir, Surt, SyncestrA, talismanFS, v.v.m, Vardlokkur, varlam4, Vitald, zhol, дивин, Сварог Барг,
Dec 4 2020, 19:50:35 My Dying Bride - Towards The Sinister [demo] (1991)


*Artist: My Dying Bride
*Album: Towards The Sinister [demo]
*Year: 1991
*Genre: Doom/Death Metal
*Country: United Kingdom
*Format: mp3@CBR320kbps
*Size: 95MB

Tracklist:
1. Symphonaire Infernus Et Spera Empyrium 08:53
2. Vast Choirs 07:35
3. The Grief Of Age 04:08
4. Catching Feathers 03:42
******************************
Total playing time: 24:18



[more=Extended info]+ Scans.
Vinyl, 12" (Peaceville Records, 2019)
Recorded and mixed at Revolver Studios on 24/25 November of 1990.[/more]

[more=Technical info]
Input File: 1. Symphonaire Infernus Et Spera Empyrium.mp3
Channels : 2
Sample Rate : 48000
Precision : 16-bit
Duration : 00:08:53.07 = 25587216 samples ~ 39980 CDDA sectors
File Size : 21.3M
Bit Rate : 320k
Sample Encoding: MPEG audio (layer I, II or III)
Comments :
Title=Symphonaire Infernus Et Spera Empyrium
Artist=My Dying Bride
Album=Towards The Sinister
Tracknumber=1
Year=1991
Genre=Doom/Death Metal

[/more]

Register
(40) 555, A.L.Rapsod, andrey010577, chipsgott, craP_cillA, CryptOn, deatholocaust, dulak, Evilded, Faust_Vulkan_16, FUDEDOR, fylopaloma, gwar, hell_armageddon, infiltrator, Kaotik, kimkayoung, kluval, Lanceatum, Marek, marilin, Mist13Signifier, nadin85, Occultas, Olethros, Ostinato, popen13, Proteus_666, Reverend, Rosen, Shadechaser, skidnik, stumpheavyrock, SyncestrA, VALERY, varlam4, Wail, wreak, zaqxsw, zdcaixao,
Dec 1 2020, 14:37:33 Новости Folk/Pagan/Viking
Empyrium - Über Den Sternen (Prophecy Productions, February 26th, 2021)

[youtube]ihSV3aDfqGo[/youtube]

(4) infiltrator, noxspiritus, Vardlokkur, vasilisk,
Nov 27 2020, 22:21:51 Urfaust - Teufelsgeist (2020)
Register

[youtube]CMrRLSnTXVM[/youtube]
(32) A.L.Rapsod, Alexis The Best, andeimon, Bzth, Chasm, CryptOn, Daale, doomTemplar, Evilded, Forest Silence, infiltrator, lafuma, lucifix, MadCarrot, madera, maochen, Metalass, metaljosue, MMMMM, MorsPulchra, mort, nadin85, nemx, Olethros, robertho777, smes, soulskinner681, supremo, vasiljev_sergej, Vidder242, Vidyadharov, yuratroll,
Nov 27 2020, 21:06:20 Urfaust - Teufelsgeist (2020)


*Artist: Urfaust
*Album: Teufelsgeist
*Year: 2020
*Genre: Atmospheric Black Metal/Ambient
*Country: Netherlands
*Format: mp3@CBR320kbps
*Size: 77MB

Tracklist:
1. Offerschaal Der Astrologische Mengformen 10:35
2. Bloedsacrament Voor De Geestenzieners 07:58
3. Von Alcoholische Verbittering Naar Religieuze Cult 04:38
4. De Filosofie Van Een Gedesillusioneerde 05:47
5. Het Godverlaten Leprosarium 04:30
******************************
Total playing time: 33:28




[more=Extended info][youtube]6bgtNawB-bM[/youtube][/more]

[more=Technical info]
Input File: 1. Offerschaal Der Astrologische Mengformen.mp3
Channels : 2
Sample Rate : 44100
Precision : 16-bit
Duration : 00:10:35.10 = 28007954 samples = 47632.6 CDDA sectors
File Size : 25.4M
Bit Rate : 320k
Sample Encoding: MPEG audio (layer I, II or III)
Comments :
Title=Offerschaal Der Astrologische Mengformen
Artist=Urfaust
Album=Teufelsgeist
Tracknumber=1
Year=2020
Genre=Atmospheric Black Metal

[/more]

Register
(96) 1968_janeart, abob, Ainar, alikkon, andivi, as71, BERZERK, Bloodn Lord, Boozer, Branis, Bulldozzzzzzer, cancer1974, Chasm, comradEnemy, Constantinus I, CryptOn, Daale, DevilSign, dsp, ent404, Evgen79, Evilded, Femto, Forest Silence, fylopaloma, garml2, gena, Hadnur, Haunting, HMHamster, Infidel, infiltrator, Irimias, judaz, Kalnasra, Kazoth, kim666, kimkayoung, Korpse, Lord Noctua, Lux, marilin, Metalass, metaljosue, milosdjor, MMMMM, Morgoth, MorsPulchra, multizwilling, nadin85, nemx, Nicrophorus, Nostra, noxspiritus, oldvarg, Olethros, Olrak, pahail, Panacea, Qliphoth, r1348, Radek, randumbum, recber, RedMoloch, ripper33, robertho777, Rosen, SaintVitus, satanist666, Scuns, Shadechaser, SilentNidhogg, Skogvaktar, smysl, stone88, stub888, Surt, the_cleanser, The_Hound, Thunderbird, Tino, tOmV, Un4given, VALERY, varlam4, Vidyadharov, Wail, wolverine, wreak, Xor, xska, yuratroll, ZA670, ZambuL, Варяг,
Nov 20 2020, 20:12:58 My Dying Bride - Macabre Cabaret [ep] (2020)
Совсем что-ли дураки? - Symphonaire Infernus Et Spera Empyrium !!! 1488.gif

[youtube]bOgRdyZc8mE[/youtube]
(3) Alexis The Best, infiltrator, maxmagmas,
Nov 20 2020, 17:19:17 Ataul - Dawn Of Cataclysm (2015)
Register
(1) kolovratov,
Nov 20 2020, 17:18:56 Поезд Родина - Прими Раба Твоего (2020)
Register
(3) DMIYUR, robertho777, skidnik,
Nov 19 2020, 16:49:35 Iron Woods - Gods And Men (2016)
Register

[youtube]FDixIPK5Hbk[/youtube]
(2) Olrak, vasiljev_sergej,
Nov 19 2020, 16:44:12 Поезд Родина - Прими Раба Твоего (2020)


*Artist: Поезд Родина
*Album: Прими Раба Твоего
*Year: 2020
*Genre: Funeral Doom Metal
*Country: International
*Format: mp3@CBR320kbps
*Size: 158MB

Tracklist:
1. Гарь 9:20
2. Добро Пожаловать В Ад 7:08
3. Прости 8:22
4. Прими Раба Твоего 11:36
5. Небесное Воинство 9:55
6. №503 12:53
******************************
Total playing time: 59:14

[more=Extended info]+ Scans.

CD in jewel box with 4-page booklet. Limited edition of 500 copies.
(Silent Time Noise Records/Outer Line)[/more]

[more=Technical info]
Input File: 1. Гарь.mp3
Channels : 2
Sample Rate : 44100
Precision : 16-bit
Duration : 00:09:20.96 = 24738380 samples = 42072.1 CDDA sectors
File Size : 22.4M
Bit Rate : 320k
Sample Encoding: MPEG audio (layer I, II or III)
Comments :
Title=Ãàðü
Artist=Ïîåçä Ðîäèíà
Album=Ïðèìè ðàáà òâîåãî
Tracknumber=1
Year=2020
Genre=Doom Metal

[/more]

Register
(21) 6666666, Aresson, Ash_1980, Bloodn Lord, cesar, Hell_Is_Here, infiltrator, LEGION69, libertine, Nicrophorus, Old Vyaine, oldvarg, Olethros, randumbum, Rosen, Scuns, Shadechaser, skidnik, VALERY, varlam4, wreak,
Nov 19 2020, 16:42:25 Ataul - Dawn Of Cataclysm (2015)


*Artist: Ataul
*Album: Dawn Of Cataclysm
*Year: 2015
*Genre: Death/Doom Metal
*Country: Philippines
*Format: mp3@CBR320kbps
*Size: 119MB

Tracklist:
1. Prelude To Damnation 02:47
2. The Inauguration 06:28
3. Endless Procession Of Nothingness 06:20
4. Hymn To The Apocalypse 07:14
5. In Death And Decay 07:54
6. Mankind's Burial 07:43
7. Into Eternal Slumber 08:04
******************************
Total playing time: 46:30




[more=Extended info]+ Scans.

[youtube]Ykz8DKaVZz8[/youtube][/more]

[more=Technical info]
Input File: 2. The Inauguration.mp3
Channels : 2
Sample Rate : 44100
Precision : 16-bit
Duration : 00:06:28.36 = 17126720 samples = 29127.1 CDDA sectors
File Size : 15.5M
Bit Rate : 320k
Sample Encoding: MPEG audio (layer I, II or III)
Comments :
Title=The Inauguration
Artist=Ataul
Album=Dawn Of Cataclysm
Tracknumber=2
Year=2015
Genre=Death/Doom Metal

[/more]

Register
(19) AHBAnep, alex-82, andreikun, cesar, Hell_Is_Here, infiltrator, kolovratov, lacrimoza, metala, Olethros, Rosen, sergsazan, Shadechaser, stumpheavyrock, VALERY, varlam4, vyacheslav, Wail, wreak,
Nov 18 2020, 17:07:07 Iron Woods - Gods And Men (2016)


*Artist: Iron Woods
*Album: Gods And Men
*Year: 2016
*Genre: Pagan Black Metal
*Country: Brazil
*Format: mp3@CBR320kbps
*Size: 106MB

Tracklist:
1. Intro 01:41
2. The Voice Of Battle Cry 08:28
3. We Live To Fight 09:10
4. The Time Has Come To Fight 06:08
5. Pagan Glories (Come From The Sky) 08:12
6. Gods And Man 06:08
7. The Bloodline For Heathen Pride 03:45
8. Outro 02:30
******************************
Total playing time: 46:02



[more=Extended info][youtube]IT3DAFYnXxo[/youtube]
[youtube]H8OAyM9olf4[/youtube][/more]

[more=Technical info]
Input File: 02. The Voice Of Battle Cry.mp3
Channels : 2
Sample Rate : 44100
Precision : 16-bit
Duration : 00:08:28.98 = 22445798 samples = 38173.1 CDDA sectors
File Size : 20.5M
Bit Rate : 322k
Sample Encoding: MPEG audio (layer I, II or III)
Comments :
Title=The Voice Of Battle Cry
Artist=Iron Woods
Album=Gods And Men
Tracknumber=2
Year=2016
Genre=Pagan/Black Metal
Discnumber=1

[/more]

Register
(19) 1968_janeart, DrStan, frituz3, Ildjarn, infiltrator, Marek, Moonshtook, multizwilling, Olethros, Olrak, Ostinato, randumbum, Rosen, satanist666, VALERY, varlam4, Wail, wreak, Сварог Барг,
Nov 18 2020, 14:49:50 Goatpenis - Decapitation Philosophy (2020)
ЦИТАТА(SatanMy_Master @ Nov 18 2020, 16:38:29) *
Это рип с винила?

Да.
Register

[youtube]4jVPduF9ks0[/youtube]
(6) infiltrator, Jackyl, smes, thenecromancer, wolverine, wtk.412,

88 Pages V   1 2 3 > » 
- Lo-Fi Version Support form
Copyrights and abuse reports form
Time is now: 21st January 2021 - 14:59:31