Welcome Guest ( Log In | Register )

История благодарностей участнику 1nquis ::: Спасибо сказали: 51 раз(а)
Дата поста: В теме: За сообщение: Спасибо сказали:
Sep 11 2019, 10:19:36 Haunter - Sacramental Death Qualia (2019)
местами больше на прогрссив дэс похоже, чем на блэк.
я такое не.
(1) FlammenTod666,
Sep 11 2019, 10:15:29 Rame - Chants To Maim Again (2019)
по материалу посредственный мелоблэкдэс. записано более-менее.
(1) Shadechaser,
Sep 11 2019, 06:16:44 Kirchenbrand - Antihumanismus (2019)
абсолютно бездарное сведение отбивает желание слушать
(5) DarkHorde, infiltrator, Razorbladeswaltz, terron, Wizard_in_Black,
Sep 10 2019, 08:01:14 Vosbúð - Almannagjá (2019)
не знаю, как там со школой Исландии, тут друдкхейтфорест вперемешку с немецкой школой слышится мне. альбом приятный. хороший пример как без всяких раздражающих соло-гитар и выпирающих клавишных создать правильную атмосферу.

мистюрминг и свартидауди вы тут не найдёте, короче
(3) Brann, nsk2008, Wizard_in_Black,
Jun 1 2016, 14:22:52 Бруталино - Поэма о разнузданном сексе да мраке перверсий (2016)


*Artist: Бруталино
*Album: Бруталино: Поэма о разнузданном сексе да мраке перверсий
*Year: 2016
*Genre: Death Metal/Grindcore
*Country: Russian Federation
*Format: mp3@CBR320kbps
*Size: 100MB

Tracklist:
01. Тайные мечты Папы Карло
02. Деревянная секс-кукла
03. Азбука секса
04. Бруталино
05. Дверь на порно площадку
06. Нос Буратино познает вагину
07. Кастинг
08. Хлыст Карабаса Барабаса (Садо-мазо культ)
09. Знатный троечёк
10. Воспламенение от трения (Побег с площадки)
11. Тихой Ночью Бруталино отодрал в кустах Мальвину
12. Грустный Пьеро страдал под луной
13. Лиса Алиса и Кот Базилио созывают на слёт свингеров
14. Злобный деспот Дуремар наркоту вливает в дам
15. Путь Геронтофила к Тортилле
16. Золотой ключик - бесплатный абонемент в дом шлюх
17. Денежное дерево (в её трусах)
******************************
Total playing time: 42:03



[more=Extended info]Тащемто по окончанию лихих девяностых, на пороге двадцать первого века в спортивном лагере, название которого стёрло пропитое сознание, отмороженные п**дюки в возрасте от 14 до 17 лет, сублимируя свой спермотоксикоз, решили устроить дикую провокацию для тренеров и прочих зевак и создали группу Бруталино. Поскольку у деревенских дурачков не было этих ваших интернетов, то даже и не знали, что их попытки сделать предельно экстремальный панк неновы, да и про грайндкор, который получился на деле, они никогда не слышали.
Тематикой творчества стали альтернативные истории, построенные на основе детских сказок. Как итог получился этакий порно грайнд для детей дошкольного возраста. Но после безбашенного деревенского дестроя, окончившегося уничтожением части сельской аппаратуры, группа разбрелась по закоулкам мегаполиса и растворилась в неизвестности. Только два участника пытались продолжить дальнейшую деятельность, но все эти попытки продлились недолго, поскольку их культяпки даже гитарами не владели, посему выходили лишь похабные частушки. Так и был похоронен Бруталино в тетрадке, что была замурована в письменном столе, да в подворотнях памяти.
Но вот спустя множество лет пара участников группы встретилось, и, впав в захмелевшую ностальгию, вспомнили былые победы, и решили тряхнуть стариной. Попытки выйти на оставшихся участников оказались тщетны, лишь немногие свидетельства говорят о том, что их принял себе в жертву демон алкоголизма. Но осталась тетрадка, что была откопана в пещерах письменного стола, да и культяпки познали мощь гитар. Так на основе старых текстов и была написана монументальная расп**дяйская поэма «Бруталино: Поэма о разнузданном сексе да мраке перверсий».[/more]

[more=Technical info]
Input File: 06 Нос Буратино познает вагину.mp3
Channels : 2
Sample Rate : 44100
Precision : 16-bit
Duration : 00:01:59.50 = 5269730 samples = 8962.13 CDDA sectors
File Size : 4.96M
Bit Rate : 332k
Sample Encoding: MPEG audio (layer I, II or III)
Comments :
Title=Нос Буратино познает вагину
Artist=Бруталино
Album=Бруталино: Поэма о разнузданном сексе да мраке перверсий (Brutalino: Sex Poem)
Tracknumber=6
Year=2016

[/more]

Register
(19) 0x13, Aresson, avkruchinin, CaptianGoreGrind, cesar, durimaar, frwd, infiltrator, jollo, morbidangelo, oldvarg, Rosen, satanist666, tushkan1, varlam4, vyacheslav, wgs73, wreak, Герб,
Sep 15 2014, 11:13:16 Рок-Острова - Колокол В Моём Сердце (1988)


*Artist: Рок-Острова
*Album: Колокол В Моём Сердце
*Year: 1988
*Genre: Hard Rock/Heavy Metal
*Country: Russian Federation
*Format: mp3@CBR128kbps
*Size: 33MB

Tracklist:
1. Интро 3:01
2. За то, что он в это верил 4:22
3. Пей и ты забудешь всё 4:18
4. Колокол в моём сердце 3:39
5. Теперь тебе хорошо 5:41
6. Он всё променял 5:17
7. Он шёл... 3:34
8. Кто заставляет тебя 2:53
9. Финал 2:13
******************************
Total playing time: 34:58

[more=Extended info]Да, это те самые Рок-Острова. Одна из первых работ. Редкий альбом 1988 года.[/more]

Register
(7) avkruchinin, metala, Rosen, SAPOGi, v.v.m, wildshadow, Сварог Барг,

- Lo-Fi Version Support form
Copyrights and abuse reports form
Time is now: 9th December 2019 - 08:20:27