Welcome Guest ( Log In | Register )

История благодарностей участнику Forest Silence ::: Спасибо сказали: 2331 раз(а)
Дата поста: В теме: За сообщение: Спасибо сказали:
Jan 3 2020, 20:31:28 Vintlechkeit - Hymnen Var... [demo] (2020)


*Artist: Vintlechkeit
*Album: Hymnen Var... [demo]
*Year: 2020
*Genre: Atmospheric Raw Black Metal
*Country: Norway
*Format: mp3@CBR320kbps
*Size: 76MB

Tracklist:
1. Hymnen Var...
2. Nar Alle Dode Stjerner Kommer Tilbake...
******************************
Total playing time: 30:10



[more=Technical info]
Input File: 02. Nar Alle Dode Stjerner Kommer Tilbake.mp3
Channels : 2
Sample Rate : 44100
Precision : 16-bit
Duration : 00:15:29.33 = 40983233 samples = 69699.4 CDDA sectors
File Size : 37.3M
Bit Rate : 321k
Sample Encoding: MPEG audio (layer I, II or III)
Comments :
Title=Nar Alle Dode Stjerner Kommer Tilbake...
Artist=Vintlechkeit
Album=Hymnen Var...
Tracknumber=2
Year=2020
Genre=Atmospheric Raw Black Metal

[/more]

Register
(19) 1968_janeart, alikkon, cancer1974, kim666, NappyRob, nemx, Olethros, Rosen, senecazm, SilentNidhogg, Sjelekval, stub888, thenecromancer, VALERY, varg-38ru, varlam4, vasiljev_sergej, warrr, ZA670,
Jan 3 2020, 07:32:01 Gazarii - Sorcery [ep] (2020)


*Artist: Gazarii
*Album: Sorcery [ep]
*Year: 2020
*Genre: Black Metal
*Country: Switzerland
*Format: mp3@CBR320kbps
*Size: 54MB

Tracklist:
1. Evocation
2. Fear
3. Errores Gazariorum
******************************
Total playing time: 23:08



[more=Technical info]
Input File: 01. Evocation.mp3
Channels : 2
Sample Rate : 44100
Precision : 16-bit
Duration : 00:07:48.01 = 20639329 samples = 35100.9 CDDA sectors
File Size : 18.8M
Bit Rate : 322k
Sample Encoding: MPEG audio (layer I, II or III)
Comments :
Title=Evocation
Artist=Gazarii
Album=Sorcery
Tracknumber=1
Year=2020
Genre=138

[/more]

Register
(20) ASkyThatBurns, Frozenkult, Fryz, fuoco, holyterror, HviteGuden, infiltrator, kim666, multizwilling, nemx, Olethros, Rita, Rosen, satanist666, SilentNidhogg, stub888, varg-38ru, varlam4, vasiljev_sergej, vovenom,
Jan 3 2020, 07:30:02 Gazarii - Errores Gazariorum [demo] (2019)


*Artist: Gazarii
*Album: Errores Gazariorum [demo]
*Year: 2019
*Genre: Black Metal
*Country: Switzerland
*Format: mp3@CBR320kbps
*Size: 24MB

Tracklist:
1. Errores Gazariorum
******************************
Total playing time: 10:15



[more=Technical info]
Input File: 01. Errores Gazariorum.mp3
Channels : 2
Sample Rate : 44100
Precision : 16-bit
Duration : 00:10:15.27 = 27133539 samples = 46145.5 CDDA sectors
File Size : 24.7M
Bit Rate : 322k
Sample Encoding: MPEG audio (layer I, II or III)
Comments :
Title=Errores Gazariorum
Artist=Gazarii
Album=Errores Gazariorum
Tracknumber=1
Year=2019
Genre=138

[/more]

Register
(17) ASkyThatBurns, Frozenkult, Fryz, fuoco, infiltrator, kim666, Olethros, Rita, Rosen, satanist666, SilentNidhogg, stub888, thenecromancer, VALERY, varlam4, vasiljev_sergej, vovenom,
Jan 3 2020, 07:12:03 Türst - Nuit D'hiver [ep] (2020)


*Artist: Türst
*Album: Nuit D'hiver [ep]
*Year: 2020
*Genre: Atmospheric Black Metal
*Country: Switzerland
*Format: mp3@CBR320kbps
*Size: 68MB

Tracklist:
1. Nuit d'Hiver
2. Sombre Forêt
3. Dernière Neige
******************************
Total playing time: 29:06



[more=Technical info]
Input File: 01. Nuit d\'Hiver.mp3
Channels : 2
Sample Rate : 44100
Precision : 16-bit
Duration : 00:10:55.27 = 28897319 samples = 49145.1 CDDA sectors
File Size : 26.4M
Bit Rate : 322k
Sample Encoding: MPEG audio (layer I, II or III)
Comments :
Title=Nuit d'Hiver
Artist=Türst
Album=Nuit d'Hiver
Tracknumber=1
Year=2020
Genre=138

[/more]

Register
(31) 1968_janeart, aleon, ASkyThatBurns, craP_cillA, Frozenkult, fuoco, infiltrator, kim666, Krosis, krotovich, Lamby90, Ludwig Hagen, murian, Olethros, peppuzzo, Rita, robertho777, Rosen, satanist666, senecazm, Shadechaser, SilentNidhogg, squall8fr, stone88, stub888, thenecromancer, VALERY, varlam4, vasiljev_sergej, vovenom, Авел,
Dec 10 2019, 14:48:43 Vintlechkeit & Ísþögn & Vinterkalte - Cult Of Winter [split] (2019)


*Artist: Vintlechkeit & Ísþögn & Vinterkalte
*Album: Cult Of Winter [split]
*Year: 2019
*Genre: Ambient/Black Metal
*Country: Norway | Iceland | Sweden
*Format: mp3@CBR320kbps
*Size: 91MB

Tracklist:
1. Vintlechkeit - Sorg Under De Evige Stjerner
2. Ísþögn - Ísþögn
3. Ísþögn - Frá Stjörnum
4. Vinterkalte - Breath Of Colossal Winds
******************************
Total playing time: 38:19



[more=Technical info]
Input File: 01. Vintlechkeit - Sorg Under De Evige Stjerner.mp3
Channels : 2
Sample Rate : 44100
Precision : 16-bit
Duration : 00:15:13.97 = 40305857 samples = 68547.4 CDDA sectors
File Size : 36.7M
Bit Rate : 321k
Sample Encoding: MPEG audio (layer I, II or III)
Comments :
Title=Sorg Under De Evige Stjerner
Artist=Vintlechkeit
Album=Cult Of Winter
Tracknumber=1
Year=2019
Genre=Ambient Black Metal

[/more]

Register
(23) cancer1974, Emhyr var Emreis, eternald, gena, Ildjarn, infiltrator, kim666, Lanceatum, Ostinato, Rosen, satanist666, senecazm, SilentNidhogg, Sjelekval, stone88, thenecromancer, Tyrone, undertrykkelse, varlam4, vasiljev_sergej, wreak, ZA670, zargonath,
Dec 8 2019, 17:02:23 Vintlechkeit - Norskesvartmetall [compilation] (2019)


*Artist: Vintlechkeit
*Album: Norskesvartmetall [compilation]
*Year: 2019
*Genre: Atmospheric Black Metal
*Country: Norway
*Format: mp3@CBR320kbps
*Size: 217MB

Tracklist:
1. Evig Og Mork Vinter
2. Svarta
3. Mektige Trinn Av Den Evig Vinter
4. Den Nådeløs Vinter
5. Iskald Ødemark
6. Vinter
7. Aldrig Sovande Atervande
8. Dødssted
******************************
Total playing time: 1:32:13

[more=Technical info]
Input File: 01. Evig Og Mork Vinter.mp3
Channels : 2
Sample Rate : 44100
Precision : 16-bit
Duration : 00:16:32.41 = 43765369 samples = 74430.9 CDDA sectors
File Size : 39.7M
Bit Rate : 320k
Sample Encoding: MPEG audio (layer I, II or III)
Comments :
Title=Evig Og Mork Vinter
Artist=Vintlechkeit
Album=Norskesvartmetall
Tracknumber=1
Year=2019
Genre=Ambient Black Metal

[/more]

Register
(15) 1968_janeart, cancer1974, kim666, Olethros, Ostinato, robertho777, Rosen, senecazm, SilentNidhogg, Sjelekval, stub888, VALERY, varlam4, vasiljev_sergej, wreak,
Dec 8 2019, 16:57:56 Vintlechkeit - Svartskogen, Svartvinter​.​.​. [demo] (2019)


*Artist: Vintlechkeit
*Album: Svartskogen, Svartvinter​.​.​. [demo]
*Year: 2019
*Genre: Atmospheric Black Metal
*Country: Norway
*Format: mp3@CBR320kbps
*Size: 35MB

Tracklist:
1. Svartvinter...
2. Svartskogen...
******************************
Total playing time: 14:45

[more=Technical info]
Input File: 01. Svartvinter.mp3
Channels : 2
Sample Rate : 44100
Precision : 16-bit
Duration : 00:08:24.70 = 22257138 samples = 37852.3 CDDA sectors
File Size : 20.3M
Bit Rate : 322k
Sample Encoding: MPEG audio (layer I, II or III)
Comments :
Title=Svartvinter...
Artist=Vintlechkeit
Album=Svartskogen, Svartvinter...
Tracknumber=1
Year=2019
Genre=Ambient Black Metal

[/more]

Register
(10) 1968_janeart, dim0ntius, kim666, Olethros, Rosen, Sjelekval, stub888, Tyrone, varlam4, vasiljev_sergej,
Dec 8 2019, 16:54:56 Vintlechkeit - Menneskelig Frykt​.​.​. [demo] (2019)


*Artist: Vintlechkeit
*Album: Menneskelig Frykt​.​.​. [demo]
*Year: 2019
*Genre: Atmospheric Black Metal
*Country: Norway
*Format: mp3@CBR320kbps
*Size: 51MB

Tracklist:
1. Jorden Skyver Lik...
2. Menneskelig Frykt...
3. Isolasjon I Den Hvite Dødens Dal...
******************************
Total playing time: 21:13

[more=Technical info]
Input File: 01. Jorden Skyver Lik.mp3
Channels : 2
Sample Rate : 44100
Precision : 16-bit
Duration : 00:04:19.87 = 11460399 samples = 19490.5 CDDA sectors
File Size : 10.5M
Bit Rate : 323k
Sample Encoding: MPEG audio (layer I, II or III)
Comments :
Title=Jorden Skyver Lik...
Artist=Vintlechkeit
Album=Menneskelig Frykt...
Tracknumber=1
Year=2019
Genre=Ambient Black Metal

[/more]

Register
(13) 1968_janeart, cancer1974, kim666, Olethros, robertho777, Rosen, senecazm, SilentNidhogg, Sjelekval, stub888, varlam4, vasiljev_sergej, wreak,
Dec 8 2019, 16:52:15 Vintlechkeit - La Oss Gå Til... [demo] (2019)


*Artist: Vintlechkeit
*Album: La Oss Gå Til... [demo]
*Year: 2019
*Genre: Atmospheric Black Metal
*Country: Norway
*Format: mp3@CBR320kbps
*Size: 59MB

Tracklist:
1. Dødeligeforkjølelse...
2. Jeg Gar I Isskogriket...
3. Vi Drar...
******************************
Total playing time: 24:52

[more=Technical info]
Input File: 01. Dødeligeforkjølelse.mp3
Channels : 2
Sample Rate : 44100
Precision : 16-bit
Duration : 00:09:58.56 = 26396364 samples = 44891.8 CDDA sectors
File Size : 24.0M
Bit Rate : 321k
Sample Encoding: MPEG audio (layer I, II or III)
Comments :
Title=Dødeligeforkjølelse...
Artist=Vintlechkeit
Album=La Oss Gå Til...
Tracknumber=1
Year=2019
Genre=Ambient Black Metal

[/more]

Register
(15) 1968_janeart, cancer1974, kim666, Olethros, Ostinato, robertho777, Rosen, senecazm, SilentNidhogg, Sjelekval, stub888, Tyrone, varlam4, vasiljev_sergej, wreak,
Dec 8 2019, 16:49:04 Vintlechkeit - Gjennom Skogens Kratt... [demo] (2019)


*Artist: Vintlechkeit
*Album: Gjennom Skogens Kratt... [demo]
*Year: 2019
*Genre: Atmospheric Black Metal
*Country: Norway
*Format: mp3@CBR320kbps
*Size: 30MB

Tracklist:
1. Tidens Samtale...
2. Gjennom Skogens Kratt...
3. Tystnad Av Doden...
******************************
Total playing time: 12:09

[more=Technical info]
Input File: 02. Gjennom Skogens Kratt.mp3
Channels : 2
Sample Rate : 44100
Precision : 16-bit
Duration : 00:07:36.84 = 20146644 samples = 34263 CDDA sectors
File Size : 18.3M
Bit Rate : 321k
Sample Encoding: MPEG audio (layer I, II or III)
Comments :
Title=Gjennom Skogens Kratt...
Artist=Vintlechkeit
Album=Gjennom Skogens Kratt...
Tracknumber=2
Year=2019
Genre=Ambient Black Metal

[/more]

Register
(16) 1968_janeart, cancer1974, kim666, Olethros, Ostinato, robertho777, Rosen, senecazm, SilentNidhogg, Sjelekval, stub888, Tyrone, varlam4, vasiljev_sergej, Wotanwatch, wreak,
Dec 8 2019, 16:41:34 Vintlechkeit - Dødssted​... [demo] (2019)


*Artist: Vintlechkeit
*Album: Dødssted​... [demo]
*Year: 2019
*Genre: Atmospheric Black Metal
*Country: Norway
*Format: mp3@CBR320kbps
*Size: 40MB

Tracklist:
1. Runenkrafter
2. Dødssted...
******************************
Total playing time: 16:53

[more=Technical info]
Input File: 01. Runerkrafter.mp3
Channels : 2
Sample Rate : 44100
Precision : 16-bit
Duration : 00:04:14.07 = 11204663 samples = 19055.5 CDDA sectors
File Size : 10.2M
Bit Rate : 321k
Sample Encoding: MPEG audio (layer I, II or III)
Comments :
Title=Runerkrafter
Artist=Vintlechkeit
Album=Dødssted...
Tracknumber=1
Year=2019
Genre=Ambient Black Metal

[/more]

Register
(14) 1968_janeart, cancer1974, kim666, Olethros, Ostinato, robertho777, Rosen, senecazm, SilentNidhogg, Sjelekval, stub888, varlam4, vasiljev_sergej, wreak,
Dec 8 2019, 16:33:44 Vintlechkeit - Aldrig... [demo] (2019)


*Artist: Vintlechkeit
*Album: Aldrig... [demo]
*Year: 2019
*Genre: Atmospheric Black Metal
*Country: Norway
*Format: mp3@CBR320kbps
*Size: 40MB

Tracklist:
1. Vid Elden...
2. Aldrig Sovande Atervande
3. ...Er Alle Dode
******************************
Total playing time: 16:15

[more=Technical info]
Input File: 01. Vid Elden.mp3
Channels : 2
Sample Rate : 44100
Precision : 16-bit
Duration : 00:02:14.59 = 5935331 samples = 10094.1 CDDA sectors
File Size : 5.43M
Bit Rate : 323k
Sample Encoding: MPEG audio (layer I, II or III)
Comments :
Title=Vid Elden...
Artist=Vintlechkeit
Album=Aldrig...
Tracknumber=1
Year=2019
Genre=Ambient Black Metal

[/more]

Register
(15) 1968_janeart, cancer1974, kim666, Olethros, Ostinato, robertho777, Rosen, senecazm, SilentNidhogg, Sjelekval, stub888, Tyrone, varlam4, vasiljev_sergej, wreak,
Dec 8 2019, 16:31:10 Vintlechkeit - Utfordre Vintermørke... [demo] (2018)


*Artist: Vintlechkeit
*Album: Utfordre Vintermørke... [demo]
*Year: 2018
*Genre: Atmospheric Black Metal
*Country: Norway
*Format: mp3@CBR320kbps
*Size: 26MB

Tracklist:
1. Vinteritual
2. Vintermørke...
******************************
Total playing time: 10:28

[more=Technical info]
Input File: 02. Vintermørke.mp3
Channels : 2
Sample Rate : 44100
Precision : 16-bit
Duration : 00:08:26.42 = 22333166 samples = 37981.6 CDDA sectors
File Size : 20.3M
Bit Rate : 321k
Sample Encoding: MPEG audio (layer I, II or III)
Comments :
Title=Vintermørke...
Artist=Vintlechkeit
Album=Utfordre Vintermørke...
Tracknumber=2
Year=2018
Genre=Ambient Black Metal

[/more]

Register
(16) 1968_janeart, aleon, cancer1974, kim666, Olethros, Ostinato, robertho777, Rosen, senecazm, SilentNidhogg, Sjelekval, stub888, Tyrone, varlam4, vasiljev_sergej, wreak,
Dec 8 2019, 16:28:03 Vintlechkeit - Til... [demo] (2018)


*Artist: Vintlechkeit
*Album: Til... [demo]
*Year: 2018
*Genre: Atmospheric Black Metal
*Country: Norway
*Format: mp3@CBR320kbps
*Size: 60MB

Tracklist:
1. Av Vinteren...
2. ...Til Vinteren...
3. Til Svart Kosmos...
******************************
Total playing time: 25:37

[more=Technical info]
Input File: 01. Av Vinteren.mp3
Channels : 2
Sample Rate : 44100
Precision : 16-bit
Duration : 00:08:29.22 = 22456426 samples = 38191.2 CDDA sectors
File Size : 20.4M
Bit Rate : 321k
Sample Encoding: MPEG audio (layer I, II or III)
Comments :
Title=Av Vinteren...
Artist=Vintlechkeit
Album=Til...
Tracknumber=1
Year=2018
Genre=Ambient Black Metal

[/more]

Register
(13) 1968_janeart, aleon, cancer1974, kim666, NappyRob, Olethros, Rosen, Sjelekval, stub888, Tyrone, varlam4, vasiljev_sergej, Wotanwatch,
Nov 27 2019, 09:20:39 Kampen - Primeval Wisdom Of Forests [demo] (2019)
Register
(1) thenecromancer,
Nov 21 2019, 20:03:04 Кобь - The Breath Of The Chthonic Depths [ep] (2019)
Обалдеть, я только три дня назад выкладывал старый альбом в лосе.

Кобь, та самая, хтоническая и монолитная! Вот это подарок. 9.gif Мы в восхищении.

[more="Треклист на русском"]1. Въздохъ земныих глубин
2. И камлат пробудится...
3. Безрассвета лунный удел[/more]

(3) Black Cat, Penetralia, Абигор,
Nov 18 2019, 21:06:07 Myrryr - Relinquish All Hope (2019)


*Artist: Myrryr
*Album: Relinquish All Hope
*Year: 2019
*Genre: Atmospheric Black Metal
*Country: South Africa
*Format: mp3@CBR320kbps
*Size: 101MB

Tracklist:
1. The Insects' Secrets 10:33
2. Charon's Golden Price 04:54
3. Torment Of The Styx 05:33
4. The Chalice Of Lethe 04:06
5. The Diamond Gate 08:13
6. The Final Judgement 04:30
7. The Will Of Hades 06:08
******************************
Total playing time: 43:57



[more=Technical info]
Input File: 03. The Chalice Of Lethe.mp3
Channels : 2
Sample Rate : 44100
Precision : 16-bit
Duration : 00:04:06.09 = 10852569 samples = 18456.8 CDDA sectors
File Size : 9.96M
Bit Rate : 324k
Sample Encoding: MPEG audio (layer I, II or III)
Comments :
Title=The Chalice Of Lethe
Artist=Myrryr
Album=Relinquish All Hope
Tracknumber=3
Year=2019
Genre=138

[/more]

Register


Register
(26) 1968_janeart, Andr, Astralgeist, Branis, d0zer, djsema4, Fess, Kazoth, kim666, Korpse, multizwilling, ripper33, robertho777, Rosen, satanist666, senecazm, Shadechaser, SilentNidhogg, Surt, tOmV, VALERY, varg-38ru, varlam4, vasiljev_sergej, vovenom, wreak,
Nov 18 2019, 20:32:50 Две Тысячи Крестов - Душно [ep] (2019)


*Artist: Две Тысячи Крестов
*Album: Душно [ep]
*Year: 2019
*Genre: Melodic Black Metal
*Country: Russian Federation
*Format: mp3@CBR320kbps
*Size: 31MB

Tracklist:
1. Intro 1:34
2. Душно 4:16
3. Никто Из Вас Здесь Не Был 5:23
4. Outro 1:39
******************************
Total playing time: 12:52



[more=Technical info]
Input File: 02. Душно.mp3
Channels : 2
Sample Rate : 44100
Precision : 16-bit
Duration : 00:04:15.91 = 11285719 samples = 19193.4 CDDA sectors
File Size : 10.4M
Bit Rate : 326k
Sample Encoding: MPEG audio (layer I, II or III)
Comments :
Title=Душно
Artist=Две Тысячи Крестов
Album=Душно
Tracknumber=2
Year=2019
Genre=Melodic Black Metal

[/more]

Register
(23) 1968_janeart, ahp, apostol_13, Aresson, Branis, cenzored, djsema4, Foneg, GorAtheist, Ice Gnoll, kimkayoung, Olethros, robertho777, Rosen, Sanctus, satanist666, senecazm, SnaP, VALERY, varlam4, vasiljev_sergej, wreak, Авел,
Nov 18 2019, 19:05:02 Кобь - Давние Покровы Рипейских Древочащь (2006)
ЦИТАТА(sarcophagus @ 18th November 2019 - 22:04:58) *
Один из шаманов в этом проекте:

Ну я думаю, lafuma имел в виду основных участников - Мгланого и Рипея. 121 там так, сессионно помогал, равно как и Север из Лихолесья, и Гердервальд.

ЦИТАТА(Brann @ 18th November 2019 - 23:03:55) *
видео не воспроизводится, прошу уточнить название проекта

Там мсье Шафоростов.
(1) Brann,
Nov 17 2019, 21:14:22 Кобь - Давние Покровы Рипейских Древочащь (2006)
Register
(6) eternald, Olethros, ripper33, varg-38ru, vasiljev_sergej, VLADISLAV_V_K,
Nov 17 2019, 21:05:31 Thy Repentance - Ural Twilight Autumnalias (1995)
Register
(1) thenecromancer,
Nov 13 2019, 17:09:18 Brocken Moon - Das Märchen Vom Schnee (2008)
Register
(1) varlam4,
Nov 13 2019, 16:38:43 Todeskult - Als Die Farben Älter Wurden... (2007)
Register
(1) vasiljev_sergej,
Nov 11 2019, 21:05:41 Yggnath - KSŴAD [demo] (2014)


*Artist: Yggnath
*Album: KSŴAD [demo]
*Year: 2014
*Genre: Raw Black Metal
*Country: Russian Federation
*Format: mp3@CBR320kbps
*Size: 18MB

Tracklist:
1. KSŴAD
******************************
Total playing time: 7:43

[more=Technical info]
Input File: 01. KSŴAD.mp3
Channels : 2
Sample Rate : 44100
Precision : 16-bit
Duration : 00:07:42.93 = 20415081 samples = 34719.5 CDDA sectors
File Size : 18.8M
Bit Rate : 324k
Sample Encoding: MPEG audio (layer I, II or III)
Comments :
Title=KSŴAD
Artist=Yggnath
Album=KSŴAD
Tracknumber=01
Year=2014
Genre=Raw Black Metal

[/more]

Register
(8) 1968_janeart, morbidangelo, Olethros, Razorbladeswaltz, Rosen, satanist666, varlam4, vasiljev_sergej,
Nov 11 2019, 21:00:48 Yggnath - No Return [demo] (2019)


*Artist: Yggnath
*Album: No Return [demo]
*Year: 2019
*Genre: Atmospheric Black Metal
*Country: Russian Federation
*Format: mp3@CBR320kbps
*Size: 17MB

Tracklist:
1. No Return
******************************
Total playing time: 7:00

[more=Technical info]
Input File: 01. No Return.mp3
Channels : 2
Sample Rate : 44100
Precision : 16-bit
Duration : 00:07:00.06 = 18524602 samples = 31504.4 CDDA sectors
File Size : 16.9M
Bit Rate : 322k
Sample Encoding: MPEG audio (layer I, II or III)
Comments :
Title=No Return
Artist=Yggnath
Album=No Return
Tracknumber=1
Year=2019
Genre=138

[/more]

Register
(12) 1968_janeart, ahp, morbidangelo, Olethros, Rosen, Sanctus, satanist666, senecazm, thenecromancer, VALERY, varlam4, vasiljev_sergej,

11 Pages V   1 2 3 > » 
- Lo-Fi Version Support form
Copyrights and abuse reports form
Time is now: 26th May 2020 - 13:24:36