Welcome Guest ( Log In | Register )

История благодарностей участнику Forest Silence ::: Спасибо сказали: 1397 раз(а)
Дата поста: В теме: За сообщение: Спасибо сказали:
Jul 27 2018, 10:01:56 Urfaust - Live At Roadburn [bootleg] (2015)


*Artist: Urfaust
*Album: Live At Roadburn [bootleg]
*Year: 2015
*Genre: Black Metal
*Country: Netherlands
*Format: mp3@CBR192kbps
*Size: 55MB

Tracklist:
01. Die Kalte Teufelfaust 9:09
02. Auszug Aller Todlich Seinen Krafte 8:43
03. Dämmert, Gelähmt Und Mit Scheinbar Erloschenem Geist 3:41
04. Unter Töchtern Der Wüste 7:01
05. Vom Geist Der Schwere 5:06
06. Gespinnt Des Verderbens 5:36
******************************
Total playing time: 39:16



[more=Technical info]
Input File: 03. Dämmert, Gelähmt Und Mit Scheinbar Erloschenem Geist.mp3
Channels : 2
Sample Rate : 44100
Precision : 16-bit
Duration : 00:03:41.37 = 9762549 samples = 16603 CDDA sectors
File Size : 5.39M
Bit Rate : 195k
Sample Encoding: MPEG audio (layer I, II or III)
Comments :
Title=Dämmert, Gelähmt Und Mit Scheinbar Erloschenem Geist
Artist=Urfaust
Album=Live at Roadburn
Tracknumber=3/6
Year=2015
Genre=138

[/more]

Register
(7) 1968_janeart, Alexis The Best, dermarsoran, infiltrator, Rosen, the_cleanser, vasiljev_sergej,
Jul 27 2018, 09:57:52 Urfaust - Live In Tampere [bootleg] (2008)


*Artist: Urfaust
*Album: Live In Tampere [bootleg]
*Year: 2008
*Genre: Black Metal
*Country: Netherlands
*Format: mp3@CBR192kbps
*Size: 43MB

Tracklist:
1. Die Kalte Teufelfaust 5:54
2. Auszug Aller Todlich Seinen Krafte 4:43
3. Dämmert, Gelähmt Und Mit Scheinbar Erloschenem Geist 4:01
4. Vom Geist Der Schwere 3:34
5. Ragnarök Mystiker 3:23
6. Gespinnt Des Verderbens 3:28
7. Drudenfuß 5:27
******************************
Total playing time: 30:30



[more=Technical info]
Input File: 06. Gespinnt Des Verderbens.mp3
Channels : 2
Sample Rate : 44100
Precision : 16-bit
Duration : 00:03:28.42 = 9191146 samples = 15631.2 CDDA sectors
File Size : 5.07M
Bit Rate : 195k
Sample Encoding: MPEG audio (layer I, II or III)
Comments :
Title=Gespinnt Des Verderbens
Artist=Urfaust
Album=Live in Tampere
Tracknumber=6/7
Year=2008
Genre=138

[/more]

Register
(6) 1968_janeart, Alexis The Best, dermarsoran, Rosen, the_cleanser, vasiljev_sergej,
Jul 25 2018, 11:15:34 Urfaust - Live In Bruxelles [bootleg] (2014)


*Artist: Urfaust
*Album: Live In Bruxelles [bootleg]
*Year: 2014
*Genre: Black Metal
*Country: Netherlands
*Format: mp3@CBR192kbps
*Size: 63MB

Tracklist:
1. Die Kalte Teufelfaust 7:46
2. Auszug Aller Todlich Seinen Krafte 7:29
3. Dämmert, Gelähmt Und Mit Scheinbar Erloschenem Geist 4:11
4. Unter Töchtern Der Wüste 8:27
5. Gespinnst Des Verderbens 6:15
6. Vom Geist Der Schwere 4:26
7. Meditatum III 6:29
******************************
Total playing time: 45:03



[more=Extended info]from Youtube[/more]

Register
(8) 1968_janeart, Alexis The Best, dermarsoran, Fenrirsson, LVXXVL, Rosen, the_cleanser, vasiljev_sergej,
Jul 22 2018, 20:02:26 Heilung - Lifa [live] (2017)


*Artist: Heilung
*Album: Lifa [live]
*Year: 2017
*Genre: Nordic Folk
*Country: Denmark
*Format: mp3@CBR320kbps
*Size: 181MB

Tracklist:
1. Opening Ceremony
2. In Maidjan
3. Alfadhirhaiti
4. Carpathian Forest
5. Krigsgaldr
6. Hakkerskaldyr
7. Fylgija Ear / Futhorck
8. Othan
9. Hamrer Hippyer
******************************
Total playing time: 1:15:41

[more=Technical info]
Input File: 06. Hakkerskaldyr.mp3
Channels : 2
Sample Rate : 44100
Precision : 16-bit
Duration : 00:02:50.06 = 7499778 samples = 12754.7 CDDA sectors
File Size : 7.63M
Bit Rate : 359k
Sample Encoding: MPEG audio (layer I, II or III)
Comments :
Title=Hakkerskaldyr
Artist=Heilung
Album=Lifa
Tracknumber=06
Year=2017
Genre=Neofolk

[/more]

Register
(6) Angry_Chair, carpathian, Cartman223, fabriziomagno, Krosis, morve,
Jul 22 2018, 20:01:23 Heilung - Ofnir (2015)


*Artist: Heilung
*Album: Ofnir
*Year: 2015
*Genre: Nordic Folk
*Country: Denmark
*Format: mp3@CBR320kbps
*Size: 165MB

Tracklist:
1. Alfadhirhaiti
2. Krigsgaldr
3. Hakkerskaldyr
4. Schlamschlacht
5. Carpathian Forest
6. Fylgija Ear
7. Futhorck
8. In Maidjan
9. Afhomon
******************************
Total playing time: 1:11:52

[more=Technical info]
Input File: 05. Carpathian Forest.mp3
Channels : 2
Sample Rate : 44100
Precision : 16-bit
Duration : 00:02:33.71 = 6778611 samples = 11528.2 CDDA sectors
File Size : 6.28M
Bit Rate : 327k
Sample Encoding: MPEG audio (layer I, II or III)
Comments :
Title=Carpathian Forest
Artist=Heilung
Album=Ofnir
Tracknumber=05
Year=2015
Genre=Neofolk

[/more]

Register
(9) Angry_Chair, Buregon, carpathian, Cartman223, fabriziomagno, gwar, Krosis, morve, shial,
May 5 2018, 13:11:36 Urfaust - The Constellatory Practice (2018)
Ну, что тут сказать — очередной монолитно-шедевральный опус от Урфауст. Правда вот блэка тут чуть более, чем ни..я, скорей уж дум-метал, ну да какая разница.
(2) infiltrator, ripper33,
Jan 26 2018, 08:43:02 Ладушка - Солнцеворот (2018)
Register
(15) aesteticvice, Daecadance, Kaphiel, Kwaad, Lucifer, Mihalik, Moonshtook, Mplast, Nattfodd, nsk2008, SameMan, SAPOGi, satanist666, Thiarnan, vosmidesijatye,
Nov 10 2017, 09:01:22 Summoning - With Doom I Come [single] (2017)
Грядёт очередной шедевр, похоже. А то, что по материалу ближе к Oath Bound - не может не радовать.
(1) Anataas,
Nov 9 2017, 19:13:26 MetalBlack - Прыгнуть в Небо (2017)
Register


headcrab.png простите, не сдержался.)
(22) 1968_janeart, 6666666, Chasm, fabeldyr, Hordalend, krotovich, Kwaad, MeatWolf, Metalass, Nattfodd, nsk2008, Penetralia, rimfrost, ripper33, RUSP73, SAPOGi, scorn33, Synthaeon, vasilisk, vdolghi, Winterkalte, Zahrim,
Nov 2 2017, 14:34:15 Lustre - Still Innocence (2017)
детский плач в песне Nestle Within это отвратительно(. в остальном - люстра как люстра - под нее спать збсь.)
(1) Vidder242,
Oct 31 2017, 21:09:54 Kanashimi - Inori (2017)


*Artist: Kanashimi
*Album: Inori
*Year: 2017
*Genre: Depressive Black Metal
*Country: Japan
*Format: mp3@CBR128kbps
*Size: 35MB

Tracklist:
1. Scar Of Heart
2. Tomurai
3. Lost Soul
4. In My Tears
5. Nostalgia
6. Inori
******************************
Total playing time: 37:27

Register
(16) 0x13, kim666, Lanceatum, MaXL, metala, OldY, princeshr, Razorbladeswaltz, Rosen, RUSP73, Styx, thenecromancer, TREVAS, varg-38ru, vasiljev_sergej, yarrsuaa,
Oct 26 2017, 10:28:51 Total-Empty - Towards The Moon (2017)
old silver alcest ) но вокал и правда мимо кассы. мне вообще j-rock напоминили эти напевы. хорошо, что только в одной песне
(2) Kwaad, Old Vyaine,
Oct 26 2017, 07:41:27 Dépérir - Dépérir (2017)
Квебекская плеяда сами-знаете-каких проектов настолько подняла планку канадского франкоязычного блэка, что от каждой группы с тех же мест по привычке ждёшь какого-то чуда. Здесь его не произошло, всё стандартненько, на 1 раз.
(2) infiltrator, Paatddal,
Oct 24 2017, 22:22:53 Panacea Enterpainment - Ten Years In Snow And Ashes [best of/compilation] (2017)


*Artist: Panacea Enterpainment
*Album: Ten Years In Snow And Ashes [best of/compilation]
*Year: 2017
*Genre: Black/Doom/Sludge Metal
*Country: Russian Federation
*Format: mp3@VBR280kbps
*Size: 145MB

Tracklist:
1. Icelation
2. Katotate Thesis (feat. Circle of Unexisted)
3. Breath That Nihils
4. Red Solar Prominence
5. Discharge Summary
6. Scientia Per Hiemem Vivacitatis
7. Porn Piece or the Scars of Cold Kisses (Ulver cover)
8. Anabasis (feat. Ghost Reflection)
9. From The Autumn Equinox To The Everlasting Winter
10. Hymnus Hibernus
11. Medita (feat. Nojda)
******************************
Total playing time: 1:28:13



[more=Extended info]Various bitrate.[/more]

Register
(9) Doooomed, Hell_Is_Here, kauyumari, Ostinato, Rosen, Sabbathian, VALERY, varlam4, vasiljev_sergej,
Oct 21 2017, 20:47:46 Inner Suffering - Empty Existence [ep] (2017)


*Artist: Inner Suffering
*Album: Empty Existence [ep]
*Year: 2017
*Genre: Depressive Black Metal
*Country: Ukraine
*Format: mp3@CBR320kbps
*Size: 41MB

Tracklist:
1. Empty Existence I
2. Empty Existence II
3. Empty Existence III
4. Empty Existence IV
******************************
Total playing time: 17:36



[more=Technical info]
Input File: 01. Empty Existence I.mp3
Channels : 2
Sample Rate : 44100
Precision : 16-bit
Duration : 00:03:48.96 = 10097180 samples = 17172.1 CDDA sectors
File Size : 9.21M
Bit Rate : 322k
Sample Encoding: MPEG audio (layer I, II or III)
Comments :
Title=Empty Existence I
Artist=Inner Suffering
Album=Empty Existence
Tracknumber=1
Year=2017

[/more]

Register
(11) 1968_janeart, Branis, Doooomed, Jurmagund, Krosis, Rosen, SilentNidhogg, TREVAS, VALERY, varlam4, vasiljev_sergej,
Oct 9 2017, 10:36:07 Шатуны - Главное - Не Бояться (2017)


*Artist: Шатуны
*Album: Главное - Не Бояться
*Year: 2017
*Genre: Acoustic Folk
*Country: Russian Federation
*Format: mp3@CBR320kbps
*Size: 80MB

Tracklist:
1. Вёрсты
2. Отмерено
3. Барон
4. До Тепла
5. Гимн Висельников
6. Ромео и Джульетта
7. Печка
8. Восемь
9. Кайлас
10. Кода
******************************
Total playing time: 34:08

VK.com

[more=Extended info]Дебютный альбом группы из Екатеринбурга, созданной на руинах проекта "Нигредо".[/more]

[more=Technical info]
Input File: 07 - Печка.mp3
Channels : 2
Sample Rate : 44100
Precision : 16-bit
Duration : 00:02:15.07 = 5956543 samples = 10130.2 CDDA sectors
File Size : 5.46M
Bit Rate : 324k
Sample Encoding: MPEG audio (layer I, II or III)
Comments :
Title=Печка
Artist=Шатуны
Album=Главное - Не Бояться
Tracknumber=07/10
Year=2017

[/more]

Register
(4) Aresson, avkruchinin, gwar, VALERY,
Sep 29 2017, 22:02:01 Arckanum - Den Förstfödde (2017)
Чёто сначала вообще не зашло, прямо отторжение. Затянутые моногитарные проигрыши, ну и в принципе некоторая калька на самого себя. А вот когда на третий круг пошло, поймал себя на мысли, что альбом не так уж и плох, всё тот же старый добрый Arckanum, и пусть оригинальных ходов тут не найти, все это было и не раз - но они тут и не нужны.
(2) nunim, smes,
Sep 15 2017, 14:49:35 Ter Ziele - There Is No Useless Pain (2017)
Охрененный альбом, прям в традициях канонического DSBM 2000х. Редко, кто в настоящее время такое пилит.)
(1) Razorbladeswaltz,
Aug 15 2017, 12:36:31 Mogwai - Every Country's Sun (2017)


*Artist: Mogwai
*Album: Every Country's Sun
*Year: 2017
*Genre: Post-Rock
*Country: United Kingdom
*Format: mp3@CBR320kbps
*Size: 128MB

Tracklist:
01. Coolverine 06:17
02. Party In The Dark 04:03
03. Brain Sweeties 04:44
04. Crossing The Road Material 06:59
05. aka 47 04:17
06. 20 Size 04:45
07. 1000 Foot Face 04:32
08. Don't Believe The Fife 06:24
09. Battered At A Scramble 04:03
10. Old Poisons 04:31
11. Every Country's Sun 05:38
******************************
Total playing time: 56:13

[more=Extended info]FLAC-RIP[/more]

[more=Technical info]
Input File: 02. Party In The Dark.mp3
Channels : 2
Sample Rate : 44100
Precision : 16-bit
Duration : 00:04:02.29 = 10684901 samples = 18171.6 CDDA sectors
File Size : 9.73M
Bit Rate : 321k
Sample Encoding: MPEG audio (layer I, II or III)
Comments :
Title=Party In The Dark
Artist=Mogwai
Album=Every Country's Sun
Tracknumber=02/11
Year=2017
Genre=Post-Rock
Discnumber=/1

[/more]

Register
(20) 0x13, BERZERK, Buregon, Daale, Diflock, dronewolf, Emhyr var Emreis, ENDSMOUTH, garml2, igorzz, Infidel, Jurmagund, kimkayoung, Maximvs, natrogrii, Ostinato, RedSparrow, ShmiT, Vassago06, yuratroll,
Jun 18 2017, 18:48:30 Intig - Modfälld [ep] (2017)


*Artist: Intig
*Album: Modfälld [ep]
*Year: 2017
*Genre: Depressive Black Metal
*Country: International
*Format: mp3@CBR320kbps
*Size: 75MB

Tracklist:
1. It Always Comes Back 5:51
2. Wistful Nights 6:53
3. Forlorn 6:05
4. К Забытой Вечности (feat. Waldgeist) 06:40
5. 3 AM 06:53
******************************
Total playing time: 32:22



[more=Extended info]Country: International (Sweden / Denmark / USA)[/more]

[more=Technical info]
Input File: 02. Wistful Nights.mp3
Channels : 2
Sample Rate : 44100
Precision : 16-bit
Duration : 00:06:52.71 = 18200511 samples = 30953.2 CDDA sectors
File Size : 16.6M
Bit Rate : 321k
Sample Encoding: MPEG audio (layer I, II or III)
Comments :
Title=Wistful Nights
Artist=Intig
Album=Modfälld
Tracknumber=2
Year=2017

[/more]

Register
(21) 0x13, 1968_janeart, Blut aus Nord, Buregon, dahliazozo, Doooomed, Immortality, infiltrator, Krosis, libertine, LiPak, Moonshtook, NachtWulf, Rosen, RUSP73, stub888, VALERY, varg-38ru, vasiljev_sergej, ZA670, Абигор,
May 16 2017, 19:05:00 Nargaroth - Era Of Threnody (2017)
Нда. Не ждал от альбома чего угодно, но только не такого уг. Вообще дискография Канвульфа довольно сумбурна, и какое-то общее представление о формации сложно составить, все альбомы разные. тот же Geliebte des Regens много лет на полке любимых. Хз, почему все так [мат->бан]ат на black metal ist krieg, это вообще альбомом то сложно назвать, скорей компиляция из каверов и несвязанных треков. Ну так или иначе, почти в каждом альбоме был как минимум один хороший трек. А тут же голимый порожняк. Первые два трека вытерпел, дальше на перемотке. Не говно вроде, но абсолютная скукота и пустота, и вторую попытку этому альбому давать как-то не планирую.
(3) Qliphoth, Абигор, добрыйКот,
Jul 15 2016, 09:02:00 Сруб - Безымянный [ep] (2016)
Сруб стабильно удерживает ветвь первенства за самые заедучие песни). Значит надо слушать, да.
(3) Evilded, infiltrator, Абигор,
Jun 18 2016, 19:14:07 Beauty Of Sirin - Хроники Древесных Бардов (2016)
Блэка, да и в принципе металла тут нет совсем. А так, для фона неплохо идёт, акустики много.
(1) satanist666,
Apr 10 2016, 10:47:38 Uada - Devoid Of Light (2016)
Клип огонь, а вообще под Мглу закос отчасти)
(1) mardak666,
Jan 12 2016, 13:22:53 Танатос - Breath Of Death [ep] (2016)


*Artist: Танатос
*Album: Breath Of Death [ep]
*Year: 2016
*Genre: Melodic Death Metal
*Country: Russian Federation
*Format: mp3@CBR320kbps
*Size: 68MB

Tracklist:
1. Победа 4:49
2. Пламя Хиросимы 4:58
3. Враг Сам Себе 4:41
4. Дыхание Смерти 4:52
5. Мортидо 2:32
6. Я - Война 3:45
7. Убей 3:48
******************************
Total playing time: 29:25

[more=Extended info]Line-up:
S. Andrievskih (Aurum Solis, Eisflammen, HexenHammer's Flame, Planetshine, Without Dreams, Психоз 4.48) – vocals, all instruments
M. Kalistratova (Singular 2.0, Просветление) – vocals[/more]

[more=Technical info]
Input File: 05. Мортидо.mp3
Channels : 2
Sample Rate : 44100
Precision : 16-bit
Duration : 00:02:32.65 = 6731865 samples = 11448.8 CDDA sectors
File Size : 6.16M
Bit Rate : 323k
Sample Encoding: MPEG audio (layer I, II or III)
Comments :
Title=Мортидо
Artist=Танатос
Album=Breath of Death
Tracknumber=5
Year=2016

[/more]

Register
(13) 0x13, Aresson, metadeat, nekrokilldozer, oldvarg, respect, ripper33, Rosen, satanist666, VALERY, varlam4, wreak, Сварог Барг,

6 Pages V   1 2 3 > » 
- Lo-Fi Version Support form
Copyrights and abuse reports form
Time is now: 25th September 2018 - 00:00:09