Welcome Guest ( Log In | Register )

История благодарностей участнику Forest Silence ::: Спасибо сказали: 1347 раз(а)
Дата поста: В теме: За сообщение: Спасибо сказали:
Jan 26 2018, 08:43:02 Ладушка - Солнцеворот (2018)
Register
(14) aesteticvice, Daecadance, Kaphiel, Kwaad, Lucifer, Mihalik, Moonshtook, Mplast, Nattfodd, nsk2008, SameMan, SAPOGi, Thiarnan, vosmidesijatye,
Nov 10 2017, 09:01:22 Summoning - With Doom I Come [single] (2017)
Грядёт очередной шедевр, похоже. А то, что по материалу ближе к Oath Bound - не может не радовать.
(1) Anataas,
Nov 9 2017, 19:13:26 MetalBlack - Прыгнуть в Небо (2017)
Register


headcrab.png простите, не сдержался.)
(22) 1968_janeart, 6666666, Chasm, fabeldyr, Hordalend, krotovich, Kwaad, MeatWolf, Metalass, Nattfodd, nsk2008, Penetralia, rimfrost, ripper33, RUSP73, SAPOGi, scorn33, Synthaeon, vasilisk, vdolghi, Winterkalte, Zahrim,
Nov 2 2017, 14:34:15 Lustre - Still Innocence (2017)
детский плач в песне Nestle Within это отвратительно(. в остальном - люстра как люстра - под нее спать збсь.)
(1) Vidder242,
Oct 31 2017, 21:09:54 Kanashimi - Inori (2017)


*Artist: Kanashimi
*Album: Inori
*Year: 2017
*Genre: Depressive Black Metal
*Country: Japan
*Format: mp3@CBR128kbps
*Size: 35MB

Tracklist:
1. Scar Of Heart
2. Tomurai
3. Lost Soul
4. In My Tears
5. Nostalgia
6. Inori
******************************
Total playing time: 37:27

Register
(11) 0x13, Lanceatum, metala, OldY, princeshr, Rosen, RUSP73, Styx, thenecromancer, TREVAS, vasiljev_sergej,
Oct 26 2017, 10:28:51 Total-Empty - Towards The Moon (2017)
old silver alcest ) но вокал и правда мимо кассы. мне вообще j-rock напоминили эти напевы. хорошо, что только в одной песне
(2) Kwaad, Old Vyaine,
Oct 26 2017, 07:41:27 Dépérir - Dépérir (2017)
Квебекская плеяда сами-знаете-каких проектов настолько подняла планку канадского франкоязычного блэка, что от каждой группы с тех же мест по привычке ждёшь какого-то чуда. Здесь его не произошло, всё стандартненько, на 1 раз.
(1) Paatddal,
Oct 24 2017, 22:22:53 Panacea Enterpainment - Ten Years In Snow And Ashes [best of/compilation] (2017)


*Artist: Panacea Enterpainment
*Album: Ten Years In Snow And Ashes [best of/compilation]
*Year: 2017
*Genre: Black/Doom/Sludge Metal
*Country: Russian Federation
*Format: mp3@VBR280kbps
*Size: 145MB

Tracklist:
1. Icelation
2. Katotate Thesis (feat. Circle of Unexisted)
3. Breath That Nihils
4. Red Solar Prominence
5. Discharge Summary
6. Scientia Per Hiemem Vivacitatis
7. Porn Piece or the Scars of Cold Kisses (Ulver cover)
8. Anabasis (feat. Ghost Reflection)
9. From The Autumn Equinox To The Everlasting Winter
10. Hymnus Hibernus
11. Medita (feat. Nojda)
******************************
Total playing time: 1:28:13



[more=Extended info]Various bitrate.[/more]

Register
(9) Doooomed, Hell_Is_Here, kauyumari, Ostinato, Rosen, Sabbathian, VALERY, varlam4, vasiljev_sergej,
Oct 21 2017, 20:47:46 Inner Suffering - Empty Existence [ep] (2017)


*Artist: Inner Suffering
*Album: Empty Existence [ep]
*Year: 2017
*Genre: Depressive Black Metal
*Country: Ukraine
*Format: mp3@CBR320kbps
*Size: 41MB

Tracklist:
1. Empty Existence I
2. Empty Existence II
3. Empty Existence III
4. Empty Existence IV
******************************
Total playing time: 17:36



[more=Technical info]
Input File: 01. Empty Existence I.mp3
Channels : 2
Sample Rate : 44100
Precision : 16-bit
Duration : 00:03:48.96 = 10097180 samples = 17172.1 CDDA sectors
File Size : 9.21M
Bit Rate : 322k
Sample Encoding: MPEG audio (layer I, II or III)
Comments :
Title=Empty Existence I
Artist=Inner Suffering
Album=Empty Existence
Tracknumber=1
Year=2017

[/more]

Register
(10) 1968_janeart, Branis, Doooomed, Jurmagund, Krosis, Rosen, SilentNidhogg, VALERY, varlam4, vasiljev_sergej,
Oct 9 2017, 10:36:07 Шатуны - Главное - Не Бояться (2017)


*Artist: Шатуны
*Album: Главное - Не Бояться
*Year: 2017
*Genre: Acoustic Folk
*Country: Russian Federation
*Format: mp3@CBR320kbps
*Size: 80MB

Tracklist:
1. Вёрсты
2. Отмерено
3. Барон
4. До Тепла
5. Гимн Висельников
6. Ромео и Джульетта
7. Печка
8. Восемь
9. Кайлас
10. Кода
******************************
Total playing time: 34:08

VK.com

[more=Extended info]Дебютный альбом группы из Екатеринбурга, созданной на руинах проекта "Нигредо".[/more]

[more=Technical info]
Input File: 07 - Печка.mp3
Channels : 2
Sample Rate : 44100
Precision : 16-bit
Duration : 00:02:15.07 = 5956543 samples = 10130.2 CDDA sectors
File Size : 5.46M
Bit Rate : 324k
Sample Encoding: MPEG audio (layer I, II or III)
Comments :
Title=Печка
Artist=Шатуны
Album=Главное - Не Бояться
Tracknumber=07/10
Year=2017

[/more]

Register
(4) Aresson, avkruchinin, gwar, VALERY,
Sep 29 2017, 22:02:01 Arckanum - Den Förstfödde (2017)
Чёто сначала вообще не зашло, прямо отторжение. Затянутые моногитарные проигрыши, ну и в принципе некоторая калька на самого себя. А вот когда на третий круг пошло, поймал себя на мысли, что альбом не так уж и плох, всё тот же старый добрый Arckanum, и пусть оригинальных ходов тут не найти, все это было и не раз - но они тут и не нужны.
(2) nunim, smes,
Sep 15 2017, 14:49:35 Ter Ziele - There Is No Useless Pain (2017)
Охрененный альбом, прям в традициях канонического DSBM 2000х. Редко, кто в настоящее время такое пилит.)
(1) Razorbladeswaltz,
Aug 15 2017, 12:36:31 Mogwai - Every Country's Sun (2017)


*Artist: Mogwai
*Album: Every Country's Sun
*Year: 2017
*Genre: Post-Rock
*Country: United Kingdom
*Format: mp3@CBR320kbps
*Size: 128MB

Tracklist:
01. Coolverine 06:17
02. Party In The Dark 04:03
03. Brain Sweeties 04:44
04. Crossing The Road Material 06:59
05. aka 47 04:17
06. 20 Size 04:45
07. 1000 Foot Face 04:32
08. Don't Believe The Fife 06:24
09. Battered At A Scramble 04:03
10. Old Poisons 04:31
11. Every Country's Sun 05:38
******************************
Total playing time: 56:13

[more=Extended info]FLAC-RIP[/more]

[more=Technical info]
Input File: 02. Party In The Dark.mp3
Channels : 2
Sample Rate : 44100
Precision : 16-bit
Duration : 00:04:02.29 = 10684901 samples = 18171.6 CDDA sectors
File Size : 9.73M
Bit Rate : 321k
Sample Encoding: MPEG audio (layer I, II or III)
Comments :
Title=Party In The Dark
Artist=Mogwai
Album=Every Country's Sun
Tracknumber=02/11
Year=2017
Genre=Post-Rock
Discnumber=/1

[/more]

Register
(20) 0x13, BERZERK, Buregon, Daale, diflock, dronewolf, Emhyr var Emreis, ENDSMOUTH, garml2, igorzz, Infidel, Jurmagund, kimkayoung, Maximvs, natrogrii, Ostinato, RedSparrow, ShmiT, Vassago06, yuratroll,
Jun 18 2017, 18:48:30 Intig - Modfälld [ep] (2017)


*Artist: Intig
*Album: Modfälld [ep]
*Year: 2017
*Genre: Depressive Black Metal
*Country: International
*Format: mp3@CBR320kbps
*Size: 75MB

Tracklist:
1. It Always Comes Back 5:51
2. Wistful Nights 6:53
3. Forlorn 6:05
4. К Забытой Вечности (feat. Waldgeist) 06:40
5. 3 AM 06:53
******************************
Total playing time: 32:22



[more=Extended info]Country: International (Sweden / Denmark / USA)[/more]

[more=Technical info]
Input File: 02. Wistful Nights.mp3
Channels : 2
Sample Rate : 44100
Precision : 16-bit
Duration : 00:06:52.71 = 18200511 samples = 30953.2 CDDA sectors
File Size : 16.6M
Bit Rate : 321k
Sample Encoding: MPEG audio (layer I, II or III)
Comments :
Title=Wistful Nights
Artist=Intig
Album=Modfälld
Tracknumber=2
Year=2017

[/more]

Register
(20) 0x13, 1968_janeart, Blut aus Nord, Buregon, dahliazozo, Doooomed, Immortality, infiltrator, Krosis, libertine, LiPak, Moonshtook, NachtWulf, Rosen, RUSP73, stub888, VALERY, vasiljev_sergej, ZA670, Абигор,
May 16 2017, 19:05:00 Nargaroth - Era Of Threnody (2017)
Нда. Не ждал от альбома чего угодно, но только не такого уг. Вообще дискография Канвульфа довольно сумбурна, и какое-то общее представление о формации сложно составить, все альбомы разные. тот же Geliebte des Regens много лет на полке любимых. Хз, почему все так [мат->бан]ат на black metal ist krieg, это вообще альбомом то сложно назвать, скорей компиляция из каверов и несвязанных треков. Ну так или иначе, почти в каждом альбоме был как минимум один хороший трек. А тут же голимый порожняк. Первые два трека вытерпел, дальше на перемотке. Не говно вроде, но абсолютная скукота и пустота, и вторую попытку этому альбому давать как-то не планирую.
(3) Qliphoth, Абигор, добрыйКот,
Jul 15 2016, 09:02:00 Сруб - Безымянный [ep] (2016)
Сруб стабильно удерживает ветвь первенства за самые заедучие песни). Значит надо слушать, да.
(3) Evilded, infiltrator, Абигор,
Jun 18 2016, 19:14:07 Beauty Of Sirin - Хроники Древесных Бардов (2016)
Блэка, да и в принципе металла тут нет совсем. А так, для фона неплохо идёт, акустики много.
(1) satanist666,
Apr 10 2016, 10:47:38 Uada - Devoid Of Light (2016)
Клип огонь, а вообще под Мглу закос отчасти)
(1) mardak666,
Jan 12 2016, 13:22:53 Танатос - Breath Of Death [ep] (2016)


*Artist: Танатос
*Album: Breath Of Death [ep]
*Year: 2016
*Genre: Melodic Death Metal
*Country: Russian Federation
*Format: mp3@CBR320kbps
*Size: 68MB

Tracklist:
1. Победа 4:49
2. Пламя Хиросимы 4:58
3. Враг Сам Себе 4:41
4. Дыхание Смерти 4:52
5. Мортидо 2:32
6. Я - Война 3:45
7. Убей 3:48
******************************
Total playing time: 29:25

[more=Extended info]Line-up:
S. Andrievskih (Aurum Solis, Eisflammen, HexenHammer's Flame, Planetshine, Without Dreams, Психоз 4.48) – vocals, all instruments
M. Kalistratova (Singular 2.0, Просветление) – vocals[/more]

[more=Technical info]
Input File: 05. Мортидо.mp3
Channels : 2
Sample Rate : 44100
Precision : 16-bit
Duration : 00:02:32.65 = 6731865 samples = 11448.8 CDDA sectors
File Size : 6.16M
Bit Rate : 323k
Sample Encoding: MPEG audio (layer I, II or III)
Comments :
Title=Мортидо
Artist=Танатос
Album=Breath of Death
Tracknumber=5
Year=2016

[/more]

Register
(13) 0x13, Aresson, metadeat, nekrokilldozer, oldvarg, respect, ripper33, Rosen, satanist666, VALERY, varlam4, wreak, Сварог Барг,
Dec 14 2015, 10:45:46 Hocico - Ofensor (2015)


*Artist: Hocico
*Album: Ofensor
*Year: 2015
*Genre: Dark Electro
*Country: Mexico
*Format: mp3@CBR320kbps
*Size: 130MB

Tracklist:
1. Deja-Vu Siniestro
2. Relentless
3. Sex Sick
4. Bienvenido A La Maldad
5. El Destello En El Cristal
6. Heart Attack
7. I Will Be Murdered (4 Minutes Of Horror)
8. Ofensor
9. Mind Circus
10. The 5th Circle
11. Auf Der Flucht
12. In The Name Of Violence
13. Muerte En Reversa
******************************
Total playing time: 56:13

[more=Technical info]
Input File: 05. El Destello En El Cristal.mp3
Channels : 2
Sample Rate : 44100
Precision : 16-bit
Duration : 00:03:07.41 = 8264561 samples = 14055.4 CDDA sectors
File Size : 7.63M
Bit Rate : 326k
Sample Encoding: MPEG audio (layer I, II or III)
Comments :
Title=El Destello En El Cristal
Artist=Hocico
Album=Ofensor
Tracknumber=05
Year=2015
Genre=Dark Electro
Discnumber=/1

[/more]

Register
(10) Darkwood, DMIYUR, Hell_Is_Here, Jurmagund, Konst, Leiche, Radiosilence, satanist666, sperminator, Wolfera,
Dec 3 2015, 01:25:20 Stielas Storhett - Drownwards (2015)
Register


А вообще после превью даже слушать как-то боязно. Конечно, любопытство верх возьмёт... но Смерть с Севера окончательно пришла на SS, кажется.
(6) andivi, featb, Kwaad, Metalass, Old Vyaine, Абигор,
Aug 4 2015, 12:37:33 Неизбежность - Был Бы Смысл... (2010)
Последняя "песня" - кавер на Шуру полюбому.
(2) SSBandera, vosmidesijatye,
Jul 21 2015, 11:04:27 The Owl - Fairy Forest (2014)


*Artist: The Owl
*Album: Fairy Forest
*Year: 2014
*Genre: Ambient/Piano
*Country: Russian Federation
*Format: mp3@CBR320kbps
*Size: 79MB

Tracklist:
1. Dreams of Trees 3:03
2. Owl's Secret 2:27
3. Winter Smoke 4:40
4. Telescope 7:06
5. La Danse Nostalgique 3:39
6. Rainy Sun 3:18
7. Moon Saturday 6:02
8. Into The Light 3:58
******************************
Total playing time: 34:13

[more=Technical info]
Input File: 02. Owl\\\'s Secret.mp3
Channels : 2
Sample Rate : 44100
Precision : 16-bit
Duration : 00:02:27.18 = 6490462 samples = 11038.2 CDDA sectors
File Size : 5.97M
Bit Rate : 324k
Sample Encoding: MPEG audio (layer I, II or III)
Comments :
Title=Owl's Secret
Artist=The Owl
Album=Fairy Forest
Tracknumber=02/08
Year=2014-01-17T00:14
Genre=33

[/more]

Register
(2) grimmstone, igorzz,
Jul 13 2015, 12:55:24 Nytt Land - Hávamál (2015)


*Artist: Nytt Land
*Album: Hávamál
*Year: 2015
*Genre: Nordic Ritual Folk
*Country: Russian Federation
*Format: mp3@CBR320kbps
*Size: 118MB

Tracklist:
1. Opnun 4:31
2. Gáttir Allar 6:05
3. Bú Er Betra 7:12
4. Ár Skal Rísa 6:23
5. Frysta 5:46
6. Þagalt Og Hugalt 7:16
7. Veit-a Hinn 5:41
8. Þat Er Þá Reynt 8:42
******************************
Total playing time: 51:36

[more=Technical info]
Input File: 01. Opnun.mp3
Channels : 2
Sample Rate : 44100
Precision : 16-bit
Duration : 00:04:31.21 = 11960141 samples = 20340.4 CDDA sectors
File Size : 10.9M
Bit Rate : 321k
Sample Encoding: MPEG audio (layer I, II or III)
Comments :
Title=Opnun
Artist=Nytt Land
Album=HГЎvamГЎl
Tracknumber=1/8
Year=2015-27-04
Genre=80

[/more]

Register
(13) Amadeus, AndreFrancis, Ash_1980, cist, dromord, gwar, Haunting, igorzz, Infidel, lucifix, SatanicPanzer, tont, ZA670,
Jun 21 2015, 07:37:09 Ethere - Dolomia [ep] (2015)


*Artist: Ethere
*Album: Dolomia [ep]
*Year: 2015
*Genre: Ambient/Black Metal
*Country: Italy
*Format: mp3@CBR320kbps
*Size: 47MB

Tracklist:
1. Dolomia 8:05
2. Mandragora 3:45
3. Belun 8:23
******************************
Total playing time: 20:13

[more=Technical info]
Input File: 02. Mandragora.mp3
Channels : 2
Sample Rate : 44100
Precision : 16-bit
Duration : 00:03:45.94 = 9963734 samples = 16945.1 CDDA sectors
File Size : 9.22M
Bit Rate : 326k
Sample Encoding: MPEG audio (layer I, II or III)
Comments :
Title=Mandragora
Artist=Ethere
Album=Dolomia
Tracknumber=02
Year=2015

[/more]

Register
(17) 1968_janeart, blacky66, Blut aus Nord, Borderline1991, Buregon, Darkthronefoad, kim666, metaljinie, NachtWulf, Rosen, satanist666, stub888, thenecromancer, tont, varlam4, vasiljev_sergej, zargonath,

6 Pages V   1 2 3 > » 
- Lo-Fi Version Support form
Copyrights and abuse reports form
Time is now: 21st February 2018 - 08:16:59