Welcome Guest ( Log In | Register )

История благодарностей участнику Metalass ::: Спасибо сказали: 1126 раз(а)
Дата поста: В теме: За сообщение: Спасибо сказали:
Jun 2 2020, 15:10:33 Behemoth - A Forest [ep] (2020)
Evoe недурна. Ипиха бессмысленная.
(1) Ghostb,
May 29 2020, 10:57:40 Teitanblood - The Baneful Choir (2019)
Лучше или хуже, сказать трудно.
Т.к. что 2014 это мощуга, так и тут все по канонам. Знатная жужжалка с прекрасным эмбиентом.
Нет православных песнопений в конце, но у альбома свои фишки.
На виниле слушается просто божественно (да и в целом в цифре не все не то). Плюс классные буклеты с офигенным артом (чего не хватало прошлому релизу, где был просто вкладыш, хоть и оформленный на высочайшем уровне).
Обложка зачем-то сделана очень темная, в этом плане любимая у меня Woven Black Arteries, вот где буйство красок.

Отличный альбом!
(1) Фо,
May 24 2020, 15:48:23 Kardashev - Iota [single] (2014)
Недурной сингл, самый сок начинается с 5:30 или около того, когда фигачится финальный соляк.
Клип на песню:

[youtube]vrVvpwNzq_4[/youtube]

Куда-то потерялась ссылка на мегу:

Register
(2) infiltrator, Sanctus,
May 23 2020, 17:02:20 Kardashev - Iota [single] (2014)


*Artist: Kardashev
*Album: Iota [single]
*Year: 2014
*Genre: Atmospheric Deathcore
*Country: United States
*Format: mp3@CBR320kbps
*Size: 18MB

Tracklist:
1. Iota 07:34
******************************
Total playing time: 7:34



[more=Extended info]Найдено на просторах Интернета[/more]

[more=Technical info]
Input File: 01 IOTA.mp3
Channels : 2
Sample Rate : 44100
Precision : 16-bit
Duration : 00:07:34.32 = 20035512 samples = 34074 CDDA sectors
File Size : 18.4M
Bit Rate : 325k
Sample Encoding: MPEG audio (layer I, II or III)
Comments :
Title=IOTA
Artist=Kardashev
Album=IOTA (Single)
Tracknumber=1
Year=2014

[/more]

Register
(5) infiltrator, Olethros, Ostinato, Sanctus, senecazm,
May 23 2020, 16:58:53 Kardashev - Progression [demo] (2012)


*Artist: Kardashev
*Album: Progression [demo]
*Year: 2012
*Genre: Atmospheric Deathcore
*Country: United States
*Format: mp3@CBR320kbps
*Size: 41MB

Tracklist:
1. Initiative 00:34
2. Tier 1 - Global Exploration 03:50
3. Tier 2 - Stellar Advancement 03:09
4. Tier 3 - Galactic Achievement 05:24
5. Pillars of Creation 04:02
******************************
Total playing time: 16:59



[more=Extended info]Найдено на просторах Интернета[/more]

[more=Technical info]
Input File: 03 Tier 2 - Stellar Advancement.mp3
Channels : 2
Sample Rate : 44100
Precision : 16-bit
Duration : 00:03:08.90 = 8330534 samples = 14167.6 CDDA sectors
File Size : 7.95M
Bit Rate : 337k
Sample Encoding: MPEG audio (layer I, II or III)
Comments :
Title=Tier 2 - Stellar Advancement
Artist=Kardashev
Album=Progression (Demo)
Tracknumber=3
Year=2012

[/more]

Register
(5) aleon, infiltrator, Olethros, Ostinato, senecazm,
May 19 2020, 16:18:46 October Falls - A Fall Of An Epoch (2020)
Все верно. Норм, добротный околофолко-блэк, на пару-тройку раз погонять. Ничего выдающегося, хотя раньше было таковым. Увы.

Ровно как Wyrd. Некогда крутые фолко-блэковые фины стали довольно средненькими группами smile2.gif
(1) krotovich,
May 14 2020, 12:29:22 Teitanblood - Black Putrescence Of Evil [compilation] (2009)
Отличная сборка демки и сплитов.
По звуку вполне все нравится. Материал довольно незатейливый, но слушается все очень даже приятно.
(1) Occultas,
May 11 2020, 12:27:20 ...And Oceans - Cosmic World Mother (2020)
Очень бодрый камбек.
Все, как в старые добрые. Прям аж не верится. Вполне себе дико фанател с группы как раз в период, когда они распались (aka поменялись на Havoc Unit).
Звук реально странный, очень все нечетко. Интересно, на виниле такой же (не уверен, есть ли желание проверять)?
(1) Thiarnan,
May 11 2020, 11:52:12 Karmacipher - Introspectrum (2020)
Да уж, этот альбом - это Ulcerate на минималках, конечно.
Если новозеландцы ушли в атмосферу и тег Technical там спорно применим, т.к. там это лишь способ исполнения, но не особенность музыки. Тут же Technical во весь рост, с колотушками, сбивками, и всем таким.

Слушать этих клонов или нет, вопрос спорный. Недостаток самобытности склоняет чашу весов в пользу "нет", а в целом хороший звук, уровень исполнения да и жанр говорят "да", поэтому вердикт "можно погонять на пару раз".
(2) Ghostb, Язва,
May 8 2020, 22:53:52 Cerebral Desecration - Further Than The Bottom (2020)
QUOTE(korziboy @ May 3 2020, 08:16:20) *
Конечно, хотелось бы, чтобы каждый метал-релиз был уровня Leprosy, но таких, увы, 1 на 1000. И чтобы получить этот 1, надо чтоб была 1000 вот примерно таких. Т.е., чтобы количество перешло в качество. Поэтому, как бы плоха ни была группа, в глобальном плане она своё дело делает. 20 апр в 17:10

Для этого и нужны негативные отзывы. Чтобы быстро смекнуть, стоит ли тратить свое время на эту группу. Не успеваю хорошую музыку прослушивать, а на плохую и среднюю и подавно времени нет. Один раз живем.
(1) korziboy,
May 7 2020, 00:02:05 Odious Mortem - Synesthesia (2020)
Register
(1) ulterior_wolf,
May 6 2020, 23:49:45 Teitanblood - Death (2014)
Первый альбом, конечно, дюже хорош. Но говорить, что этот прям такой уж плохой на фоне дебюта. Видимо, я чего-то не понимаю, что мне дико он по душе.
Переслушал дополнительно на виниле, и это кайф.
В целом, можно придраться к излишней продолжительности, минут 10-15 можно было бы вырезать. Пожалуй, это можно было бы исправить бОльшим количеством эмбиентных вставок, как на первом альбоме. Но закрывающая православная месса восполняет недостаток целиком. Довольно неожиданно было для меня услышать, что эксплуатируется тема православия до того, как это начали делать Батюшка.
(1) FullofHate,
May 2 2020, 22:22:16 Congiura - Requiem (2020)
QUOTE(Andrew @ Apr 28 2020, 05:31:33) *
Ты что! Раз аффтор указал что мелодез - так и есть

Не очень понял иронии в конкретно данном случае. Бывают промахи по тэгам. Но это же вполне себе мелодик дэт пытаются делать ребята, хоть и не очень получается.
(1) Samaritianin,
May 2 2020, 18:26:40 Ulcerate - Stare Into Death And Be Still (2020)
QUOTE(Фо @ Apr 23 2020, 04:18:59) *
Но, пластинку заказал.

Начал ознакомление с работой именно с прослушивания винила (который купил без прослушивания превью), и он мне показался невероятно крутым.
После двух кругов пытался в цифре, но все не то, атмосферные куски не вызывают мурашек, и все не совсем то, не получается никак добиться такого же уровня погружения.

Объективно судить об Ulcerate у меня не получится, т.к. входит в топ любимейших. Альбом никак не разочаровал. Показалось, что он довольно медленно раскачивается, но взрывается к концу. Ну и да так-то он проще того, что обычно выдает группа, с упором на атмосферу.
(3) infiltrator, KorbenDallas, Фо,
Apr 20 2020, 21:47:32 Thanatos - Live Ecstasy Rotterdam 1991 [live] (2020)


*Artist: Thanatos
*Album: Live Ecstasy Rotterdam 1991 [live]
*Year: 2020
*Genre: Death/Thrash Metal
*Country: Netherlands
*Format: mp3@CBR320kbps
*Size: 98MB

Tracklist:
1. Intro 01:51
2. Dawn of the Dead / And Jesus Wept 09:11
3. Outward of the Inward 03:46
4. In Praise of Lust 05:00
5. Bodily Dismemberment 02:54
6. Realm of Ecstasy 03:57
7. Rebirth 03:44
8. Tied Up Sliced Up 03:54
9. War 05:42
******************************
Total playing time: 39:59



[more=Extended info]Найдено на просторах интернета.
Вполне официальное издание с качеством записи несколько ниже среднего.
For fans (only?)[/more]

[more=Technical info]
Input File: Thanatos - Live Ecstasy Rotterdam 1991 - 05 Bodily Dismemberment.mp3
Channels : 2
Sample Rate : 44100
Precision : 16-bit
Duration : 00:02:54.22 = 7683102 samples = 13066.5 CDDA sectors
File Size : 7.17M
Bit Rate : 329k
Sample Encoding: MPEG audio (layer I, II or III)
Comments :
Title=Bodily Dismemberment
Artist=Thanatos
Album=Live Ecstasy Rotterdam 1991
Tracknumber=5
Year=1991

[/more]

Register
(11) Amadeus, cancer1974, Hell_Is_Here, infiltrator, morbidangelo, Olethros, postal67, slack, stumpheavyrock, varlam4, Wail,
Apr 17 2020, 10:34:22 Barren Earth - A Complex Of Cages (2018)
Группа отличная и сделала отличный альбом.
Действительно правильный мелодичный прог с дэтом, от которого не хочется зевать (как от того же опета, даже при том, что мелодически тут есть очень много общего с ранним).
Ну и чистый вокал. Хз. Привык к нему довольно быстро и он совсем не плох.
Тоже показалось, что здесь гора классных мелодий. Та же самая клиповая песня вполне хитовая.
(1) BleedingSun,
Apr 16 2020, 13:35:11 The Black Dahlia Murder - Verminous (2020)
Охладел я к группе. В свое время для меня был откровением альбом 2005 Miasma, заслушал его до дыр. Такое сочетание сумасшедшей мелодики и разнообразных вокалов было в новинку.
В целом от альбома к альбому исполняют плюс-минус то же самое, плюс на последних двух что-то звук мне не очень нравится, в общем, прослушивание опционально.
(1) Magged,
Apr 15 2020, 20:58:00 Disbelief - The Ground Collapses (2020)
Никогда особо не понимал, за что группу так котируют. Ничего не изменилось с тех пор, поэтому откровений не произошло.
(1) Brann,
Apr 15 2020, 18:02:19 Blasphamagoatachrist - Bastardizing The Purity (2020)
Отличная козлятина!
(2) babanguida, wolverine,
Apr 15 2020, 11:54:20 Graceless - Where Vultures Know Your Name (2020)
Альбом, конечно, глыба. Вроде все довольно просто, но здесь такой мощный звук и убойные соляки, что все это неимоверно подкупает.
Прекрасный олд скул!
(1) Samaritianin,
Apr 14 2020, 17:44:29 Borknagar - True North (2019)
Альбом близок к 10 из 10.
Крутейшие мелодии, отличная реализация, вокалы.
Не могу наслушаться. И все это завершает шикарнейшая закрывашка, на которую сняли медитативный клип.
Отсутствие Vintersorg-а никак не сказывается на качестве, а если и сказывается, то положительно.
(2) avather, BleedingSun,
Apr 9 2020, 22:02:59 Decaying Purity - Mass Extinction Of The Providential Ones (2020)
Видел в дэтовой голосовалке упоминания этого альбома как чуть ли не лучшим за 2020.
Сколько подходов ни делал, лучше, чем хорошо, не скажу. Плюс мне не очень по душе такая однообразная манера подачи. Хорошо слушается, но не более.
(2) FullofHate, infiltrator,
Apr 8 2020, 18:48:03 Graceless - Where Vultures Know Your Name (2020)
Нидерланды - это хорошо. Добротная рубка. Собственно, футболочки Dead Congregation и Temple Of Void на фотке группы намекают на хорошие инфлюенции.
(1) Samaritianin,
Apr 8 2020, 14:25:02 Temple Of Void - The World That Was (2020)
Вообще шикарный думовый дэт.
Переслушал диско, но такого жира там не нашел.
Особенно крутой второй трэк, на который сделали клип. Простяцкий рифф, который размазывает дико качественно!
Атмосферно и качево, очень коротко. Напомнило последний Vastum, который также пришелся дико по вкусу.
(2) Brann, infiltrator,
Apr 7 2020, 16:48:54 The Ruins Of Beverast & Mourning Beloveth - Don't Walk On The Mass Graves [split] (2020)
Да, в целом ни о чем, но банды-то отличные, так что приятно, в любом случае.
(1) smes,

23 Pages V   1 2 3 > » 
- Lo-Fi Version Support form
Copyrights and abuse reports form
Time is now: 4th June 2020 - 00:18:22