Welcome Guest ( Log In | Register )

История благодарностей участнику spazm ::: Спасибо сказали: 3482 раз(а)
Дата поста: В теме: За сообщение: Спасибо сказали:
Jun 19 2020, 07:45:17 Today Needed (2) infiltrator, Mucupurulence,
Jun 1 2020, 08:09:57 House Of Usher - On The Very Verge [ep] (1992)
House Of Usher - 1992 - On The Very Verge (EP) (mp3@VBR, 20 MB, Covers)
Register
(4) stumpheavyrock, thenecromancer, Wail, wendigo,
May 28 2020, 10:49:01 In Slaughter Natives - Sacrosancts Bleed (1992)
ЦИТАТА(psychonaut @ 15th August 2013 - 21:44:44) *
Кто-нибудь выяснил как правильнее перевести название проекта? Сам переводил по разному, но как-то в инете попался вариант "Рождённые в кровопролитии" - пока что самый лучший перевод выражения "In Slaughter Natives"

ЦИТАТА(COOLER @ 16th July 2014 - 21:11:11) *
Прирождённые убийцы.

Я думаю ближе вариант "Породненные кровопролитием" или "Cродненные бойней"
Ну или на крайняк "Сплоченные резней"
(1) dalex,
May 24 2020, 01:02:42 Rattler - Alien Mind Order (2020)
Удивительно, сколько лет прошло.) Легенда по сути. Реюнион 2015 прошел довольно тихо, притом что старье у них очень ламповое. Слушаю с удовольствием, но без восторгов пока, потом отпишусь
(3) Albert66613, Evilded, infiltrator,
May 19 2020, 08:00:38 ACxDC - The Second Coming [ep] (2011)
Самой Ep ACxDC - The Second Coming у меня не нашлось, но она входит в компиляцию
ACxDC - 2014 - Discography 03-13 (Compilation) (mp3@CBR320kbps, 227 MB, неизвестный источник)

Register
(2) Angry_Chair, atavist,
May 19 2020, 07:57:14 ACxDC - Antichrist Demoncore (2014)
ACxDC - 2014 - Antichrist Demoncore (mp3@CBR320kbps, 49 MB, неизвестный источник)

Register
(2) atavist, varlam4,
May 19 2020, 07:54:24 ACxDC - The Oracles Of Death [ep] (2016)
ACxDC - 2016 - The Oracles Of Death (Ep) (mp3@CBR320kbps, 55 MB, неизвестный источник)

Register
(2) Angry_Chair, atavist,
May 14 2020, 13:57:26 Gut - Disciples Of Smut (2020)
Вот альбом этих товарищей я очень долго ждал, тем более они подогревали аппетит то анонсом, то артом, то синглом.
C Gut и Dead я начинал слушать goregrind, и это точно деляет мое отношение к их музыке предвзятым, в их пользу, конечно.
Весельчаки и полные рззвездяи замутили весьма "серьезный" и "зрелый" альбом, причем я на 99% уверен, что это было сделано скорее по приколу. Налицо возврат к корням в лице Odour Of Torture, причем с явно утяжеленным звучанием, местами приукрашенным кусками death metal старой школы (??), видимо Martin Schirenc приложил не только связки и но и руки.
Присоединяясь к мнению выше - Disciples Of Smut у меня однозначно в топах года. Грязный, топкий, душный саунд, Gut-овскийе фирменные раскачевочки и ламповая ритмсекция, приятные уху вокальные дела - все на свох местах и дико по кайфу.
Альбом сразу отлично зашел, хоть с налету, да и со второго раза, явных хитов не просек, но с каждым разом слушать все интересней и интересней)) Несмотря на небольшой багаж студийных альбомов, в непрофессионализме Gut никто упрекнуть не сможет, они явно знают что делают.

Не буду скрывать, лично мне были по душе horror rap'овые и электронные замуты на Cumback и Pimps Of Gore и этого немного нехватает, но я предполагаю, что они это скоро уладят либо сами, либо через R.O.D, через либо NWC666 ну или на крайняк через Libido Airbag)))


P.S. А что порнухи больше не будет? crazy.gif
(6) Bloodn Lord, FullofHate, infiltrator, Samaritianin, xax, Фо,
May 12 2020, 14:12:02 Kataklysm - Vision The Chaos [ep] (1994)


*Artist: Kataklysm
*Album: Vision The Chaos [ep]
*Year: 1994
*Genre: Death Metal
*Country: Canada
*Format: mp3@CBR192kbps
*Size: 32MB

Tracklist:
01. Vision The Chaos (Kataklysm Part I) 6:23
02. Shrine Of Life (Chapter III - Reborn Through Death) Version II 5:40
******************************
Total playing time: 12:03

[more=Extended info]Перезалито отдельным релизом для замены Low Bitrate
Рип не мой- найдено на просторах интернета. В архиве присутствуют коврики.[/more]

[more=Technical info]
Input File: 01 - Vision The Chaos (Kataklysm Part I).mp3
Channels : 2
Sample Rate : 44100
Precision : 16-bit
Duration : 00:06:23.14 = 16896298 samples = 28735.2 CDDA sectors
File Size : 15.3M
Bit Rate : 320k
Sample Encoding: MPEG audio (layer I, II or III)
Comments :
Title=Vision The Chaos (Kataklysm Part I)
Artist=Kataklysm
Album=Visions The Chaos
Tracknumber=1
Year=1994
Genre=Death Metal

[/more]

Register
(5) infiltrator, Lanceatum, Olethros, stumpheavyrock, varlam4,
May 12 2020, 14:06:06 Kataklysm - Sorcery (1995)
Kataklysm - 1995 - Sorcery (mp3@CBR320, 123 MB, Full Scans)
Register


P.S. Сейчас переслушиваю этот альбом - просто бомба невероятной мощности! Ранний Kataklysm оправдывал свое название на 200%
(1) zyklon,
May 12 2020, 14:03:25 Kataklysm - Northern Hyperblast & Victims Of This Fallen World [best of/compilation] (2004)
Kataklysm - 2004 - Northern Hyperblast & Victims Of This Fallen World (Compilation) (mp3@CBR320kbps, 293 MB, Full Scans)
Register
(2) JantoHadez, Occultas,
May 12 2020, 13:59:40 Kataklysm - Northern Hyperblast Live [live] (1998)


*Artist: Kataklysm
*Album: Northern Hyperblast Live [live]
*Year: 1998
*Genre: Death Metal
*Country: Canada
*Format: mp3@CBR320kbps
*Size: 164MB

Tracklist:
1. Maelstrom 2010 03:45
2. Exode Of Evils / Enhanced By The Lore 07:55
3. Sorcery 05:05
4. Elder God 04:11
5. Fathers From The Suns 04:43
6. Point Of Evanescence 04:16
7. Beckoning Of The Xul 06:00
8. The Awakener 04:30
9. Once... Upon Possession 03:06
10. The Unholy Signature 06:44
11. The Orb Of Uncreation 05:01
12. In Parallel Horizons 03:51
13. Vision The Chaos 06:18
14. Shrine Of Life 05:34
******************************
Total playing time: 1:10:59

[more=Extended info]Перезалито отдельным релизом для замены Low Bitrate по просьбе Sathanas от Aug 20 2012, 11:16:37
Архив содержит сканы буклета.[/more]

[more=Technical info]
Input File: 01 - Maelstrom 2010.mp3
Channels : 2
Sample Rate : 44100
Precision : 16-bit
Duration : 00:03:45.89 = 9961617 samples = 16941.5 CDDA sectors
File Size : 9.06M
Bit Rate : 321k
Sample Encoding: MPEG audio (layer I, II or III)
Comments :
Title=Maelstrom 2010
Artist=Kataklysm
Album=Northern Hyperblast (Live)
Tracknumber=01
Year=1998
Genre=Death Metal

[/more]

Register
(6) Occultas, Olethros, Rosen, supremo, varlam4, Герб,
May 10 2020, 10:56:42 The Sixth Incubator - Inphonoir (2003)
The Sixth Incubator - 2003 - Inphonoir (151 MB, mp3@CBR320kbps, Covers)
Register
(2) infiltrator, SyncestrA,
Apr 30 2020, 09:53:42 Incarnated - Try Before Die (2014)
Incarnated - 2014 - Try Before Die (mp3@320, 148 MB, Full Scans)
Register

Enjoy! 9.gif
(1) samokot,
Apr 30 2020, 09:24:04 Incarnated - Pleasure Of Consumption (2006)
Incarnated - 2006 - Pleasure Of Consumption (mp3@320, 183MB, Full Scans)
Register

Enjoy! 9.gif
(1) samokot,
Apr 30 2020, 09:16:33 Incarnated - Human Flesh (2001)
Incarnated - 2001 - Human Flesh (mp3@CBR320, 75 MB, Covers)
Register


Enjoy! 9.gif
(1) samokot,
Apr 30 2020, 07:55:11 Incubator - Divine Comedy (2000)
Incubator - 2000 - Divine Comedy (mp3@192, 68MB)
Register


Если у кого то появился 320 , просьба поделиться 9.gif
(2) infiltrator, jollo,
Apr 28 2020, 13:35:33 Pyre - Chained To Ossuaries (2020)
Абигору спасибище для оперативный подгон))
Ну а Pyre как всегда на высоте, - крайне качественный и слушабильный материал. По звуку и атмосфере все вкусно. Удержать уровень Human Hecatomb весьма и весьма сложно, тк это бесспорно один из лучших death metal альбомов "нашей" сцены. А тут Pyre не оплошали, переслушиваю уже третий раз с удовльствием.

(2) RUSP73, troll_swamp,
Apr 14 2020, 08:46:58 Today Needed
Очень ищу в качестве :

Logical Nonsense - 1993 - Deadtime - Borderline1991 9.gif
Logical Nonsense - 1997 - Expand The Hive - Borderline1991,gorim 9.gif
Logical Nonsense - 1998 - Soul Pollution - Borderline1991, gorim 9.gif

Как всегда выручили! Черезвычайно благодарен всем кто помог!
(1) Borderline1991,
Apr 14 2020, 08:36:00 Forced To Decay - Demo 2000 [demo] (2000)


*Artist: Forced To Decay
*Album: Demo 2000 [demo]
*Year: 2000
*Genre: Death Metal/Grindcore/Sludge/Alternative Rock
*Country: Germany
*Format: mp3@CBR320kbps
*Size: 37MB

Tracklist:
01. Teufelskreis (04:10)
02. Ein Versuch (05:46)
03. Apfelgrun (5:33)
******************************
Total playing time: 15:29



[more=Extended info]Forced To Decay self-released on CDr
3-х песенная версия демо

Стиль группы, взят с Metal-archives
С моей точки зрения это neo-grind c элементами alternative, sludge и hardcore, реже death, хотя точно определить не берусь. Группа интересная, для open-minded people, присутствует немало интересных моментов.[/more]

[more=Technical info]
Input File: 01. Teufelskreis.mp3
Channels : 2
Sample Rate : 44100
Precision : 16-bit
Duration : 00:04:10.63 = 11052607 samples = 18797 CDDA sectors
File Size : 10.0M
Bit Rate : 320k
Sample Encoding: MPEG audio (layer I, II or III)
Comments :
Title=Teufelskreis
Artist=Forced To Decay

[/more]

Register
(7) chipsgott, deadxramones, Hell_Is_Here, infiltrator, morbidangelo, Olethros, varlam4,
Apr 14 2020, 08:30:32 Forced To Decay - Forced To Decay (2001)


*Artist: Forced To Decay
*Album: Forced To Decay
*Year: 2001
*Genre: Death Metal/Grindcore/Sludge/Alternative Rock
*Country: Germany
*Format: mp3@CBR320kbps
*Size: 87MB

Tracklist:
01. Aufprall (04:10)
02. Teufelskreis (03:55)
03. Analogis (01:46)
04. Ein Versuch (05:28)
05. Ruhm (03:33)
06. Ndhh (05:35)
07. Apfelgrün (04:47)
08. Panik (02:21)
09. Wollen (04:27)
10. Endloser Urlaub (Ramones cover) (01:51)
******************************
Total playing time: 37:53



[more=Extended info]Издано на лейбле Per Koro ‎(PK 036)

Track 9, a short sample, is hidden.
Lyrics of "Wollen" are taken from the poem with the same name of the Austrian poet Erich Fried.
"Endloser Urlaub" is a cover of the Ramones song "Endless Vacation".

Коврики в архиве

Стиль группы, взят с Metal-archives
С моей точки зрения это neo-grind c элементами alternative, sludge и hardcore, реже death, хотя точно определить не берусь. Группа интересная, для open-minded people, присутствует немало интересных моментов.[/more]

[more=Technical info]
Input File: forced to decay - 01 - aufprall.mp3
Channels : 2
Sample Rate : 44100
Precision : 16-bit
Duration : 00:04:10.26 = 11036290 samples = 18769.2 CDDA sectors
File Size : 10.0M
Bit Rate : 320k
Sample Encoding: MPEG audio (layer I, II or III)
Comments :
Title=Aufprall
Artist=Forced To Decay
Album=Forced To Decay
Tracknumber=1
Year=2003
Genre=Hardcore Metal
Discnumber=1/1

[/more]

Register
(8) chipsgott, deadxramones, Hell_Is_Here, infiltrator, morbidangelo, Olethros, SyncestrA, varlam4,
Apr 14 2020, 08:11:23 Forced To Decay - Lächeln Als Leistung (1996)


*Artist: Forced To Decay
*Album: Lächeln Als Leistung
*Year: 1996
*Genre: Death Metal/Grindcore/Sludge/Alternative Rock
*Country: Germany
*Format: mp3@CBR320kbps
*Size: 113MB

Tracklist:
01. Selbstzerfleischung (5:07)
02. Talita Kum (2:25)
03. Innocence Dies (5:33)
04. Kein Schönes Ende (5:30)
05. Only Emptiness Left (3:56)
06. One Shot (5:10)
07. Das Erbe / Genozid (5:48)
08. Mädchenscherbe (4:38)
09. Kleiner Mensch (3:26)
10. Evolution (4:49)
11. P4 (5:11)
12. Untitled (0:09)
******************************
Total playing time: 51:42



[more=Extended info]Издано на лейбле Autonomy Productions ‎(APRO 028)

Коврики в архиве.

Стиль группы, взят с Metal-archives
С моей точки зрения это neo-grind c элементами alternative, sludge и hardcore, реже death, хотя точно определить не берусь. Группа интересная, для open-minded people, присутствует немало интересных моментов.[/more]

[more=Technical info]
Input File: forced to decay - 01 - selbstzerfleischung.mp3
Channels : 2
Sample Rate : 44100
Precision : 16-bit
Duration : 00:05:07.99 = 13582183 samples = 23099 CDDA sectors
File Size : 12.3M
Bit Rate : 320k
Sample Encoding: MPEG audio (layer I, II or III)
Comments :
Title=Selbstzerfleischung
Artist=Forced To Decay
Album=Lächeln Als Leistung
Tracknumber=1
Year=1996
Genre=Mainstream Metal

[/more]

Register
(10) chipsgott, Cruor, deadxramones, Hell_Is_Here, infiltrator, morbidangelo, Olethros, Proteus_666, SyncestrA, varlam4,
Apr 14 2020, 08:04:34 Forced To Decay - Yggdrasil [single] (1995)


*Artist: Forced To Decay
*Album: Yggdrasil [single]
*Year: 1995
*Genre: Death Metal/Grindcore/Sludge/Alternative Rock
*Country: Germany
*Format: mp3@CBR320kbps
*Size: 36MB

Tracklist:
01. Only Emptiness Left (03:56)
02. Das Erbe / Genozid (05:48)
03. Selbstzerfleischung (05:07)
******************************
Total playing time: 14:51



[more=Extended info]Recorded March '95, Sonic Studio, Burscheid.
Издано на лейбле Per Koro ‎(PK 009) в формате Vinyl 7", 45 RPM

Полные коврики в архиве.

Стиль группы, взят с Metal-archives
С моей точки зрения это neo-grind c элементами alternative, sludge и hardcore, реже death, хотя точно определить не берусь. Группа интересная, для open-minded people, присутствует немало интересных моментов.[/more]

[more=Technical info]
Input File: 01 - Only Emptiness Left.mp3
Channels : 2
Sample Rate : 44100
Precision : 16-bit
Duration : 00:04:06.95 = 10890407 samples = 18521.1 CDDA sectors
File Size : 10.1M
Bit Rate : 327k
Sample Encoding: MPEG audio (layer I, II or III)
Comments :
Title=Only Emptiness Left
Artist=Forced To Decay
Album=Yggdrasil
Tracknumber=1
Year=1995
Genre=death metal, hardcore, crust

[/more]

Register
(8) chipsgott, Hell_Is_Here, infiltrator, morbidangelo, Olethros, Proteus_666, SyncestrA, varlam4,
Apr 14 2020, 07:56:08 Forced To Decay - No Way Out [demo] (1994)


*Artist: Forced To Decay
*Album: No Way Out [demo]
*Year: 1994
*Genre: Death Metal/Grindcore/Sludge/Alternative Rock
*Country: Germany
*Format: mp3@CBR320kbps
*Size: 32MB

Tracklist:
01. My Private Pain Of Mind (05:00)
02. Sick (03:16)
03. True (04:44)
******************************
Total playing time: 13:00



[more=Extended info]Информации по данному демо на discogs нет, на архивах - почти нет. Короче, редкая штука. Коврики в архиве.

Стиль группы, взят с Metal-archives
С моей точки зрения это neo-grind c элементами alternative, sludge и hardcore, реже death, хотя точно определить не берусь. Группа интересная, для open-minded people, присутствует немало интересных моментов.[/more]

[more=Technical info]
Input File: 01-My Private Pain Of Mind.mp3
Channels : 2
Sample Rate : 44100
Precision : 16-bit
Duration : 00:05:00.42 = 13248346 samples = 22531.2 CDDA sectors
File Size : 12.0M
Bit Rate : 320k
Sample Encoding: MPEG audio (layer I, II or III)
Comments :
Title=My Private Pain Of Mnd
Artist=Forced To Decay

[/more]

Register
(9) chipsgott, deadxramones, Hell_Is_Here, infiltrator, morbidangelo, Olethros, Proteus_666, SyncestrA, varlam4,
Apr 12 2020, 00:00:48 Брюс Дикенсон или Валерий Кипелов
Дик Брюкинсон
(2) Alexis The Best, Daale,

32 Pages V   1 2 3 > » 
- Lo-Fi Version Support form
Copyrights and abuse reports form
Time is now: 7th July 2020 - 18:51:57