Welcome Guest ( Log In | Register )

История благодарностей участнику spazm ::: Спасибо сказали: 3186 раз(а)
Дата поста: В теме: За сообщение: Спасибо сказали:
Yesterday, 17:33:48 Silent Death - Before The Sunrise (1993)
С огромным удовольствием переслушал. Перезалил бы кто в 320 эту компиляцию, а то у меня только кассетный рип, без бонусов.
(1) troll_swamp,
Yesterday, 09:12:17 Rotting Stiffs - Decomposing (2003)


*Artist: Rotting Stiffs
*Album: Decomposing
*Year: 2003
*Genre: Death Metal/Grindcore
*Country: United States
*Format: mp3@CBR320kbps
*Size: 70MB

Tracklist:
1. Bloodstained Minds 00:58
2. Putrefied Battlefield 02:52
3. All Icons Fall 01:43
4. Decomposing 01:44
5. Protest Till Death 03:06
6. Swallow Your Vomit 00:58
7. Kuru 02:12
8. Suffer And Die 02:47
9. This Is Not Happening 01:47
10. Victimless Crimes 02:19
11. Death March 02:06
12. D.F.R.S. 01:49
13. Penial Yeast Infection 01:40
14. End Of A Lifelong Dream 03:07
******************************
Total playing time: 29:08

[more=Extended info]Единственный полноформатник от американских Rotting Stiffs. Бодрый и интересный Death/grind c уходами в death и brutal deathcore старой школы.
Несмотря на то, что альбом реализован в DIY-формате, запись крайне неплохая, но не вылизанная. Статус на архивах указан как действующий, хотя что-то мне подсказывает, что это давно нет так. Короче, довольно редкая и приятная штука.
На мой взгляд, материал получился очень интересным как с композиционной так и с музыкальной точки зрения - скучать не дали ни минуты.[/more]

[more=Technical info]
Input File: Rotting Stiffs - Decomposing - 01 - Bloodstained Minds.mp3
Channels : 2
Sample Rate : 44100
Precision : 16-bit
Duration : 00:00:56.38 = 2486270 samples = 4228.35 CDDA sectors
File Size : 2.28M
Bit Rate : 323k
Sample Encoding: MPEG audio (layer I, II or III)
Comments :
Title=Bloodstained Minds
Artist=Rotting Stiffs

[/more]

Register
(7) Evilded, FUDEDOR, jollo, KKK1488, Olethros, Rosen, Герб,
Aug 14 2019, 01:38:25 Клипы (не просто, а ЛУЧШИЕ). Обсуждение с объяснением
За последние несколько лет впечатлило мног очего, но три клипа:
[youtube]G_U74eyB5o8[/youtube]
[youtube]Y8HX_vGPCz8[/youtube]
[youtube]eJlN9jdQFSc[/youtube]

Очень много хорошей попсы с классными клипами тоже прошло, но сюда даже не пытаюсь)

Крайне не перевариваю видеоряды в тяжмете , как и лирику, так как толковых оочень мало.

Навскидку скажу так, по чисто личному восприятию:
Gorerotted - Only Tools and Corpses
[b]Samael - Jupiterian Vibe
& Baphomets Throne
Napalm Death - ague Rages, Suffer The Children, Mass Apeal Madness, Breed to Breathe
Carcass - Corporeal Jigsore Quandary, No Love Lost, Incarnated Solvent Abuse
Banished - Deliver Me Into Pain
Nasum -Wrath
My Dying Bride - For You, I Am The Bloody Earth, The Songles Bird
Morgoth - Under The Surface, Traitor
Impaled Nazarene - Armageddon Death Squad
Pantera - Cemetary Gates, Drug The Waters, i'm broken, Walk, Yesterday Don't Means Shit, Revolution Is My Name, This Love, Mouth For War
Grave - Souless
Suicide Silence - You only Live Once
SlipKnoT - Wait And Bleed, My Plague
Mushroomhead - Sun Doesn't Rise
Godflesh - Mothra
Fudge Tunnel - Grey, Sunshine of your Love, Rudge with AG
Gorefest - Fear, Freedom
Machine Head - Ten Ton Hammer
Kataklysm - The Awakener
Therion - Black Rose
Amorphis - Against Widows, Black Winter Day
Dismember - Casket Garden
Cannibal Corpse - Devoured By Vermin, Starring Through The Eyes Of Dead
еще не мало.
Тут выделил особенно нравящиеся
(2) Black Cat, DarkHorde,
Aug 3 2019, 01:26:57 Document 6 - Grind (R)Evolution (2019)
deathic, try this link^
Register

Ксати, очень неплохая команда. Немцы всегда хорошо делают грайнд.

(1) deathic,
Aug 1 2019, 13:57:54 Cerebral Rot - Odious Descent Into Decay (2019)
Спасибо, по превью звук отличный просто
(1) Samaritianin,
Jul 31 2019, 10:34:08 Nembrionic Hammerdeath - Themes On An Occult Theory [ep] (1992)
Nembrionic Hammerdeath - 1992 - Themes On An Occult Theory (Ep) (256 + Scans)
Register


Если у кого есть 320, просьба поделиться!)
(2) thenecromancer, Герб,
Jul 31 2019, 09:29:27 Nembrionic - Bloodcult [ep] (1997)
Nembrionic - 1991- Bloodcult (EP) (192+Front)

Register


Господа, если есть 320, просьба поделиться!
(2) wendigo, Герб,
Jul 31 2019, 06:12:16 !t.O.O.H.! - Komouš [ep] (2019)
Интеллигентная музыка с неинтеллигентным содержанием)) !T.O.O.H.! как всегда всегда своеобразны, изощренны и авангардны)
Спасибо!
(2) Ghostb, vosmidesijatye,
Jul 30 2019, 19:39:37 S.C.A.L.P. - In Memory Of Madness - The Early Years: 1994-1995 [best of/compilation] (2007)
Brutal, заранее спасибо 9.gif! Демо Memory было на кассете. Звук тогда был не ахти практически у всех, но музыки приличной было много.. Тот бы потенциал на нынешние мощности и возможности переложить, да не судьба. Вот и хочется звучка получше)
(1) Synthaeon,
Jul 21 2019, 01:01:14 Nucleus - Entity (2019)
ЦИТАТА(troll_swamp @ 21st June 2019 - 14:14:48) *
не плохие ассоциации с Demilich/Immolation/Incantation

Блин, такая ассоциация. первых обожаю, вторых уважаю,третьи для меня - скука безпонтовая. Послушал,-доволен и согласен с описанием на 100 процентов. Звук _Demilich, да)), диссонансные риффы+отрешенный иммолэйшновско/инкантэйшновский вокал. Супер., но не на каждый день. (в плеер забрал)
(1) Язва,
Jul 19 2019, 19:02:18 Morbital - Меч Миру (2019)
ЦИТАТА(Fryz @ 19th July 2019 - 20:43:10) *
Ещё бы перезалил кто.


держи ссылку из сети:
Register
(3) Aresson, Fryz, Samaritianin,
Jul 16 2019, 10:35:57 Meat Spreader - Excessive Consumption Of Human Flesh [ep] (2016)


*Artist: Meat Spreader
*Album: Excessive Consumption Of Human Flesh [ep]
*Year: 2016
*Genre: Goregrind
*Country: Poland
*Format: mp3@CBR320kbps
*Size: 27MB

Tracklist:
01. Hectic Razor Cut 3:04
02. Gas In The Lift 1:42
03. Hardly Holding Vomit 2:17
04. Explosion Of Extremely Rotten Body 1:04
05. Genital Crusher 2:33
******************************
Total playing time: 10:40

[more=Extended info]Goregrind проект участников Dead Infection и Squash Bowels.
Ep выпущена на японском лейбле Obliteration Rec.

Сетевые картинки в комплекте.[/more]

[more=Technical info]
Input File: 01 - Hectic Razor Cut.mp3
Channels : 2
Sample Rate : 44100
Precision : 16-bit
Duration : 00:03:04.55 = 8138831 samples = 13841.5 CDDA sectors
File Size : 7.45M
Bit Rate : 323k
Sample Encoding: MPEG audio (layer I, II or III)
Comments :
Title=Hectic Razor Cut
Artist=Meat Spreader
Album=Excessive Consumption of Human Flesh
Tracknumber=1
Year=2016
Genre=Goregrind

[/more]

Register
(8) artscald, Boozer, infiltrator, Mucupurulence, Olethros, Rosen, wreak, Герб,
Jul 12 2019, 10:38:52 Hiatus - Old Fashioned Shit... For Consumers [compilation] (1995)


*Artist: Hiatus
*Album: Old Fashioned Shit... For Consumers [compilation]
*Year: 1995
*Genre: Crust/Grindcore
*Country: Belgium
*Format: mp3@CBR320kbps
*Size: 154MB

Tracklist:
01. Confusion Inside My Head (2:18)
02. P.S.A. (1:34)
03. Bob / Inside Death II (3:22)
04. Nuclear World (2:51)
05. No Answers To Lead Me (2:01)
06. A Day (1:41)
07. Show Of Pain (1:11)
08. No Religion, No Cult, No Sect (0:33)
09. No Use (1:20)
10. War Is Obscene (1:31)
11. You Really Make Me Sick (0:21)
12. Black Screen (3:15)
13. Disastrous Luxury Results (1:33)
14. Victims Of Life (1:23)
15. Entombed Universe (3:00)
16. Devastation Of Life (1:56)
17. No Religion (Pt. 2) (0:43)
18. Inertia (2:10)
19. Freedom Conquest (2:04)
20. Believer Consciousness (1:56)
21. Bloodsports (2:12)
22. Have A Free Life (2:14)
23. Way Of Doom (2:11)
24. Purulent Stench Of War (1:32)
25. Equality - Conception Of Life (5:43)
26. Inside Death (7:20)
27. Disarm The Bastards (2:53)
28. Bloodshot (2:07)
29. Relief IV (1:39)
30. Mindless Fucked Up Movement (2:41)
******************************
Total playing time: 1:07:15

[more=Extended info]Бельгийская легенда crust/punk/grind-сцены, в свое время крайне популярная в узких кругах ограниченных людей). Отлично подойдет для тех, кто на безрыбье часто переслушивает ранний Extreme Noise Terror.

В комплекте идут полные сканы кассеты от TKA rec (из личной коллекции) и немного сетевых картинок.[/more]

[more=Technical info]
Input File: 01 Confusion inside my head.mp3
Channels : 2
Sample Rate : 44100
Precision : 16-bit
Duration : 00:02:18.92 = 6126460 samples = 10419.1 CDDA sectors
File Size : 5.55M
Bit Rate : 320k
Sample Encoding: MPEG audio (layer I, II or III)
Comments :
Title=Confusion Inside My Head
Artist=Hiatus
Album=Old Fashioned Shit for Consumers
Tracknumber=1
Genre=Other

[/more]

Register
(8) artscald, kauyumari, Olethros, Rosen, uk82, Wail, wreak, Герб,
Jul 12 2019, 08:18:04 Convulse - Reflections (1994)
Convulse - 1994 - Reflections (320+Scans)
Register
(2) stumpheavyrock, Wail,
Jul 12 2019, 08:10:50 Convulse - World Without God (1992)
Convulse - 1991 - World Without God (320+Art)
Register
(2) stumpheavyrock, Wail,
Jul 11 2019, 15:19:12 Doxomedon - Evanesce [ep] (1999)

По просьбам трудящихся. Собственный CD-RIP 320+Full Artwork scans, специально для metalarea.org) Выложено для замены старой версии 256 кбит/с неизвестного происхождения. Релиз довольно редкий и в 320 в сети отсутствует, так что налетайте.

Стиль списан с металархивов. Нетривиальный сингапурский Black/ Death Metal с легким налетом Grind. Enjoy!

Dark Artz ‎– DAR003


Register
(8) Albert66613, Borderline1991, dermarsoran, Evilded, FUDEDOR, JantoHadez, wendigo, Герб,
Jul 3 2019, 21:06:08 Gevurahel - Un Nuevo Amanecer Satánico (2019)
Черно и инфернально. Очень крутой альбом за счет самобытной атмосферы и индивидуального видения black metal. К сожалению, такие альбомы появляются в основном только в период формирования жанра. Зашло в кайф! Спасибо!
(4) infiltrator, mittal, vosmidesijatye, Абигор,
Jul 3 2019, 07:27:44 Memoriam - The Silent Vigil (2018)
После нескольких прогонов в плеере так и не понял, нравится мне этот альбом или нет. Впечатления двоякие, если не троякие.. я даже пару раз успел задремать)
Музыкальная часть очень медитативна, и, если Bolt Thrower на фоне плотного лирическтого полотна выдавали шикарные риффы и сложные ходы, то тут все упрощено до края, ярких моментов практически нет, зацепиться ухом не за что. При всем при этом под него неплохо -можно вздремнуть в дороге или пускать фоном при работе - не отвлекает. Очень удивили вокальные дела - вокалист скорее читает, чем поет, что крайне непривычно и сразу цепляет ухо. Манера исполнения напомнила как ни странно Sleaford Mods)). Если обобщить, то альбом ни восторга ни отторжения не вызвал, но местами удивил нестандартно минималистичной манерой исполнения. Стоит ли тратить время - ну хз, я еще сам не решил, оставлю их или скошу.
(3) FullofHate, hammer, vosmidesijatye,
Jul 1 2019, 20:46:16 Birdflesh - Extreme Graveyard Tornado (2019)
ЦИТАТА(mittal @ 1st July 2019 - 22:33:00) *
В чём смысл грайндкора вообще и этого альбома в частности?

Смысл грайндкора в том, что бы писали вот такие вот посты))
Ну а вообще то для души (бессмертной), конечно, пора бы понимать))
(1) Razorbladeswaltz,
Jul 1 2019, 19:30:20 Bloody Hammers - The Summoning (2019)
ЦИТАТА(vosmidesijatye @ 1st July 2019 - 21:15:45) *
Тогда могу тебе порекомендовать их дебютник - он у них самый думический и там другой вокал. На этом релизе Андрей решил поэкспериментировать с голосом, что тоже поначалу покоробило, но затем как то даже и понравилось.
Тогда попробую еще разок, но уже с начала
(2) infiltrator, vosmidesijatye,
Jun 27 2019, 19:47:30 The Now Noise - Raging Mad Insanity (1997)
Делюсь радостью:
The Now Noise! - 1997 - Raging Mad Insanity (320+Scans)
Register


Enjoy!
(2) wendigo, Zhelezjaka,
Jun 26 2019, 13:16:52 M.A.C. Of Mad - Badluck (2006)
M.A.C. Of Mad - 2006 - Badluck (320+Scans)

Register
(1) wendigo,
Jun 25 2019, 18:36:44 Nuclear Tribunal - Attack Of The Salami-Smokers From Venus (1998)
Borderline1991, ты крут! Спасибо!!
(1) Borderline1991,
Jun 23 2019, 13:22:47 Visceral Evisceration - Incessant Desire For Palatable Flesh (1994)
Охх помню как купил на кассетке от Moon на главной аллее в Евпатории))) А мамка такая "Паш, что это за кошмар на обложке)))) Большее ее за покупками не брал))
(1) vosmidesijatye,
Jun 21 2019, 17:23:33 Pyre - Human Hecatomb (2014)
ЦИТАТА(vosmidesijatye @ 21st June 2019 - 19:19:16) *
С 2014 года по н.в. этот альбом так и остается лучшим, что выдала отечественная дэт индустрия.

Соглашусь однозначно. И по моему честному мнению вполне уделывает многие новоделы от мэтров жанра. По сути Pyre вообще довольно уникальное явление на пост-СНГ сцене. Удачи им
(1) troll_swamp,

29 Pages V   1 2 3 > » 
- Lo-Fi Version Support form
Copyrights and abuse reports form
Time is now: 22nd August 2019 - 12:06:25