Welcome Guest ( Log In | Register )

История благодарностей участнику spazm ::: Спасибо сказали: 3293 раз(а)
Дата поста: В теме: За сообщение: Спасибо сказали:
Nov 15 2019, 07:15:11 Disinfect - Abaddon (2019)
Очень неплохо, но клип слизали с каннибаловского Devoured By Vermin)
[youtube]u58IHiS6Yg4[/youtube]
(1) Foneg,
Nov 6 2019, 09:48:24 Naked Whipper - Painstreaks (1995)
Naked Whipper - 1995/2011 - Painstreaks (192-VBR-320 + Covers)
Register

В архиве три варианта издания:
1995 - Painstreaks (192)
2011 - Painstreaks & Moloch. Acid Orgy (Compilation) (320) (видимо, web-rip)
2011 - Painstreaks (Compilation) (VBR) (Including discography: 1995 - Painstreaks, 1994 - Live, 1993 - Naked Whipper (Ep), 1993 - Moloch: Acid Orgy (Ep))
Если у кого то есть хорошие и правильные 320 или Flac - прошу делиться!)
Enjoy!
(1) MEmethuselah,
Nov 6 2019, 07:37:19 Трупный Яд - О.В.О При О.В.Д. (1995)
Трупный Яд - 1995 - О.В.О При О.В.Д. (320+Scans)
Register

Enjoy!
(1) stumpheavyrock,
Nov 6 2019, 07:35:20 Трупный Яд - Рабы Немы (2005)
Трупный Яд - 2005 - Рабы Немы (320+Scans)
Register

Enjoy!
(1) stumpheavyrock,
Nov 6 2019, 07:33:30 Трупный Яд - Время Убивать (1997)
Трупный Яд - 1997 - Время Убивать (320+Scans)
Register

Enjoy!
(2) Brutal, stumpheavyrock,
Nov 4 2019, 19:55:54 Лучший советчик МА - Часть 2 (Дум) - Тур 2, Рейтингование
(EchO) - Devoid Of Illusions -1. Приятно удивили, но не весь материал пришелся по уху. Скачал полноформаты, буду знакомиться
Aberrancy - Kill the People (demo) -0 Утонули в неравной схватке с окружением.
Abstrakt Algebra - Abstrakt Algebra - 0 Не мое.
Abysmal - The Pillorian Age – 1. Всегда думал что они Black, хоть в основе и Doom.
Autumn Rain Melancholy - Seven Steps to Infinity - 0. Как-то никак не зашли.
Babylon Sad – Kyrie - 2 Приличный death metal)
Black Oath - Ov Qliphoth And Darkness - 0 Не мое
Ceremonium - Into The Autumn Shade - 3, реально крутой материал, без вопросов тянет на высокий балл.
Crypt Sermon - Out of the Garden - 0. Не мое.
Deathkings - All That Is Beautiful - 0. Не мое.
Decomposed - Hope Finally Died - 3 Давно знаю и слушаю.
Desire - Infinity (A Timeless Journey Through An Emotional Dream) - 1
Destroyer of Light - Mors Aeterna - 1. Неплохо, сладжевато
Doomshine - Thy Kingdoom Come - 0 Вокал подбесил .
Ecthalion - In The Embrace Of Nocturnity (demo) - 1
Eleven Drops To Sink Into - A Shelter From Time (EP) - 1
Enchantment - Dance The Marble Naked - 1 Нормально, но не более...
Godsend - As the Shadows Fall - 1. Раньше слушал, всегда впечатление как от середнячка.
Hybernoid - The Last Day Begins - 1. Вяловато, честно говоря.
Insanity Reigns Supreme - and Darkness Drowned the Land Divine – 2. Знаю и уважаю.
Lachrimatory - Transient - 1 Нормально, но не более...
Lamented Souls - The Origins Of Misery (demos) - 0 Не просек совсем.
Living Sorrow - Red Mourning Sky - 2. Альбом неожиданно зацепил, сразу видно - ребята знают свое дело.
Maleficium - This Illusion Of Humanity - 1. Нормально, так. Душевно местами, но в сравнении тонут...
Memento Mori - Life, Death And Other Morbid Tales - 0 Не мое.
Mental Home - Black Art - 0 Никогда не шел этот альбом, мне намного милее Mirrorland.
Mordor - Odes (demo) - 0. Слушал не так давно, не зашло.
Mourn - Mourn - 0 Такое себе, очень под настроение, но и при соответствующем настроении я выберу The Oath или Blood Ceremony
Nattvindens Gråt - A Bard's Tale - 0 Не мое.
Nightly Gale – Imprint - 0 До конца не просек, нужно переслушать пару раз.
Painful Memories - Memorial To Suffering (demo) - 1 Я читил и слушал ЦДрип. Один из крутейших альбомов в постсоветском думе, но катастрофически не хватает ярких моментов, а из-за этого конкуренцией задавлен.
Quercus – Verferum -1
S.C.A.L.P - Through Eternity - 2 Оценка предвзятая)
Serpent - In The Garden Of Serpent - 1 Неплохо очень даже, но не восторг.
Tacit Fury - The Invented Pain - 1 Вроде бы неплохо, но особых эмоций не вызвало.
The Doomsday Cult - Language of Misery (demos) - 1. Нормально для демки и в целом не заскучал.
The Drowning - Fall Jerusalem Fall - 1. Не совсем мое, но хочу поподробней послушать и решить для себя точно.
The Red Widows - Fuzzifixion - 1 Непонятный претендент, но, поскольку выбивается из общей картины, авансом выдал 1 балл, хотя не восторг далеко.
Unsilence - Transfiguration (EP) - 1 Неплохо.
Walk Through Fire - Furthest From Heaven -0 Перезатянуто и нудно, хотя может я плохо понимаю.
Weedruid - Into The Acid Swamp -0 Вот тут тоже, вроде и звук жирный, а после прослушивания устал. Что-то не то.
Who Dies In Siberian Slush - Intimate Death Experience – 2 Очень и очень неплохо, недавно их для себя открыл.
Wormphlegm - Tomb Of The Ancient King - 3 Понравился альбом, прям протащился.
(2) Deze, Emm Human,
Nov 3 2019, 10:04:58 Morbid Angel - Formulas Fatal To The Flesh (1998)
ЦИТАТА(Фо @ 3rd November 2019 - 00:41:48) *
По Таккеру согласен, по крутости альбома - нет.

Хотел сам написать. Есть такой показатель как кайф с прослушивания, он был, но в сравнении можно сказать что "не кончил"
(1) Фо,
Nov 3 2019, 09:49:19 Vehement Thrower - I Come In Peace (1993)
Отличный альбом, кстати. Даже кассетка былв. В Deathrider'овском альманахе увидел название во флаерах (была страничка такая) и в польше сразу прикупил. Потом , правда поменял на Korpse, но это не умаляет збтсти
(1) Necrodictator,
Oct 28 2019, 22:39:54 Xysma - Xysma [best of/compilation] (2004)
Borderline1991, You did it again)) 9.gif
Уверен, не только я крайне благодарен!
(1) Borderline1991,
Oct 26 2019, 16:08:45 Sunn O))) - Pyroclasts (2019)
Sunn O))) это как штопор, если у тебя есть один, то его хватит на все случаи)
(1) Foneg,
Oct 22 2019, 09:13:15 Mayhem - Daemon (2019)
Не силен в тру/не тру, но альбом определенно хорош! Malum зацепила сразу, да и вообще Daemon гладко ложится на уши. Мегахитов пока не заметил.
(1) Tarelka,
Oct 21 2019, 14:07:46 Garrote - Mortuary [demo] (1995)


*Artist: Garrote
*Album: Mortuary [demo]
*Year: 1995
*Genre: Death Metal
*Country: Lithuania
*Format: mp3@CBR320kbps
*Size: 84MB

Tracklist:
01. Intro 01:10
02. Destroyer 06:25
03. Death Agony 03:33
04. Self Possession 03:10
05. Soul Into Sulphur 03:39
06. To Kill Myself 06:42
07. Living Entombed 04:18
08. Mortuary 03:52
09. Outro 02:23
******************************
Total playing time: 35:12

[more=Extended info]Garrote одна из немногочисленных, но достойных представителей Death Metal сцены Литвы 90-x, наряду с Dissection, Conscious Rot и Regredior.

Классический олдскул. Атмосфера присутствует.

Залито для замены релиза в Low bitrate[/more]

[more=Technical info]
Input File: 02 - Destroyer.mp3
Channels : 2
Sample Rate : 44100
Precision : 16-bit
Duration : 00:06:25.23 = 16988467 samples = 28892 CDDA sectors
File Size : 15.6M
Bit Rate : 323k
Sample Encoding: MPEG audio (layer I, II or III)
Comments :
Title=Destroyer
Artist=Garrote
Album=Mortuary
Tracknumber=02
Year=1995
Genre=Death Metal

[/more]

Register
(16) ahp, artscald, beast666, Borderline1991, fuoco, infiltrator, LVXXVL, Olethros, Rosen, stumpheavyrock, vyacheslav, Wail, wendigo, wgs73, Z28517, Герб,
Oct 16 2019, 07:42:13 My Dying Bride - The Light At The End Of The World (1999)
ЦИТАТА(SAPOGi @ 16th October 2019 - 08:11:37) *
Продолжаю знакомиться с дискографией группы. Устал капец. Не дотяну видимо до крайнего альбома.

My Dying Bride уверенно держит первое место самой унылой группы UK.


Блин, а я вот тоже недавно переслушал почти все, правда под книгу или в самолете, для сна. И только укрепился в уверенности, что они великолепны во всех своих вариациях .В частности на этом альбоме отмечу Into The Lake Of Ghosts и The Isis Script - обе запали на долго.
(1) vosmidesijatye,
Sep 18 2019, 07:32:57 Nunwhore Commando 666 - World Wide War [ep] (2006)
Nunwore Commando 666 - 2005 - World Wide War (Ep) 320 + Full Artwork
Register

Конец отхватил сие в 320) Делюсь со всеми желающими, которых обычно очень немного))
(2) NecroButcher, Герб,
Sep 10 2019, 08:16:13 Apoplexy - Dysmorphophobia [demo] (1993)
Apoplexy - 1993 - Dysmorphophobia (320+Сover)
Register

Enjoy!
(2) thenecromancer, Wail,
Sep 10 2019, 08:08:56 Apoplexy - Monarchy Of Damned (1999)
Apoplexy - 1999 - Monarchy Of Damned (320+Scans)
Register

Enjoy!
(2) samokot, Wail,
Sep 10 2019, 08:02:34 Apoplexy - Tears Of The Unborn (1995)
Apoplexy - 1995 - Tears Of The Unborn (320+Scans)
Register


Очень достойная вещь для своего времени и места, и сейчас не утратившая своего кайфа. Язва все отлично описал и оценил выше.

Enjoy!
(4) kipelov999, samokot, Wail, wrath082,
Sep 4 2019, 08:52:46 Tales Of Darknord - Dismissed (2000)
Tales Of Darknord - 2000/2014 - Dismissed (320+ Scans)

Register


В архиве в месте с ремастером находится оригинальное CD-издание 2000го года в 320 + Scans и сканы кассетного издания от RIP Prod.
(2) Aresson, Ingvar,
Sep 4 2019, 08:47:20 Tales Of Darknord - The Last (1998)
Tales Of Darknord - 1998 - The Last (Remastered 2014) (320+Cover)

Register


В архиве помимо ремастера 2014 года находится рипы оригинального кассетного издания от RIP Prod (256 и 128 кбит)
и сканы кассетного вкладыша из личной коллекции (для сравнения).
(3) Aresson, Ingvar, Proteus_666,
Sep 4 2019, 08:42:12 Tales Of Darknord - Endless Sunfall (1997)
Tales Of Darknord - 1997 - Endless Sunfall (320 + Scans)

Register


+ Сканы кассетного издания от Legion prod. из личной коллекции + сетевые коврики др. изданий
(2) Aresson, Ingvar,
Sep 4 2019, 08:33:26 Tales Of Darknord - Obliteration Allegory (1996)
Tales Of Darknord - 1996 - Obliteration Allegory (320+Scans)

Register


Коврики с кассеты от Matal Agen из личной коллекции + издание от Mortal Dreams сетевые.
(2) Aresson, Ingvar,
Aug 30 2019, 23:04:28 Illdisposed - Reveal Your Soul For The Dead (2019)
ЦИТАТА(Bloodn Lord @ 29th August 2019 - 11:59:51) *
На счет Катаклизмов: для меня верх их творчества - это 2001-ый и 2002-ой - Эпик и Шадоу энд Даст. Наверное, и всё

Bloodn Lord, эти уже для меня излишне мелодичны, но соглашусь - до 2002 они реально слушабильны еще.
(1) Bloodn Lord,
Aug 27 2019, 07:52:15 Righteous Pigs - Stress Related & Live And Learn [compilation] (1990)


*Artist: Righteous Pigs
*Album: Stress Related & Live And Learn [compilation]
*Year: 1990
*Genre: Grindcore
*Country: United States
*Format: mp3@CBR320kbps
*Size: 158MB

Tracklist:
01. Eulogy 02:14
02. Boundaries Unknown 04:30
03. Open Wound 03:08
04. Turmoil 03:26
05. Stress Related 02:39
06. Overdose 04:27
07. Sickened by His Own Existence 02:17
08. Fly the Friendly Skies 01:49
09. Crack Under Pressure 03:24
10. Ruinous Dump 02:52
11. Incarcerated 02:15
12. Manson Klan 04:49
13. Dormant Catastrophe 01:15
14. Incontinent 03:16
15. Stone Cold Bitch 01:31
16. I Hope You Die in a Hotel Fire 01:02
17. Just Friends 01:24
18. Malevolent Supplication 01:04
19. Stool Softener 01:28
20. Fly the Jurisdiction 01:13
21. Joint Effort 01:29
22. Dormant Catastrophe 01:42
23. Celibate Tease 01:34
24. Misconduct 01:31
25. Hidden Zit 01:28
26. Destined to Rot 01:20
27. Minor Consumption 01:03
28. Incontinent 02:16
******************************
Total playing time: 1:02:26

[more=Extended info]Официальная компиляция от Nuclear Blast из двух альбомов Live and Learn & Stress Related. Классика жанра!

Full artwork scans included.

На метал архивах год указан как 1992, но я больше склонен доверять Discogs, впрочем на диске указан также 1990 г.

История переизданий:
Re-released on CD in 1998 by Nuclear Blast. Comes with one cover and the title "Live and Learn & Stress Related.
Digitally remastered and re-released by Metal Mind Productions on August 18th, 2008, limited to 2000 copies.[/more]

[more=Technical info]
Input File: 01 - Eulogy.mp3
Channels : 2
Sample Rate : 44100
Precision : 16-bit
Duration : 00:02:12.56 = 5845676 samples = 9941.63 CDDA sectors
File Size : 5.30M
Bit Rate : 320k
Sample Encoding: MPEG audio (layer I, II or III)
Comments :
Title=Eulogy
Artist=Righteous Pigs
Album=Stress Related/Live And Learn
Tracknumber=1
Year=1990

[/more]

Register
(11) artscald, FUDEDOR, Hell_Is_Here, KKK1488, Leolomb, MEmethuselah, Olethros, ripper33, Rosen, wreak, Герб,
Aug 26 2019, 18:18:38 Righteous Pigs - Stress Related (1990)
Albert66613, слушай, я не помню, но у меня именно Stress Related+Live & learn вроде как Metal Mind. Диска нет, но рипчик со сканами есть точно. Завтра разберемся.
(2) Albert66613, infiltrator,
Aug 24 2019, 00:19:50 Illdisposed - Reveal Your Soul For The Dead (2019)
Пока альбом висел на модерации, успел прогнать его три раза на работе. Собственно, ничего нового и все как всегда. Все красиво и профессионально, но ухо не цепляет. Впрочем, есть пара моментов в ... for the Dead We are One, но это не серьезно. Я прекрасно понимал, когда качал, что я получу, реально на 100%. При этом , я с исправной регулярностью качаю их альбомы год в год (выхода, конечно). У меня есть две команды - Illdisposed и kataklysm, от которых я надеюсь услышать чудо. При этом новый Kataklysm (после 1998го, гыгыг) вообще никак не слушается, а вот illdisposed я оставляю в коллекции на уровне подсознания - что-то в них есть до сих пор, но что - не понятно, возможно только из-за Бо. А вот шиканая тройка Submit/There's Something Rotten/Kokaiinum - навсегда со мной как вершина и, одновременно, лебединая песня. Не идет им чистая "лирика", имхо.
(8) Bloodn Lord, defamer666, fateefffddd, infiltrator, Johnix, Lux, Tular, zyklon,

30 Pages V   1 2 3 > » 
- Lo-Fi Version Support form
Copyrights and abuse reports form
Time is now: 9th December 2019 - 02:58:09