Welcome Guest ( Log In | Register )

История благодарностей участнику spazm ::: Спасибо сказали: 3256 раз(а)
Дата поста: В теме: За сообщение: Спасибо сказали:
Oct 16 2019, 07:42:13 My Dying Bride - The Light At The End Of The World (1999)
ЦИТАТА(SAPOGi @ 16th October 2019 - 08:11:37) *
Продолжаю знакомиться с дискографией группы. Устал капец. Не дотяну видимо до крайнего альбома.

My Dying Bride уверенно держит первое место самой унылой группы UK.


Блин, а я вот тоже недавно переслушал почти все, правда под книгу или в самолете, для сна. И только укрепился в уверенности, что они великолепны во всех своих вариациях .В частности на этом альбоме отмечу Into The Lake Of Ghosts и The Isis Script - обе запали на долго.
(1) vosmidesijatye,
Sep 18 2019, 07:32:57 Nunwhore Commando 666 - World Wide War [ep] (2006)
Nunwore Commando 666 - 2005 - World Wide War (Ep) 320 + Full Artwork
Register

Конец отхватил сие в 320) Делюсь со всеми желающими, которых обычно очень немного))
(2) NecroButcher, Герб,
Sep 10 2019, 08:16:13 Apoplexy - Dysmorphophobia [demo] (1993)
Apoplexy - 1993 - Dysmorphophobia (320+Сover)
Register

Enjoy!
(2) thenecromancer, Wail,
Sep 10 2019, 08:08:56 Apoplexy - Monarchy Of Damned (1999)
Apoplexy - 1999 - Monarchy Of Damned (320+Scans)
Register

Enjoy!
(2) samokot, Wail,
Sep 10 2019, 08:02:34 Apoplexy - Tears Of The Unborn (1995)
Apoplexy - 1995 - Tears Of The Unborn (320+Scans)
Register


Очень достойная вещь для своего времени и места, и сейчас не утратившая своего кайфа. Язва все отлично описал и оценил выше.

Enjoy!
(4) kipelov999, samokot, Wail, wrath082,
Sep 4 2019, 08:52:46 Tales Of Darknord - Dismissed (2000)
Tales Of Darknord - 2000/2014 - Dismissed (320+ Scans)

Register


В архиве в месте с ремастером находится оригинальное CD-издание 2000го года в 320 + Scans и сканы кассетного издания от RIP Prod.
(2) Aresson, Ingvar,
Sep 4 2019, 08:47:20 Tales Of Darknord - The Last (1998)
Tales Of Darknord - 1998 - The Last (Remastered 2014) (320+Cover)

Register


В архиве помимо ремастера 2014 года находится рипы оригинального кассетного издания от RIP Prod (256 и 128 кбит)
и сканы кассетного вкладыша из личной коллекции (для сравнения).
(3) Aresson, Ingvar, Proteus_666,
Sep 4 2019, 08:42:12 Tales Of Darknord - Endless Sunfall (1997)
Tales Of Darknord - 1997 - Endless Sunfall (320 + Scans)

Register


+ Сканы кассетного издания от Legion prod. из личной коллекции + сетевые коврики др. изданий
(2) Aresson, Ingvar,
Sep 4 2019, 08:33:26 Tales Of Darknord - Obliteration Allegory (1996)
Tales Of Darknord - 1996 - Obliteration Allegory (320+Scans)

Register


Коврики с кассеты от Matal Agen из личной коллекции + издание от Mortal Dreams сетевые.
(2) Aresson, Ingvar,
Aug 30 2019, 23:04:28 Illdisposed - Reveal Your Soul For The Dead (2019)
ЦИТАТА(Bloodn Lord @ 29th August 2019 - 11:59:51) *
На счет Катаклизмов: для меня верх их творчества - это 2001-ый и 2002-ой - Эпик и Шадоу энд Даст. Наверное, и всё

Bloodn Lord, эти уже для меня излишне мелодичны, но соглашусь - до 2002 они реально слушабильны еще.
(1) Bloodn Lord,
Aug 27 2019, 07:52:15 Righteous Pigs - Stress Related & Live And Learn [compilation] (1990)


*Artist: Righteous Pigs
*Album: Stress Related & Live And Learn [compilation]
*Year: 1990
*Genre: Grindcore
*Country: United States
*Format: mp3@CBR320kbps
*Size: 158MB

Tracklist:
01. Eulogy 02:14
02. Boundaries Unknown 04:30
03. Open Wound 03:08
04. Turmoil 03:26
05. Stress Related 02:39
06. Overdose 04:27
07. Sickened by His Own Existence 02:17
08. Fly the Friendly Skies 01:49
09. Crack Under Pressure 03:24
10. Ruinous Dump 02:52
11. Incarcerated 02:15
12. Manson Klan 04:49
13. Dormant Catastrophe 01:15
14. Incontinent 03:16
15. Stone Cold Bitch 01:31
16. I Hope You Die in a Hotel Fire 01:02
17. Just Friends 01:24
18. Malevolent Supplication 01:04
19. Stool Softener 01:28
20. Fly the Jurisdiction 01:13
21. Joint Effort 01:29
22. Dormant Catastrophe 01:42
23. Celibate Tease 01:34
24. Misconduct 01:31
25. Hidden Zit 01:28
26. Destined to Rot 01:20
27. Minor Consumption 01:03
28. Incontinent 02:16
******************************
Total playing time: 1:02:26

[more=Extended info]Официальная компиляция от Nuclear Blast из двух альбомов Live and Learn & Stress Related. Классика жанра!

Full artwork scans included.

На метал архивах год указан как 1992, но я больше склонен доверять Discogs, впрочем на диске указан также 1990 г.

История переизданий:
Re-released on CD in 1998 by Nuclear Blast. Comes with one cover and the title "Live and Learn & Stress Related.
Digitally remastered and re-released by Metal Mind Productions on August 18th, 2008, limited to 2000 copies.[/more]

[more=Technical info]
Input File: 01 - Eulogy.mp3
Channels : 2
Sample Rate : 44100
Precision : 16-bit
Duration : 00:02:12.56 = 5845676 samples = 9941.63 CDDA sectors
File Size : 5.30M
Bit Rate : 320k
Sample Encoding: MPEG audio (layer I, II or III)
Comments :
Title=Eulogy
Artist=Righteous Pigs
Album=Stress Related/Live And Learn
Tracknumber=1
Year=1990

[/more]

Register
(11) artscald, FUDEDOR, Hell_Is_Here, KKK1488, Leolomb, MEmethuselah, Olethros, ripper33, Rosen, wreak, Герб,
Aug 26 2019, 18:18:38 Righteous Pigs - Stress Related (1990)
Albert66613, слушай, я не помню, но у меня именно Stress Related+Live & learn вроде как Metal Mind. Диска нет, но рипчик со сканами есть точно. Завтра разберемся.
(2) Albert66613, infiltrator,
Aug 24 2019, 00:19:50 Illdisposed - Reveal Your Soul For The Dead (2019)
Пока альбом висел на модерации, успел прогнать его три раза на работе. Собственно, ничего нового и все как всегда. Все красиво и профессионально, но ухо не цепляет. Впрочем, есть пара моментов в ... for the Dead We are One, но это не серьезно. Я прекрасно понимал, когда качал, что я получу, реально на 100%. При этом , я с исправной регулярностью качаю их альбомы год в год (выхода, конечно). У меня есть две команды - Illdisposed и kataklysm, от которых я надеюсь услышать чудо. При этом новый Kataklysm (после 1998го, гыгыг) вообще никак не слушается, а вот illdisposed я оставляю в коллекции на уровне подсознания - что-то в них есть до сих пор, но что - не понятно, возможно только из-за Бо. А вот шиканая тройка Submit/There's Something Rotten/Kokaiinum - навсегда со мной как вершина и, одновременно, лебединая песня. Не идет им чистая "лирика", имхо.
(8) Bloodn Lord, defamer666, fateefffddd, infiltrator, Johnix, Lux, Tular, zyklon,
Aug 21 2019, 17:33:48 Silent Death - Before The Sunrise (1993)
С огромным удовольствием переслушал. Перезалил бы кто в 320 эту компиляцию, а то у меня только кассетный рип, без бонусов.
(1) troll_swamp,
Aug 21 2019, 09:12:17 Rotting Stiffs - Decomposing (2003)


*Artist: Rotting Stiffs
*Album: Decomposing
*Year: 2003
*Genre: Death Metal/Grindcore
*Country: United States
*Format: mp3@CBR320kbps
*Size: 70MB

Tracklist:
1. Bloodstained Minds 00:58
2. Putrefied Battlefield 02:52
3. All Icons Fall 01:43
4. Decomposing 01:44
5. Protest Till Death 03:06
6. Swallow Your Vomit 00:58
7. Kuru 02:12
8. Suffer And Die 02:47
9. This Is Not Happening 01:47
10. Victimless Crimes 02:19
11. Death March 02:06
12. D.F.R.S. 01:49
13. Penial Yeast Infection 01:40
14. End Of A Lifelong Dream 03:07
******************************
Total playing time: 29:08

[more=Extended info]Единственный полноформатник от американских Rotting Stiffs. Бодрый и интересный Death/grind c уходами в death и brutal deathcore старой школы.
Несмотря на то, что альбом реализован в DIY-формате, запись крайне неплохая, но не вылизанная. Статус на архивах указан как действующий, хотя что-то мне подсказывает, что это давно нет так. Короче, довольно редкая и приятная штука.
На мой взгляд, материал получился очень интересным как с композиционной так и с музыкальной точки зрения - скучать не дали ни минуты.[/more]

[more=Technical info]
Input File: Rotting Stiffs - Decomposing - 01 - Bloodstained Minds.mp3
Channels : 2
Sample Rate : 44100
Precision : 16-bit
Duration : 00:00:56.38 = 2486270 samples = 4228.35 CDDA sectors
File Size : 2.28M
Bit Rate : 323k
Sample Encoding: MPEG audio (layer I, II or III)
Comments :
Title=Bloodstained Minds
Artist=Rotting Stiffs

[/more]

Register
(8) artscald, Evilded, FUDEDOR, jollo, KKK1488, Olethros, Rosen, Герб,
Aug 14 2019, 01:38:25 Клипы (не просто, а ЛУЧШИЕ). Обсуждение с объяснением
За последние несколько лет впечатлило мног очего, но три клипа:
[youtube]G_U74eyB5o8[/youtube]
[youtube]Y8HX_vGPCz8[/youtube]
[youtube]eJlN9jdQFSc[/youtube]

Очень много хорошей попсы с классными клипами тоже прошло, но сюда даже не пытаюсь)

Крайне не перевариваю видеоряды в тяжмете , как и лирику, так как толковых оочень мало.

Навскидку скажу так, по чисто личному восприятию:
Gorerotted - Only Tools and Corpses
[b]Samael - Jupiterian Vibe
& Baphomets Throne
Napalm Death - ague Rages, Suffer The Children, Mass Apeal Madness, Breed to Breathe
Carcass - Corporeal Jigsore Quandary, No Love Lost, Incarnated Solvent Abuse
Banished - Deliver Me Into Pain
Nasum -Wrath
My Dying Bride - For You, I Am The Bloody Earth, The Songles Bird
Morgoth - Under The Surface, Traitor
Impaled Nazarene - Armageddon Death Squad
Pantera - Cemetary Gates, Drug The Waters, i'm broken, Walk, Yesterday Don't Means Shit, Revolution Is My Name, This Love, Mouth For War
Grave - Souless
Suicide Silence - You only Live Once
SlipKnoT - Wait And Bleed, My Plague
Mushroomhead - Sun Doesn't Rise
Godflesh - Mothra
Fudge Tunnel - Grey, Sunshine of your Love, Rudge with AG
Gorefest - Fear, Freedom
Machine Head - Ten Ton Hammer
Kataklysm - The Awakener
Therion - Black Rose
Amorphis - Against Widows, Black Winter Day
Dismember - Casket Garden
Cannibal Corpse - Devoured By Vermin, Starring Through The Eyes Of Dead
еще не мало.
Тут выделил особенно нравящиеся
(2) Black Cat, DarkHorde,
Aug 8 2019, 07:24:59 Enochian Crescent - Omega Telocvovim (2000)
Enochian Crescent - 2000 - Omega Telocvovim (320+Scans)
Register

(1) obituarydark,
Aug 3 2019, 01:26:57 Document 6 - Grind (R)Evolution (2019)
deathic, try this link^
Register

Ксати, очень неплохая команда. Немцы всегда хорошо делают грайнд.

(2) artscald, deathic,
Aug 1 2019, 13:57:54 Cerebral Rot - Odious Descent Into Decay (2019)
Спасибо, по превью звук отличный просто
(1) Samaritianin,
Jul 31 2019, 10:34:08 Nembrionic Hammerdeath - Themes On An Occult Theory [ep] (1992)
Nembrionic Hammerdeath - 1992 - Themes On An Occult Theory (Ep) (256 + Scans)
Register


Если у кого есть 320, просьба поделиться!)
(2) thenecromancer, Герб,
Jul 31 2019, 09:29:27 Nembrionic - Bloodcult [ep] (1997)
Nembrionic - 1991- Bloodcult (EP) (192+Front)

Register


Господа, если есть 320, просьба поделиться!
(2) wendigo, Герб,
Jul 31 2019, 06:12:16 !t.O.O.H.! - Komouš [ep] (2019)
Интеллигентная музыка с неинтеллигентным содержанием)) !T.O.O.H.! как всегда всегда своеобразны, изощренны и авангардны)
Спасибо!
(2) Ghostb, vosmidesijatye,
Jul 30 2019, 19:39:37 S.C.A.L.P. - In Memory Of Madness - The Early Years: 1994-1995 [best of/compilation] (2007)
Brutal, заранее спасибо 9.gif! Демо Memory было на кассете. Звук тогда был не ахти практически у всех, но музыки приличной было много.. Тот бы потенциал на нынешние мощности и возможности переложить, да не судьба. Вот и хочется звучка получше)
(1) Synthaeon,
Jul 21 2019, 01:01:14 Nucleus - Entity (2019)
ЦИТАТА(troll_swamp @ 21st June 2019 - 14:14:48) *
не плохие ассоциации с Demilich/Immolation/Incantation

Блин, такая ассоциация. первых обожаю, вторых уважаю,третьи для меня - скука безпонтовая. Послушал,-доволен и согласен с описанием на 100 процентов. Звук _Demilich, да)), диссонансные риффы+отрешенный иммолэйшновско/инкантэйшновский вокал. Супер., но не на каждый день. (в плеер забрал)
(1) Язва,
Jul 19 2019, 19:02:18 Morbital - Меч Миру (2019)
ЦИТАТА(Fryz @ 19th July 2019 - 20:43:10) *
Ещё бы перезалил кто.


держи ссылку из сети:
Register
(4) Aresson, Fryz, morbidangelo, Samaritianin,

30 Pages V   1 2 3 > » 
- Lo-Fi Version Support form
Copyrights and abuse reports form
Time is now: 19th October 2019 - 05:09:29