Welcome Guest ( Log In | Register )

История благодарностей участнику Yarri ::: Спасибо сказали: 5536 раз(а)
Дата поста: В теме: За сообщение: Спасибо сказали:
Oct 20 2020, 21:35:11 Inner Odyssey - The Void (2020)
Shadowman,
Спасибо за реап темы. Так бы пропустил этот классный альбом. 20.gif
(1) Shadowman,
Oct 20 2020, 17:02:56 Chaosbay - Vasilisa (2015)
Любопытно, что все новые работы команды сравниваю с первым полноформатником. Знатно они задрали планку. Для меня в 2015 году это один из самых запомнившихся и любимых альбомов.
(1) Shadowman,
Oct 18 2020, 17:32:06 Chaosbay - Asylum (2020)
Shadowman,
Ожидание стоило того. Не знаю, превзойдут ли 2015, но в любом случае альбом шикарный. Я его уже раз 7 прогнал. 20.gif
(1) Shadowman,
Oct 18 2020, 17:30:36 Chaosbay - Vasilisa (2015)
Register
(4) avather, dimitriusk, Fryz, ripper33,
Oct 18 2020, 11:12:49 Chaosbay - Asylum (2020)


*Artist: Chaosbay
*Album: Asylum
*Year: 2020
*Genre: Progressive Metal
*Country: Germany
*Format: mp3@CBR320kbps
*Size: 94MB

Tracklist:
1. Enjoy The Rise 03:58
2. Amen 05:29
3. Mediterranean 04:18
4. D.O.A. 03:43
5. Limbus Inn 06:17
6. Soldiers 04:19
7. Criminals & Sons 04:58
8. The Lyin' King 04:15
9. Heavenly Island (Epilogue) 04:02
******************************
Total playing time: 41:19




[more=Extended info]Jan Listing — vocals, guitars
Joscka Bender — guitars
Matthias Heisig — bass
Patrick Bernath — drums[/more]

[more=Technical info]
Input File: 02. Amen.mp3
Channels : 2
Sample Rate : 44100
Precision : 16-bit
Duration : 00:05:29.14 = 14514986 samples = 24685.4 CDDA sectors
File Size : 13.2M
Bit Rate : 320k
Sample Encoding: MPEG audio (layer I, II or III)
Comments :
Title=Amen
Artist=Chaosbay
Album=Asylum
Tracknumber=02
Year=2020
Genre=Progressive Metal

[/more]

Register
(25) ace73pq, andgrek28, aviacademy, caro, daemonarch, Herrant, infiltrator, infozahist, metala, Morgoth, multizwilling, Olethros, ripper33, Rosen, Rover, sadmannn, SaintVitus, Shadowman, sludge666, StoneTemple, Unkle Jonny, VALERY, zerger, Луч, Язва,
Oct 6 2020, 20:59:16 Primal Fear - Metal Commando (2020)
Отличный альбом. Постоянно хочется переслушивать. Самое главное, не понимаю, чем же он цепляет. Вроде всё то же, ничего нового. Но! См. начало сообщения. 20.gif
(2) infiltrator, smes,
Oct 5 2020, 19:49:41 Лучший советчик МА - Часть 10 (Умнодэт) - Тур 2, Рейтингование
Весьма полезный для меня тур, надыбал много ништяков. Все ОЦС!

[more=Мои оценки]Absorbed - Reverie 3
Alterbeast - Immortal 0
Angel Of Disease - Hypercube 3
Anomalous - Ohmnivalent 1
Blood Dress - Beyond The Flesh 0
Burning Inside - The Eve Of The Entities 1
Carbonized - Disharmonization 2
Creepmime - Chiaroscuro 3
De Profundis - The Blinding Light of Faith 2
Deviant Process - Paroxysm 0
Disaffected - Vast 0
Disembarkation - Rancorous Observision 3
Disentomb - The Decaying Light 0
Dungortheb - Intended to... 1
Essence of Datum - Event Horizon 0
Exocrine - Molten Giant 1
Gigan - Quasi-Hallucinogenic Sonic Landscapes 1
Hadal Maw - Senium 0
Haunter - Sacramental Death Qualia 1
Hellwitch - Syzygial Miscreancy 3
Meatus - Inner Demons (A 3 Act Noise Opera) 0
Naughty Nation - Cosmic Equity 0
Neglected Fields - Mephisto Lettonica 0
Orphalis - The Approaching Darkness 0
Phantasmagory - Anamorphosis of Dreams 2
Posthumous Blasphemer - Fracture The Worship 1
Pronostic - An Atomic Decision 3
Proteus - Personal Narrative of Cognitive Dreamscapes 0
Quest Of Aidance - Misanthropic Propaganda 2
Scent Of Death - Of Martyrs's Agony And Hate 0
Strangulation - Between Nothing And Eternity 1
Succubus - Destiny 0
Supuration - The Cube 1
Threnody - Bewildering Thoughts 3
Traumatic Voyage - Traumatic... 0
Ulsect - Ulsect 2
Vale of Miscreation - Emergence Within The Corridor Of Unholy Lacerations 0
Vielikan - A Trapped Way For Wisdom 1
Virvum - Illuminance 1
Vornagar - The Bleeding Holocaust 0
Wicked Innocence - Omnipotence 0
Wormhole - The Weakest Among Us 0[/more]
(4) Daale, Emm Human, infiltrator, Johnix,
Sep 30 2020, 19:03:17 Лучший советчик МА - Часть 10 (Умнодэт) - Тур 2, Рейтингование
Ну эта. Жанр для меня практически незнакомый (известны только корифеи типа Death), поэтому, чтобы не быть следующим попыр-героем, прослушал не по одному разу, а по два. Отсеял для последующего прослушивания 15 альбомов, имеющие по 2-3 балла (оценки будут корректироваться). Поклонники гуттурала - соррян, так и не преодолел я антипатии к этому "виду вокала", так что там везде баранки и поржал, конечно, над особо крайними случаями.
И я пошёл на третий круг. Есть что послушать и есть на чём протащиться. 20.gif
(2) FunZombie, infiltrator,
Sep 27 2020, 23:23:03 Pain Of Salvation - Panther (2020)
ЦИТАТА(hammer @ Sep 24 2020, 09:38:31) *
Accelerator, каой-то дики дисонанс (как мне показалось), осилил три темы.Не то настроение видимо......

Одна из самых ярких песен в прог-секторе в этом году. bye.gif
(2) BleedingSun, Ghostb,
Sep 27 2020, 23:18:51 Squealer - Human Traces [ep] (1990)
Интереса особого нет. Насколько я помню, первые альбомы у них не ах.
(1) Ghostb,
Sep 27 2020, 23:17:09 Martin Grech - Hush Mortal Core (2020)
Ghostb,
Присутствует. Но вещь очень на любителя. Предыдущие альбомы вообще не зашли, а этот понравился.
(1) Ghostb,
Sep 25 2020, 17:40:06 Ayreon - Transitus (2020)
М-да, ну и облога. Я со своими кривыми руками лучше сделаю. 16.gif
Альбом, надеюсь, не тяп-ляп.
(3) Deze, Ghostb, infiltrator,
Sep 9 2020, 21:16:28 Pain Of Salvation - Panther (2020)
ЦИТАТА(Ghostb @ Sep 9 2020, 22:15:27) *
Надеюсь и предыдущий зайдет на этой волне, сабж все же намного ближе к нему, чем к предыдущим работам. Я бы даже сказал, что 2017-ый сильнее, но и этот чертовски хорош, прям заслушиваюсь в последнее время. И дискографию тоже уже неделю переслушиваю) Кстати, мне как раз первые диска меньше всего нравятся, чего-то мне в них все же не хватает по сравнению с последующими hmm.gif

Он тоже неплохо зашёл, но новый на его фоне буквально влетел. 1488.gif
Переслушал всё, пока выделил для себя второй и третий альбомы. Буду ещё гонять.

ЦИТАТА(6666666 @ Sep 9 2020, 22:24:30) *
У группы тексты важнее музыки, если что.

Это ты зря. Группа очень музыкальна. Как ни странно, подтверждают это два их нафталиновых альбома. Я их не особо ценю, но по части музыкальности они крутяшки.
(1) BleedingSun,
Sep 7 2020, 21:45:35 Pain Of Salvation - Panther (2020)
Ну чо, пацаны. Это первый альбом аж после Скарсика, который размотал мою душу. Классный альбом, куча красивых вещей, которые не тускнеют после переслушивания. На этой волне начал переслушивать всю диско и уже переоценил их же раньё. Ам-ням-ням.
(3) BleedingSun, Ghostb, paganheart,
Sep 6 2020, 10:26:03 Judge Minos - The Keeper Of Imbalance [ep] (2020)
Офигенская штука!
(1) Andrew,
Sep 1 2020, 17:21:20 Новости Heavy/Power металла
Этот период творчества группы - лишний.
(2) hammer, infiltrator,
Aug 30 2020, 10:26:42 Martin Grech - Hush Mortal Core (2020)


*Artist: Martin Grech
*Album: Hush Mortal Core
*Year: 2020
*Genre: Alternative/Progressive Rock
*Country: United Kingdom
*Format: mp3@CBR320kbps
*Size: 141MB

Tracklist:
01. Maelstrom Spark 5:52
02. Auras Awol 7:23
03. Hush Mortal Core 3:38
04. Mothflower 6:09
05. Enigmas 4:18
06. Psychobabble 5:29
07. Into the Sun 4:14
08. Nymphs In Heliacal Rising 4:05
09. Sadness Is a Story of Beauty Only a Dancer Can Tell 4:54
10. Ecstasy Astral Melancholia 5:59
11. The Death of All Logic 7:45
******************************
Total playing time: 59:46




[more=Extended info]Martin Grech (pronounced ‘Greck’) is a Maltese-English singer, songwriter and musician from Aylesbury, Buckinghamshire, born in 1982. He is known for his dark and powerful music, remarkable voice, and frequent subversion of style and genre. He first achieved serious critical acclaim after his haunting falsetto track Open Heart Zoo (written when he was 19 years old) was featured on a Lexus car advert on UK television in 2002. A debut album of the same name (produced by Andy Ross) quickly achieved cult status, with the expansive and eclectic record being compared, in places, to the work of Radiohead, Nine Inch Nails and Jeff Buckley. The accompanying British tour saw Grech gain a larger following and further critical support, particularly for his stunning live voice and impressive instrumental performances.[/more]

[more=Technical info]
Input File: 01. Maelstrom Spark.mp3
Channels : 2
Sample Rate : 44100
Precision : 16-bit
Duration : 00:05:52.91 = 15563331 samples = 26468.3 CDDA sectors
File Size : 14.2M
Bit Rate : 322k
Sample Encoding: MPEG audio (layer I, II or III)
Comments :
Title=Maelstrom Spark
Artist=Martin Grech
Album=Hush Mortal Core
Tracknumber=01
Year=2020
Genre=Alternative
Discnumber=1

[/more]

Register
(4) Diflock, grimoir, infiltrator, Olethros,
Aug 28 2020, 18:40:46 Vanishing Point - Dead Elysium (2020)
Группа записала стопицот альбомов, но из них невозможно выбрать хотя бы один стоящий внимания. Тут такая же фигня.
(1) SAPOGi,
Aug 24 2020, 10:03:51 Pyramid Theorem - Beyond The Exosphere (2020)
Парни и так были очень круты, но ещё прибавили. Кандидат на альбом года - легко.
(2) infiltrator, Olrak,
Aug 24 2020, 09:04:25 Pyramid Theorem - Beyond The Exosphere (2020)


*Artist: Pyramid Theorem
*Album: Beyond The Exosphere
*Year: 2020
*Genre: Progressive Metal
*Country: Canada
*Format: mp3@CBR320kbps
*Size: 97MB

Tracklist:
01. Beyond the Exosphere 17:54
02. Under Control 04:48
03. Freedom 04:39
04. Closer to the End 07:07
05. Intonate 06:49
******************************
Total playing time: 41:17




[more=Extended info]Line-up

Stephan Di Mambro — guitar, keyboards, vocals
Christian Di Mambro — bass
Sam Ermellini — guitar, vocals
Vito De Francesco — drums[/more]

[more=Technical info]
Input File: 02. Under Control.mp3
Channels : 2
Sample Rate : 44100
Precision : 16-bit
Duration : 00:04:48.05 = 12702785 samples = 21603.4 CDDA sectors
File Size : 11.6M
Bit Rate : 321k
Sample Encoding: MPEG audio (layer I, II or III)
Comments :
Title=Under Control
Artist=Pyramid Theorem
Album=Beyond the Exosphere
Tracknumber=02
Year=2020
Genre=Progressive Metal
Discnumber=1

[/more]

Register
(27) ace73pq, andgrek28, chipsgott, csgmnk, Dark Sage, grimoir, gwynnbleid, Herrant, infiltrator, JPV, leks, Lunaris, metala, MetalW, Mogozoz, multizwilling, Nattfodd, Olethros, Olrak, rabindranad, Rosen, SaintVitus, SAPOGi, sludge666, wreak, Нигилист, Сварог Барг,
Aug 17 2020, 17:47:25 Caligula's Horse - In Contact (2017)
Всё ж Arcane ещё вкуснее,
Ещё круче и мощнее.
(2) BleedingSun, Metalass,
Aug 14 2020, 20:17:23 Лучший советчик МА - Часть 9 (Пауэр) - Итоги
ЦИТАТА(scrollbar @ Aug 14 2020, 21:47:16) *
ближайший к вершине совет (не считая моего собственного), которому я влепил больше нуля, занял аж 15 место. Вечный рекорд дет-части побит

Ватные палочки пробовал? bye.gif
(1) Exorcist,
Aug 1 2020, 17:22:36 Лучший советчик МА - Часть 9 (Пауэр) - Тур 2, Рейтингование
Прогнал два раза, во втором разе где-то поднял, где-то снизил, и одна тройка точно со второго раза. Тур весьма полезный, много чего скачал, буду крутить. Самым большим открытием, как ни странно, оказался альбом Power Tale, который я слушал, но не оценил в своё время. Хотел снизить оценки альбомам, которые вне формата, но не стал, и так в теме было слишком много зла. ОЦС-шки выделил жирным.

Aevum - The Creation Of Power 2
Agonizer - Birth/The End 2
Arch Nemesis - Of Mind and Fantasy 2
Arrayan Path - Ira Imperium 3
Assailant - Wicked Dream 3
Atlain - G.O.E. 3
Axxios - Beneath The Blood Red Sky 2
Boomerang - Sounds of Sirens 1
Demoniac - The Fire and the Wind 0
Demonlord - Only The Dead Are Safe 2
Divine Sin - Winterland 0
Dragonia - Blood, Will and Soul моя говняшечка
Drakkar - When Lightning Strikes 1
Dyslesia - Years Of Secret 2
Final Chapter - The Wizard Queen 2
Ironware - Break Out 3
Kemilon - Twisted Storm 0
Kenziner - Timescape 2
Majestic Vanguard - Beyond the Moon 0
Masters Of Disguise - Back With A Vengeance 3
Miquian - Tlaltecuhtli 2
Not Fragile - Time to Wonder 2
Pegasus - The Epic Quest 0
Power - Justice of Fire 2
Power Tale - Урфин Джюс и его деревянные солдаты 3
Satan's Host - By The Hands Of The Devil 1
Screamer - Target: Earth 1
Sencirow - Perception of Fear 3
Skyward - Skyward 0
Starborn - The Dreaming City (EP) 1
Stormhunter - An Eye for an I 2
Stranger - The Bell 3
Sunrise - Trust Your Soul 2
The Reign Of Terror - Sacred Ground 1
Timeless Miracle - Into The Enchanted Chamber 3
Yosh - 1991 1
Zigoku Quartet - Konoyo No Jigoku Monogatari 1
(11) 909090, Alexis The Best, Daale, Emm Human, FunZombie, Illogicist, infiltrator, Old Vyaine, Penetralia, SAPOGi, Un4given,
Jul 20 2020, 21:01:33 Лучший советчик МА - Часть 9 (Пауэр) - Тур 2, Рейтингование
Слово начинается с орни, но чё-то пока не знаю, над чем.
(2) Deze, infiltrator,
Jul 20 2020, 18:45:43 Thunderslave - Unchain The Night (2020)
Отличный олдскульный альбом.
(2) Samaritianin, satanist666,

82 Pages V   1 2 3 > » 
- Lo-Fi Version Support form
Copyrights and abuse reports form
Time is now: 22nd October 2020 - 13:45:59