Welcome Guest ( Log In | Register )

История благодарностей участнику Yarri ::: Спасибо сказали: 5081 раз(а)
Дата поста: В теме: За сообщение: Спасибо сказали:
Yesterday, 21:07:40 Лучший советчик МА - Часть 6 (Хеви) - Тур 1, Общий сбор
ЦИТАТА(SAPOGi @ Feb 25 2020, 17:53:02) *
Адова музяка, а уж вокал каков!

[youtube]l0pLxv3sktI[/youtube]

Какой-то косплей под другую, более известную немецкую банду. bye.gif
(4) Alexis The Best, Deze, infiltrator, Lux,
Feb 22 2020, 21:49:23 Лучший советчик МА - Часть 6 (Хеви) - Тур 1, Общий сбор
ЦИТАТА(slack @ Feb 22 2020, 21:47:26) *
А ты, кстати их слушал раньше? Ну круто же, а?

Конечно. Классика же. bye.gif
(1) slack,
Feb 22 2020, 19:20:06 Лучший советчик МА - Часть 6 (Хеви) - Тур 1, Общий сбор
ЦИТАТА(slack @ Feb 22 2020, 21:06:57) *
К своему совету. Кто из ваших так может? 15.gif
[youtube]UGCZr4UsD-0[/youtube]

Ычо? У меня один из претендентов в претенденты тоже какую-то классику переиграл, вот только сегодня слушал. Это, наверное, только для 80-го культ, да и то, если играет один пингвин.
(1) Exorcist,
Feb 21 2020, 17:14:55 Лучший советчик МА - Часть 6 (Хеви) - Тур 1, Общий сбор
Между прочим, легендарные Malice тоже проходят, если отсечь альбомы других групп с таким названием. Всего три альбома дают не больше 6К слушателей.
(1) Lux,
Feb 20 2020, 21:25:04 Лучший советчик МА - Часть 6 (Хеви) - Тур 1, Общий сбор
Downspirit - Point Of Origin (2010)

Сайд-проект, затеянный Седриком (Сид) Дюпоном, чтобы переждать перерыв в деятельности основной группы - Symphorce. Выпустили два альбома, и, кажется, фсё. Самый крутой - первый, хитовый
и содержащий много блюзовых вкраплений.
(2) Daale, infiltrator,
Feb 19 2020, 12:05:10 Sodom - Better Off Dead (1990)
ЦИТАТА(Exorcist @ Feb 19 2020, 12:59:16) *
В то время весь НВОБХМ движ был достаточно известен. По идее. Они и сейчас известнее значительной части метал-андеграунда.

Для металхэда на рубеже 80-90-х? Я тебя умоляю. Def Leppard - максимум. Даже Satan не попадалась. Просто был такой мощнецкий поток (относительно) нового металла, который всё перекрыл тогда.
(1) Mick Dundee,
Feb 16 2020, 12:16:30 Psychotic Waltz - The God-Shaped Void (2020)
Фу, отлегло. Альбом расслушал, стало доставлять. Параллельно пилил Strange Mind, выложенный щас не помню где. Спасибо, кстати, весьма интересно.
(2) Ghostb, Mplast,
Feb 14 2020, 11:34:02 Ihsahn - Telemark [ep] (2020)
У Кравица ещё абсолютно вдувабельная дочка. Но этого нашим помоечным экспертам по расам не понять.
(1) Dargaud,
Feb 14 2020, 08:36:56 Ihsahn - Telemark [ep] (2020)
ЦИТАТА(Skyggedans @ Feb 14 2020, 00:33:27) *
Ну это уже какой-то апофеоз маразма, извините - легенда скандинавского блэк-митола каверит ниггерский афроамериканский MTV-шный шлак конца 90-х, давно вышедший в тираж!

Давно такого идиотизма на форуме не писали. bye.gif
(13) Black Cat, BleedingSun, d0zer, Deze, Exorcist, garmonbozia, infiltrator, Mplast, Nattfodd, Nemez, Old Vyaine, Луч, Нигилист,
Feb 13 2020, 21:12:58 Psychotic Waltz - The God-Shaped Void (2020)
ЦИТАТА(Old Vyaine @ Feb 13 2020, 22:59:52) *
общепризнанно лучший их альбом и один из известнейших в проге, но даже в него я не смог.

Это ничего не говорит о музыке группы. Вот ты говоришь - переоценённая. Я могу привести до фига аргументов, почему нет. Будь честнее - не твоё.

ЦИТАТА(Old Vyaine @ Feb 13 2020, 22:59:52) *
Как, впрочем, не могу и в ПоС, например. А ведь в них даже Макс может.

POS - тоже не моё. Но их о***енность для меня - факт. Как и влияние (то же относится к QR) в контексте прога.
(2) Emm Human, infiltrator,
Feb 13 2020, 20:45:01 Psychotic Waltz - The God-Shaped Void (2020)
ЦИТАТА(Old Vyaine @ Feb 13 2020, 22:04:22) *
Ну, я честно пытался в Оперейшн:майндкрайм, помню только разочарование и даже какую-то обиду, что признанный шедевр оказался для меня полной пустышкой.

Ты хочешь сказать, что по одному альбому судишь об остальных? Кто удивлён? Я удивлён? 21.gif
Альбомы золотого периода (1986-1994) иногда кардинально отличаются от предшественника. А 1986 вообще стоит отдельного изучения в контексте истории прог-метала.
(4) Eisbar, infiltrator, Rhoads, Vastich,
Feb 13 2020, 20:02:14 Psychotic Waltz - The God-Shaped Void (2020)
ЦИТАТА(Old Vyaine @ Feb 13 2020, 21:55:05) *
Вот уж кошмарно переоцененная группа fear.gif

[исключено]1983-1994[/исключено]
(5) Eisbar, infiltrator, Lux, Rhoads, Vastich,
Feb 11 2020, 19:31:49 Nightwish - Endless Forms Most Beautiful (2015)
ЦИТАТА(6666666 @ Feb 11 2020, 20:59:29) *
Я это уже объяснял, повторять не буду. Финского типа внешности, кстати, тоже не существует. Восточноевропейский? Уже пойдёт.

Есть набор признаков, который позволяет с некой степенью точности определить национальность. То же касается финно-угорского элемента в условно русском этносе. При этом он (элемент) сильно размыт, тогда как финики в основном сохранили эти признаки в силу исторических и географических факторов.
(2) Battaleon, Eisbar,
Feb 11 2020, 09:17:45 Лучший советчик МА - Часть 5 (Прог) - Тур 2, Рейтингование
Просто к Арчу нужно подключиться. Я до Симпатетика вообще не переваривал его. Щас считаю одним из лучших вокалистов в проге.
(2) infiltrator, mirotvorets,
Feb 11 2020, 07:38:27 Лучший советчик МА - Часть 5 (Прог) - Тур 2, Рейтингование
Кстати, пацаны.
ЦИТАТА(6666666 @ Feb 4 2020, 12:44:35) *
Feb 4 2020, 12:44:35
Сообщение #666
Нет.
normal_Homerdisgust3.png

(2) Deze, infiltrator,
Feb 9 2020, 11:13:05 Nightwish - Endless Forms Most Beautiful (2015)
Тарья лучше всех! 7.gif
(1) Foneg,
Feb 9 2020, 08:28:15 Nightwish - Endless Forms Most Beautiful (2015)
Уход Тарьи практически сбил прицел Холопайнена. Как начал он штамповать симфо-хероту для среднего уровня исполнительницы, так и продолжает. Да, иногда пробиваются классные вещи, но одна-две на альбом. Вот и здесь - материал совершенно не для такой классной исполнительницы, как Флор. Ей просто негде развернуться.
(2) avather, Foneg,
Feb 6 2020, 19:46:09 Лучший советчик МА - Часть 5 (Прог) - Тур 2, Рейтингование
ЦИТАТА(Daale @ Feb 6 2020, 21:18:45) *
dwarf-1.gif

[youtube]uE6lFHIDG0o[/youtube]
(2) Deze, infiltrator,
Feb 6 2020, 11:13:32 Лучший советчик МА - Часть 5 (Прог) - Тур 2, Рейтингование
Из инструменталов Коянискатци - лучшие. 20.gif
(3) Deze, infiltrator, nadin85,
Feb 4 2020, 21:37:36 Waves Of Mercury - Dark Shores [ep] (2020)


*Artist: Waves Of Mercury
*Album: Dark Shores [ep]
*Year: 2020
*Genre: Progressive Metal/Rock
*Country: United States
*Format: mp3@CBR320kbps
*Size: 49MB

Tracklist:
01. Elevation 04:52
02. Isolation 05:10
03. Ruination 04:13
04. Salvation 06:46
******************************
Total playing time: 21:01



[more=Extended info]Waves of Mercury are

David Richardson: Vocals & Drums
Greg Richardson: Guitars & 6 String Fretless Bass
Antony Johnston: Lyrics[/more]

[more=Technical info]
Input File: 01. Elevation.mp3
Channels : 2
Sample Rate : 44100
Precision : 16-bit
Duration : 00:04:52.72 = 12908996 samples = 21954.1 CDDA sectors
File Size : 11.7M
Bit Rate : 321k
Sample Encoding: MPEG audio (layer I, II or III)
Comments :
Title=Elevation
Artist=Waves of Mercury
Album=Dark Shores
Tracknumber=01
Year=2020
Genre=Progressive Rock

[/more]

Register
(8) ASkyThatBurns, caro, Hellraiser, infiltrator, metala, Mogozoz, Olethros, Rosen,
Feb 4 2020, 20:05:56 Mytra - Logos (2020)
Совершенно неожиданно офигительный модерновый прог. Нечто на стыке с творениями Люкассена, но как-то по-другому завёрнуто, более драйвово, что ли.
Я слышал их предыдущую работу, но несколько подзабыл, про что там. Надо освежить.
(2) adamko, Samaritianin,
Feb 4 2020, 10:40:07 Лучший советчик МА - Часть 5 (Прог) - Тур 2, Рейтингование
ЦИТАТА(vosmidesijatye @ Feb 4 2020, 12:20:04) *
Куприй, Боалс, Толкки.

И при этом удивительно несъедобное кушанье. 22.gif
И на старуху бывает мокруха.
(1) mirotvorets,
Feb 3 2020, 23:06:38 Лучший советчик МА - Часть 5 (Прог) - Тур 2, Рейтингование
1994
House Of Spirits - Turn Of The Tide 3 (+)
Vauxdvihl - To Dimension Logic 3 (+)

1995
Kobong - Kobong 1

1996
Annon Vin - A New Gate 2
End Zone - Thalatta et Thanatos 2
Ens Cogitans - Heart of the Way 2

1997
Sync - Variations About Themes of Evil 0

1998
Korova - Dead Like an Angel 1
Magnitude 9 - Chaos To Control 2
Seer's Tear - Precious 2

1999
Ebonylake - On The Eve Of The Grimly Inventive 0

2000
Forgotten Silence - KaBaAch 1
Koyaanisqatsy - From The Yearning To Burst 2

2002
Hourglass - The Journey Into
Ring Of Fire - Dreamtower 0

2003
John Arch - A Twist Of Fate (EP) 3 (+)

2004
Equirhodont - Black Crystal 2

2007
NewBreed - Child Of The Sun 3 (-)
Sepia Dreamer - The Sublime 1
Step Into Liquid - Traffic in My Head 2

2008
Another Life - Memories From Nothing 2
Ansur - Warring Factions 3 (-)
Dekadent - The Deliverance Of The Fall 1
Janvs - Vega 2
Kurai - Mantra 1

2009
Odd Logic - Legends Of Monta: Part II 3 (+)
Psychostatus - Chains Of Life 1
Stormy Atmosphere - Color Blind 1

2010
Dreyelands - Rooms Of Revelation 2
Look To Windward - Fortunes Haze 3 (-)
Sole Remedy - Apoptosis 3 (+)
The Shadow Theory - Behind The Black Veil 3 (+)
Whirling - Faceless Phenomena 0
White Walls - Mad Man Circus 3 (+)

2011
Diapsiquir - A.N.T.I. 1

2012
Kalter - Ubuntu 3 (-)
The Levitation Hex - The Levitation Hex 1

2013
Theater Of The Absurd - The Myth Of Sisyphus 3 (-)

2014
Appearance of Nothing - A New Beginning 3 (+)

2015
Zierler - ESC 2

2016
Hteththemeth - Best Worst Case Scenario 3 (-)

2018
Hollow - Between Eternities Of Darkness 2
(6) Daale, Deze, Emm Human, infiltrator, Thiarnan, Язва,
Feb 3 2020, 17:01:00 Artificial Language - Now We Sleep (2019)
Register
(4) merfo, SaintVitus, varlam4, Нигилист,
Feb 2 2020, 20:20:50 Artificial Language - The Observer (2017)


*Artist: Artificial Language
*Album: The Observer
*Year: 2017
*Genre: Progressive Metal
*Country: United States
*Format: mp3@CBR320kbps
*Size: 103MB

Tracklist:
01. Observer 01:49
02. The Grand Skeptic 03:32
03. These Aren't Mirages 03:35
04. Unself Portrait 03:49
05. The Silver Cord 04:07
06. Change 02:04
07. Playing the River 03:29
08. Dirty Hands 03:50
09. Fortune Teller 03:59
10. Mazes 04:02
11. Turn off the Pictures 08:15
******************************
Total playing time: 42:31



[more=Extended info]Референсы: Leprous, Caligula's Horse.

Line-up
Jonathon Simpson: keyboards
Josh Riojas: bass
Victor Corral: guitar
Charlie Robbins: guitar
Jeron Schapansky: drums[/more]

[more=Technical info]
Input File: 01. Observer.mp3
Channels : 2
Sample Rate : 44100
Precision : 16-bit
Duration : 00:01:49.17 = 4814573 samples = 8188.05 CDDA sectors
File Size : 4.65M
Bit Rate : 341k
Sample Encoding: MPEG audio (layer I, II or III)
Comments :
Title=Observer
Artist=Artificial Language
Album=The Observer
Tracknumber=01
Year=2017
Genre=Progressive Rock
Discnumber=1/1

[/more]

Register
(10) ASkyThatBurns, gwynnbleid, infiltrator, merfo, metala, Mogozoz, Olethros, Rosen, varlam4, Нигилист,

76 Pages V   1 2 3 > » 
- Lo-Fi Version Support form
Copyrights and abuse reports form
Time is now: 26th February 2020 - 21:11:16