Welcome Guest ( Log In | Register )

История благодарностей участнику Yarri ::: Спасибо сказали: 4095 раз(а)
Дата поста: В теме: За сообщение: Спасибо сказали:
Aug 9 2018, 23:10:36 Dol Ammad - Cosmic Gods: Episode II - Astroatlas (2018)
Редкостная похабень. Больше одного трека трудно выдержать.
(1) Ghostb,
Aug 9 2018, 19:51:16 Primal Fear - Apocalypse (2018)
Не знаю про 2007, хотя и переслушаю. Но вот я лично с 2014 снова их люблю. Этот альбом тоже хорошо зашёл.
Да, нонешнюю Гамму данный коллектив делает как бог черепаху.
(3) aesteticvice, infiltrator, Mplast,
Jul 29 2018, 17:36:28 Tarja - Act Ii [live] (2018)
zauber1,
Я не лазил в буклеты, но мне кажется, она вообще ничего не пишет, максимум лирику. То есть, если авторы приглашённые, то это вопрос музыкального вкуса, который, увы, у неё говённый.
(1) Ghostb,
Jul 29 2018, 11:32:09 Michael Romeo - War Of The Worlds/Pt. 1 (2018)
Да, мой вердикт не изменился. SX с другим вокалистом. Кроме этого обстоятельства - вообще никаких отличий. Но альбом прекрасен.
(1) Faust_Vulkan_16,
Jul 29 2018, 11:06:55 Accept - Blood Of The Nations (2010)
Любой акцептовский альбом из 80-х лучше любого их же из 90-х. Любой, включая прекрасный 1989.
(2) Faust_Vulkan_16, technoboy69,
Jul 28 2018, 18:06:00 Tarja - Act Ii [live] (2018)
Превью отстойнейшее. Мда. Мы когда-то [мат->бан]или на эту женщину.
(1) Thiarnan,
Jul 27 2018, 23:03:37 Michael Romeo - War Of The Worlds/Pt. 1 (2018)
Неформат - мда.

Shadowman,
На мой слух, Симфони Экс с другим вокалистом, только и всего.

Кстати, состав.
ЦИТАТА
Michael Romeo - Guitars, Bass, Keyboards, Drum programming
Rick Castellano - Vocals
John "JD" DeServio - Bass
John Macaluso - Drums
(1) Ghostb,
Jul 26 2018, 21:30:36 Redemption - Long Night's Journeyinto Day (2018)
С хитами у них всегда проблема. Всё добротно сделано, умный и изобретательный прог, классные соляки, но вокальная линия - ни уму, ни сердцу.
(1) Deze,
Jul 26 2018, 17:49:08 Redemption - Long Night's Journeyinto Day (2018)
Из-за постоянной занятости в FW.
Попробую воткнуться, хотя проект я всегда почитал невысоко и вообще слушал из-за Олдера.
(1) Ghostb,
Jul 20 2018, 09:07:26 Новости Experimental/Progressive Metal
Вау-вау. Братья Типтоны снова жгут не по-децки.
[youtube]9rSRAxQrmKY[/youtube]
(2) mirotvorets, Old Vyaine,
Jun 22 2018, 20:23:33 Coen - Remnants Of Yesterday (2018)
Кайфовый альбом. Где-то после середины альбома мозг взорвался от удовольствия. Совершенно никаких местечковых особенностей, крепкий классический прог.
(1) Mplast,
Jun 20 2018, 08:56:25 Roots Of Tragedy - Doctrines (2018)
Тексты тут не самая большая проблема. Это же кор, явный неформат. Ну и ничего интересного, конечно же.

ЦИТАТА(Samaritianin @ Jun 20 2018, 07:05:29) *
Ты пишешь о том что ты не любишь...а мне не нравится где и в каком контексте ты
изливаешь свою ненависть. 23.gif
всего то и делов!

Чувак, ты неправ. Незачем переходить на личности. Не знаю, как отреагируют модераторы, но жалоба (на неформат) отправлена.
(3) Deze, infiltrator, merfo,
Jun 17 2018, 14:24:05 Переезд на новый сервер
Пока немного притормаживает. Существенный плюс - не надо VPN-иться.
(1) INDARKNESS,
Jun 12 2018, 11:24:57 Коррозия Металла - Богиня Морга (2018)
ЦИТАТА(vo140182fav @ Jun 12 2018, 13:13:51) *
Хватило послушать половину одной песни, что бы выключить и забыть.

Учись, салага. Я уже по одному названию могу понять, что это не надо даже включать. 1488.gif
(11) Deze, Genuine Thrashiac, Ghostb, infiltrator, Paradayz, RUSP73, Samaritianin, St6por, Xutun, Селезнёв, Смусмумбрик,
Jun 12 2018, 08:19:22 Коррозия Металла - Богиня Морга (2018)
Обложка рискует выиграть приз "Жопа года". normal_Homerdisgust3s.png
(3) DarkHorde, infiltrator, Xutun,
Jun 11 2018, 16:16:29 Сатурналии (Антипопсовая голосовалка) Часть 3 - 1994-1996, тур 1
По каждому году 7 из 10 мест заполнил сразу, а остальные три пришлось добивать после дополнительного прослушивания.

1994

Depressive Age - Symbols For The Blue Times
Freak Kitchen - Appetizer
House Of Spirits - Turn The Tide
Ivanhoe - Visions And Reality
Jackal - A Safe Look In Mirror
Mekong Delta - Visions Fugitives
Psychotic Waltz - Mosquito
Skeptic Sense - Presence Of Mind
Solitude Aeturnus - Through The Darkest Hour
Vauxdvihl - To Dimension Logic

1995

Alyson Hell - Alyson Hell
Conception - In Your Multitude
Ivanhoe - Symbols Of Time
Lethal - Your Favorite God
Nightingale - The Breathing Shadow
Not Fragile - The Return
Psyco Drama - The Illusion
Scanner - Mental Reservation
Sieges Even - Sophisticated
Squealer - Wrong Time Wrong Place

1996

Annon Vin - A New Gate
Artension - Into The Eye Of The Storm
Depressive Age - Electric Scum
Enchant - Wounded
Freak Kitchen - Spanking Hour
Nightingale - The Closing Chronicles
Psychotic Waltz - Bleeding
Solitude Aeturnus - Downfall
Visionary - Visionary
Waltari - Yeah! Yeah! Die! Die! Death Metal Symphony In Deep C

UPD. Заменил Enchant'95, который '93, на альбом Alyson Hell.

Deze,
Что не так с Nightingale?
(1) Mplast,
Jun 8 2018, 16:53:58 Refuge - Solitary Men (2018)
Всегда удивляло, как такая шайба издаёт такие звуки. Я про Пиви. pray.gif 1488.gif
(1) avkruchinin,
Jun 5 2018, 08:04:52 Сатурналии (Антипопсовая голосовалка) Часть 3 - 1994-1996, тур 1
ЦИТАТА(Deze @ Jun 5 2018, 09:24:20) *
Во, наконец-то.

У меня тоже будет в качестве фаворита. Но, увы, узок круг этих революционеров. 1488.gif
(2) Illogicist, infiltrator,
Jun 3 2018, 15:59:44 Ария - Игра С Огнем (1989)
ЦИТАТА(fenryr @ Jul 21 2006, 12:51:32) *
2. Раскачаем Этот Ми

1488.gif
Только не указано, какой именно - Ми-мажор или ми-минор. Я, конечно, за мажорный.
(1) vosmidesijatye,
Jun 1 2018, 16:08:34 Шифтделитр. Третьесорт Awards-2017
ЦИТАТА(Genuine Thrashiac @ Jun 1 2018, 17:55:00) *
Весьма жаль, что автор не оформил список со сквозными ссылками на сами релизы.

А, в смысле, по спасибам потом сформировать список пользователей "Шифтделище"?
(2) Genuine Thrashiac, infiltrator,
May 25 2018, 09:23:27 Lunatic Soul - Under The Fragmented Sky (2018)


*Artist: Lunatic Soul
*Album: Under The Fragmented Sky
*Year: 2018
*Genre: Atmospheric Progressive Rock
*Country: Poland
*Format: mp3@CBR320kbps
*Size: 84MB

Tracklist:
01. He Av En 04:04
02. Trials 05:44
03. Sorrow 01:29
04. Under the Fragmented Sky 05:02
05. Shadows 04:30
06. Rinsing the Night 03:55
07. The Art of Repairing 07:54
08. Untamed 03:24
******************************
Total playing time: 36:02




[more=Extended info]Line-up / Musicians
Mariusz Duda - vocals, acoustic guitar, bass & piccolo bass, keyboards, synth programming, percussion
Also:
Wawrzyniec Dramowicz (aka Vaaver) - drums (8)

Releases information
Label: Kscope
Format: CD, Digital, Vinyl (Clear)
May 25, 2018
Art: Jarek Kubicki[/more]

[more=Technical info]
Input File: 01. He Av En.mp3
Channels : 2
Sample Rate : 44100
Precision : 16-bit
Duration : 00:04:03.85 = 10753873 samples = 18288.9 CDDA sectors
File Size : 9.83M
Bit Rate : 322k
Sample Encoding: MPEG audio (layer I, II or III)
Comments :
Title=He Av En
Artist=Lunatic Soul
Album=Under the Fragmented Sky
Tracknumber=01
Year=2018
Genre=Progressive Rock

[/more]

Register
(15) Angry_Chair, dk201x, Emhyr var Emreis, Fatalv, gena, Ghostb, gikaki, Legacy100, Moonshtook, princeshr, Rikardo90, SatanicPanzer, Tino, VALERY, скептик,
May 25 2018, 09:13:52 Subsignal - La Muerta (2018)


*Artist: Subsignal
*Album: La Muerta
*Year: 2018
*Genre: Progressive Metal/Rock
*Country: Germany
*Format: mp3@CBR320kbps
*Size: 142MB

Tracklist:
01. 271 Days 01:03
02. La Muerta 06:00
03. The Bells of Lyonesse 04:59
04. Every Able Hand 04:45
05. Teardrops Will Dry in Source of Origin 02:06
06. The Approaches 04:52
07. Even Though the Stars Don't Shine 05:14
08. The Passage 07:23
09. When All the Trains Are Sleeping 05:27
10. As Birds on Pinions Free 05:40
11. Some Kind of Drowning 05:34
12. Even Though the Stars Don't Shine (Radio Version) 03:50
13. La Muerta (Radio Version) 03:47
******************************
Total playing time: 1:00:40




[more=Extended info]Line-up / Musicians
Markus Steffen (Sieges Even) - guitars
Arno Menses (Sieges Even) - vocals
Ralf Schwager (Dreamscape) - bass
Markus Maichel - keyboards
Dirk Brand (Axxis, Geoff Downes & John Wetton) - drums
Also:
Marjana Semkina (iamthemorning) - vocals (11)

Releases information
Label: Gentle Art of Music
Format: CD, Vinyl, Digital
May 25, 2018[/more]

[more=Technical info]
Input File: 01. 271 Days.mp3
Channels : 2
Sample Rate : 44100
Precision : 16-bit
Duration : 00:01:03.67 = 2807803 samples = 4775.18 CDDA sectors
File Size : 2.80M
Bit Rate : 352k
Sample Encoding: MPEG audio (layer I, II or III)
Comments :
Title=271 Days
Artist=Subsignal
Album=La Muerta
Tracknumber=01/13
Year=2018
Genre=Progressive Rock
Discnumber=1/1

[/more]

Register

Register
(8) AHBAnep, Black Cat, dimitriusk, Mogozoz, Rosen, sarcophagus, tomberry, wreak,
May 24 2018, 16:56:08 Depressive Age - Symbols For The Blue Time (1994)
Щас слушаю альбом не по трекам на Youtube, а целиком. Честно скажу, вообще никаких сомнений по поводу форматности.
(1) vosmidesijatye,
May 24 2018, 16:17:25 Depressive Age - Symbols For The Blue Time (1994)
Повторюсь, но по-моему, Poltergeist - Nothing Lasts Forever весьма похож на сабж.
(1) vosmidesijatye,
May 24 2018, 10:39:19 Сатурналии (Антипопсовая голосовалка) Часть 2 - 1991-1993, Тур 2
ЦИТАТА(Deze @ May 24 2018, 12:27:27) *
А Депрессив Эдж на 94-м играют альтернативный рок с, допустим, готик-роком. Ни тот, ни другой стиль к металлическим стилям не относится. Соответственно, предмета для дискуссии просто нет.

Вот нет. Во-первых, если альт-, то -метал, никак не -рок. Во-вторых, готик-рок - это вообще другая опера, ничего общего. Я скептик по отношению к стилю готик-, но все возможные признаки причисления к нему ведут в металл. Начинать нужно с того, остаётся группа в рамках металла или нет. Я считаю - совершенно однозначно да, остаётся.
(2) Mplast, vosmidesijatye,

61 Pages V   1 2 3 > » 
- Lo-Fi Version Support form
Copyrights and abuse reports form
Time is now: 22nd August 2018 - 08:26:11