Welcome Guest ( Log In | Register )

История благодарностей участнику Yarri ::: Спасибо сказали: 4759 раз(а)
Дата поста: В теме: За сообщение: Спасибо сказали:
Oct 18 2019, 10:02:52 Новости Experimental/Progressive Metal
Ничёсе коллаборейшн. Эйнар тут просто офигенен.
[youtube]g5zt6XOY8Lo[/youtube]
(2) mirotvorets, plfan93,
Oct 17 2019, 18:09:15 Ray Alder - What The Water Wants (2019)


*Artist: Ray Alder
*Album: What The Water Wants
*Year: 2019
*Genre: Progressive Metal/Rock
*Country: United States
*Format: mp3@CBR320kbps
*Size: 120MB

Tracklist:
01. Lost 3:45
02. Crown of Thorns 4:54
03. Some Days 4:34
04. Shine 4:53
05. Under Dark Skies 3:58
06. A Beautiful Lie 4:10
07. The Road 5:38
08. Wait 4:36
09. What The Water Wanted 3:46
10. The Killing Floor 5:47
11. The Road [Bonus track] (Acoustic Version) 4:51
******************************
Total playing time: 50:52




[more=Extended info]Ray Alder (Fates Warning) - Vocals
Mike Abdow (Fates Warning) - Guitars
Tony Hernando (Lords Of Black) - Guitars, Bass
Craig Anderson (Ignite, Crescent Shield) - Drums[/more]

[more=Technical info]
Input File: 01. Lost.mp3
Channels : 2
Sample Rate : 44100
Precision : 16-bit
Duration : 00:03:45.56 = 9947020 samples = 16916.7 CDDA sectors
File Size : 9.05M
Bit Rate : 321k
Sample Encoding: MPEG audio (layer I, II or III)
Comments :
Title=Lost
Artist=Ray Alder
Album=What The Water Wants
Tracknumber=01
Year=2019
Genre=Progressive Rock
Discnumber=1

[/more]

Register
(13) AHBAnep, artscald, desekrator, Ghostb, infiltrator, leks, Mannard, mirotvorets, Morgoth, nospeedlimit, Olethros, Rosen, Нигилист,
Oct 17 2019, 08:17:33 Gracchus - Murder Party (2019)
Вот так вот раз, и пробит мой топ по прогу. Отличный альбом под лёгким влиянием Tool, что чувствуется ближе к концу альбома. В целом - классический прог с прекрасной мелодикой.
(1) dimitriusk,
Oct 11 2019, 20:30:52 Abstrakt Algebra - Abstrakt Algebra (1995)
Register
(2) Brann, nsk2008,
Oct 10 2019, 21:27:45 King Crimson - In The Court Of The Crimson King (1969)
Сегодня полтос с выхода альбома. И, по сути, полтос с рождения прогрессив-рока как жанра.
banana.gif banana.gif banana.gif banana.gif banana.gif
(3) Evilded, Tular, vam1972,
Oct 7 2019, 10:11:25 Opeth - In Cauda Venenum (2019)
Гораздо лучше. Больше драйва, злости и мужских гормонов.
(1) BleedingSun,
Oct 6 2019, 19:58:13 Helloween - United Alive In Madrid [live] (2019)
ЦИТАТА(Old Vyaine @ Oct 6 2019, 21:42:54) *
А Live in the UK? smile4.gif

Это же по умолчанию ОК, как всё, связанное с Киске. bye.gif
(2) infiltrator, Mick Dundee,
Oct 6 2019, 12:37:42 Helloween - United Alive In Madrid [live] (2019)
В целом неплохо, но на одно прослушивание, не больше. Соло-номера неинтересны, потому что всё это мы уже сто раз слышали. Действительно интересны несколько стыковых номеров. Киске прекрасен, что бы там ни говорили бородатые личности. Дерис в стыковых номерах откровенно проигрывает, а иногда и не вытягивает. Кай примерно в той же категории, что и Дерис. Ничего нового, собсно. В студии, правда, могут быть чудеса. Так что следующий студийник интересен.

[more=Расклад по вокалистам]Disc 1
01. Halloween - Kiske/Deriske
02. Dr. Stein - Kiske/Deriske
03. I'm Alive - Kiske
04. If I Could Fly - Deriske
05. Are You Metal? - Deriske
06. Rise and Fall - Kiske
07. Waiting for the Thunder - Deriske
08. Perfect Gentleman - Deriske
09. Kai's Medley (Starlight / Ride the Sky / Judas / Heavy Metal Is the Law) - Hanske
10. Forever and One - Kiske/Deriske
11. A Tale That Wasn't Right - Kiske/Deriske
Disc 2
12. I Can - Deriske
13. Living Ain't No Crime / A Little Time - Kiske
14. Sole Survivor - Deriske
15. Power - Deriske
16. How Many Tears - Hanske/Kiske/Deriske
17. Invitation / Eagle Fly Free - Kiske
18. Keeper of the Seven Keys - Kiske
19. Future World - Kiske
20. I Want Out - Kiske/Deriske
Disc 3
21. March of Time - Kiske
22. Kids of the Century - Kiske
23. Why - Kiske/Deriske
24. Pumpkins United - Hanske/Kiske/Deriske
[/more]
(3) Bruce, Ghostb, Rhoads,
Oct 5 2019, 20:21:11 Jakub Zytecki - Nothing Lasts, Nothing's Lost (2019)


*Artist: Jakub Zytecki
*Album: Nothing Lasts, Nothing's Lost
*Year: 2019
*Genre: Progressive Metal/Djent/Fusion
*Country: Poland
*Format: mp3@CBR320kbps
*Size: 94MB

Tracklist:
01. Somewhere Quiet 05:15
02. Sunflower 03:01
03. Spring 04:34
04. Good I Bad Me 03:50
05. Light a Fire (fight a liar) 03:12
06. Creature Comfort (with Fredrik Thordendal) 04:31
07. Bonsai (with Paulina Przybysz) 03:50
08. Tree Climbers 03:55
09. Caught in a Cloud 03:19
10. How To, Alice D 00:36
11. Grow Up 03:40
******************************
Total playing time: 39:43




[more=Technical info]
Input File: 01. Somewhere Quiet.mp3
Channels : 2
Sample Rate : 44100
Precision : 16-bit
Duration : 00:05:15.08 = 13895160 samples = 23631.2 CDDA sectors
File Size : 12.6M
Bit Rate : 320k
Sample Encoding: MPEG audio (layer I, II or III)
Comments :
Title=Somewhere Quiet
Artist=Jakub Zytecki
Album=Nothing Lasts, Nothing's Lost
Tracknumber=01/11
Year=2019
Genre=Progressive Metal
Discnumber=1/1

[/more]

Register
(11) artscald, chipsgott, Corpuscul, dimitriusk, infiltrator, kimkayoung, let4ikmiha, mirotvorets, Rosen, stone88, Tarelka,
Oct 5 2019, 20:13:14 Jakub Zytecki - Ladder Head [ep] (2017)


*Artist: Jakub Zytecki
*Album: Ladder Head [ep]
*Year: 2017
*Genre: Progressive Metal/Djent/Fusion
*Country: Poland
*Format: mp3@CBR320kbps
*Size: 42MB

Tracklist:
01. Ladder Head 4:53
02. Yesterdead 3:29
03. Lovetape 3:38
04. As You Are 3:59
05. NightDiving 4:08
******************************
Total playing time: 20:07




[more=Technical info]
Input File: 01. Ladder Head.mp3
Channels : 2
Sample Rate : 44100
Precision : 16-bit
Duration : 00:04:52.59 = 12903219 samples = 21944.2 CDDA sectors
File Size : 11.8M
Bit Rate : 323k
Sample Encoding: MPEG audio (layer I, II or III)
Comments :
Title=Ladder Head
Artist=Jakub Zytecki
Album=Ladder Head [EP]
Tracknumber=01
Year=2017
Genre=Progressive Metal

[/more]

Register
(6) artscald, Corpuscul, infiltrator, mirotvorets, Olethros, Rosen,
Sep 25 2019, 08:46:34 Opeth - In Cauda Venenum (2019)
Хороший альбом.
(2) infiltrator, mirotvorets,
Sep 21 2019, 19:20:13 Helloween - Better Than Raw (1998)
ЦИТАТА(quicksand @ Sep 21 2019, 20:14:36) *
они сами в интервью рассказывали, что именно Ули Куш и Роланд Грапов развивали идеи ДР, а они, дескать, Вейкат сотоварищи уступили.
А спустя время пожалели, видимо на этой почве возник конфликт... ну дальше история, вы все знаете.

Я могу напомнить историю с "Хамелеоном", когда всех собак повесили на выпнутого из группы Киске. При этом авторство поделили строго пропорционально. Поэтому я думаю, что фигня всё. Искали новые формы, правда не так радикально, как на "Хамелеоне", записались, разбежались, обосрали друг друга и решили сменить направление. Но! Альбом мрачный весь, даже в тех кусках, которые придумали оставшиеся в группе.
(1) Emm Human,
Sep 21 2019, 14:50:03 Helloween - Better Than Raw (1998)
Дарк Райд великолепно характеризует его обложка. Это самый мрачный альбом Тыкв. Стилистически он ближе к хэви, развивая тенденции трёх предыдущих альбомов. Смена курса очевидно связана с переменами в составе, как было в 1994 году, проявилось желание сделать не так, как на Дарк Райде. Я вот тоже думаю, что зря. Потому что из мрачного умного хэви они ушли в сторону "корней" в виде Киперов, но в более слащавом и упрощённом варианте. А дальше - новые мутации и комбинации, переосмысление ранних альбомов и полная реабилитация.
(1) Фо,
Sep 19 2019, 22:50:58 Giant Sleeper - Eternal Migration [ep] (2019)
Инструментальный проект, не лишённый изящества.

[youtube]GO_Zh3yxm44[/youtube]
(3) AHBAnep, infiltrator, MMMMM,
Sep 19 2019, 20:11:42 Holy Dragons - Unholy And Saints (2019)
У кого-то есть их сорок седьмой альбом, вроде ещё не выкладывали?
(2) Ghostb, Tular,
Sep 17 2019, 19:35:39 Helloween - Gambling With The Devil (2007)
ЦИТАТА(Shadowman @ Sep 17 2019, 19:34:51) *
Лавдате Доминум

Это плохие тыквы.
(1) Shadowman,
Sep 16 2019, 16:32:48 Division By Zero - Independent Harmony (2010)
После пьянки три года прошло. 5.gif

Register
(1) hammer,
Sep 15 2019, 12:45:36 Megadeth - Youthanasia [remastered 2004] (1994)
На пол-раза, я бы сказал. Всё-таки, оригинал ближе и роднее.
(1) Emm Human,
Sep 15 2019, 12:40:47 Sonata Arctica - Talviyö (2019)
ЦИТАТА(Exorcist @ Sep 15 2019, 12:13:19) *
Тем не менее, Gothic Kabbalah - шедевр и лучший альбом Therion на пару с Theli.

ЦИТАТА(Old Vyaine @ Sep 15 2019, 13:45:54) *
Это перебор на 12-струнной гитаре как минимум. Никогда не видел столько ошибок в слове "худший".

Сошлись проггер с паверщиком. 1488.gif
Каббала - их самый проговый альбом. Считаю у них лучшим, ибо тоже проггер.
Так что не спорьте.
(1) Ghostb,
Sep 15 2019, 12:33:19 Новости Heavy/Power металла
ЦИТАТА(ripper33 @ Sep 14 2019, 09:27:51) *
[youtube]v5ceqdP9Hbk[/youtube]

Душевно. Интересно, что на припевах Киске почти неслышен. Зря, ну да ладно.
(1) Ghostb,
Sep 15 2019, 11:11:30 Активно Помогаем
Gravestone
Baden-Württemberg, Germany
Progressive Rock (earlier), Heavy/Power Metal (later)
Years active: 1977-1986

https://www.metal-archives.com/band.php?id=1329

Gravestone - Doomsday (1979) (not presented)
Gravestone - War (1980)
Gravestone - Victim Of Chains (1984)
Gravestone - Back To Attack (1985)
Gravestone - Creating A Monster (1986)
(2) Alexis The Best, infiltrator,
Sep 13 2019, 17:28:43 Circus Maximus - Isolated Chapters [ep] (2019)
ЦИТАТА(Dreamtale @ Sep 12 2019, 04:30:07) *
Сейчас на самом деле мало кто играет такой позитивный прог (-павер).

Dream Theater. bye.gif
(1) Metalass,
Sep 11 2019, 11:39:00 Sinner - Santa Muerte (2019)
Модно просто иметь. 1488.gif
(3) AHBAnep, infiltrator, Rhoads,
Sep 11 2019, 10:09:21 Damien
Persian Gorgrinder,
Great thanks for updating! 9.gif
(1) Persian Gorgrinder,
Sep 10 2019, 20:01:25 Damien - Beyond Apathy (2011)


*Artist: Damien
*Album: Beyond Apathy
*Year: 2011
*Genre: Heavy Metal
*Country: United States
*Format: mp3@CBR320kbps
*Size: 115MB

Tracklist:
1. Alive 04:46
2. Beyond Apathy 04:12
3. Justine & Juliette 04:26
4. With a Smile 03:52
5. Liberty 04:15
6. Breathe 06:31
7. Beltane Fire 04:11
8. Living Dead 03:50
9. The Shaman 05:51
10. Sweet Polly 04:23
11. Electrosplatter 03:54
******************************
Total playing time: 50:11



[more=Extended info]Randy Mikelson: Vocals
Chuck Stohl: Guitars
Kevin Kekes: Bass
Johnny Cappelletty: Drums, backing vocals[/more]

[more=Technical info]
Input File: 01. Alive.mp3
Channels : 2
Sample Rate : 44100
Precision : 16-bit
Duration : 00:04:46.60 = 12638928 samples = 21494.8 CDDA sectors
File Size : 11.5M
Bit Rate : 321k
Sample Encoding: MPEG audio (layer I, II or III)
Comments :
Title=Alive
Artist=Damien
Album=Beyond Apathy
Tracknumber=01
Year=2011
Genre=Heavy Metal

[/more]

Register
(9) artscald, infiltrator, metala, Mogozoz, Olethros, Rosen, Rover, Wail, wreak,

72 Pages V   1 2 3 > » 
- Lo-Fi Version Support form
Copyrights and abuse reports form
Time is now: 22nd October 2019 - 10:27:28