Welcome Guest ( Log In | Register )

История благодарностей участнику klesch ::: Спасибо сказали: 15545 раз(а)
Дата поста: В теме: За сообщение: Спасибо сказали:
Mar 17 2017, 17:47:54 Амальтея - Лети! [demo] (2012)


*Artist: Амальтея
*Album: Лети! [demo]
*Year: 2012
*Genre: Heavy/Power Metal
*Country: Russian Federation
*Format: mp3@VBR221kbps
*Size: 12MB

Tracklist:
1. Лети!
2. Ещё Раз Ночь...(Мастер Сover)
******************************
Total playing time: 7:36

Preview 1

Register
(2) Rosen, wgs73,
Mar 17 2017, 17:29:27 Амальтея - Demo [demo] (2009)


*Artist: Амальтея
*Album: Demo [demo]
*Year: 2009
*Genre: Heavy/Power Metal
*Country: Russian Federation
*Format: mp3@VBR187kbps
*Size: 17MB

Tracklist:
1. Ангелы
2. Коридоры Времен
3. Цветы
******************************
Total playing time: 12:52

Preview 1

Register
(2) Rosen, wgs73,
Mar 16 2017, 18:07:45 Amalgama - Amethyst [ep] (2010)


*Artist: Amalgama
*Album: Amethyst [ep]
*Year: 2010
*Genre: Heavy/Thrash Metal
*Country: United States
*Format: mp3@CBR192kbps
*Size: 26MB

Tracklist:
1. Forsaken Soldier
2. Amethyst
3. Spirits Of The Dead
4. Darkest Before Dawn
******************************
Total playing time: 19:13



Register
(3) boby9052, Rosen, wgs73,
Mar 16 2017, 17:47:27 Amalgama - Stainless [ep] (2007)


*Artist: Amalgama
*Album: Stainless [ep]
*Year: 2007
*Genre: Heavy/Thrash Metal
*Country: United States
*Format: mp3@CBR320kbps
*Size: 58MB

Tracklist:
1. Before The Winter Comes
2. Slip Into Darkness
3. Cyclical
4. Transfusion
5. Dogs Of War
******************************
Total playing time: 25:26



[more=Technical info]
Input File: 1. Before The Winter Comes.mp3
Channels : 2
Sample Rate : 44100
Precision : 16-bit
Duration : 00:05:00.33 = 13244641 samples = 22524.9 CDDA sectors
File Size : 12.0M
Bit Rate : 320k
Sample Encoding: MPEG audio (layer I, II or III)
Comments :
Title=Before The Winter Comes
Artist=Amalgama
Album=Stainless
Tracknumber=1
Year=2007
Genre=Heavy/Thrash Metal

[/more]

Register
(4) boby9052, Rosen, SymbyoticEntity, wgs73,
Mar 16 2017, 17:29:40 Amalgama - Peace Of Mind [ep] (2004)


*Artist: Amalgama
*Album: Peace Of Mind [ep]
*Year: 2004
*Genre: Heavy/Power Metal
*Country: Russian Federation
*Format: mp3@CBR320kbps
*Size: 59MB

Tracklist:
1. Peace Of Mind
2. Think Twice
3. Nothing Other
4. Queen
5. Вера И Судьба
******************************
Total playing time: 28:02



[more=Technical info]
Input File: 1. Peace Of Mind.mp3
Channels : 2
Sample Rate : 44100
Precision : 16-bit
Duration : 00:04:19.53 = 11445141 samples = 19464.5 CDDA sectors
File Size : 10.4M
Bit Rate : 321k
Sample Encoding: MPEG audio (layer I, II or III)
Comments :
Title=Peace Of Mind
Artist=Amalgama
Album=Peace Of Mind
Tracknumber=1
Year=2004
Genre=Heavy/Power Metal

[/more]

Register
(3) Rosen, SymbyoticEntity, wgs73,
Mar 15 2017, 19:20:35 Amalgama - A Las Puertas De Willoughby (2016)


*Artist: Amalgama
*Album: A Las Puertas De Willoughby
*Year: 2016
*Genre: Heavy Metal
*Country: Spain
*Format: mp3@CBR320kbps
*Size: 103MB

Tracklist:
01. Willoughby
02. La Loba
03. Entre Las Ruinas
04. Lejos De Ti
05. Entrégate
06. El Error
07. Una Vez Mas
08. La Llama
09. No Importa
10. Guerra Y Paz
******************************
Total playing time: 49:41



[more=Technical info]
Input File: 01. Willoughby.mp3
Channels : 2
Sample Rate : 44100
Precision : 16-bit
Duration : 00:05:53.76 = 15600816 samples = 26532 CDDA sectors
File Size : 14.2M
Bit Rate : 322k
Sample Encoding: MPEG audio (layer I, II or III)
Comments :
Title=Willoughby
Artist=Amalgama
Album=A Las Puertas De Willoughby
Tracknumber=1
Year=2016
Genre=Heavy Metal

[/more]

Register
(3) krimson1, Rosen, wgs73,
Mar 15 2017, 18:45:40 Amalgama - Estigia (2011)


*Artist: Amalgama
*Album: Estigia
*Year: 2011
*Genre: Heavy Metal
*Country: Spain
*Format: mp3@VBR200kbps
*Size: 55MB

Tracklist:
1. Fiebre
2. A Fuego
3. Vibraciones De Un Instante Eterno
4. Paseo De La Melancolía
5. Estigia
6. D--------A
7. Inerte
8. Rara Avis
******************************
Total playing time: 39:58



Register
(3) Rosen, varlam4, wgs73,
Mar 15 2017, 17:45:04 Amaduscias - Decapitation [single] (2016)


*Artist: Amaduscias
*Album: Decapitation [single]
*Year: 2016
*Genre: Pagan Black/Death Metal
*Country: Brazil
*Format: mp3@CBR128kbps
*Size: 4MB

Tracklist:
1. Decapitation
******************************
Total playing time: 4:16



Register
(2) Razorbladeswaltz, Rosen,
Mar 14 2017, 19:48:51 Amaduscias - Surrounded By Darkness [ep] (2010)


*Artist: Amaduscias
*Album: Surrounded By Darkness [ep]
*Year: 2010
*Genre: Pagan Black Metal
*Country: Brazil
*Format: mp3@CBR128kbps
*Size: 12MB

Tracklist:
1. Surrounded By Darkness
2. Amaduscias
3. Fields Of Blood II
******************************
Total playing time: 12:59



Register
(7) cist, fabriziomagno, neoatheist, Rosen, Styx, thenecromancer, vasiljev_sergej,
Mar 14 2017, 18:02:16 Amadeus Awad - Schizanimus [ep] (2013)


*Artist: Amadeus Awad
*Album: Schizanimus [ep]
*Year: 2013
*Genre: Atmospheric Progressive Metal/Rock
*Country: Lebanon
*Format: mp3@VBR219kbps
*Size: 37MB

Tracklist:
1. A Song For A Loner
2. Noir
3. Poetry Of Time
******************************
Total playing time: 23:47



Register
(1) Rosen,
Mar 14 2017, 17:47:27 Amadeus Awad - Time Of The Equinox (2012)


*Artist: Amadeus Awad
*Album: Time Of The Equinox
*Year: 2012
*Genre: Atmospheric Progressive Metal/Rock
*Country: Lebanon
*Format: mp3@VBR185kbps
*Size: 67MB

Tracklist:
01. The Origins Of Light
02. Gift Of Solitude & Joy
03. Paper Dreams Pt. I: Requiem (Feat. Mark Boals)
04. Paper Dreams Pt. II: Dies Irae (Feat. Mark Boals)
05. Paper Dreams Pt. III: The Tempest (Feat. Mark Boals)
06. Time Of The Equinox
07. Spiritus Devi
08. Meteors In The Blue (Feat. Liz Vandall from SAHARA)
09. Virtual Eclipse
10. Nostalgia (Feat. Liz Vandall from SAHARA)
11. Tales Of Celtic Sunsets (Feat. Timo Somers from DELAIN)
12. Autumn Eyes (Feat. Elia Che)
13. L'Univers En Deuil
******************************
Total playing time: 50:29



Register
(2) andgrek28, Rosen,
Mar 13 2017, 18:09:06 Amadeüs - Caléndula [single] (2012)


*Artist: Amadeüs
*Album: Caléndula [single]
*Year: 2012
*Genre: Melodic Heavy/Power Metal
*Country: Spain
*Format: mp3@VBR269kbps
*Size: 8MB

Tracklist:
1. Caléndula
******************************
Total playing time: 4:38




Register
(1) Rosen,
Mar 13 2017, 17:49:07 Amachine - Abrasive Absurd [ep] (2012)


*Artist: Amachine
*Album: Abrasive Absurd [ep]
*Year: 2012
*Genre: Death Metal
*Country: New Zealand
*Format: mp3@CBR128kbps
*Size: 9MB

Tracklist:
1. Abrasive Absurd
2. Unthinkable Machinery
3. Killer Behind The Shadows Vs. The Great Beast
4. Systematic
******************************
Total playing time: 10:12



Register
(2) Rosen, wgs73,
Mar 12 2017, 15:51:49 AM:PM - Amazing Mega Party Motherfucker (2016)


*Artist: AM:PM
*Album: Amazing Mega Party Motherfucker
*Year: 2016
*Genre: Deathcore/Metalcore
*Country: Switzerland
*Format: mp3@CBR320kbps
*Size: 134MB

Tracklist:
01. Before
02. Doomed
03. Speed Limit
04. Dictatorship Of Fear
05. Wolf
06. 4/20
07. Rugged Road
08. Scream Now
09. Rise Of The Mummies
10. AM : PM
11. Stronger Than I
******************************
Total playing time: 1:00:37




[more=Technical info]
Input File: 02.Doomed.mp3
Channels : 2
Sample Rate : 44100
Precision : 16-bit
Duration : 00:05:38.18 = 14913870 samples = 25363.7 CDDA sectors
File Size : 14.0M
Bit Rate : 332k
Sample Encoding: MPEG audio (layer I, II or III)
Comments :
Title=Doomed
Artist=AM PM
Album=Amazing Mega Party Motherfucker
Tracknumber=2
Year=2016
Genre=Deathcore/Metalcore

[/more]

Register
(4) Ostinato, Rosen, satanist666, varlam4,
Mar 12 2017, 15:22:23 AM:PM - Rise Of The Mummies [single] (2015)


*Artist: AM:PM
*Album: Rise Of The Mummies [single]
*Year: 2015
*Genre: Deathcore/Metalcore
*Country: Switzerland
*Format: mp3@VBR292kbps
*Size: 13MB

Tracklist:
1. Rise Of The Mummies
******************************
Total playing time: 4:33




Register
(3) Ostinato, Rosen, varlam4,
Mar 12 2017, 15:13:00 AM:PM - Aberrant Minds Provoke Murders [ep] (2014)


*Artist: AM:PM
*Album: Aberrant Minds Provoke Murders [ep]
*Year: 2014
*Genre: Deathcore/Metalcore
*Country: Switzerland
*Format: mp3@VBR304kbps
*Size: 38MB

Tracklist:
1. Prelude
2. Lady Hurricane
3. Make A Choice
4. Humans Are Their Own Rivals
5. Salvation
******************************
Total playing time: 16:19



[more=Technical info]
Input File: 2 Lady Hurricane.mp3
Channels : 2
Sample Rate : 44100
Precision : 16-bit
Duration : 00:03:25.92 = 9081204 samples = 15444.2 CDDA sectors
File Size : 7.52M
Bit Rate : 292k
Sample Encoding: MPEG audio (layer I, II or III)
Comments :
Title=Lady Hurricane
Artist=AM:PM
Album=Aberrant Minds Provoke Murders
Tracknumber=2
Year=2014
Genre=Deathcore/Metalcore

[/more]

Register
(4) karpenka, Rosen, satanist666, varlam4,
Mar 12 2017, 09:11:48 Am Tuat - Themélio (2013)


*Artist: Am Tuat
*Album: Themélio
*Year: 2013
*Genre: Atmospheric Death/Doom Metal
*Country: Netherlands
*Format: mp3@CBR128kbps
*Size: 39MB

Tracklist:
1. Awake
2. Satisfy
3. Obvious Contradictions
4. Leap In Flight
5. Nightfall
6. Rain Of Despair
******************************
Total playing time: 43:32



Register
(7) metala, MMMMM, Razorbladeswaltz, Rosen, Sanc, TeamatSE, VALERY,
Mar 12 2017, 08:42:55 Am Conspiracy - AM Conspiracy (2010)


*Artist: Am Conspiracy
*Album: AM Conspiracy
*Year: 2010
*Genre: Alternative
*Country: United States
*Format: mp3@VBR277kbps
*Size: 93MB

Tracklist:
01. Revolution
02. Welt
03. Pictures
04. Myself
05. Away
06. Down
07. Right On Time
08. Far
09. Absence
10. Dead And Gone
11. Believe
12. The Gathering
13. Learn To Learn
******************************
Total playing time: 48:08



Register
(1) Typhoid,
Mar 12 2017, 08:23:28 Am Conspiracy - Out Of The Shallow End [ep] (2007)


*Artist: Am Conspiracy
*Album: Out Of The Shallow End [ep]
*Year: 2007
*Genre: Alternative
*Country: United States
*Format: mp3@VBR232kbps
*Size: 31MB

Tracklist:
1. Absence
2. Far
3. Right On Time
4. Down
5. Welt (Bonustrack)
******************************
Total playing time: 18:55



Register
(1) DiegoMassakre,
Mar 12 2017, 07:54:38 Alyson Avenue - Presence Of Mind (2000)


*Artist: Alyson Avenue
*Album: Presence Of Mind
*Year: 2000
*Genre: Melodic Hard Rock
*Country: Sweden
*Format: mp3@CBR320kbps
*Size: 104MB

Tracklist:
01. Free Like The Wind
02. Every Now And Then
03. Lost And Lonely
04. Tell Me You Love Me (Or Leave Me)
05. One Desperate Heart'
06. Call Out My Name
07. Walk Away
08. It´s In Your Eyes
09. Without Your Love
10. All This Time
11. One Touch
******************************
Total playing time: 45:54



[more=Technical info]
Input File: 01. Free Like The Wind.mp3
Channels : 2
Sample Rate : 44100
Precision : 16-bit
Duration : 00:03:29.50 = 9239126 samples = 15712.8 CDDA sectors
File Size : 8.38M
Bit Rate : 320k
Sample Encoding: MPEG audio (layer I, II or III)
Comments :
Title=Free Like The Wind
Artist=Alyson Avenue
Album=Presence Of Mind
Tracknumber=1
Year=2000
Genre=Melodic Hard Rock

[/more]

Register
(2) avkruchinin, legion01,
Mar 12 2017, 07:34:10 Alzheimer - Nonostante (2013)


*Artist: Alzheimer
*Album: Nonostante
*Year: 2013
*Genre: Metalcore/Hardcore
*Country: Italy
*Format: mp3@VBR271kbps
*Size: 58MB

Tracklist:
1. Medea II
2. Gioia E Tristezza
3. Il Segno Di Babinsky
4. Non Trovo Più Conforto, Né Quiete, Né Riposo
5. Perseidi
6. Sei Miliardi
7. Metafisica Del Ricordo
******************************
Total playing time: 29:43




Register
(2) Rosen, varlam4,
Mar 12 2017, 07:19:17 Alzheimer - EP 2008 [ep] (2008)


*Artist: Alzheimer
*Album: EP 2008 [ep]
*Year: 2008
*Genre: Metalcore/Hardcore
*Country: Italy
*Format: mp3@VBR270kbps
*Size: 22MB

Tracklist:
1. Breve Lo Spazio, Veloce Il Tempo
2. Ciò Che E Mio
3. Corpi Celesti
4. La Morte Di Krono
******************************
Total playing time: 10:48




Register
(2) Rosen, varlam4,
Mar 11 2017, 21:11:30 Alzheimer - Dopo L'Ennesimo Inverno [ep] (2005)


*Artist: Alzheimer
*Album: Dopo L'Ennesimo Inverno [ep]
*Year: 2005
*Genre: Metalcore/Hardcore
*Country: Italy
*Format: mp3@VBR251kbps
*Size: 60MB

Tracklist:
1. Asfodeli (Al Di Là Del Bene E Del Male)
2. Danza D'Ottobre
3. Vuoto Carico
4. Nadyr
5. Medea
******************************
Total playing time: 33:39



Register
(2) Rosen, varlam4,
Mar 11 2017, 15:26:42 Alwaid - Alwaid-Demo [demo] (2012)


*Artist: Alwaid
*Album: Alwaid-Demo [demo]
*Year: 2012
*Genre: Melodic Symphonic Metal
*Country: France
*Format: mp3@CBR128kbps
*Size: 15MB

Tracklist:
1. Hall Of Masks
2. Advice from A Caterpillar
3. The Cypress Grove
******************************
Total playing time: 16:25



Register
(2) Cartman223, Rosen,
Mar 11 2017, 14:31:32 Alverna Gunn - Demo 1980 [demo] (1980)


*Artist: Alverna Gunn
*Album: Demo 1980 [demo]
*Year: 1980
*Genre: NWOBHM
*Country: United Kingdom
*Format: mp3@CBR192kbps
*Size: 27MB

Tracklist:
1. Death Wish
2. Lost Without A Trace
3. East Or West
4. You Gotta Pay To Rock'N'Roll
******************************
Total playing time: 19:48



Register
(5) Rosen, thenecromancer, varlam4, wgs73, Xutun,

150 Pages V   1 2 3 > » 
- Lo-Fi Version Support form
Copyrights and abuse reports form
Time is now: 4th July 2020 - 00:59:35