Welcome Guest ( Log In | Register )

История благодарностей участнику Авел ::: Спасибо сказали: 171 раз(а)
Дата поста: В теме: За сообщение: Спасибо сказали:
Apr 15 2020, 10:40:25 Wyrwyr - Akelarre (2020)


*Artist: Wyrwyr
*Album: Akelarre
*Year: 2020
*Genre: Atmospheric Black Metal
*Country: France
*Format: mp3@CBR320kbps
*Size: 92MB

Tracklist:
1. I 07:26
2. II 08:01
3. III 07:56
4. Entracte 01:54
5. IV 06:02
6. V 08:44
******************************
Total playing time: 40:03

Preview 1


[more=Extended info]Для фанатов atmospheric/melodic raw black (Pa Vesh En, и т. д.)[/more]

[more=Technical info]
Input File: 05 IV.mp3
Channels : 2
Sample Rate : 44100
Precision : 16-bit
Duration : 00:06:02.21 = 15973329 samples = 27165.5 CDDA sectors
File Size : 14.6M
Bit Rate : 322k
Sample Encoding: MPEG audio (layer I, II or III)
Comments :
Title=IV
Artist=Wyrwyr
Album=Akelarre
Tracknumber=5
Year=2020

[/more]

Register
(23) AlexSmith, atavist, HMHamster, infiltrator, Irimias, kim666, maxapero, morbidangelo, multizwilling, murian, Narasimha, nemx, nsk2008, Olethros, randumbum, robertho777, senecazm, sergsazan, SilentNidhogg, stone88, stub888, VALERY, vasiljev_sergej,
Dec 12 2019, 23:48:58 Arkona - Age Of Capricorn (2019)
Огромное спасибо! Польская Аркона - лучшая Аркона! metaler.gif metaler.gif metaler.gif
(8) infiltrator, Kazoth, mondblut, Moonshtook, SSorcerer, VerminGhost, wolverine, добрыйКот,
Dec 10 2019, 18:22:02 Blood Of The Wolf - Iii: Blood Legend [ep] (2019)


*Artist: Blood Of The Wolf
*Album: Iii: Blood Legend [ep]
*Year: 2019
*Genre: Black/Death Metal
*Country: United States
*Format: mp3@CBR320kbps
*Size: 38MB

Tracklist:
1. Shadow of the Shadows 05:05
2. Son of the Blood Oath 04:23
3. Progenitor 03:21
4. Fire Serpent 05:12
******************************
Total playing time: 18:01




[more=Technical info]
Input File: 01 - Shadow of the Shadows.mp3
Channels : 2
Sample Rate : 44100
Precision : 16-bit
Duration : 00:05:04.76 = 13440092 samples = 22857.3 CDDA sectors
File Size : 12.3M
Bit Rate : 322k
Sample Encoding: MPEG audio (layer I, II or III)
Comments :
Title=Shadow of the Shadows
Artist=Blood of the Wolf
Album=Vol. III: Blood Legend
Tracknumber=01
Year=2019

[/more]

Register
(11) AHBAnep, fallen, infiltrator, Olethros, Rosen, SilentNidhogg, VALERY, vasiljev_sergej, wanderer73, wreak, zhol,
Dec 7 2019, 17:20:54 Yog-Sothoth - Cultus Damnet [ep] (2016)


*Artist: Yog-Sothoth
*Album: Cultus Damnet [ep]
*Year: 2016
*Genre: Black Metal
*Country: Mexico
*Format: mp3@CBR320kbps
*Size: 64MB

Tracklist:
1. The Darkest Mirror Of The Infernal Halls 05:36
2. Dark Necrofear 06:36
3. Procession To The Sabbath 05:47
4. Bloodlust And Perversion (Carpathian Forest Cover) 03:39
5. Dying Brokenhearted (Empyrium Cover) 05:27
******************************
Total playing time: 27:05



[more=Technical info]
Input File: 04 - Bloodlust And Perversion (Carpathian Forest Cover).mp3
Channels : 2
Sample Rate : 44100
Precision : 16-bit
Duration : 00:03:39.49 = 9679597 samples = 16461.9 CDDA sectors
File Size : 8.82M
Bit Rate : 322k
Sample Encoding: MPEG audio (layer I, II or III)
Comments :
Title=Bloodlust And Perversion (Carpathian Forest Cover)
Artist=Yog-Sothoth
Album=Cultus Damnet
Tracknumber=4
Year=2016

[/more]

Register
(16) 1968_janeart, dermarsoran, Hell_Is_Here, Ildjarn, kim666, kimkayoung, morbidangelo, Olethros, Ostinato, Rosen, SilentNidhogg, Styx, VALERY, vasiljev_sergej, Wail, wreak,
Dec 6 2019, 15:45:02 Beauty Of Sirin - Тропа К Бессмертию [ep] (2019)


*Artist: Beauty Of Sirin
*Album: Тропа К Бессмертию [ep]
*Year: 2019
*Genre: Atmospheric/Post Black Metal
*Country: Russian Federation
*Format: mp3@CBR320kbps
*Size: 73MB

Tracklist:
1. Порог 04:16
2. Тропа к бессмертию. Часть 1 13:23
3. Тропа к бессмертию. Часть 2 14:10
******************************
Total playing time: 31:49



[more=Technical info]
Input File: 01 - Порог.mp3
Channels : 2
Sample Rate : 44100
Precision : 16-bit
Duration : 00:04:16.07 = 11292511 samples = 19205 CDDA sectors
File Size : 10.5M
Bit Rate : 329k
Sample Encoding: MPEG audio (layer I, II or III)
Comments :
Title=Порог
Artist=Beauty Of Sirin
Album=Тропа К Бессмертию
Tracknumber=01
Year=2019

[/more]

Register
(19) 1968_janeart, Bregon, Doooomed, fallen, igorzz, kim666, lestllk, Olethros, robertho777, Rosen, senecazm, stone88, Tyrone, VALERY, varlam4, vasiljev_sergej, Winterkalte, wreak, Сварог Барг,
Dec 5 2019, 23:32:40 Wotan Sølv - Сны Бальдра (2016)


*Artist: Wotan Sølv
*Album: Сны Бальдра
*Year: 2016
*Genre: Black Metal
*Country: Russian Federation
*Format: mp3@CBR320kbps
*Size: 109MB

Tracklist:
1. Колесниц Судьбы Трагедий 06:24
2. Жизни Пламя, Жизни Высь 05:34
3. Ядом Жгучим 05:03
4. В Развернутости Sieg 03:24
5. Шторму Крови 07:46
6. Потоком Раны 04:51
7. В Луче Последнем 03:13
8. Из Погребальных Искр 05:59
9. В Переполненьи Чаши 07:22
******************************
Total playing time: 49:36

[more=Extended info]In 2000, Ulv Gegner started work on his new project Wotansjolv, which is described as the result of an "Alchemical Purification of the Original Raven Dark". An album titled 'The Dreams of Baldr' was recorded but wasn't released until September 2016. The project later changed name to 'Asagott' and another full-length album was recorded which should be released at some point. There also were plans for the second Wotan Sølv album named 'Yggdrassil' but Ulv Gegner died before anything was recorded.

Wotan Sølv was a part of the BlazeBirth Hall, along with Branikald, Forest, Nitberg, Raven Dark, Rundagor, Vargleide, and Yggrassil.[/more]

[more=Technical info]
Input File: 04 - В Развернутости Sieg.mp3
Channels : 2
Sample Rate : 44100
Precision : 16-bit
Duration : 00:03:24.24 = 9006940 samples = 15317.9 CDDA sectors
File Size : 8.17M
Bit Rate : 320k
Sample Encoding: MPEG audio (layer I, II or III)
Comments :
Title=В Развернутости Sieg
Artist=Wotan Sølv
Album=Сны Бальдра
Tracknumber=04
Year=2016

[/more]

Register
(11) dvlz, kefka, lordbathor, multizwilling, Olethros, Orkkh, peppuzzo, Rosen, stone88, VALERY, vasiljev_sergej,
Dec 4 2019, 23:27:38 Krumkač - Kryvijskaja Dyvizija (2019)


*Artist: Krumkač
*Album: Kryvijskaja Dyvizija
*Year: 2019
*Genre: Pagan/Atmospheric Black Metal
*Country: Belarus
*Format: mp3@CBR320kbps
*Size: 118MB

Tracklist:
1. Recham Stali 03:22
2. Nas Sliach 11:38
3. Kryuja 12:06
4. Kryvijskaja Dyvizija 10:28
5. Krylami Bielymi 10:54
6. Mars Da Niabiosau 03:36
******************************
Total playing time: 52:04




[more=Technical info]
Input File: 02 - Nas Sliach.mp3
Channels : 2
Sample Rate : 44100
Precision : 16-bit
Duration : 00:11:39.00 = 30825768 samples = 52424.8 CDDA sectors
File Size : 28.1M
Bit Rate : 322k
Sample Encoding: MPEG audio (layer I, II or III)
Comments :
Title=Naš Šliach
Artist=Krumkač
Album=Kryvijskaja Dyvizija
Tracknumber=02/06
Year=2019

[/more]

Register
(28) 1968_janeart, bka, Boozer, djsema4, Druidir, gena, Ildjarn, kim666, lestllk, multizwilling, murian, Olethros, orgondnor, Ostinato, robertho777, Rosen, RUDACHUR, scorn33, senecazm, Shadechaser, stone88, talismanFS, v.v.m, VALERY, varlam4, vasiljev_sergej, vikt11, wreak,
Dec 4 2019, 22:35:13 Suld - The Memory Of Nomadism (2017)


*Artist: Suld
*Album: The Memory Of Nomadism
*Year: 2017
*Genre: Folk/Ethno Metal
*Country: China
*Format: mp3@VBR275kbps
*Size: 82MB

Tracklist:
1. The Memory of Nomadism 05:28
2. Migrate 04:45
3. The Beautiful Mongol Horse 03:47
4. Zognl 04:55
5. Hoelun 04:38
6. Hometown of Mongolian 04:57
7. Kiyat Clan 04:54
8. Oasis 04:18
9. The Battle Of The Thirteen Armies 04:24
******************************
Total playing time: 42:06



[more=Technical info]
Input File: 02 - Migrate.mp3
Channels : 2
Sample Rate : 48000
Precision : 16-bit
Duration : 00:04:44.78 = 13669632 samples ~ 21358.8 CDDA sectors
File Size : 9.79M
Bit Rate : 275k
Sample Encoding: MPEG audio (layer I, II or III)
Comments :
Title=Migrate
Artist=Suld
Album=The Memory Of Nomadism
Year=20190220

[/more]

Register
(8) ahp, Cartman223, Druidir, gwar, Lord_Hip, mevgal, Olethros, stone88,
Dec 4 2019, 18:18:19 Pénitence Onirique - V.I.T.R.I.O.L (2016)


*Artist: Pénitence Onirique
*Album: V.I.T.R.I.O.L
*Year: 2016
*Genre: Black Metal
*Country: France
*Format: mp3@CBR129kbps
*Size: 43MB

Tracklist:
1. L'âme sur les pavés 08:36
2. Le Soufre 09:56
3. Le Sel 10:48
4. V.I.T.R.I.O.L 09:20
5. Carapace de fantasme vide 08:40
******************************
Total playing time: 47:20




Register
(9) 1968_janeart, Ildjarn, Kwaad, morbidangelo, Olethros, Rosen, stub888, thenecromancer, vasiljev_sergej,
Dec 4 2019, 16:09:03 Ildaruni - Towards Subterranean Realms [demo] (2018)


*Artist: Ildaruni
*Album: Towards Subterranean Realms [demo]
*Year: 2018
*Genre: Pagan/Black Metal
*Country: Armenia
*Format: mp3@CBR128kbps
*Size: 13MB

Tracklist:
1. Treading the Path of Cryptic Wisdom 06:18
2. Towards Subterranean Realms 07:41
******************************
Total playing time: 13:59



[more=Technical info]
Input File: 01 - Treading the Path of Cryptic Wisdom.mp3
Channels : 2
Sample Rate : 44100
Precision : 16-bit
Duration : 00:06:18.55 = 16694011 samples = 28391.2 CDDA sectors
File Size : 6.06M
Bit Rate : 128k
Sample Encoding: MPEG audio (layer I, II or III)

[/more]

Register
(8) Druidir, Grev, morbidangelo, Olethros, Rosen, thenecromancer, vasiljev_sergej, Сварог Барг,
Dec 4 2019, 13:49:55 Ebola - 九重 (Kokonoe) [single] (2019)


*Artist: Ebola
*Album: 九重 (Kokonoe) [single]
*Year: 2019
*Genre: Folk/Depressive Black Metal
*Country: Japan
*Format: mp3@CBR128kbps
*Size: 7MB

Tracklist:
1. 九重 (Kokonoe) 07:56
******************************
Total playing time: 7:56




[more=Extended info]Beautiful, Sad Melodies... Screams... Ethnic instruments that imagine the nature like Suibokuga (Traditional japanese style ink painting)... Fusion with Chinese and Yamato Symphony... Chinese style of Depressive Black Metal[/more]

[more=Technical info]
Input File: Ebola - 九重 Kokonoe.mp3
Channels : 2
Sample Rate : 44100
Precision : 16-bit
Duration : 00:07:55.63 = 20975239 samples = 35672.2 CDDA sectors
File Size : 7.61M
Bit Rate : 128k
Sample Encoding: MPEG audio (layer I, II or III)

[/more]

Register
(8) Cartman223, dermarsoran, gwar, Lanceatum, morbidangelo, Olethros, Rosen, vasiljev_sergej,
Dec 2 2019, 22:43:46 Leftmuenang - Illusion [compilation] (2016)


*Artist: Leftmuenang
*Album: Illusion [compilation]
*Year: 2016
*Genre: Folk/Black Metal
*Country: Thailand
*Format: mp3@CBR320kbps
*Size: 158MB

Tracklist:
1. Plangpheekraugn 08:01
2. Priamprang 10:16
3. Sobnangloi 10:38
4. Pryrambanna 12:33
5. Thungpheepan 11:29
6. Vile Words, Evoking 9:40
7. Plesure in Cruelty 07:17
******************************
Total playing time: 1:09:54



[more=Technical info]
Input File: 07 - Plesure in Cruelty.mp3
Channels : 2
Sample Rate : 44100
Precision : 16-bit
Duration : 00:07:17.05 = 19273993 samples = 32778.9 CDDA sectors
File Size : 17.5M
Bit Rate : 320k
Sample Encoding: MPEG audio (layer I, II or III)

[/more]

Register
(10) 1968_janeart, Cartman223, Druidir, gwar, metalwoman, obituarydark, Olethros, Rosen, system36, vasiljev_sergej,
Dec 2 2019, 17:44:24 Ebola - Beauty [ep] (2019)


*Artist: Ebola
*Album: Beauty [ep]
*Year: 2019
*Genre: Depressive Black Metal/Lounge/Electronic/Rnb
*Country: Japan
*Format: mp3@CBR128kbps
*Size: 20MB

Tracklist:
1. Intro 00:57
2. Night Memories 05:47
3. Wild 03:39
4. Different Kiss 05:21
5. Rain Story 05:09
******************************
Total playing time: 20:53



[more=Extended info]Japanese Depressive Black Metal EBOLA
EP [Beauty]
A fusion of the Depressive Black Metal and R&B...[/more]

[more=Technical info]
Input File: spectrogram.png

[/more]

Register
(9) Aynekko, gwar, hammeth, Lanceatum, lucifix, Olethros, Rosen, Sanctus, vasiljev_sergej,
Jun 27 2019, 11:02:45 The Last Knell - Præterhuman (The Spectrum Of Aphelion) (2019)
Послушал на Бэндкэмпе и очень мне понравилось. Альбом отличный! Мелодичный и атмосферный. Квел дес лебенс 20.gif
(2) infiltrator, Абигор,
May 17 2019, 22:15:13 Wildernessking - Mystical Future (2016)
from web
QUOTE
(1) doomTemplar,

- Lo-Fi Version Support form
Copyrights and abuse reports form
Time is now: 4th June 2020 - 18:14:01