Welcome Guest ( Log In | Register )

История благодарностей участнику kotekpsotek ::: Спасибо сказали: 933 раз(а)
Дата поста: В теме: За сообщение: Спасибо сказали:
Nov 25 2013, 11:08:07 Kat - Rarities [best of/compilation] (2013)


*Artist: Kat
*Album: Rarities [best of/compilation]
*Year: 2013
*Genre: Heavy Metal, Thrash Metal
*Country: Poland
*Format: mp3@CBR320kbps
*Size: 128MB

Tracklist:
01. Wyrokiem Sądu Bożego
02. Robak
03. Skazaniec
04. Zemsta
05. Bez Pamięci
06. Delirium Tremens (Jarocin) [Live]
07. Diabelski Dom cz.I (Jarocin) [Live]
08. Mocni Ludzie (Jarocin) [Live]
09. Skazaniec (Jarocin) [Live]
10. Manaced
11. Instrumental
******************************
Total playing time: 54:48


Official Band Site
Wikipedia

[more=Technical info]
Input File: 01_Wyrokiem Sądu Bożego.mp3
Channels : 2
Sample Rate : 44100
Precision : 16-bit
Duration : 00:05:16.37 = 13952005 samples = 23727.9 CDDA sectors
File Size : 12.7M
Bit Rate : 320k
Sample Encoding: MPEG audio (layer I, II or III)
Comments :
Title=Wyrokiem SД…du BoЕјego
Artist=Kat
Album=Rarities [Compilation]
Tracknumber=01
Year=2013

[/more]

Register
(12) cancer1974, caro, Cristof25, fticek, garretje, Goatrex, gwar, Infernuuus, Rosen, tireheb, Ugly13, wreak,
Apr 21 2013, 08:12:38 Wolf Spider - Drifting In The Sullen Sea (1991)
Wolf Spider - 1991 - Drifting in The Sullen Sea [Remastered 2009]

320 kbps / 166 mb

01_Blind Faith
02_Liberated Woman
03_Inclined
04_My Home
05_Drifting in The Sullen Sea
06_King of Animals
07_Freedom
08_Black 'n' White Part II
09_Enterprising Man
10_Orphanage
11_Mustapha
12_Terroryści [Bonus]
13_Plaga [Bonus]
14_Gdzie Twoja Osobowość? [Bonus]
15_Próg Świadomości [Bonus]

Remastered and re-released in 2009 by Metal Mind Productions as Digipak with bonus tracks.

Register
(3) crackedbrain, wrath082, Нигилист,
Apr 21 2013, 07:41:03 Wolf Spider - Kingdom Of Paranoia (1990)
Wolf Spider - 1990 - Kingdom of Paranoia [Remastered 2009]

320 kbps / 163 mb

01. Manifestants
02. Pain
03. Black 'n' Whites
04. Foxes
05. Waiting for Sense
06. Desert
07. Sickened Nation
08. Nasty-Ment
09. Survive
10. Weakness [Bonus]
11. S-Shop [Bonus]
12. It's Only Vodka [Bonus]
13. Zboczeńcy [Bonus]
14. Bezdomne Dzieci [Bonus]
15. Zniszczyć Mafię [Bonus]

Produced by Tomasz Dziubiński
Engineered and mixed by Piotr Madziar
Recorded and mixed in "GIEŁDA" Studio, Poznan

Remastered and re-released in 2009 by Metal Mind Productions as Digipak with bonus tracks.

Register
(1) Нигилист,
Apr 21 2013, 07:40:39 Wolf Spider - Hue Of Evil (1991)
Wolf Spider - 1991 - Hue of Evil [Remastered 2009]

320 kbps / 166 mb

01. Sex Shop
02. It's Only Vodka
03. Sex Maniacs
04. Mafia
05. Homeless Children
06. Terrorists
07. Down The Drain
08. Puppet
09. Verge of Sanity
10. Girl for Sale [Bonus]
11. Television [Bonus]
12. Mafia [Live] [Bonus]
13. Bezdomne Dzieci [Live] [Bonus]
14. It's Only Vodka [Live] [Bonus]

Produced by Tomasz Dziubiński "Metal Mind Productions".
Engenieered by Piotr Madziar.
Assistents: Ryszard Gloger, Zbigniew Suchański.
Recorded at "GIEŁDA" Studio in Poznań.
Cover concept and works by Jerzy Kurszak.

Recorded in 1989, released in 1991. Remastered and re-released in 2009 by Metal Mind Productions as Digipak with bonus tracks.

Register
(3) crackedbrain, Tino, Нигилист,
Apr 21 2013, 07:05:08 Tenebris - Alpha Orionis (2013)


*Artist: Tenebris
*Album: Alpha Orionis
*Year: 2013
*Genre: Progressive Metal
*Country: Poland
*Format: mp3@CBR320kbps
*Size: 111MB

Tracklist:
1. PSI'k on Out
2. Of Zerpatinum
3. Cold Star
4. Adha Pawn
5. Sempiternal Regnum
6. Punishment Vision
7. Black Ezekiel
8. Trembling Giant
9. Alpha Orionis
******************************
Total playing time: 46:03



Official Band Site

Encyclopaedia Metallum

[more=Extended info]Bartek Sapota - Bass
Grzegorz Graczyk - Drums
Primer - Guitars
Karki - Keyboards
Simon / Szymon - Vocals, Guitars[/more]

[more=Technical info]
Input File: 01_PSI\'k on Out.mp3
Channels : 2
Sample Rate : 44100
Precision : 16-bit
Duration : 00:05:25.83 = 14369059 samples = 24437.2 CDDA sectors
File Size : 13.0M
Bit Rate : 320k
Sample Encoding: MPEG audio (layer I, II or III)
Comments :
Title=PSI'k on Out
Artist=Tenebris
Album=Alpha Orionis
Tracknumber=01
Year=2013

[/more]

Register
(29) aesteticvice, AHBAnep, Analitic, avkruchinin, BlackTroll, BRUTAL06, Corpuscul, Dimhold, dimitriusk, Foneg, gwynnbleid, Ingward, metala, MMMMM, Mogozoz, Mplast, msk1147, paganheart, satanath, SatanicPanzer, Shadowman, spiritualdecay666, Tino, VALERY, wreak, wtk.412, Yarri, yuratroll, Луч,
Apr 20 2013, 19:47:32 Massemord - A Life-Giving Power Of Devastation (2013)


*Artist: Massemord
*Album: A Life-Giving Power Of Devastation
*Year: 2013
*Genre: Black Metal
*Country: Poland
*Format: mp3@CBR320kbps
*Size: 117MB

Tracklist:
1. A Devastation Giving Power of Life
2. The Deity of Ferocity
3. Towards Divine Anticlimax
4. Trophy of Wasted Breath
5. Piercing Ailing Heart of Humanity
6. We All Shall Die Miserable Death
7. A Horror To Come
8. The Stoning Malignant
9. Water of Life
******************************
Total playing time: 48:57

Let The World Burn

Encyclopaedia Metallum

[more=Technical info]
Input File: 01_A Devastation Giving Power of Life.mp3
Channels : 2
Sample Rate : 44100
Precision : 16-bit
Duration : 00:06:09.25 = 16283881 samples = 27693.7 CDDA sectors
File Size : 14.8M
Bit Rate : 320k
Sample Encoding: MPEG audio (layer I, II or III)
Comments :
Title=A Devastation Giving Power of Life
Artist=MasseMord
Album=A Life-giving Power of Devastation
Tracknumber=01
Year=2013

[/more]

Register
(86) 0x13, 666BlackDeath, acerbus, aesteticvice, andeimon, arioch82, artscald, Atr, AwaitingDawn, berserkr, boba, Buregon, cancer1974, Constantinus I, Corpse_Of_The_Christ, DarkHorde, Darkthronefoad, Darth Alvasarra, ddarkthrone, Dr.Grind Oim, Dunkelgrafen, Etale_Eternel, fabeldyr, Fess, Foghuman, gena, graham, grisatre, Henmik, Ildjarn, Impaled, Indamage, kefka, Korpse, Koscheyushka, Lord_Eurynome, lucifix, marilin, mart2203, Mich, milosdjor, MMMMM, neoatheist, Nerevar, nsmetalhead, nugorod, Poison666, Premature_Devotion, princeshr, QuadenThyrane, qzmit4, Radek, Razorbladeswaltz, Rikardo90, rom666, RUDACHUR, RUSP73, sandr666, Scuns, Semargl2010, SIAVASH, smes, spiritualdecay666, squall8fr, SSBandera, Taragorm, Thunderbird, tiptoer, toly1917, tont, Tundra, Typhoid, Typhon88, Unleashed, VALERY, varyag, vasiljev_sergej, Vidder242, voldemar13, vosmidesijatye, vov7609, waldemardr, wtk.412, yuratroll, ZambuL, Шанкара,
Mar 14 2013, 14:58:23 Chronical Diarrhoea - The Last Judgement [best of/compilation] (1991)
specially for TheThrasher, Chronical Diarrhoea: SLAM (taken from "The Pleasures in Life" sampler)
Register
(2) Genuine Thrashiac, metal73,
Mar 14 2013, 09:53:06 Open Fire - Lwy Ognia (2013)
My pleasure, best regards 9.gif
(1) nbhfy,
Mar 14 2013, 08:50:38 Gomor - Apocalyptic Rise (2012)


*Artist: Gomor
*Album: Apocalyptic Rise
*Year: 2012
*Genre: Heavy Metal
*Country: Poland
*Format: mp3@CBR320kbps
*Size: 104MB

Tracklist:
01. Crazy Train
02. Rambler
03. Alcohol
04. Crew from Frozen Hell
05. Wizzard
06. Underworld
07. Ride Now
08. Mountjoy Square
09. Medicine Man
10. Wind & Ride
11. Like a Wolf
******************************
Total playing time: 43:08







[more=Extended info]Dziara - Bass
Ślepy - Drums
Frydrych - Guitars
Popcorn - Guitars
Compass - Vocals


Input File: 03_Alcohol Forever.mp3
Channels : 2
Sample Rate : 44100
Precision : 16-bit
Duration : 00:03:12.23 = 8477167 samples = 14417 CDDA sectors
File Size : 7.69M
Bit Rate : 320k
Sample Encoding: MPEG audio (layer I, II or III)
Comments :
Title=Alcohol Forever
Artist=Gomor
Album=Apocalyptic Rise
Tracknumber=03
Year=2012

[/more]

Register
(5) aviacademy, avkruchinin, HMHamster, vir2al, wreak,
Mar 14 2013, 08:22:41 Open Fire - Lwy Ognia (2013)


*Artist: Open Fire
*Album: Lwy Ognia
*Year: 2013
*Genre: Heavy/Speed Metal
*Country: Poland
*Format: mp3@CBR320kbps
*Size: 95MB

Tracklist:
1. Dzień Tysiąca Słońc
2. Open Fire
3. Ognie św. Elma
4. Metal Top 20
5. Widmowy Władca
6. Twardy Jak Skała
7. Oddech Śmierci
8. Ogień i Stal Zwyciężą
9. Lwy Ognia
******************************
Total playing time: 39:57

Fan Site
Encyclopaedia Metallum
Classic Metal Samples
Discogs

[more=Extended info]Recorded in 1987, but wasn't officially released until 2013.

Label: Klub Płytowy Razem

Mariusz Sobiela - Vocals
Krzysztof Majdziak - Bass
Wojciech Zabiłowicz - Drums
Maciej Różycki - Guitars
Janusz Kowalczyk - Guitars


Input File: 01_Dzień Tysiąca Słońc.mp3
Channels : 2
Sample Rate : 44100
Precision : 16-bit
Duration : 00:06:06.87 = 16179011 samples = 27515.3 CDDA sectors
File Size : 14.7M
Bit Rate : 320k
Sample Encoding: MPEG audio (layer I, II or III)
Comments :
Title=DzieЕ„ TysiД…ca SЕ‚oЕ„c
Artist=Open Fire
Album=Lwy Ognia [Reissue 2013]
Tracknumber=01
Year=1987

[/more]

Register
(12) cancer1974, HMHamster, marilin, MEmethuselah, metala, northerking, satanas189, THERION, thorbeorn, Tino, Typhon88, wreak,
Mar 14 2013, 08:09:35 Chronical Diarrhoea - The Last Judgement [best of/compilation] (1991)


*Artist: Chronical Diarrhoea
*Album: The Last Judgement (Remastered 2008) [best of/compilation]
*Year: 1991
*Genre: Thrash Metal/Crossover
*Country: Germany
*Format: mp3@CBR320kbps
*Size: 156MB

Tracklist:
01. Intro / Sleep Well
02. Indifference
03. Slow Down
04. Days Of Open Hand
05. Wild At Heart
06. Regress No Way
07. Torment In Fire
08. After The Battle
09. Stagnation
10. Go Slow!
11. Here's Where The Story Ends / Wave Out
12. Dian Is Dead
13. Bad Taste
14. The Expert
15. Hate You / Outro
16. Go Slow!
17. The Expert
18. Hellcommander
19. Pressure
20. Supervising Neighbours
21. Fast Food
22. Problems
23. Glue
24. Passion
25. Sad Is True
26. Acid Freak
27. Flower Power
28. Shit World
29. The Influence
30. J.R.'s
31. B.S.I.
32. Profileless Nation
33. Trademark Adortion - How Thin
34. A Contradiction
35. 007
36. Hate You
37. Indescribable
38. Other Attitudes
39. Doomshock
40. The Never Ending, Indescribable, Incredible, Irregular Hardcore Mosh
41. Flower Power
42. Attack Of The Blurr Demons
43. Ömmes Kills
44. Joe's Choice
45. Uncle Ben's Favourite Blues
46. Chemical Terrorism
47. Sick Of You
48. Hä!
49. Senseless Lyrics
50. Slam
******************************
Total playing time: 1:04:37


Encyclopaedia Metallum
Discogs

[more=Extended info]Collection of their albums previously unreleased on CD:

tracks 1-15 "The Last Judgement" LP
tracks 16-27 taken from "Abstract Carnage" 7" EP, originally released by Off The Disk Records
tracks 28-49 taken from "Salomo says" LP, originally released as NB 011
track 50 taken from "The Pleasures In Life" sampler, originally released as NB 020

- track 6 is a 7 Seconds cover (on "Walk Together Rock Together" 1983, with the title "No Class No Way")
- track 19 is a Negative Approach cover (1982)
- track 23 is a Society System Decontrol (SSD) cover (1983)

Lineup:
Ilja - Bass
Roman Gebauer - Drums
Thorsten Benning - Guitars
Reiner - Vocals


Input File: 01_Intro & Sleep Well.mp3
Channels : 2
Sample Rate : 44100
Precision : 16-bit
Duration : 00:03:02.30 = 8039386 samples = 13672.4 CDDA sectors
File Size : 7.29M
Bit Rate : 320k
Sample Encoding: MPEG audio (layer I, II or III)
Comments :
Title=Intro / Sleep Well
Artist=Chronical Diarrhoea
Album=The Last Judgement & Salomo Says... [Compilation]
Tracknumber=01
Year=1991

[/more]

Register
(7) avkruchinin, Diflock, MEmethuselah, metal73, varlam4, wreak, Xutun,
Feb 16 2013, 09:26:26 Stos - Jeźdźcy Nocy (2012)


*Artist: Stos
*Album: Jeźdźcy Nocy
*Year: 2012
*Genre: Heavy Metal
*Country: Poland
*Format: mp3@CBR320kbps
*Size: 173MB

Tracklist:
01. Schizofrenia
02. Spalinowy Diabeł [WSK]
03. Heavy Metal
04. Ascon
05. Promień Nadziei
06. Hej Ty
07. Wyrocznia
08. Krajobraz Po Bitwie
09. Ludzie Ciemności
10. Przebudzenie
11. Dla Janusza
12. Za Horyzont
13. Jeźdźcy Nocy
14. Ognisty Ptak
******************************
Total playing time: 1:12:35

Official Band Site




[more=Extended info]Jan Bol - Drums
Marcin Frąckowiak - Guitars
Łukasz Krawiec - Guitars
Irena Bol - Vocals
Tomasz Skorek - Bass


Input File: 03_Heavy Metal.mp3
Channels : 2
Sample Rate : 44100
Precision : 16-bit
Duration : 00:05:27.03 = 14422067 samples = 24527.3 CDDA sectors
File Size : 13.1M
Bit Rate : 320k
Sample Encoding: MPEG audio (layer I, II or III)
Comments :
Title=Heavy Metal
Artist=Stos
Album=JeЕєdЕєcy Nocy
Tracknumber=03
Year=2012

[/more]

Register
(14) AHBAnep, avkruchinin, HMHamster, SAPOGi, senecazm, Spork, stone88, THERION, Tino, Typhon88, v.v.m, varlam4, watasan, wreak,
Feb 16 2013, 08:58:28 Betrayer - Necronomical Exmortis [demo] (1992)
Betrayer DISCOGRAPHY

Betrayer - 1990 - Forbidden Personality [Demo] @ 192 kbps
Betrayer - 1991 - Necronomical Exmortis [Demo] @ 256 kbps
Betrayer - 1991 - Necronomical Exmortis [Demo] [Remastered] @ 256 kbps
Betrayer - 1994 - Calamity @ 192 kbps
Betrayer - 1994 - Jarocin '94 [Bootleg] @ 192 kbps

Register
(1) rickzammuto,
Feb 16 2013, 08:56:48 Betrayer - Calamity (1994)
Betrayer DISCOGRAPHY

Betrayer - 1990 - Forbidden Personality [Demo] @ 192 kbps
Betrayer - 1991 - Necronomical Exmortis [Demo] @ 256 kbps
Betrayer - 1991 - Necronomical Exmortis [Demo] [Remastered] @ 256 kbps
Betrayer - 1994 - Calamity @ 192 kbps
Betrayer - 1994 - Jarocin '94 [Bootleg] @ 192 kbps

Register
(3) BRUTAL06, rickzammuto, samokot,
Jan 31 2013, 09:19:45 Thrasher Death - Slaver [best of/compilation] (2011)


*Artist: Thrasher Death
*Album: Slaver [best of/compilation]
*Year: 2011
*Genre: Speed/Thrash Metal
*Country: Poland
*Format: mp3@CBR320kbps
*Size: 150MB

Tracklist:
01. Intro (The Abyss of Suffering)
02. Black Angel
03. Black Kingdom
04. Women Die
05. Ave Destruction
06. Come Death
07. Outro
08. Master of The Night
09. You Must Kill
10. The Rot
11. I Am Death
12. Slaver
13. Dark Side of The Force
14. Fire
15. Hell's Vengeance
16. The Rot (live)
******************************
Total playing time: 1:02:28




[more=Extended info]Tracks 1-7: "Women Die" demo. Recorded at ARP Studio Szczecin (13-17.06.1988). Produced by Artur Bursakowski and Marek Szukalo.
Lineup:
Dick Hareth - Lead guitar, vocals
Sin Mordel - Lead guitar, vocals
Jason - Bass
Rude - Drums, vocals, piano

Tracks 8-11: "You Must Kill" demo. Recorded in the practice studio, Chojnice (22.10.1987).
Technical support: Boczek.
Lineup:
Asmodeusz - Vocals
Sin Mordel - Lead Guitar
Dick Hareth - Lead Guitar
Jason - Bass
Bemben - Drums

Tracks 12-15 recorded in the practice studio, Chojnice (05.1986). These tracks are previously unreleased. Produced by Sin Mordel.
Lineup:
Asmodeusz - Vocals
Sin Mordel - Lead guitar
Dick Hareth - Lead guitar
Azael - Bass
Biba - Drums

Track 16 was recorded during live session (16.01.1988).
Lineup:
Mordor - Vocals
Sin Mordel - Lead Guitar
Dick Hareth - Lead Guitar
Jason - Bass
Bemben - Drums

Layout by Radoslaw Smigielski.

Limited to 500 copies.


Input File: Black Angel.mp3
Channels : 2
Sample Rate : 44100
Precision : 16-bit
Duration : 00:03:40.31 = 9715715 samples = 16523.3 CDDA sectors
File Size : 8.81M
Bit Rate : 320k
Sample Encoding: MPEG audio (layer I, II or III)
Comments :
Title=Black Angel
Artist=Thrasher Death
Album=Slaver [Compilation]
Tracknumber=02
Year=2011

[/more]
Register
(11) avkruchinin, Darkness, DTGB, MEmethuselah, Oldskulthrasher, potap03020100, Reverend, satanas189, varlam4, wgs73, wreak,
Dec 30 2012, 12:40:27 Fetid Zombie - Carrion Christ (2011)


*Artist: Fetid Zombie
*Album: Carrion Christ
*Year: 2011
*Genre: Death Metal
*Country: United States
*Format: mp3@CBR320kbps
*Size: 91MB

Tracklist:
01. Carrion Christ
02. The Great Pestilence
03. Trampled by The Hoof of Hell
04. Deny, Defile, Destroy
05. Born Into Suffering
06. Infernal Worship
07. Catacomb Creep
08. Contaminated by Christianity
09. Hell Calls My Name
10. Medieval Blasphemer
******************************
Total playing time: 38:11




[more=Extended info]Mark Riddick - Vocals, Guitars, Bass, Drum programming, Samples

Recorded in 2009-2010. Released on cassette.
Re-released in CD format by Deathrash Armageddon.


Input File: 01_Carrion Christ.mp3
Channels : 2
Sample Rate : 44100
Precision : 16-bit
Duration : 00:03:15.52 = 8622344 samples = 14663.9 CDDA sectors
File Size : 7.82M
Bit Rate : 320k
Sample Encoding: MPEG audio (layer I, II or III)
Comments :
Title=Carrion Christ
Artist=Fetid Zombie
Album=Carrion Christ
Tracknumber=01
Year=2011

[/more]

Register
(18) andreikun, CaptianGoreGrind, DarkHorde, Hell_Is_Here, jollo, Leolomb, LiarOfAngmar, marilin, MeathookSeed, metala, metaljan, MMMMM, Tino, toly1917, Typhoid, VALERY, varlam4, wreak,
Nov 4 2012, 10:39:57 Under Forge - Believers In War [demo] (1997)
mirror
Register
(2) Mogozoz, t0ffik,
Oct 3 2012, 07:49:46 Rzeźnia - Mathematic Grind (2003)


*Artist: Rzeźnia
*Album: Mathematic Grind
*Year: 2003
*Genre: Grindcore
*Country: Poland
*Format: mp3@CBR320kbps
*Size: 69MB

Tracklist:
01. Powiedz
02. Jutro
03. Drugs
04. Rzeźnik
05. Manipulacje
06. Ślepcy
07. Degenerat
08. Pomyśl
09. Transporty Śmierci
10. Dzisiaj
11. Ła Mignat
12. Bezosobowość [Żreć 1996]
13. Żywe Trupy [Żreć 1996]
14. Religijny Przemysł [Żreć 1996]
15. Szkło [Żreć 1996]
16. 50 000 [Żreć 1996]
17. Wrak [Żreć 1996]
18. Irena [Żreć 1996]
19. Pionek [Żreć 1996]
20. Żreć [Żreć 1996]
21. Machina Społeczna [Żreć 1996]
22. Tek-Kno T [Żreć 1996]
23. Psychol [Żreć 1996]
******************************
Total playing time: 29:46



[more=Extended info]Kaczor - Bass, Vocals
Darunio - Guitars, Vocals
Spłuka - Drums, Vocals
Biały - Vocals (high)
Paju - Vocals (low)

Tracks 1-11 recorded at Sanok on June 2002
Tracks 12-23 recorded May 1996 (taken from Żreć LP)

Track 11 is a cover of the Brujeria song "La Migra"


Input File: 01_Powiedz.mp3
Channels : 2
Sample Rate : 44100
Precision : 16-bit
Duration : 00:00:29.10 = 1283442 samples = 2182.72 CDDA sectors
File Size : 1.17M
Bit Rate : 320k
Sample Encoding: MPEG audio (layer I, II or III)
Comments :
Title=Powiedz
Artist=RzeЕєnia
Album=Mathematic Grind
Tracknumber=01
Year=2003

[/more]

Register
(1) wgs73,
Jul 26 2012, 00:19:57 Kreon - Adamowe Plemię (2012)


*Artist: Kreon
*Album: Adamowe Plemię
*Year: 2012
*Genre: Thrash Metal, Heavy Metal
*Country: Poland
*Format: mp3@CBR320kbps
*Size: 83MB

Tracklist:
1. Gladiator
2. Ból
3. Zawsze Razem
4. Na Krzyżu Śmierć
5. Wszystkim Obiecałeś
6. Misja
7. Są Cuda na Ziemi
8. Myśli Osaczone
9. Adamowe Plemię
******************************
Total playing time: 36:44

Official Band Site


[more=Extended info]Rafał Żelechowski - gitara
ZaRan - wokal
Artur Konarski - perkusja
Hetman - bas
Wojciech Lesiecki - bas
Przemysław Głowacki - instrumenty perkusyjne


Input File: 01_Gladiator.mp3
Channels : 2
Sample Rate : 44100
Precision : 16-bit
Duration : 00:03:39.11 = 9662707 samples = 16433.2 CDDA sectors
File Size : 8.79M
Bit Rate : 321k
Sample Encoding: MPEG audio (layer I, II or III)
Comments :
Title=Gladiator
Artist=Kreon
Album=Adamowe PlemiГЄ
Tracknumber=01
Year=2012

[/more]
Register
(10) artscald, Genuine Thrashiac, MeathookSeed, metala, satanas189, signoff, Tino, v.v.m, varlam4, wreak,
Apr 10 2012, 15:44:20 Fatum - Demon (1993)


*Artist: Fatum
*Album: Demon
*Year: 1993
*Genre: Heavy Metal, Hard Rock
*Country: Poland
*Format: mp3@CBR192kbps
*Size: 81MB

Tracklist:
1. Demon cz.1
2. Moja Modlitwa
3. Mania Szybkości '93
4. Krew
5. Zamknięta w Moim Sercu
6. Deszczowa Piosenka
7. Krzyczę!
8. E-77
9. Wszystkim na Złość
10. Jesień
11. Siedemnastka
12. Chodź z nami
13. Demon cz.1 i 2
******************************
Total playing time: 4:47

Preview 1

[more=Extended info]Piotr Bajus – gitara
Krzysztof Ostasiuk – śpiew
Marek Makowski – instrumenty klawiszowe
Aleksander Żyłkowski – gitara basowa
Andrzej Sikora – perkusja, instrumenty perkusyjne[/more]

Register
(3) MeathookSeed, Reverend, senecazm,
Apr 10 2012, 15:40:10 Fatum - Mania Szybkości (1989)


*Artist: Fatum
*Album: Mania Szybkości
*Year: 1989
*Genre: Heavy Metal, Hard Rock
*Country: Poland
*Format: mp3@CBR192kbps
*Size: 57MB

Tracklist:
1. Mania Szybkości
2. Zielony Skarb
3. Błaganie
4. Frajer
5. Znowu Pech
6. Pokonać Strach
7. Nie Mówcie Nam
8. Kac-88
9. Bezlitosne Fatum
******************************
Total playing time: 40:12

Preview 1

[more=Extended info]Piotr Bajus – gitara
Romuald Kamiński – gitara basowa
Krzysztof Ostasiuk – instrumenty klawiszowe, śpiew
Andrzej Sikora – perkusja[/more]

Register
(4) artscald, MeathookSeed, Reverend, senecazm,
Apr 10 2012, 13:39:31 Smirnoff - Bóljon Der (1995)
Register
(1) Genuine Thrashiac,
Apr 10 2012, 13:21:08 Imperator - Unholy Bible Of Polish Death Metal #1 [best of/compilation] (2004)
Register
(1) Noobsaibot71,
Apr 10 2012, 13:19:01 Imperator - Live At Wrocław 26.03.1988 [bootleg] (1988)
Register
(1) Noobsaibot71,
Apr 2 2011, 16:06:36 Kat & Roman Kostrzewski - Biało-Czarna (2011)


*Artist: Kat & Roman Kostrzewski
*Album: Biało-Czarna
*Year: 2011
*Genre: Thrash Metal
*Country: Poland
*Format: mp3@CBR320kbps
*Size: 137MB

Tracklist:
01. Bara
02. Maryja Omen
03. Szkarłatny Wir
04. Diabelski Dom cz. IV
05. Milczy Trup
06. Wolni od Klęczenia
07. Kupa Świąt
08. Bieluń
09. Z Boskim Zyskiem
10. Kapucyn Zamknął Drzwi
******************************
Total playing time: 1:00:14



Register
(15) 86garik86, Alexis The Best, Beazth, blessedblack, desekrator, Galactus, garretje, metala, Necroslut, satanas189, threz, Tino, URANIUM_235, v.v.m, yavamir,

7 Pages V   1 2 3 > » 
- Lo-Fi Version Support form
Copyrights and abuse reports form
Time is now: 22nd July 2019 - 03:01:55