Welcome Guest ( Log In | Register )

История благодарностей участнику Evrom ::: Спасибо сказали: 3648 раз(а)
Дата поста: В теме: За сообщение: Спасибо сказали:
Jun 27 2012, 10:54:24 Eye Of Solitude - Sui Caedere (2012)
thanks, very interesting release smile1.gif
Darkened Melodic Death/Doom of high quality smile1.gif
*Format: mp3@CBR192kbps
*Size: 100MB
Register
(1) OldbOlt,
Jun 25 2012, 10:21:38 Der Weg Einer Freiheit - Unstille (2012)
thanks, quite good release smile1.gif
Epic True Black Metal in the vein of Negator, Angantyr smile1.gif
*Format: mp3@VBR215kbps
*Size: 71MB
Register
(1) Zenial,
Jun 25 2012, 10:19:05 Borgne - Royaume Des Ombres (2012)
thanks, quite interesting release smile1.gif
Atmospheric, Obscure Melodic Black Metal smile1.gif
*Format: mp3@VBR280kbps
*Size: 119MB
Register
(1) dorn1,
Jun 24 2012, 14:13:58 Todestriebe - ...Scream, Pray, Beg... (2012)
thanks, quite good release smile1.gif
*Format: mp3@VBR275kbps
*Size: 71MB
Register
(1) vov7609,
Jun 23 2012, 15:46:38 Peste Noire - Les Demos [best of/compilation] (2012)
thanks, great band smile1.gif
*Format: mp3@CBR320kbps
*Size: 250MB
CD 1 + 2 :
Register
(2) CelticSPB, Razorbladeswaltz,
Jun 22 2012, 16:33:53 Deathspell Omega - Drought [ep] (2012)
thanks, I love this band smile1.gif
This is quite good. "Orthodox" aspects are stronger than "Unorthodox" aspects : let's say this is an "unusual" (and modern) vision of Black Metal - not "experimental".
*Format: mp3@VBR287kbps
*Size: 43MB
Register
(1) BERZERK,
Jun 22 2012, 16:26:24 Blaze Of Sorrow - Eterno Tramonto (2011)
thanks, excelent release smile1.gif
In the vein of great Italian bands, with obscure, atmospheric aspects
*Format: mp3@CBR320kbps
*Size: 167MB
Register
(1) Абигор,
Jun 21 2012, 19:26:12 Horna & Sacrificia Mortuorum - Horna/Sacrificia Mortuorum [split] (2007)
great release smile1.gif
MP3@320
Register
(1) varlam4,
Jun 21 2012, 17:08:29 Svartsyn - Genesis Of Deaths Illuminating Mysteries [ep] (2012)
thanks, this is excelent smile1.gif

*Format: mp3@CBR320kbps
*Size: 25MB
Register
(1) vov7609,
Jun 21 2012, 09:02:31 Spellcraft - Yersinia Pestis (2012)



this is quite good smile1.gif
Atmospheric/Epic/Pagan True Black Metal smile1.gif
*Format: mp3@CBR320kbps
*Size: 88MB
Register
(1) satanist666,
Jun 11 2012, 22:42:44 Impenetrable Darkness - Loyalty In Blackness [demo] (2012)
thanks, very good music smile1.gif
Reminds me the scandinavian scene, especially swedish smile1.gif

*Format: mp3@CBR192kbps
*Size: 24MB
Register
(2) Darkthrone85, eternald,
Jun 11 2012, 22:36:45 Basarabian Hills - Spirit Of The Native Land (2012)
thanks, very interesting music smile1.gif
Excelent Atmospheric black metal/ambient with cold melodic/symphonic aspects
Strongly influenced by Lustre


*Format: mp3@CBR320kbps
*Size: 77MB
Register
(1) artscald,
Jun 7 2012, 17:09:12 Aus Der Transzendenz - Breed Of A Dying Sun (2012)
thanks, quite good Atmospheric/Orthodox Black Metal smile1.gif

*Format: mp3@CBR320kbps
*Size: 70MB
Register
(2) cist, eternald,
Jun 7 2012, 12:20:48 Touch Of Eternity - Lily Of The Valley [single] (2012)
thanks, very good music smile1.gif
*Format: mp3@CBR320kbps
*Size: 21MB
Register
(1) SatanicPanzer,
Jun 2 2012, 11:32:03 Way To Nowhere - Old World Order (2011)
Other mirror:
*Format: mp3@CBR320kbps
*Size: 58MB
Register
(1) metal73,
Jun 2 2012, 11:29:12 Brain Famine - Brain Famine [ep] (2011)


*Artist: Brain Famine
*Album: Brain Famine [ep]
*Year: 2011
*Genre: Avant-Garde Death/Thrash Metal/Grindcore
*Country: United States
*Format: mp3@CBR320kbps
*Size: 51MB

Tracklist:
01. Die Off 2:44
02. Cunning Bondage 1:59
03. Ingest 5:57
04. Ignorant Dopes 2:46
05. Citizen Solution 4:51
06. N.F.O. 4:01
******************************
Total playing time: 22:18



[more=Extended info]


Input File: Brain Famine - Brain Famine EP - 02 Cunning Bondage.mp3
Channels : 2
Sample Rate : 44100
Precision : 16-bit
Duration : 00:01:59.16 = 5254736 samples = 8936.63 CDDA sectors
File Size : 4.82M
Bit Rate : 324k
Sample Encoding: MPEG audio (layer I, II or III)
Comments :
Title=Cunning Bondage
Artist=Brain Famine
Album=Brain Famine EP
Tracknumber=2
Year=2011

[/more]

Register
(4) artscald, Hell_Is_Here, metala, varlam4,
Jun 2 2012, 08:51:51 Way To Nowhere - Old World Order (2011)


*Artist: Way To Nowhere
*Album: Old World Order
*Year: 2011
*Genre: Metal/Crust/Hardcore
*Country: Poland
*Format: mp3@CBR320kbps
*Size: 58MB

Tracklist:
01. Old World Order 2:55
02. Tearing Off Roadsigns 3:14
03. Fate Doesn't Cost 3:02
04. A Blind Leading A Blind 2:16
05. Don't Try To Find Out 4:38
06. Death Comes Tomorrow 2:14
07. Along The Path 2:56
08. Your Slavery Is My Destiny 4:23
******************************
Total playing time: 25:38




[more=Extended info]


Input File: 6. Death Comes Tomorrow.mp3
Channels : 2
Sample Rate : 44100
Precision : 16-bit
Duration : 00:02:14.35 = 5924835 samples = 10076.2 CDDA sectors
File Size : 5.38M
Bit Rate : 320k
Sample Encoding: MPEG audio (layer I, II or III)
Comments :
Title=Death Comes Tomorrow
Artist=Way to Nowhere
Album=Old World Order

[/more]

Register
(3) artscald, Elfrey, varlam4,
Jun 1 2012, 15:35:29 TamutAmen - Tamutamenkind [ep] (2012)
thanks, interesting release smile1.gif
this band is also known as Tamut Amen (I posted another demo from them : Tamut Amen - Demo [demo] (2011) )
*Format: mp3@CBR320kbps
*Size: 21MB
Register
(1) jpvalentim,
Jun 1 2012, 15:29:31 Horna - Sanojesi Äärelle (2008)


MP3@256/320 // 120 MB :
Register
(1) metalfanatic666,
Jun 1 2012, 15:24:08 Horna & Tenebrae In Perpetuum - Unohdetut Kasvot, Unohdettu Ääni/Un Sogno Oscuro [split] (2005)


MP3@256/320 // 26 MB :
Register
(2) Deripasko, milosdjor,
May 31 2012, 08:31:28 Coffins - March Of Despair [ep] (2012)
(1) Chasm,
May 31 2012, 08:28:01 Candlemass - Psalms For The Dead (2012)
(4) HA7tur, kyrkovisan, Lucius Eternal, Oskulum,
May 30 2012, 16:51:58 Macabrum - Monument Of Eternal Grief (2012)
thanks a lot, very very interesting music smile1.gif
But this is not dark metal, for me this is just Melodic/Melancholic Black Metal smile1.gif
Anyway, great music, thanks for posting smile1.gif

*Format: mp3@CBR320kbps
*Size: 126MB
Register
May 30 2012, 16:27:50 Nunfuck - Confessions [demo] (2012)
thanks, this is quite good smile1.gif
Production is not great but music is interesting, good Black/Death/War Metal smile1.gif

*Format: mp3@CBR320kbps
*Size: 32MB
Register
(1) metal73,
May 30 2012, 15:49:28 Anwynn - Voices Of Perdition (2008)
thanks, quite decent True Black Metal smile1.gif

*Format: mp3@CBR320kbps
*Size: 92MB
Register
(2) Darkthronefoad, vov7609,

47 Pages V  < 1 2 3 4 > » 
- Lo-Fi Version Support form
Copyrights and abuse reports form
Time is now: 3rd April 2020 - 12:46:36