Welcome Guest ( Log In | Register )

История благодарностей участнику Necrokilldozer ::: Спасибо сказали: 8228 раз(а)
Дата поста: В теме: За сообщение: Спасибо сказали:
Yesterday, 06:38:59 Hyperborean Skies & Endless Voyage X - Winds [split] (2018)


*Artist: Hyperborean Skies & Endless Voyage X
*Album: Winds [split]
*Year: 2018
*Genre: Atmospheric Black Metal | Doom/Black Metal
*Country: United States | United States
*Format: mp3@CBR320kbps
*Size: 78MB

Tracklist:
Hyperborean Skies:
1. In Ephemeral Daydreams 06:54
2. En vind av sorg (Darkthrone cover) 06:26
3. A Sense of Mortality 02:50
Endless Voyage X:
4. The Scourge 01:53
5. Maelstrom of Lies 05:26
6. A Sunken Dream 05:25
7. Epilogue 03:13
******************************
Total playing time: 32:07



[more=Technical info]
Input File: 07. Epilogue.mp3
Channels : 2
Sample Rate : 48000
Precision : 16-bit
Duration : 00:03:13.59 = 9292176 samples ~ 14519 CDDA sectors
File Size : 7.75M
Bit Rate : 320k
Sample Encoding: MPEG audio (layer I, II or III)
Comments :
Title=Epilogue
Artist=Endless Voyage X
Album=Winds (Split)
Tracknumber=7
Year=2018
Genre=Doom / Black Metal

[/more]

Register
(16) ctulhudagon, Druidir, garmonbozia, infiltrator, kim666, Korpse, Krosis, marilin, Ostinato, pfk505, sethurius, Shadechaser, SilentNidhogg, VALERY, vasiljev_sergej, volostakoeto,
Jul 18 2018, 14:55:28 Suru - Purgatory (2018)


*Artist: Suru
*Album: Purgatory
*Year: 2018
*Genre: Melodic Death Metal
*Country: Spain
*Format: mp3@CBR320kbps
*Size: 106MB

Tracklist:
1. Purgatory 06:06
2. Into the Grave 03:40
3. Invincible 05:47
4. Chaos in Mind 06:23
5. Darkness Within 05:08
6. Liar 05:06
7. Enemy of Mine 05:50
8. Wasted Life 06:14
******************************
Total playing time: 44:14



[more=Extended info]Line - up:

Guillermo Lorenzo - Bass
Alvaro Malta - Vocals
Miguel Rodríguez - Guitars
Dani - Guitars

[/more]

[more=Technical info]
Input File: 02. Into the Grave.mp3
Channels : 2
Sample Rate : 44100
Precision : 16-bit
Duration : 00:03:41.01 = 9746585 samples = 16575.8 CDDA sectors
File Size : 8.84M
Bit Rate : 320k
Sample Encoding: MPEG audio (layer I, II or III)
Comments :
Title=Into the Grave
Artist=SuRu
Album=Purgatory
Tracknumber=2
Year=2018
Genre=Melodic Death Metal

[/more]

Register
(14) djsema4, infiltrator, infozahist, Korpse, krotovich, MeatWolf, sergsazan, stratoartica, SymbyoticEntity, talismanFS, terron, VALERY, WillyWonka, zaqxsw,
Jul 17 2018, 18:12:25 Sulgogar - Science Of Beyond [ep] (2018)


*Artist: Sulgogar
*Album: Science Of Beyond [ep]
*Year: 2018
*Genre: Thrash/Death Metal
*Country: Venezuela
*Format: mp3@CBR128kbps
*Size: 21MB

Tracklist:
1. Femi-Nazis 02:58
2. Misión-Sobrepoblación 03:21
3. Chupacabras 03:31
4. Socialista-Satanista 03:30
5. El comegente (Enviado de Satanás) 03:19
6. Acechadores intergalácticos 03:11
7. Science of Beyond 02:15
******************************
Total playing time: 22:05



[more=Extended info]Line - up:

Sting Weiss - Bass, Vocals (Anfitrite, Dragón Blanco)
Svetlana Sevostianova - Drums
Steve Kaiba - Guitars

[/more]

[more=Technical info]
Input File: 03 Chupacabras.mp3
Channels : 2
Sample Rate : 44100
Precision : 16-bit
Duration : 00:03:31.15 = 9311671 samples = 15836.2 CDDA sectors
File Size : 3.38M
Bit Rate : 128k
Sample Encoding: MPEG audio (layer I, II or III)
Comments :
Title=Chupacabras
Artist=Sulgogar
Album=Science of Beyond (EP)
Tracknumber=03
Year=2018
Genre=Thrash / Death Metal

[/more]

Register
(2) infiltrator, wgs73,
Jul 17 2018, 16:58:19 Sucking Void - Vegetative State Of Chaos (2017)


*Artist: Sucking Void
*Album: Vegetative State Of Chaos
*Year: 2017
*Genre: Death Metal
*Country: Germany
*Format: mp3@CBR320kbps
*Size: 74MB

Tracklist:
1. Sink into Bedlam 04:24
2. Church of Apathy 04:13
3. Impending Suffocation 05:21
4. Vegetative State of Chaos 04:04
5. The Slime Crawls 04:53
6. Decompensation of the Stricken 03:32
7. Primrose Path 04:26
******************************
Total playing time: 30:53



[more=Extended info]Line - up:

Florian Betz - Bass, Drums, Guitars (Infected Chaos, Worm Cluster, ex-Chaosreign, ex-Havok)
Olli Gee - Guitars (Fleshcrawl, Stallion, ex-Debauchery, ex-Nocturnal, ex-Aliengates, ex-Secret Dimension, ex-Infernal Rising)
Stixi - Guitars
Tommi - Vocals (Bitterness, Havok, Rotten Pope, ex-Chaosreign, ex-Worm Cluster)[/more]

[more=Technical info]
Input File: Sucking Void - Vegetative State of Chaos - 3. Impending Suffocation.mp3
Channels : 2
Sample Rate : 44100
Precision : 16-bit
Duration : 00:05:21.46 = 14176254 samples = 24109.3 CDDA sectors
File Size : 12.9M
Bit Rate : 320k
Sample Encoding: MPEG audio (layer I, II or III)
Comments :
Title=Impending Suffocation
Artist=Sucking Void
Album=Vegetative State of Chaos
Tracknumber=3
Year=2017
Genre=22

[/more]

Register
(16) AHBAnep, andreikun, beast666, gerb, Guns, infiltrator, infozahist, jollo, metala, Mist13Signifier, Ostinato, sta1081, SymbyoticEntity, THROWER666, VALERY, vyacheslav,
Jul 17 2018, 16:27:20 Sublevel - Borders [ep] (2017)


*Artist: Sublevel
*Album: Borders [ep]
*Year: 2017
*Genre: Melodic Death Metal
*Country: Germany
*Format: flac
*Size: 139MB

Tracklist:
1. Revery 01:43
2. Disposition 02:26
3. Empire 04:14
4. Syncope 01:03
5. I.M. Perfection 03:26
6. Divided 02:24
7. Borders 04:53
8. Apathy 01:08
******************************
Total playing time: 21:17



[more=Extended info]Line - up:

Chris - Bass, Vocals
Martin - Drums, Vocals
Dominik - Guitars
Sebastian - Guitars, Vocals
Marvin - Vocals

[/more]

Register
(2) infiltrator, sergsazan,
Jul 16 2018, 18:03:33 Stellarvorous Entity - Nightmares Of Depravity [demo] (2017)


*Artist: Stellarvorous Entity
*Album: Nightmares Of Depravity [demo]
*Year: 2017
*Genre: Death Metal
*Country: United States
*Format: mp3@CBR320kbps
*Size: 58MB

Tracklist:
1. Planet X 04:36
2. Blood-starved Mutation 05:48
3. A Celestial Abortion 04:30
4. Extermination 04:18
5. Visions of the Old Gods 04:47
******************************
Total playing time: 23:59



[more=Technical info]
Input File: 01. Planet X.mp3
Channels : 2
Sample Rate : 48000
Precision : 16-bit
Duration : 00:04:44.09 = 13636368 samples ~ 21306.8 CDDA sectors
File Size : 11.5M
Bit Rate : 323k
Sample Encoding: MPEG audio (layer I, II or III)
Comments :
Title=Planet X
Artist=Stellarvorous Entity
Album=Nightmares of Depravity (Demo)
Tracknumber=1
Year=2017
Genre=22

[/more]

Register
(1) vyacheslav,
Jul 16 2018, 17:18:08 Steelfall - The Event Horizon (2017)


*Artist: Steelfall
*Album: The Event Horizon
*Year: 2017
*Genre: Melodic Death Metal/Metalcore
*Country: Portugal
*Format: mp3@CBR320kbps
*Size: 93MB

Tracklist:
1. In The Dark 00:57
2. Open Your Eyes 03:21
3. Your Betrayal 03:49
4. Drowning in Hatred 03:42
5. The Unspoken 04:14
6. This Fire Will Rise 04:13
7. The Fall of Men 04:48
8. Far Away From You 04:47
9. Ethereal 03:52
10. The Event Horizon 04:43
11. No Time To Waste 03:45
******************************
Total playing time: 42:11



[more=Extended info]в лоу

Line - up:

Pedro Martinho - Bass
Ricardo Reis - Drums
Sérgio Melo - Guitars (ex-Hourswill)
João Quintais - Guitars
David Pais - Vocals (The9thCell, Ashes, Wishful Thinking)

[/more]

[more=Technical info]
Input File: 05. The Unspoken.mp3
Channels : 2
Sample Rate : 44100
Precision : 16-bit
Duration : 00:04:13.61 = 11184333 samples = 19021 CDDA sectors
File Size : 10.2M
Bit Rate : 321k
Sample Encoding: MPEG audio (layer I, II or III)
Comments :
Title=The Unspoken
Artist=Steelfall
Album=The Event Horizon
Tracknumber=5
Year=2017
Genre=Melodic Death Metal / Metalcore

[/more]

Register
(2) SymbyoticEntity, vassy,
Jul 16 2018, 16:32:29 Squirm - Swarm Of Gore (2017)


*Artist: Squirm
*Album: Swarm Of Gore
*Year: 2017
*Genre: Goregrind/Death Metal
*Country: United Kingdom
*Format: mp3@CBR320kbps
*Size: 75MB

Tracklist:
1. Worms 02:07
2. Chopped Up with an Axe 01:57
3. Dogs in the Cemetery 04:29
4. Crushed Bones 03:49
5. Yellow Eyes 04:57
6. Slashed Throat 02:50
7. Corpse Cut Deep 02:57
8. Howls from the Grave 01:12
9. Rip Off my Face 01:43
10. Hunchback of the Morgue 03:16
11. Altars of Gore 02:29
******************************
Total playing time: 31:46



[more=Extended info]Line - up:

Cellar Dweller - Guitars, Vocals, Drum programming (ex-Maggot Ejaculation, ex-Predigest, ex-Primative XXX Autopsy, Abominable, Dark Art, Envenomed, Gore Shriek, ex-Bandsaw Bondage, ex-Butchered (UK), ex-Clit and Vulva Torture, ex-Gore Grind Weed Horror, ex-Rectum Retch)

[/more]

[more=Technical info]
Input File: 05. YELLOW EYES.mp3
Channels : 2
Sample Rate : 48000
Precision : 16-bit
Duration : 00:04:57.05 = 14258448 samples ~ 22278.8 CDDA sectors
File Size : 12.0M
Bit Rate : 322k
Sample Encoding: MPEG audio (layer I, II or III)
Comments :
Title=YELLOW EYES
Artist=Squirm
Album=SWARM OF GORE
Tracknumber=5
Year=2017
Genre=Goregrind / Death Metal

[/more]

Register
(6) A.L.Rapsod, andreikun, deimus, jollo, SatanicPanzer, vyacheslav,
Jul 16 2018, 15:52:15 Spornographic - Spornographic (2017)


*Artist: Spornographic
*Album: Spornographic
*Year: 2017
*Genre: Blackened Death Metal
*Country: Unknown
*Format: mp3@CBR320kbps
*Size: 93MB

Tracklist:
1. Dreams of Black 03:54
2. Brain Feast 03:10
3. I Am Cannibal 06:29
4. Blinded 04:00
5. Catch Me 03:48
6. Lyrics are to Confess 01:29
7. Killer Dog 04:14
8. Swept Away 03:41
9. Never Wake Again 02:14
10. Watch You Burn 06:06
******************************
Total playing time: 39:05



[more=Extended info]Line - up:

Montara Mike - All instruments, Music (Encroaching Darkness, ex-Eternal Rest, Kill Shot, ex-Stigmiasmata)
Zeke Sporn - Vocals, Lyrics (Morbid Curse, Sickness, Wintercorpse)[/more]

[more=Technical info]
Input File: 06. Lyrics are to Confess.mp3
Channels : 2
Sample Rate : 48000
Precision : 16-bit
Duration : 00:01:29.40 = 4291344 samples ~ 6705.23 CDDA sectors
File Size : 3.61M
Bit Rate : 323k
Sample Encoding: MPEG audio (layer I, II or III)
Comments :
Title=Lyrics are to Confess
Artist=Spornographic
Album=Spornographic
Tracknumber=6
Year=2017
Genre=Blackened Death Metal

[/more]

Register
(5) jollo, metala, SymbyoticEntity, VALERY, vyacheslav,
Jul 16 2018, 14:49:45 Spectre Dragon - Time Heeds Mankind At My Well As I Eat Time At My Farwell (2017)


*Artist: Spectre Dragon
*Album: Time Heeds Mankind At My Well As I Eat Time At My Farwell
*Year: 2017
*Genre: Heavy/Power/thrash Metal
*Country: Germany
*Format: mp3@CBR320kbps
*Size: 129MB

Tracklist:
1. Omphalos Be Yeast 05:49
2. Within a Knot (Eyewall) 08:16
3. Treasure Chest, Thy Measure 03:19
4. A Farrier's Tale 05:30
5. Ae Fond Order and a Border Farewell 08:01
6. Aurora Draconis 04:57
7. Moritur et ridet 07:58
8. Inter Sensus Silent Leges 09:33
******************************
Total playing time: 53:23



[more=Extended info]flac rip + scans

Line - up:

TÄT - Guitars (acoustic, lead, rhythm), Percussion, Vocals (backing), Bass, Drums, Piano
Aethlexander - Vocals (backing, lead)

[/more]

[more=Technical info]
Input File: 08. Inter sensus silent leges.mp3
Channels : 2
Sample Rate : 48000
Precision : 16-bit
Duration : 00:09:33.34 = 27520272 samples ~ 43000.4 CDDA sectors
File Size : 22.9M
Bit Rate : 320k
Sample Encoding: MPEG audio (layer I, II or III)
Comments :
Title=Inter sensus silent leges
Artist=Spectre Dragon
Album=Time heeds mankind at my well as I eat time at my farewell
Tracknumber=8
Year=2017
Genre=Heavy / Power / Thrash Metal

[/more]

Register
(4) metala, Rover, sergsazan, SymbyoticEntity,
Jul 16 2018, 14:17:17 Warskull - Impaled Seraphim (2018)


*Artist: Warskull
*Album: Impaled Seraphim
*Year: 2018
*Genre: Atmospheric Black Metal
*Country: Norway
*Format: mp3@CBR320kbps
*Size: 100MB

Tracklist:
1. Accept Sadness 01:00 instrumental
2. Impaled Seraphim 07:21
3. When the Darkness Overcomes Your Soul 11:51 instrumental
4. Bottom Of The Well 08:05
5. Entering The Realm of Depression 05:07 instrumental
6. Riket Er Ditt 04:13
7. Before My Eyes Are Nothing 00:44 instrumental
8. Mad World (Tears for Fears Cover) 03:49
******************************
Total playing time: 42:10



[more=Extended info]Line - up:

Sinmortigo - Vocals, All instruments (Black Sun Ritual, Frostskogr, Hellnight, ex-Verus Hostilis, Nattestid, ex-Ulvaskar, ex-Code:Red (live))

[/more]

[more=Technical info]
Input File: 08. Mad world (Tears for Fears cover).mp3
Channels : 2
Sample Rate : 48000
Precision : 16-bit
Duration : 00:03:49.66 = 11023632 samples ~ 17224.4 CDDA sectors
File Size : 9.19M
Bit Rate : 320k
Sample Encoding: MPEG audio (layer I, II or III)
Comments :
Title=Mad world (Tears for Fears cover)
Artist=Warskull
Album=Impaled Seraphim
Tracknumber=8
Year=2018
Genre=Atmospheric Black Metal

[/more]

Register
(11) 1968_janeart, cancer1974, Doooomed, metala, Ostinato, Shadechaser, SilentNidhogg, Sjelekval, stub888, VALERY, vasiljev_sergej,
Jul 14 2018, 16:50:54 Spectral Voices - A Bleak Existence [ep] (2017)


*Artist: Spectral Voices
*Album: A Bleak Existence [ep]
*Year: 2017
*Genre: Progressive/Melodic Death Metal
*Country: United States
*Format: mp3@CBR320kbps
*Size: 73MB

Tracklist:
1. Perish 08:24
2. Circles 05:21
3. Fortress of Solitude 08:22
4. Purposeless 08:38
******************************
Total playing time: 30:45



[more=Extended info]Line - up:

Aaron Harris - Vocals (Reluctant Mortem, ex-Insanium)
Mauricio Gutierrez - Guitars
Kadin Wisniewski - Guitars (Sorrowseed)
Anthony Rafferty - Bass (ex-Sorrowseed (live))
Carlos Crowcell - Drums (Crowcell, Fear Is Dead, ex-Sorrowseed (live))

[/more]

[more=Technical info]
Input File: 02. Circles.mp3
Channels : 2
Sample Rate : 48000
Precision : 16-bit
Duration : 00:05:21.46 = 15430032 samples ~ 24109.4 CDDA sectors
File Size : 13.0M
Bit Rate : 322k
Sample Encoding: MPEG audio (layer I, II or III)
Comments :
Title=Circles
Artist=Spectral Voices
Album=A Bleak Existence (EP)
Tracknumber=2
Year=2017
Genre=Progressive / Melodic Death Metal

[/more]

Register
(4) csgmnk, SymbyoticEntity, VALERY, wtk.412,
Jul 13 2018, 17:36:20 Wytch Hazel - Ii: Sojourn (2018)


*Artist: Wytch Hazel
*Album: Ii: Sojourn
*Year: 2018
*Genre: Hard Rock/Heavy Metal
*Country: United Kingdom
*Format: mp3@CBR320kbps
*Size: 109MB

Tracklist:
1. The Devil Is Here 03:48
2. Save My Life 04:00
3. Still We Fight 04:39
4. Wait on the Wind 05:11
5. See My Demons 04:34
6. Barrow Hill 05:21
7. Chorale 02:52
8. Slaves to Rightiousness 03:48
9. Victory 05:27
10. Angel Take Me 06:06
******************************
Total playing time: 45:46



[more=Extended info]Line - up:
Jack Spencer - Drums
Colin Hendra - Guitars, Vocals (ex-Angel Witch (live))
Matt Gatley - Guitars
Alex Haslam - Guitars

Guest/Session:
Rob Last - Organ, Piano
Kieran O'Malley - Violin

[/more]

[more=Technical info]
Input File: 03. Still We Fight.mp3
Channels : 2
Sample Rate : 48000
Precision : 16-bit
Duration : 00:04:39.53 = 13417488 samples ~ 20964.8 CDDA sectors
File Size : 11.2M
Bit Rate : 320k
Sample Encoding: MPEG audio (layer I, II or III)
Comments :
Title=Still We Fight
Artist=Wytch Hazel
Album=II: Sojourn
Tracknumber=3
Year=2018
Genre=Hard Rock / Heavy Metal

[/more]

Register
(6) Beazth, kauyumari, metala, Rosen, Rover, timepower,
Jul 13 2018, 15:54:35 Dire Omen - Formless Fire Embodied [ep] (2018)


*Artist: Dire Omen
*Album: Formless Fire Embodied [ep]
*Year: 2018
*Genre: Death/Black Metal
*Country: Canada
*Format: mp3@CBR128kbps
*Size: 11MB

Tracklist:
1. Null 04:48
2. Geburah 03:46
3. Malkuth 03:04
******************************
Total playing time: 11:38



[more=Extended info]Line - up:

R.R. - Guitars, Vocals (Rites of Thy Degringolade (live), ex-Maleficus)
K.T. - Drums (Phylactery)
C.T. - Bass (Wroth)
T. G. - Guitars (Phylactery, ex-Display of Decay, ex-Shotgunner)

[/more]

[more=Technical info]
Input File: 01. Null.mp3
Channels : 2
Sample Rate : 44100
Precision : 16-bit
Duration : 00:04:47.80 = 12691936 samples = 21584.9 CDDA sectors
File Size : 4.61M
Bit Rate : 128k
Sample Encoding: MPEG audio (layer I, II or III)
Comments :
Title=Null
Artist=Dire Omen
Album=Formless Fire Embodied [EP]
Tracknumber=1
Year=2018
Genre=Death / Black Metal

[/more]

Register
(7) abob, Beazth, marilin, Rosen, suseka, vasiljev_sergej, yuratroll,
Jul 13 2018, 15:34:23 Jack Ketch - The Ashes Of Vesuvius [ep] (2018)


*Artist: Jack Ketch
*Album: The Ashes Of Vesuvius [ep]
*Year: 2018
*Genre: Death Metal/Deathcore
*Country: United States
*Format: mp3@CBR320kbps
*Size: 44MB

Tracklist:
1. Prologue 01:19
2. The Ashes of Vesuvius 05:46
3. Pool of Machines 04:39
4. Reconstructing the Paradigm 06:35
******************************
Total playing time: 18:19



[more=Extended info]Line - up:

Tommy Stelma - Bass
Ryan Kay - Drums (ex-Disharmony, ex-Sound of War)
Paul Cavaghan - Guitars
Frank King - Guitars
Nick Bakkie - Vocals

[/more]

[more=Technical info]
Input File: 01 Prologue.mp3
Channels : 2
Sample Rate : 44100
Precision : 16-bit
Duration : 00:01:19.26 = 3495498 samples = 5944.72 CDDA sectors
File Size : 3.17M
Bit Rate : 320k
Sample Encoding: MPEG audio (layer I, II or III)
Comments :
Title=Prologue
Artist=Jack Ketch
Album=The Ashes of Vesuvius (EP)
Tracknumber=1
Year=2018
Genre=Death Metal / Deathcore

[/more]

Register
(4) Ostinato, Rosen, SymbyoticEntity, terron,
Jul 12 2018, 18:35:10 Southern Miasma - Agony (2017)


*Artist: Southern Miasma
*Album: Agony
*Year: 2017
*Genre: Deathcore/Djent
*Country: Norway
*Format: mp3@CBR320kbps
*Size: 118MB

Tracklist:
1. Light 01:23
2. Agony 05:20
3. Feed the Filth 03:43
4. Structured Sickness 03:34
5. Molded 03:38
6. Necrosis 03:54
7. The Drowning 04:20
8. Divine//Divide 03:47
9. Suffer 03:26
10. Left to Rot 03:58
11. Plagues 03:34
12. Everything//Nothing 03:09
13. Void 02:41
14. Away With the Wind 06:50
******************************
Total playing time: 53:17



[more=Extended info]Line - up:

Stig Erklev - Everything (Flukt, Cyanide, Citizen:Erazed, Drifting Anchors, Searching the Architect, Stig Erklev)

[/more]

[more=Technical info]
Input File: 12. Everything--nothing.mp3
Channels : 2
Sample Rate : 44100
Precision : 16-bit
Duration : 00:03:09.09 = 8338737 samples = 14181.5 CDDA sectors
File Size : 7.57M
Bit Rate : 320k
Sample Encoding: MPEG audio (layer I, II or III)
Comments :
Title=Everything//nothing
Artist=Southern Miasma
Album=Agony
Tracknumber=12
Year=2017
Genre=Deathcore / Djent

[/more]

Register
(5) maochen, mirotvorets, Ostinato, Rosen, terron,
Jul 12 2018, 18:18:40 Sound Of Serenity - Summit Drive (2018)


*Artist: Sound Of Serenity
*Album: Summit Drive
*Year: 2018
*Genre: Metalcore/Death Metal
*Country: United States
*Format: mp3@CBR320kbps
*Size: 68MB

Tracklist:
1. Soul Reaper 03:54
2. Misery 04:51
3. Erendira 04:58
4. Alienate the Annihilated 04:08
5. Into the Eyes of the Disgraceful 03:28
6. Lawyers and Judges Can't Save Our Loved Ones 06:56
******************************
Total playing time: 28:15



[more=Extended info]flac rip

[/more]

[more=Technical info]
Input File: 06. Lawyers And Judges Can\'t Save Our Loved Ones.mp3
Channels : 2
Sample Rate : 48000
Precision : 16-bit
Duration : 00:06:57.05 = 20018448 samples ~ 31278.8 CDDA sectors
File Size : 16.7M
Bit Rate : 320k
Sample Encoding: MPEG audio (layer I, II or III)
Comments :
Title=Lawyers And Judges Can't Save Our Loved Ones
Artist=Sound of Serenity
Album=Summit Drive
Tracknumber=6
Year=2009
Genre=Metalcore / Death Metal

[/more]

Register
(2) Rosen, SymbyoticEntity,
Jul 12 2018, 17:50:58 Soulrest - Live In Lemberg [live] (2018)


*Artist: Soulrest
*Album: Live In Lemberg [live]
*Year: 2018
*Genre: Technical Death Metal
*Country: Ukraine
*Format: mp3@CBR320kbps
*Size: 79MB

Tracklist:
1. When There's No Room in Hell... The Dead Will Walk the Earth 05:30
2. Perpetual Decay 04:04
3. And Then Will Be Rot 03:38
4. Pathological Processes 04:48
5. Forthcoming Triumph of the Crawling Chaos 05:02
6. Naturom Demonto 04:41
7. Canis Tindalos 04:57
******************************
Total playing time: 32:40



[more=Extended info]Line - up:

Dima - Bass, Keyboards
Yasya - Guitars (Обрій)
Igor - Guitars (Quiet Observer, ex-Necas)
Doni - Drums
Innominandus - Vocals

[/more]

[more=Technical info]
Input File: 05. Forthcoming Triumph Of The Crawling Chaos.mp3
Channels : 2
Sample Rate : 48000
Precision : 16-bit
Duration : 00:05:02.28 = 14509584 samples ~ 22671.2 CDDA sectors
File Size : 12.1M
Bit Rate : 320k
Sample Encoding: MPEG audio (layer I, II or III)
Comments :
Title=Forthcoming Triumph Of The Crawling Chaos
Artist=Soulrest
Album=Live In Lemberg (Live)
Tracknumber=5
Year=2018
Genre=Technical Death Metal

[/more]

Register
(5) Rosen, SymbyoticEntity, terron, VALERY, Луч,
Jul 12 2018, 17:21:38 Soulless Heretics - Genesis [ep] (2018)


*Artist: Soulless Heretics
*Album: Genesis [ep]
*Year: 2018
*Genre: Deathcore
*Country: Chile
*Format: mp3@CBR320kbps
*Size: 55MB

Tracklist:
1. Intro 00:52
2. Ciclo final 03:34
3. Revelación insana 03:36
4. Colapso 04:17
5. Puto asco 03:52
6. Destruye 03:20
7. Matar por odio 03:38
******************************
Total playing time: 23:09



[more=Extended info]Line - up:

Javier Fuentes Espinoza - Bass
Alfonso Segura Vargas - Drums
Nicolas Sinken - Guitars
Cristhofer Moreno Poblete - Guitars
Rodolfo Montenegro Cortez - Vocals

[/more]

[more=Technical info]
Input File: 05. Puto Asco.mp3
Channels : 2
Sample Rate : 48000
Precision : 16-bit
Duration : 00:03:52.75 = 11172240 samples ~ 17456.6 CDDA sectors
File Size : 9.31M
Bit Rate : 320k
Sample Encoding: MPEG audio (layer I, II or III)
Comments :
Title=Puto Asco
Artist=Soulless Heretics
Album=Genesis (EP)
Tracknumber=5
Year=2017
Genre=Death Metal / Deathcore

[/more]

Register
(1) Rosen,
Jul 12 2018, 16:51:46 Soulfly - Live At Dynamo Open Air 1998 [live] (2018)


*Artist: Soulfly
*Album: Live At Dynamo Open Air 1998 [live]
*Year: 2018
*Genre: Nu-Metal With Tribal Influences, Groove/Thrash/Death Meta
*Country: Brazil
*Format: mp3@CBR320kbps
*Size: 138MB

Tracklist:
1. Eye for Eye 05:43
2. No Hope = No Fear 03:55
3. Spit (Sepultura cover) 02:49
4. Bleed 04:39
5. Beneath the Remains/Dead Embryonic Cells (Sepultura cover) 04:49
6. Tribe 05:20
7. Bumba 03:44
8. Quilombo/Exodus (Bob Marley and The Wailers cover) 04:10
9. Prejudice 05:39
10. Roots Bloody Roots (Sepultura cover) 03:38
11. Attitude (Sepultura cover) 04:38
12. The Song Remains Insane 03:32
13. First Commandment 05:36
******************************
Total playing time: 58:12




[more=Extended info]Line - up:
Max Cavalera - Vocals, Guitars (rhythm) (Cavalera Conspiracy, Killer Be Killed, ex-Guerrilha, ex-Nailbomb, Max & Iggor Cavalera, Metal All Stars, ex-Sepultura, ex-Carthagods (live))
Cello Dias - Bass (Agony, Against All Will, Jet Black Racing, ex-The Mist, ex-Abloom, ex-Ankla, ex-Dead Heart Saints, ex-Roadrunner United, ex-Secret Mind)
Roy Mayorga - Drums, Percussion (ex-Amebix, Mothra, Stone Sour, ex-Ministry, ex-Ozzy Osbourne, ex-Sepultura (live), ex-Crisis, ex-ABLOOM, ex-Ankla, ex-Black President, ex-Maggott SS, ex-Medication, ex-Nausea, ex-Pale Demons, ex-Thorn, ex-Onesidezero (live), ex-Shelter (live))
Logan Mader - Guitars (lead) (Once Human, ex-Machine Head, ex-Blue, ex-Idol-X, ex-Logan Mader / J.S. Clayden, ex-Medication, ex-New Black, ex-Pale Demons, ex-Stereo Black)

Guest/Session:
Benji - Vocals (tracks 8, 9) (Skindred)
Chino Moreno - Vocals (track 13) (Crosses / †††, Deftones, Palms, Saudade, Team Sleep)

[/more]

[more=Technical info]
Input File: 12 The Song Remains Insane.mp3
Channels : 2
Sample Rate : 44100
Precision : 16-bit
Duration : 00:03:32.26 = 9360622 samples = 15919.4 CDDA sectors
File Size : 8.49M
Bit Rate : 320k
Sample Encoding: MPEG audio (layer I, II or III)
Comments :
Title=The Song Remains Insane
Artist=Soulfly
Album=Live At Dynamo Open Air 1998 (Live)
Tracknumber=12
Year=2018
Genre=Nu-Metal with tribal influences, Groove / Thrash / Death Metal

[/more]

Register
(1) Aresson,
Jul 12 2018, 16:21:17 Arvalastra - About The Magical Powers Of Nature [ep] (2018)


*Artist: Arvalastra
*Album: About The Magical Powers Of Nature [ep]
*Year: 2018
*Genre: Death/Doom Metal
*Country: Spain
*Format: flac
*Size: 82MB

Tracklist:
1. First Prayer 11:12
2. Second Prayer 07:53
******************************
Total playing time: 19:05



[more=Extended info]Line - up:

Dusk - Everything (Sepulchral)

[/more]

Register
(4) Rosen, SatanicPanzer, sergsazan, wanderer73,
Jul 12 2018, 16:08:07 Devotee - Second Blood (2018)


*Artist: Devotee
*Album: Second Blood
*Year: 2018
*Genre: Raw Black Metal
*Country: Canada
*Format: mp3@CBR320kbps
*Size: 87MB

Tracklist:
1. Evening Exorcism 06:47
2. Summer Sun 08:14
3. Pummeled Again 08:18
4. Torn Through 06:31
5. Second Blood 06:47
******************************
Total playing time: 36:37



[more=Extended info]Line - up:

0 - Everything (Cult of Divine Mercy, Rotting Serpent, ex-Exalted Saviour, ex-Melchizedek, ex-Photosynthesis, ex-Sun Won't Rise, ex-Mourning Woods, Be Glad, Earth and Sky!, CrrYxiA, DeCRYPTed, Escape from Hell, Exekution, Skörne, Victory, βαρ†ιστ Chvrch, ex-AnHero, ex-Diet of Worms, ex-Doxomedon, ex-Hated, ex-Intra-Uterine Sabbat, ex-Katachthonios, ex-Medic!, ex-Rob Grave$, ex-Self-Hatred, ex-The Dipshit Losers)

[/more]

[more=Technical info]
Input File: 02. Summer Sun.mp3
Channels : 2
Sample Rate : 48000
Precision : 16-bit
Duration : 00:08:14.50 = 23735952 samples ~ 37087.4 CDDA sectors
File Size : 19.8M
Bit Rate : 320k
Sample Encoding: MPEG audio (layer I, II or III)
Comments :
Title=Summer Sun
Artist=Devotee
Album=Second Blood
Tracknumber=2
Year=2018
Genre=Raw Black Metal

[/more]

Register
(6) 1968_janeart, kim666, Rosen, SilentNidhogg, stub888, vasiljev_sergej,
Jul 11 2018, 17:41:49 Sore Implanted - Menschenhandel [ep] (2017)


*Artist: Sore Implanted
*Album: Menschenhandel [ep]
*Year: 2017
*Genre: Brutal Death Metal
*Country: Germany
*Format: mp3@CBR320kbps
*Size: 28MB

Tracklist:
1. Branded 03:19
2. Consumed 04:02
3. Disposed 04:20
******************************
Total playing time: 11:41



[more=Extended info]Line - up:

Linus Bahr - Drums
Marius Tuschl - Guitars, Vocals, Bass

[/more]

[more=Technical info]
Input File: 02. Consumed.mp3
Channels : 2
Sample Rate : 48000
Precision : 16-bit
Duration : 00:04:02.79 = 11653776 samples ~ 18209 CDDA sectors
File Size : 9.72M
Bit Rate : 320k
Sample Encoding: MPEG audio (layer I, II or III)
Comments :
Title=Consumed
Artist=Sore Implanted
Album=Menschenhandel (EP)
Tracknumber=2
Year=2017
Genre=Brutal Death Metal

[/more]

Register
(3) infiltrator, Rosen, vyacheslav,
Jul 11 2018, 16:21:36 Future Corpse - Culture Ruins Everything Around Me (2018)


*Artist: Future Corpse
*Album: Culture Ruins Everything Around Me
*Year: 2018
*Genre: Progressive Metal/Rock
*Country: Australia
*Format: mp3@CBR320kbps
*Size: 108MB

Tracklist:
1. Hyper Normal Living 04:30
2. An Abject Failure 05:29
3. Ideophobic 06:36
4. Trapped in the Echo Chamber 06:09
5. Speak & Destroy 05:48
6. Ornamental Violence 04:34
7. Culture Ruins Everything Around Me 11:50
******************************
Total playing time: 44:56



[more=Extended info]Line - up:
Tim Lac - Bass (ex-Heisenberg)
Elliott Sansom - Drums (Be'lakor, The Seaford Monster, ex-Okera, ex-Heisenberg, ex-Rainshadow)
Jarrod Hiney - Guitars, Vocals (ex-Heisenberg
)
Guest/Session:
Joel Taylor - Vocals (additional) (tracks 4 & 7), Synthesiser (track 5) (Join the Amish, ex-The Abandonment, Riff Fist, ex-Castration Party, ex-In Trenches)
David Seedsman - Saxophone (tracks 5 & 7)
Declan Jones - Trumpet (track 7)

[/more]

[more=Technical info]
Input File: 04 Trapped in the Echo Chamber.mp3
Channels : 2
Sample Rate : 44100
Precision : 16-bit
Duration : 00:06:09.50 = 16294906 samples = 27712.4 CDDA sectors
File Size : 14.9M
Bit Rate : 322k
Sample Encoding: MPEG audio (layer I, II or III)
Comments :
Title=Trapped in the Echo Chamber
Artist=Future Corpse
Album=Culture Ruins Everything Around Me
Tracknumber=04
Year=2018
Genre=Progressive Metal / Rock

[/more]

Register
(4) Diflock, dimitriusk, lentacore, Ostinato,
Jul 8 2018, 18:29:02 Snipers Of Babel - Redemption [demo] (2017)


*Artist: Snipers Of Babel
*Album: Redemption [demo]
*Year: 2017
*Genre: Death Metal
*Country: United States
*Format: mp3@CBR320kbps
*Size: 38MB

Tracklist:
1. Initiate the Plague 07:10
2. Redemption 08:55
******************************
Total playing time: 16:05



[more=Extended info]Line - up:

Chris Hicks - Bass
Mike Bossier - Guitars, Keyboards, Samples (Morbius, ex-Oblivion)
Chris Yuastella - Vocals (Inhumation, ex-Abominog, ex-Bludgeon, ex-Eternal Ruin)
Layla Singer - Vocals
Jeremy Dyer - Vocals
Mark Lorenzo - Vocals (Serpents of Secrecy)
Tommy Mott - Vocals, Samples (ex-Dahlgren Prophecy)
Mike Lumer - Drums (Terracide)

[/more]

[more=Technical info]
Input File: 02. Redemption.mp3
Channels : 2
Sample Rate : 48000
Precision : 16-bit
Duration : 00:08:55.92 = 25724304 samples ~ 40194.2 CDDA sectors
File Size : 21.4M
Bit Rate : 320k
Sample Encoding: MPEG audio (layer I, II or III)
Comments :
Title=Redemption
Artist=Snipers Of Babel
Album=Redemption (Demo)
Tracknumber=2
Year=2017
Genre=22

[/more]

Register
(3) infiltrator, Rosen, vyacheslav,

44 Pages V   1 2 3 > » 
- Lo-Fi Version Support form
Copyrights and abuse reports form
Time is now: 22nd July 2018 - 15:53:42