Welcome Guest ( Log In | Register )

История благодарностей участнику Necrokilldozer ::: Спасибо сказали: 35549 раз(а)
Дата поста: В теме: За сообщение: Спасибо сказали:
Feb 23 2021, 20:15:51 Gas Giant - Earthward Ascend (2020)


*Artist: Gas Giant
*Album: Earthward Ascend
*Year: 2020
*Genre: Stoner/Doom Metal/Rock
*Country: Netherlands
*Format: mp3@CBR320kbps
*Size: 66MB

Tracklist:
1. Liquid Core 04:14
2. Electric Maze 06:03
3. Kingdom 04:40
4. Enlightment 06:09
5. Venus 06:17
******************************
Total playing time: 27:23



[more=Extended info]Line - up:

Timucin Brouwer - Drums
Nils Beetsma - Vocals, Bass
Storm van 't Westeinde - Vocals, Guitars

[/more]

[more=Technical info]
Input File: 03. Kingdom.mp3
Channels : 2
Sample Rate : 44100
Precision : 16-bit
Duration : 00:04:40.99 = 12391703 samples = 21074.3 CDDA sectors
File Size : 11.2M
Bit Rate : 320k
Sample Encoding: MPEG audio (layer I, II or III)
Comments :
Title=Kingdom
Artist=Gas Giant
Album=Earthward Ascend
Tracknumber=3
Year=2020
Genre=Stoner/Doom Metal/Rock

[/more]

Register
(6) Alextoner, gena, HMHamster, infiltrator, maochen, VALERY,
Feb 23 2021, 20:12:26 Gapang - Kontrasismo (2020)


*Artist: Gapang
*Album: Kontrasismo
*Year: 2020
*Genre: Sludge/Doom Metal
*Country: Philippines
*Format: mp3@CBR320kbps
*Size: 159MB

Tracklist:
1. Free? 07:17
2. Gin bulag swing 07:34
3. Mudd 08:11
4. Signals to the Brain Dead 05:01
5. Reign of Worms (Reprised) 05:43
6. Tulo 05:47
7. Neverhide 07:29
8. Ravages of Diplomacy 07:13
9. Wane 12:33
******************************
Total playing time: 1:06:48



[more=Extended info]Line - up:

Carlo Garcia - Drums
Jay Jumawan - Guitars
Joy Legason - Vocals, Bass

[/more]

[more=Technical info]
Input File: 05 REIGN OF WORMS (REPRISED).mp3
Channels : 2
Sample Rate : 44100
Precision : 16-bit
Duration : 00:05:47.76 = 15336392 samples = 26082.3 CDDA sectors
File Size : 13.9M
Bit Rate : 320k
Sample Encoding: MPEG audio (layer I, II or III)
Comments :
Title=REIGN OF WORMS (REPRISED)
Artist=Gapang
Album=Kontrasismo
Tracknumber=5
Year=2020
Genre=Sludge/Doom Metal

[/more]

Register
(6) Alextoner, djsema4, eddbuzz, HMHamster, infiltrator, VALERY,
Feb 23 2021, 15:55:32 Corpsetalk - Prysviačennie Vialikim [compilation] (2021)


*Artist: Corpsetalk
*Album: Prysviačennie Vialikim [compilation]
*Year: 2021
*Genre: Instrumental Atmospheric Black Metal/Ambient
*Country: Belarus
*Format: mp3@CBR320kbps
*Size: 79MB

Tracklist:
1. Freezing Moon (Mayhem cover) 04:05
2. Orgasmatron (Motorhead cover) 03:03
3. Hidden in a Fog (Behemoth cover) 03:52
4. Horror Epics (The Exploited cover) 04:49
5. The Path of the Gods (Lake of Tears cover) 03:19
6. Black Sunshine (White Zombie cover) 03:01
7. Natassja in Eternal Sleep (Darkthrone cover) 02:34
8. Down in a Hole (Alice in Chains cover) 04:28
9. Return to Sender (Elvis Presley cover) 04:10
******************************
Total playing time: 33:21



[more=Technical info]
Input File: 05. The Path of the Gods (Lake of Tears cover).mp3
Channels : 2
Sample Rate : 44100
Precision : 16-bit
Duration : 00:03:19.15 = 8782295 samples = 14935.9 CDDA sectors
File Size : 7.99M
Bit Rate : 321k
Sample Encoding: MPEG audio (layer I, II or III)
Comments :
Title=The Path of the Gods (Lake of Tears cover)
Artist=Corpsetalk
Album=Prysviacennie vialikim (Compilation)
Tracknumber=5
Year=2021
Genre=Instrumental Atmospheric Black Metal/Ambient

[/more]

Register
(4) infiltrator, Olethros, Taakeferd, vasiljev_sergej,
Feb 23 2021, 10:09:27 Funeralia - Adaptation (2020)


*Artist: Funeralia
*Album: Adaptation
*Year: 2020
*Genre: Death/Doom Metal
*Country: Spain
*Format: mp3@CBR320kbps
*Size: 113MB

Tracklist:
1. My Child You from in the Clouds 08:26
2. I Will Die If You Dream 06:55
3. Joy of Your Misery 07:47
4. Your Somber Look 06:54
5. Black and White 06:35
6. When the Forest Murmurs Tears 06:44
7. Funeralia 09:31
******************************
Total playing time: 52:52



[more=Extended info]Line - up:

Eumam - Bass
Tony Noguera - Guitars (ex-Demise, ex-Dying, ex-Mawkish Ingestion)
Enzeos - Orchestration (Atmosphera Post Mortem, ex-Autumn Dream)
Bárbara Carrasco - Vocals (ex-Devil in You)
Lidi Lidalin - Vocals (soprano) (Atmosphera Post Mortem, ex-Autumn Dream)

[/more]

[more=Technical info]
Input File: 02-funeralia-i_will_die_if_you_dream.mp3
Channels : 2
Sample Rate : 44100
Precision : 16-bit
Duration : 00:06:55.60 = 18327960 samples = 31170 CDDA sectors
File Size : 15.0M
Bit Rate : 289k
Sample Encoding: MPEG audio (layer I, II or III)
Comments :
Title=I Will Die If You Dream
Artist=Funeralia
Album=Adaptation
Tracknumber=2
Year=2020-00-00
Genre=Death/Doom Metal

[/more]

Register
(12) chefo, HMHamster, infiltrator, infozahist, lacrimoza, marilin, metala, Olethros, sergsazan, stumpheavyrock, Taakeferd, VALERY,
Feb 23 2021, 10:00:42 Fünestüüm - Muertos Insepultos/Funestüüm [demo] (2020)


*Artist: Fünestüüm
*Album: Muertos Insepultos/Funestüüm [demo]
*Year: 2020
*Genre: Doom/Post-Metal
*Country: Mexico
*Format: flac
*Size: 105MB

Tracklist:
1. Intro 02:13
2. Muertos insepultos 06:09
3. Reminiscencia del caos 07:13
******************************
Total playing time: 15:35



[more=Extended info]Line - up:

JP - Bass, Vocals
CCH - Bass, Vocals (backing)
PL - Drums
ALN - Guitars

[/more]

Register
(3) aleon, gena, Olethros,
Feb 23 2021, 08:43:25 Funeral Lord - Dopefrost (2020)


*Artist: Funeral Lord
*Album: Dopefrost
*Year: 2020
*Genre: Stoner/Sludge/Doom Metal
*Country: Australia
*Format: mp3@CBR320kbps
*Size: 94MB

Tracklist:
1. Black Chant Grows 03:23
2. Dopefrost 10:39
3. Blunted 04:10 instrumental
4. Chosen One 07:28
5. Stupid Horse (100 gecs cover) 03:39
6. Witcher 02:44
7. Candlelight 02:01
8. Funeral Lord 02:04
9. Haunted Alchemy 02:01
10. Return to the Old 01:33 instrumental
******************************
Total playing time: 39:42



[more=Technical info]
Input File: 03. Blunted.mp3
Channels : 2
Sample Rate : 44100
Precision : 16-bit
Duration : 00:04:10.51 = 11047271 samples = 18787.9 CDDA sectors
File Size : 10.0M
Bit Rate : 320k
Sample Encoding: MPEG audio (layer I, II or III)
Comments :
Title=Blunted
Artist=Funeral Lord
Album=Dopefrost
Tracknumber=3
Year=2020
Genre=Stoner/Sludge/Doom Metal

[/more]

Register
(6) HMHamster, infiltrator, lary_veel, marilin, Olethros, VALERY,
Feb 23 2021, 08:07:33 Funeral For Two - Funeral For Two [ep] (2020)


*Artist: Funeral For Two
*Album: Funeral For Two [ep]
*Year: 2020
*Genre: Doom Metal
*Country: Finland
*Format: flac
*Size: 114MB

Tracklist:
1. Sculpture of a Demon 07:01
2. Forgotten Souls 09:58
******************************
Total playing time: 16:59



[more=Extended info]Line - up:
Jetro - Bass
Mikke - Guitars, Vocals

Guest/Session:
Jiri Mustajärvi - Drums (Malamujér)

[/more]

Register
(2) Olethros, sergsazan,
Feb 23 2021, 06:56:48 Cave Of Swimmers - Aurora (2021)


*Artist: Cave Of Swimmers
*Album: Aurora
*Year: 2021
*Genre: Doom Metal/Progressive/Hard Rock
*Country: United States
*Format: mp3@CBR320kbps
*Size: 77MB

Tracklist:
1. Intro - Through the Star Gate 01:19 instrumental
2. The Sun 05:19
3. Double Rainbow 03:32
4. My Human 05:48
5. Looking Glass 03:53
6. Dirt 05:53
7. C.S 06:35
******************************
Total playing time: 32:19



[more=Extended info]Line - up:

Guillermo Gonzalez - Guitars, Keyboards, Vocals
Arturo Garcia - Drums, Percussion, Vocals

[youtube]TYLuRGccMgU[/youtube]

[/more]

[more=Technical info]
Input File: 02 - The Sun 2021.mp3
Channels : 2
Sample Rate : 44100
Precision : 16-bit
Duration : 00:05:13.62 = 13830642 samples = 23521.5 CDDA sectors
File Size : 12.5M
Bit Rate : 320k
Sample Encoding: MPEG audio (layer I, II or III)
Comments :
Title=The Sun 2021
Artist=Cave of Swimmers
Album=Aurora
Tracknumber=2
Year=2021
Genre=Doom Metal/Progressive/Hard Rock

[/more]

Register
(12) caro, gena, HMHamster, infiltrator, marilin, metala, Olethros, SaintVitus, stumpheavyrock, Un4given, VALERY, Yngwarr,
Feb 22 2021, 18:59:24 Funeral For A Wizard - How To Make Friends In Hell (2020)


*Artist: Funeral For A Wizard
*Album: How To Make Friends In Hell
*Year: 2020
*Genre: Sludge/Doom Metal
*Country: United States
*Format: mp3@CBR320kbps
*Size: 137MB

Tracklist:
1. Like Something Rolling Downhill, It All Went Downhill Pretty Fast 07:39
2. The Ground You Stand on Is Betraying You 09:45
3. Take a Bow 06:48
4. Lo and Behold Ain't Cutting It Anymore 10:10
5. The Last Nail in the Coffin of Victory 10:12
6. Under a Godless Moon 12:02
7. Attack of the Killer Chair Wizards! 01:11
******************************
Total playing time: 57:47



[more=Extended info]Line - up:

James Branch - All instruments
Bryson Maynard - Vocals[/more]

[more=Technical info]
Input File: 01. Like Something Rolling Downhill, it all went Downhill Pretty Fast.mp3
Channels : 2
Sample Rate : 44100
Precision : 16-bit
Duration : 00:07:39.21 = 20251117 samples = 34440.7 CDDA sectors
File Size : 18.4M
Bit Rate : 320k
Sample Encoding: MPEG audio (layer I, II or III)
Comments :
Title=Like Something Rolling Downhill, it all went Downhill Pretty Fast
Artist=Funeral for a Wizard
Album=How to Make Friends in Hell
Tracknumber=1
Year=2020
Genre=Sludge/Doom Metal

[/more]

Register
(3) HMHamster, infiltrator, Olethros,
Feb 22 2021, 18:35:48 Funeral Dawn - Inner Demons (2020)


*Artist: Funeral Dawn
*Album: Inner Demons
*Year: 2020
*Genre: Funeral Doom Metal
*Country: Brazil
*Format: mp3@CBR320kbps
*Size: 108MB

Tracklist:
1. Let the Candle Burn 00:58 instrumental
2. My Funeral 09:48
3. If I Could... 09:55
4. Inner Demons 07:43
5. Regret of a Man 08:50
6. Castle of Sorrow 10:14
7. Another Winter Leaf Falls 02:03 instrumental
******************************
Total playing time: 49:31



[more=Technical info]
Input File: 01. Let The Candle Burn.mp3
Channels : 2
Sample Rate : 44100
Precision : 16-bit
Duration : 00:00:58.55 = 2581879 samples = 4390.95 CDDA sectors
File Size : 2.40M
Bit Rate : 327k
Sample Encoding: MPEG audio (layer I, II or III)
Comments :
Title=Let The Candle Burn
Artist=Funeral Dawn
Album=Inner Demons
Tracknumber=01
Year=2020
Genre=Funeral Doom Metal

[/more]

Register
(8) caro, igorzz, infiltrator, metala, Olethros, sergsazan, supremo, thenecromancer,
Feb 22 2021, 17:16:31 Goremantle - The Hanged Man [ep] (2021)


*Artist: Goremantle
*Album: The Hanged Man [ep]
*Year: 2021
*Genre: Atmospheric/Post-Black Metal
*Country: Australia
*Format: flac
*Size: 71MB

Tracklist:
1. Demi-Dirge 04:01
2. Arisen 04:05
3. The Hanged Man 02:34
******************************
Total playing time: 10:40



Register
(3) Olethros, sludge666, vasiljev_sergej,
Feb 22 2021, 17:00:13 Ecatonia - The Last Vision [single] (2021)


*Artist: Ecatonia
*Album: The Last Vision [single]
*Year: 2021
*Genre: Doom/Heavy/Black Metal
*Country: Italy
*Format: flac
*Size: 65MB

Tracklist:
1. The last vision
******************************
Total playing time: 5:16



[more=Extended info]Line - up:

L.O.W. - Guitars (Athanor, Hellsteps, Lord of War, Rigor Mortis, ex-Dawn of a Dark Age, ex-Sakahiter (live))
Lucas Demon - Drums (Athanor, Oltretomba, Voices from Thaumiel, Triangle of Flames, ex-Black Faith)
Grindead - Vocals (Ærgewinn, Grodek)
Orpheum flere - Bass

[/more]

Register
(3) Lux, Olethros, vasiljev_sergej,
Feb 21 2021, 20:05:45 Funeral Art - Altare Mortuum [compilation] (2021)


*Artist: Funeral Art
*Album: Altare Mortuum [compilation]
*Year: 2021
*Genre: Ambient Black/Funeral Doom Metal
*Country: Guatemala
*Format: mp3@CBR320kbps
*Size: 258MB

Tracklist:
1. A New Power Is Rising (Summoning) 03:54
2. Across the World of Wonders (Mortiis) 06:29
3. Don't Go (Happy Days) 05:31
4. Dying Brokenhearted (Empyrium) 05:28
5. Falling Snow (Agalloch) 09:37
6. Fog Rolls Down the Slopes (Deafest) 06:04
7. Glittertind (Dimmu Borgir) 05:06
8. Her Ghost Haunts These Walls (Nocturnal Depression) 10:37
9. Long Lost to Where No Pathway Goes (Summoning) 07:21
10. Nothing Else Matters (Metallica) 06:36
11. One Last Goodbye (Anathema) 05:27
12. Ring of Gold (Bathory) 05:07
13. Solitude and Despair (Nocturnal Depression) 07:20
14. Springtime Depression (Forgotten Tomb) 05:14
15. Suici.De.Pression (Thy Light) 03:38
16. The Failure Epiphany (Draconian) 06:17
17. The First Beauty (Lustre) 06:08
18. Walker of Dissonant Worlds (Xasthur) 06:41
******************************
Total playing time: 1:52:35



[more=Extended info]FLAC RIP

Line - up:

Lord Marbas - Vocals, All instruments (ex-Opera Macabra)
M. Bitia Kosemet - Vocals (Kosemet)[/more]

[more=Technical info]
Input File: 03. Don`t Go (Happy Days).mp3
Channels : 2
Sample Rate : 44100
Precision : 16-bit
Duration : 00:05:31.78 = 14631322 samples = 24883.2 CDDA sectors
File Size : 13.3M
Bit Rate : 320k
Sample Encoding: MPEG audio (layer I, II or III)
Comments :
Title=Don`t Go (Happy Days)
Artist=Funeral Art
Album=Altare Mortuum (Compilation)
Tracknumber=3
Year=2021
Genre=Ambient Black/Funeral Doom Metal

[/more]

Register
(10) igorzz, infiltrator, nadin85, Olethros, Reverend, supremo, Taakeferd, VALERY, vasiljev_sergej, vlad74,
Feb 21 2021, 19:52:10 World Eaters & Funeral Bell - World Eaters/Funeral Bell [split] (2020)


*Artist: World Eaters & Funeral Bell
*Album: World Eaters/Funeral Bell [split]
*Year: 2020
*Genre: Death Metal | Death/Doom Metal
*Country: Canada | Canada
*Format: flac
*Size: 104MB

Tracklist:
World Eaters:
1. Orbital Bombardment 05:47
Funeral Bell:
2. The Pestilence 05:14
******************************
Total playing time: 11:01



Register
(1) ITNOR,
Feb 21 2021, 17:47:31 Ruah - Wind [demo] (2021)


*Artist: Ruah
*Album: Wind [demo]
*Year: 2021
*Genre: Atmospheric Black Metal
*Country: United States
*Format: mp3@CBR320kbps
*Size: 86MB

Tracklist:
1. Before the First Dawn 04:09
2. Wind 14:26
3. Homewards 06:10
4. ...and While I Was Still Mourning, the Gates of Eternity Were Shattered 00:32
5. Wind (Demo) 11:50
******************************
Total playing time: 37:07



[more=Technical info]
Input File: 01. Before the First Dawn.mp3
Channels : 2
Sample Rate : 44100
Precision : 16-bit
Duration : 00:04:09.75 = 11013843 samples = 18731 CDDA sectors
File Size : 9.99M
Bit Rate : 320k
Sample Encoding: MPEG audio (layer I, II or III)
Comments :
Title=Before the First Dawn
Artist=Ruah
Album=Wind (Demo)
Tracknumber=1
Year=2021
Genre=Atmospheric Black Metal

[/more]

Register
(12) aleon, blacky66, infiltrator, kim666, korovakaska, Olethros, robertho777, SilentNidhogg, Taakeferd, uncolored, VALERY, vasiljev_sergej,
Feb 21 2021, 17:12:24 Soul Butcher - Graveless Wanderers [demo] (2021)


*Artist: Soul Butcher
*Album: Graveless Wanderers [demo]
*Year: 2021
*Genre: Black Metal
*Country: Serbia
*Format: flac
*Size: 106MB

Tracklist:
1. Graveless Wanderers 03:07
2. Slaves of Pretentiousness 01:57
3. Latex Hell 03:23
4. Suicidal Carnage 02:59
5. Preteen Deathfuck (Nattefrost cover) 01:28
6. Instrumental of Nostalgic Visions 03:03 instrumental
******************************
Total playing time: 15:57



[more=Extended info]Line - up:

Volkh - Bass, Drums (Монах, Страхор, A.VOID, Aen Seidhe, Razočarenje)
Nocturnal Goatlord - Guitars, Songwriting (ex-Karakondžula, Atomski Rat, Vladar, ex-Morbidoom, ex-Rđa)
Müller - Vocals (Atomski Rat, Egzekutor, Kremator)

[/more]

Register
(5) Alexis The Best, kim666, korovakaska, Olethros, vasiljev_sergej,
Feb 21 2021, 16:12:01 Void Commander - River Lord (2021)


*Artist: Void Commander
*Album: River Lord
*Year: 2021
*Genre: Psychedelic Stoner/Doom Metal/Rock
*Country: Sweden
*Format: mp3@CBR320kbps
*Size: 89MB

Tracklist:
1. River Lord 06:00
2. Stoner Eyes 05:57
3. Worship Midnight 02:54
4. AGN 06:15
5. Fucked Up 05:25
6. I'm Drowning 05:08
7. Shroom Bloody Shroom 05:19
******************************
Total playing time: 36:58



[more=Extended info]Line - up:

Jimmy J - Drums
Bobby K - Guitars, Vocals
Linus O - Bass



[/more]

[more=Technical info]
Input File: 07. Shroom Bloody Shroom.mp3
Channels : 2
Sample Rate : 44100
Precision : 16-bit
Duration : 00:05:19.81 = 14103665 samples = 23985.8 CDDA sectors
File Size : 12.8M
Bit Rate : 321k
Sample Encoding: MPEG audio (layer I, II or III)
Comments :
Title=Shroom Bloody Shroom
Artist=Void Commander
Album=River Lord
Tracknumber=7
Year=2021
Genre=Psychedelic Stoner/Doom Metal/Rock

[/more]

Register
(8) caro, gena, infiltrator, ITNOR, marilin, Olethros, VALERY, vlad74,
Feb 21 2021, 08:23:36 Deep-Pression & Dp & Zone113 & Zone113 - Pustotan Ost [split] (2021)


*Artist: Deep-Pression & Dp & Zone113 & Zone113
*Album: Pustotan Ost [split]
*Year: 2021
*Genre: Black/Doom Metal/Ambient | Ambient | Ambient
*Country: Poland | Unknown | Unknown
*Format: mp3@CBR320kbps
*Size: 148MB

Tracklist:
Deep-pression:
1. Quintessence v.1 (no vox) 08:21 instrumental
DP & Zone113:
2. Empty Windows Stare v.1 (no vox) 05:30 instrumental
Deep-pression:
3. Astral Connection re-visited 05:06 instrumental
Zone113:
4. Shadows of men 04:15 instrumental
5. Radrain 05:14 instrumental
6. Subdivisions 01:06 instrumental
Deep-pression:
7. Parasite 05:37 instrumental
8. Doppelganger 03:12 instrumental
9. Slay me 00:55 instrumental
10. Spectre temples 05:53 instrumental
Zone113:
11. The bridge 04:46 instrumental
12. Disturbing wilderness 04:12 instrumental
13. The tunnel 03:30 instrumental
14. Zone tripper 113 05:22 instrumental
******************************
Total playing time: 1:02:59



[more=Technical info]
Input File: 07. Parasite by DP.mp3
Channels : 2
Sample Rate : 44100
Precision : 16-bit
Duration : 00:05:37.45 = 14881325 samples = 25308.4 CDDA sectors
File Size : 13.5M
Bit Rate : 320k
Sample Encoding: MPEG audio (layer I, II or III)
Comments :
Title=Parasite by DP
Artist=Deep-pression
Album=Pustotan OST (Split)
Tracknumber=7
Year=2021
Genre=Black/Doom Metal/Ambient

[/more]

Register
(4) craP_cillA, infiltrator, VALERY, vasiljev_sergej,
Feb 20 2021, 19:49:46 Eden Echo - Hourglass (2021)


*Artist: Eden Echo
*Album: Hourglass
*Year: 2021
*Genre: Melodic Heavy Metal
*Country: Canada
*Format: mp3@CBR320kbps
*Size: 106MB

Tracklist:
1. The Accelerationist 06:18
2. Morpheus 04:34
3. Mirror Dream 07:26
4. Novice 07:09
5. Mockingbird 07:21
6. Kingmaker 06:45
7. Remnant 05:18
******************************
Total playing time: 44:51



[more=Extended info]Line - up:

Dylan Vinci - Bass
Tyler Gaudio - Drums
Eli Reid - Guitars
Matt Lazare - Guitars, Vocals

[/more]

[more=Technical info]
Input File: 06. Kingmaker.mp3
Channels : 2
Sample Rate : 44100
Precision : 16-bit
Duration : 00:06:44.95 = 17858251 samples = 30371.2 CDDA sectors
File Size : 16.2M
Bit Rate : 320k
Sample Encoding: MPEG audio (layer I, II or III)
Comments :
Title=Kingmaker
Artist=Eden Echo
Album=Hourglass
Tracknumber=6
Year=2021
Genre=Melodic Heavy Metal

[/more]

Register
(18) after21allD, avather, aviacademy, caro, Herrant, infiltrator, metala, Olethros, postal67, Rover, sergsazan, Taakeferd, VALERY, vir2al, wreak, Yngwarr, zhol, Сварог Барг,
Feb 20 2021, 18:38:05 Vøidwomb - Altars Of Cosmic Devotion [ep] (2021)
Register
(4) Amsterdam, infiltrator, Olethros, wreak,
Feb 20 2021, 17:44:25 Mastord - To Whom Bow Even The Trees (2021)


*Artist: Mastord
*Album: To Whom Bow Even The Trees
*Year: 2021
*Genre: Progressive Metal
*Country: Finland
*Format: mp3@CBR320kbps
*Size: 173MB

Tracklist:
1. The Walls 04:39
2. Mediocre 05:44
3. Humble Professor 08:04
4. Master - Savior 08:46
5. Silence Chime 04:35
6. Fallen Angel 06:33
7. Going Down 04:32
8. Endless Confusion 06:28
9. Closer to the Void 09:43
10. Circles Lies 13:31
******************************
Total playing time: 1:12:35



[more=Extended info]Line - up:

Pasi Hakuli - Bass (aihoro, Kreyskull, Return to Void, Total Devastation, ex-Demonic Death Judge)
Toni Paananen - Drums (Malpractice, Mystic Opera, ex-Hevein, ex-Verona Septima, ex-Amoth, ex-Reversion, ex-To/Die/For, ex-Omnium Gatherum (live), ex-Rock, ex-Tuli & Leimaus)
Kari Syvelä - Guitars, Keyboards, Somgwriting, Lyrics
Markku Pihlaja - Vocals (Kaihoro, Return to Void, ex-Manitou)

Guest/Session:
Teemu Aalto - Vocals (backing) (Domination Black, Insomnium, Omnium Gatherum, Sinamore)

[/more]

[more=Technical info]
Input File: 10. Circles Lies.mp3
Channels : 2
Sample Rate : 44100
Precision : 16-bit
Duration : 00:13:32.04 = 35810876 samples = 60902.9 CDDA sectors
File Size : 32.5M
Bit Rate : 320k
Sample Encoding: MPEG audio (layer I, II or III)
Comments :
Title=Circles Lies
Artist=Mastord
Album=To Whom Bow Even the Trees
Tracknumber=10
Year=2021
Genre=Progressive Metal

[/more]

Register
(17) ace73pq, andgrek28, Corpuscul, DenisKov, Herrant, HMHamster, infiltrator, kryuger, metala, multizwilling, Olethros, Rover, sadmannn, VALERY, wreak, Yarri, Yngwarr,
Feb 20 2021, 17:10:09 Crimson Throne - Volume I - To Whatever End [compilation] (2021)


*Artist: Crimson Throne
*Album: Volume I - To Whatever End [compilation]
*Year: 2021
*Genre: Black Metal/Ambient
*Country: United Kingdom
*Format: mp3@CBR320kbps
*Size: 114MB

Tracklist:
1. The Resilience 04:21
2. With Haste 05:10
3. S.O.F 08:52
4. L.G 04:44
5. S.W.S 08:42
6. D.G 07:37
7. Prickling 08:52
******************************
Total playing time: 48:18



[more=Extended info]Line - up:

Dave Moulding - Drums (ex-Ancient Ascendant, ex-Heretic, ex-Seven7, ex-Viscera)
Andrew McMahon - Guitars
Tom Hubbard - Vocals, Bass (ex-Hang the Bastard)
Dan Thornton - Guitars (Abhorrent Decimation, Novena, Defeated Sanity (live), Dan Thornton, No Sin Evades His Gaze, ex-The HAARP Machine)

[/more]

[more=Technical info]
Input File: 05 - S.W.S.mp3
Channels : 2
Sample Rate : 44100
Precision : 16-bit
Duration : 00:08:42.09 = 23024125 samples = 39156.7 CDDA sectors
File Size : 21.0M
Bit Rate : 321k
Sample Encoding: MPEG audio (layer I, II or III)
Comments :
Title=S.W.S
Artist=Crimson Throne
Album=Volume I - to Whatever End (Compilation)
Tracknumber=5
Year=2021
Genre=Black Metal/Ambient

[/more]

Register
(11) infiltrator, kim666, Olethros, robertho777, SilentNidhogg, smysl, supremo, Taakeferd, vasiljev_sergej, Vitald, wreak,
Feb 20 2021, 16:31:36 Agony Reigns - In Solidarity [live] (2021)


*Artist: Agony Reigns
*Album: In Solidarity [live]
*Year: 2021
*Genre: Thrash Metal
*Country: United States
*Format: mp3@CBR320kbps
*Size: 83MB

Tracklist:
1. Asphyxiate
2. Unquiet
3. Death from Within
4. Ruination
5. Beyond Death
6. Necrosis
7. Tainted Minds
******************************
Total playing time: 35:33



[more=Extended info]Line - up:

Matt McGee - Bass, Vocals (Dabassdude, Klazomaniac, ex-Defiled Christ (live), ex-Agony Reigns, ex-Powerhouse, ex-Near an Open Flame (live))
Ben Moen - Drums (Voltage, ex-Powerhouse)
Jake Schultz - Guitars (lead), Vocals (backing) (Klazomaniac, Voltage, The Montys (live), ex-Powerhouse, ex-Sons of Vengeance)
Micah Adams - Guitars (lead), Vocals (backing), Guitars (Klazomaniac)[/more]

[more=Technical info]
Input File: 06. Necrosis.mp3
Channels : 2
Sample Rate : 44100
Precision : 16-bit
Duration : 00:07:24.76 = 19614004 samples = 33357.1 CDDA sectors
File Size : 17.9M
Bit Rate : 321k
Sample Encoding: MPEG audio (layer I, II or III)
Comments :
Title=Necrosis
Artist=Agony Reigns
Album=In Solidarity (Live)
Tracknumber=6
Year=2021
Genre=144

[/more]

Register
(6) caro, infiltrator, infozahist, Olethros, stumpheavyrock, wreak,
Feb 20 2021, 08:31:12 Sapata - No Sun To Embrace (2021)


*Artist: Sapata
*Album: No Sun To Embrace
*Year: 2021
*Genre: Heavy/Doom Metal
*Country: Finland
*Format: mp3@CBR320kbps
*Size: 96MB

Tracklist:
1. Myriad
2. Buried in Us
3. Seasons Shift Forward
4. I Sang to the Wind
5. No Sun to Embrace
6. Circle
7. Last Juniper
******************************
Total playing time: 40:45



[more=Extended info]Line - up:

Anttu Puutio - Drums
Felix Voltti - Guitars
Saara Šamane - Vocals (lead)
Iida Seppälä - Bass
Tomi Tiitto - Guitars

[/more]

[more=Technical info]
Input File: 06. Circle.mp3
Channels : 2
Sample Rate : 44100
Precision : 16-bit
Duration : 00:07:11.62 = 19034530 samples = 32371.6 CDDA sectors
File Size : 17.3M
Bit Rate : 320k
Sample Encoding: MPEG audio (layer I, II or III)
Comments :
Title=Circle
Artist=Sapata
Album=No Sun to Embrace
Tracknumber=6
Year=2021
Genre=Heavy/Doom Metal

[/more]

Register
(14) after21allD, HMHamster, infiltrator, infozahist, Lux, marilin, metala, Olethros, Rover, stumpheavyrock, Taakeferd, VALERY, wreak, yuratroll,
Feb 19 2021, 19:51:24 Insect Inside - The First Shining Of New Genus (2021)


*Artist: Insect Inside
*Album: The First Shining Of New Genus
*Year: 2021
*Genre: Slam/Brutal Death Metal
*Country: Russian Federation
*Format: mp3@CBR320kbps
*Size: 79MB

Tracklist:
1. Intro 01:30
2. Sickening Ground 01:47
3. Posthumous Grief 04:55
4. The First Shining of New Genus 02:22
5. For The Glory of Swarm 02:42
6. Revival of Ungodly Deformit 03:37
7. Derelict Sanity 04:19
8. Evisceration Through the Throat 03:19
9. Embalming for Chrysalis 04:34
10. Pulsating Eart 03:53
******************************
Total playing time: 32:58



[more=Extended info]Line - up:
Daniil Sementsov - Drums (Disfigurement of Flesh, Morphogenetic Malformation)
Dmitry Borisyuk - Vocals
Mikhail Lukoyanov - Guitars, Bass (Equivoke, ex-Социопат)

Guest/Session:
Kevin Muller - Vocals (track 3) (The Merciless Concept, ex-Pyrexia, ex-Dysentery (live), ex-Suffocation (live))
Kirill Nazarov - Vocals (track 6) (Decomposition of Entrails, Autopsy Malice, Disfigurement of Flesh, ex-Morphogenetic Malformation, ex-Traumatomy (live))
Roman Vlasenko - Vocals (track 10) (Abnormity)

[/more]

[more=Technical info]
Input File: 09. Embalming For Chrysalis.mp3
Channels : 2
Sample Rate : 44100
Precision : 16-bit
Duration : 00:04:34.83 = 12119827 samples = 20612 CDDA sectors
File Size : 11.0M
Bit Rate : 320k
Sample Encoding: MPEG audio (layer I, II or III)
Comments :
Title=Embalming For Chrysalis
Artist=Insect Inside
Album=The First Shining of New Genus
Tracknumber=9
Year=2021
Genre=Slam/Brutal Death Metal

[/more]

Register
(11) alikkon, caro, grobator, infiltrator, jollo, older68, Olethros, supremo, Taakeferd, wreak, WX419,

140 Pages V   1 2 3 > » 
- Lo-Fi Version Support form
Copyrights and abuse reports form
Time is now: 25th February 2021 - 05:39:58