Welcome Guest ( Log In | Register )

История благодарностей участнику Necrokilldozer ::: Спасибо сказали: 14452 раз(а)
Дата поста: В теме: За сообщение: Спасибо сказали:
Sep 14 2019, 15:31:12 Iron Rage - Cold World Calling [compilation] (2019)


*Artist: Iron Rage
*Album: Cold World Calling [compilation]
*Year: 2019
*Genre: Heavy Metal
*Country: United States
*Format: mp3@CBR128kbps
*Size: 34MB

Tracklist:
1.Livin' for Today 06:02
2.Stab in the Dark 04:33
3.Steel to Survive 03:13
4.I Don't Need No... 00:40 instrumental
5.Bad Reputation 03:36
6.Night Stalker 05:07
7.Free Man 03:23
8.The Battle 02:21
9.Broken Promise 03:42
10.Tearin' Me Apart 02:46
******************************
Total playing time: 35:23



[more=Extended info]Line - up:

Chris Dahlstedt - Bass
Mike Fitzgerald - Drums
John Williams - Guitars, Vocals

[/more]

[more=Technical info]
Input File: 4 - I Don-t Need No....mp3
Channels : 2
Sample Rate : 44100
Precision : 16-bit
Duration : 00:00:40.82 = 1799942 samples = 3061.13 CDDA sectors
File Size : 733k
Bit Rate : 144k
Sample Encoding: MPEG audio (layer I, II or III)
Comments :
Title=I Don't Need No...
Artist=Iron Rage
Album=Cold World Calling (Compilation)
Tracknumber=4
Year=2019
Genre=137

[/more]

Register
(5) Diflock, infozahist, Olethros, Rosen, wgs73,
Sep 13 2019, 18:06:19 Black Rain - Dying Breed (2019)


*Artist: Black Rain
*Album: Dying Breed
*Year: 2019
*Genre: Glam Rock
*Country: France
*Format: mp3@CBR320kbps
*Size: 111MB

Tracklist:
1.Dying Breed 03:50
2.Hellfire 04:05
3.Blast Me Up 03:40
4.Nobody Can Change 04:19
5.Like Me 03:44
6.All Angels Have Gone 04:11
7.We Are the Mayhem 03:31
8.Rock Radio 03:34
9.Public Enemy 03:58
10.A Call from the Inside 04:24
11.Jenny Jen 03:25
12.Ça plane pour moi 03:13
******************************
Total playing time: 45:54



[more=Extended info]Line - up:

Max 2 - Guitars
Swan - Vocals, Guitars
Heinrich - Bass
Frank F. Drums

[/more]

[more=Technical info]
Input File: 01. Dying Breed.mp3
Channels : 2
Sample Rate : 44100
Precision : 16-bit
Duration : 00:03:50.76 = 10176296 samples = 17306.6 CDDA sectors
File Size : 9.30M
Bit Rate : 323k
Sample Encoding: MPEG audio (layer I, II or III)
Comments :
Title=Dying Breed
Artist=Black Rain
Album=Dying Breed
Tracknumber=1
Year=2019
Genre=Glam Rock

[/more]

Register
(3) Diflock, Maniakk, Olethros,
Sep 13 2019, 17:11:25 Disciple - Love Letter Kill Shot (2019)


*Artist: Disciple
*Album: Love Letter Kill Shot
*Year: 2019
*Genre: Nu-Metal
*Country: United States
*Format: mp3@CBR320kbps
*Size: 111MB

Tracklist:
1.Cuff the Criminal
2.Reanimate
3.Wake Up
4.Panic Room
5.Play to Win
6.Fire Away
7.Misery
8.Chemical Wisdom
9.Never Too Late
10.Touch of Pain
11.Walk With Me
12.Best Thing Ever
******************************
Total playing time: 46:34



[more=Extended info]Line - up:
Kevin Young - Vocals (lead), Guitars (acoustic), Bass (ex-C.I.A., ex-Remnant, ex-The Anchormen)
Josiah Prince - Guitars (rhythm) (ex-Philmont)
Joey West - Drums (After Edmund)

Guest/Session:
Andrew Schwab - Vocals (Track 4)

[/more]

[more=Technical info]
Input File: 01 Cuff the Criminal.mp3
Channels : 2
Sample Rate : 44100
Precision : 16-bit
Duration : 00:03:32.47 = 9369839 samples = 15935.1 CDDA sectors
File Size : 8.50M
Bit Rate : 320k
Sample Encoding: MPEG audio (layer I, II or III)
Comments :
Title=Cuff the Criminal
Artist=Disciple
Album=Love Letter Kill Shot
Tracknumber=1
Year=2019
Genre=Nu-Metal

[/more]

Register
(1) Olethros,
Sep 13 2019, 16:35:02 Mob Rules - Beast Over Europe [live] (2019)


*Artist: Mob Rules
*Album: Beast Over Europe [live]
*Year: 2019
*Genre: Melodic Power Metal
*Country: Germany
*Format: mp3@CBR320kbps
*Size: 183MB

Tracklist:
1.Beast Reborn 01:04 instrumental
2.Ghost of a Chance 04:41
3.Somerled 05:11
4.Black Rain 06:20
5.Sinister Light 04:40
6.Dykemaster's Tale 09:25
7.My Kingdom Come 05:26
8.The Last Farewell 05:29
9.Children's Crusade 04:59
10.On the Edge 06:10
11.(In the Land of) Wind and Rain 06:35
12.Hollowed Be Thy Name 06:23
13.Way Back Home 04:42
14.Rain Song 06:15
******************************
Total playing time: 1:17:20



[more=Extended info]Line - up:

Klaus Dirks - Vocals
Markus Brinkmann - Bass (ex-Ela)
Sven Lüdke - Guitars (ex-Murder One)
Nikolas Fritz - Drums (Savallion Dawn)
Jan Christian Halfbrodt - Keyboards (Experience X, ex-Ela)
Florian Dyszbalis - Guitars (Ravage Inc.)

[/more]

[more=Technical info]
Input File: 13 Way Back Home.mp3
Channels : 2
Sample Rate : 44100
Precision : 16-bit
Duration : 00:04:42.51 = 12458515 samples = 21188 CDDA sectors
File Size : 11.3M
Bit Rate : 320k
Sample Encoding: MPEG audio (layer I, II or III)
Comments :
Title=Way Back Home
Artist=Mob Rules
Album=Beast Over Europe (Live)
Tracknumber=13
Year=2019
Genre=Melodic Power Metal

[/more]

Register
(10) ace73pq, AHBAnep, artscald, infozahist, older68, Olethros, Rosen, Rover, sergsazan, Сварог Барг,
Sep 11 2019, 18:30:31 Until Death Overtakes Me - Herald Of Sorrow [compilation] (2019)


*Artist: Until Death Overtakes Me
*Album: Herald Of Sorrow [compilation]
*Year: 2019
*Genre: Funeral Doom Metal
*Country: Belgium
*Format: mp3@CBR320kbps
*Size: 227MB

Tracklist:
1.Void of Mind 09:04
2.A Pathway into Dream 13:25
3.Fractures in Earth 06:15
4.Claimed by Winter 14:36
5.Herald of Sorrow 31:31
6.Magistralis (alternate version) 04:10
7.Spectre 10:26
******************************
Total playing time: 1:29:27



[more=Extended info]Line - up:

Stijn van Cauter - Everything (Arcane Voidsplitter, Beyond Black Void, Desperandum Gothica, Gruulvoqh, Inframonolithium, The Ethereal, The NULLL Collective, ex-In Somnis, ex-The Sad Sun, Catnoms For Fluffy, Fall of the Grey-Winged One, Vita Dolorosa, ex-Solicide, ex-Wijlen Wij, ex-Cold Aeon, ex-Dance Nihil, ex-Dreams of Dying Stars, ex-Forbidden Fields, ex-I Dream No More, ex-In the Mist, ex-Organium, ex-Tear Your Soul Apart)

[/more]

[more=Technical info]
Input File: 04. Claimed by Winter.mp3
Channels : 2
Sample Rate : 44100
Precision : 16-bit
Duration : 00:14:36.64 = 38659912 samples = 65748.1 CDDA sectors
File Size : 35.1M
Bit Rate : 321k
Sample Encoding: MPEG audio (layer I, II or III)
Comments :
Title=Claimed by Winter
Artist=Until Death Overtakes Me
Album=Herald of Sorrow (Compilation)
Tracknumber=4
Year=2019
Genre=Funeral Doom Metal

[/more]

Register
(26) artscald, Buregon, craP_cillA, dagger666, Farung, Guns, igore2911, infiltrator, infozahist, kluval, krotovich, KVRT, marilin, nattefrost, Necromag, Olethros, recber, ripper33, robertho777, Rosen, sergsazan, stub888, supremo, tOmV, VALERY, Герб,
Sep 11 2019, 17:56:40 Bolt Action - Born To Riff [ep] (2019)


*Artist: Bolt Action
*Album: Born To Riff [ep]
*Year: 2019
*Genre: Thrash/Death Metal/Crust
*Country: United Kingdom
*Format: mp3@CBR320kbps
*Size: 50MB

Tracklist:
1.Mother Green 03:04
2.Skull Fucked 02:24
3.Regrets 02:26
4.Old Rotten Crotch 03:20
5.War Face 00:26
6.FMB - Born to Riff 02:27
7.Reach Around 02:36
8.The Dead Philosophy 04:21
******************************
Total playing time: 21:04



[more=Extended info]Line - up:
Andrew Bolton - All instruments, Vocals (Human Mycosis, Cranial Contamination (live), ex-Decimation)

Guest/Session:
Jim Taylor - Vocals (Human Mycosis, ex-Decimation)
Steve Moyle - Vocals (Human Mycosis)
Grandfather Nebulous - Vocals (Wisdom Without Worship)[/more]

[more=Technical info]
Input File: 03. Regrets.mp3
Channels : 2
Sample Rate : 44100
Precision : 16-bit
Duration : 00:02:26.71 = 6470087 samples = 11003.5 CDDA sectors
File Size : 5.87M
Bit Rate : 320k
Sample Encoding: MPEG audio (layer I, II or III)
Comments :
Title=Regrets
Artist=Bolt Action
Album=Born To Riff (EP)
Tracknumber=3
Year=2019
Genre=Thrash/Death Metal/Crust

[/more]

Register
(5) artscald, infiltrator, Olethros, Rosen, vader69,
Sep 9 2019, 17:36:20 Hjel - Ein Letzter Winter (2019)


*Artist: Hjel
*Album: Ein Letzter Winter
*Year: 2019
*Genre: Atmospheric Black Metal
*Country: Germany
*Format: mp3@CBR320kbps
*Size: 84MB

Tracklist:
1.Gebirgspass 03:46
2.Wenn die Schatten länger werden 04:37
3.Ein letzter Winter 03:59 instrumental
4.Katatonisch 06:25 instrumental
5.Penumbra 08:19
6.Erblicket die Töchter des Firmaments (Burzum cover) 08:05 instrumental
******************************
Total playing time: 35:11



[more=Extended info]Line - up:

Max - All instruments, Vocals[/more]

[more=Technical info]
Input File: 03. Ein letzter Winter.mp3
Channels : 2
Sample Rate : 44100
Precision : 16-bit
Duration : 00:04:00.00 = 10584132 samples = 18000.2 CDDA sectors
File Size : 9.69M
Bit Rate : 323k
Sample Encoding: MPEG audio (layer I, II or III)
Comments :
Title=Ein letzter Winter
Artist=Hjel
Album=Ein Letzter Winter
Tracknumber=3
Year=2019
Genre=Atmospheric Black Metal

[/more]

Register
(14) 1968_janeart, alikkon, artscald, djsema4, kim666, NachtWulf, Olethros, Rosen, SilentNidhogg, stub888, undeadlich, VALERY, vasiljev_sergej, zotyo1975,
Sep 8 2019, 18:34:14 Crypt Sermon - The Ruins Of Fading Light (2019)


*Artist: Crypt Sermon
*Album: The Ruins Of Fading Light
*Year: 2019
*Genre: Epic Doom Metal
*Country: United States
*Format: mp3@CBR320kbps
*Size: 125MB

Tracklist:
1.The Ninth Templar (Black Candle Flame) 05:05
2.Key of Solomon 05:55
3.Our Reverend's Grave 07:10
4.Epochal Vestiges 01:49
5.Christ Is Dead 06:40
6.The Snake Handler 09:10
7.Oath of Exile 01:46
8.Enslave the Heathens 01:17
9.Beneath the Torchfire Glare 07:23
10.The Ruins of Fading Light 08:51
******************************
Total playing time: 55:06



[more=Extended info]В ЛОУ

Line - up:

Frank Chin - Bass (Daeva, ex-Vektor)
Brooks Wilson - Vocals (Trenchrot, Unrest, ex-Grass)
Enrique Sagarnaga - Drums (Ashencult, Daeva, ex-Coffin Dust, ex-Pizza Face, ex-Vulcan, ex-Octubre Negro, ex-Scav)
Steve Jansson - Guitars (Daeva, Infiltrator, Trenchrot, Unrest, ex-Grass, ex-Horrendous (live), ex-Vektor (live))
James Lipczynski - Guitars (Ancient Flame, Labyrinthine, Skullreader)

[/more]

[more=Technical info]
Input File: 08. Enslave the Heathens.mp3
Channels : 2
Sample Rate : 44100
Precision : 16-bit
Duration : 00:01:17.04 = 3397552 samples = 5778.15 CDDA sectors
File Size : 3.08M
Bit Rate : 320k
Sample Encoding: MPEG audio (layer I, II or III)
Comments :
Title=Enslave the Heathens
Artist=Crypt Sermon
Album=The Ruins of Fading Light
Tracknumber=8
Year=2019
Genre=Epic Doom Metal

[/more]

Register
(23) Beazth, Black Cat, boby9052, Corpuscul, EpicDoomLord, Forest, infiltrator, kauyumari, marilin, metala, metaljosue, Morgoth, nemx, older68, Olethros, pedrohell, poeira, raattent, Rosen, SAPOGi, sergsazan, stumpheavyrock, Сварог Барг,
Sep 8 2019, 17:55:16 Necrowar - All Trajectory (2019)


*Artist: Necrowar
*Album: All Trajectory
*Year: 2019
*Genre: Death Metal
*Country: Brazil
*Format: mp3@CBR128kbps
*Size: 57MB

Tracklist:
1.Libya 2019 00:37
2.Reality of Apocalypse 03:43
3.Killing a Blind 03:42
4.Victims of Ambition 04:37
5.Revolt 02:20
6.Blood War 06:12
7.Fruits of Greed 04:42
8.Venezuela 2019 00:48
9.Endless Sacrifice 04:07
10.Save World 04:13
11.Verdict 04:38
12.Open Now Brain 04:01
13.Alone 03:58
14.Gulf 1991 01:24
15.Uncertainties 06:44
16.The End 03:23
******************************
Total playing time: 59:09



[more=Extended info]Line - up:

Danilo Amorin - Drums
Gilliardy Souza - Guitars (Ravishment, ex-Valheron, ex-Mare Dibere)
Ewerton Silva - Guitars (ex-Perseverance)
Emerson Santos - Vocals, Bass (Ravishment)

[/more]

[more=Technical info]
Input File: 8 - Venezuela 2019.mp3
Channels : 2
Sample Rate : 44100
Precision : 16-bit
Duration : 00:00:48.65 = 2145553 samples = 3648.9 CDDA sectors
File Size : 782k
Bit Rate : 129k
Sample Encoding: MPEG audio (layer I, II or III)
Comments :
Title=Venezuela 2019
Artist=Necrowar
Album=All Trajectory
Tracknumber=8
Year=2019
Genre=22

[/more]

Register
(6) infiltrator, jollo, Olethros, Rosen, TeamatSE, Герб,
Sep 8 2019, 16:50:21 Dead Emperors - The Beast (2019)


*Artist: Dead Emperors
*Album: The Beast
*Year: 2019
*Genre: Stoner Metal/Rock
*Country: United States
*Format: mp3@CBR320kbps
*Size: 107MB

Tracklist:
1.The Devil's Highway 03:42
2.Ill Omens 03:44
3.The Calm 02:20
4.The Beast 05:06
5.The Grind 06:01
6.Onslaught 06:24
7.The Longest Night 05:12
8.The Storm 02:36
9.Star Gone Dim 03:46
******************************
Total playing time: 38:51



[more=Extended info]Line - up:

Matthew Larson - Bass, Vocals
Eric Dirks - Drums
Evan Chadwick - Guitars

[/more]

[more=Technical info]
Input File: 08. The Storm.mp3
Channels : 2
Sample Rate : 44100
Precision : 16-bit
Duration : 00:02:37.03 = 6925155 samples = 11777.5 CDDA sectors
File Size : 6.38M
Bit Rate : 325k
Sample Encoding: MPEG audio (layer I, II or III)
Comments :
Title=The Storm
Artist=Dead Emperors
Album=The Beast
Tracknumber=8
Year=2019
Genre=Stoner Metal/Rock

[/more]

Register
(7) artscald, infiltrator, Olethros, Rosen, stub888, stumpheavyrock, VALERY,
Sep 8 2019, 16:17:53 Ov Enochian - From Within [ep] (2019)


*Artist: Ov Enochian
*Album: From Within [ep]
*Year: 2019
*Genre: Black Metal, Ambient
*Country: Canada
*Format: mp3@CBR320kbps
*Size: 41MB

Tracklist:
1.Confrontation 02:36
2.Dissociative Entity 04:03
3.Carry the Stone 04:25
4.State of Pestilence 05:43
******************************
Total playing time: 16:47



[more=Extended info]Line - up:

Jeffery Brookes - All instruments (ex-Ares Infernus, ex-The Projectionist)

[/more]

[more=Technical info]
Input File: 04. State of Pestilence.mp3
Channels : 2
Sample Rate : 44100
Precision : 16-bit
Duration : 00:05:43.58 = 15152054 samples = 25768.8 CDDA sectors
File Size : 13.7M
Bit Rate : 320k
Sample Encoding: MPEG audio (layer I, II or III)
Comments :
Title=State of Pestilence
Artist=Ov Enochian
Album=From Within (EP)
Tracknumber=4
Year=2019
Genre=Black Metal, Ambient

[/more]

Register
(11) 1968_janeart, artscald, infiltrator, kim666, lucifix, Olethros, robertho777, Rosen, SilentNidhogg, stub888, vasiljev_sergej,
Sep 7 2019, 17:30:01 Pantanum - Geographic Animals (2019)


*Artist: Pantanum
*Album: Geographic Animals
*Year: 2019
*Genre: Stoner/Doom Metal
*Country: Brazil
*Format: mp3@CBR320kbps
*Size: 116MB

Tracklist:
1. Geographic Animals #1 04:42
2. Geographic Animals #2 05:09
3. Geographic Animals #3 06:44
4. Geographic Animals #4 09:51
5. Geographic Animals #5 09:28
6. Geographic Animals #6 03:28
7. Geographic Animals #7 06:30
8. Geographic Animals #8 03:01
******************************
Total playing time: 48:53



[more=Extended info]Line - up:

Francisco Gusso - Bass, Vocals
Bruno Silvério - Drums, Vocals
Alexandre Stresser - Guitars, Vocals

[/more]

[more=Technical info]
Input File: 07. Geographic Animals #7.mp3
Channels : 2
Sample Rate : 44100
Precision : 16-bit
Duration : 00:06:30.82 = 17234986 samples = 29311.2 CDDA sectors
File Size : 15.6M
Bit Rate : 320k
Sample Encoding: MPEG audio (layer I, II or III)
Comments :
Title=Geographic Animals #7
Artist=Pantanum
Album=Geographic Animals
Tracknumber=7
Year=2019
Genre=Stoner/Doom Metal

[/more]

Register
(7) artscald, HMHamster, infiltrator, Olethros, Rosen, stumpheavyrock, VALERY,
Sep 7 2019, 16:25:00 Filthy Rich Preacher - Not Your Fall [single] (2019)


*Artist: Filthy Rich Preacher
*Album: Not Your Fall [single]
*Year: 2019
*Genre: Industrial Metal
*Country: Ukraine
*Format: flac
*Size: 63MB

Tracklist:
1. NOT your FALL 05:11
******************************
Total playing time: 5:11



[more=Extended info]Line - up:

Alexandr Beregovoy - Vocals, Guitars, Keyboards, Samples, Drum programming (Celophys, OwlCraft, Vubar, ex-Ningen-girai)
Ilya Bryklya - Bass (ex-Rise or Die, ex-Celophys)

[/more]

Register
(3) gwar, infiltrator, Olethros,
Sep 6 2019, 16:13:24 Pale Grey Lore - Eschatology (2019)


*Artist: Pale Grey Lore
*Album: Eschatology
*Year: 2019
*Genre: Psychedelic Doom Metal/Rock
*Country: United States
*Format: mp3@CBR320kbps
*Size: 102MB

Tracklist:
1. Sunken Cities 05:21
2. Greed Springs Eternal 02:52
3. Before the Fall 04:54
4. Regicide 03:39
5. Waiting for the Dawn 04:03
6. The Rift 03:21
7. Void-Cursed 05:56
8. Silent Command 03:22
9. Undermined 02:50
10. Eschatology 06:20
******************************
Total playing time: 42:38



[more=Extended info]Line - up:

Donovan Johnson - Bass
Adam Miller - Drums, Percussion
Xander Roseberry - Vocals (backing), Guitars, Theremin, Chimes
Michael Miller - Vocals, Guitars, Theremin, Mellotrone

[/more]

[more=Technical info]
Input File: 06. The Rift.mp3
Channels : 2
Sample Rate : 44100
Precision : 16-bit
Duration : 00:03:20.84 = 8857176 samples = 15063.2 CDDA sectors
File Size : 8.12M
Bit Rate : 324k
Sample Encoding: MPEG audio (layer I, II or III)
Comments :
Title=The Rift
Artist=Pale Grey Lore
Album=Eschatology
Tracknumber=6
Year=2019
Genre=Psychedelic Doom Metal/Rock

[/more]

Register
(15) alikkon, artscald, BandR75, chipsgott, gena, infiltrator, marilin, MEmethuselah, metala, Olethros, robertho777, SatanicPanzer, stub888, TAKATAEL, VALERY,
Sep 1 2019, 18:56:59 Noctopus - Dunajew's Dance [ep] (2019)


*Artist: Noctopus
*Album: Dunajew's Dance [ep]
*Year: 2019
*Genre: Post-Black Metal
*Country: Austria
*Format: mp3@CBR320kbps
*Size: 32MB

Tracklist:
1. Dunajew's Dance 06:05
2. Icy Trails, Fiery Halls 07:22
******************************
Total playing time: 13:27



[more=Extended info]Line - up:

J. - Vocals, Guitars, Bass, Drums (ex-Slasher, ex-Flesh Pervertor, ex-Hāg)[/more]

[more=Technical info]
Input File: 01. Dunajew\'s Dance.mp3
Channels : 2
Sample Rate : 44100
Precision : 16-bit
Duration : 00:06:05.63 = 16124415 samples = 27422.5 CDDA sectors
File Size : 14.6M
Bit Rate : 320k
Sample Encoding: MPEG audio (layer I, II or III)
Comments :
Title=Dunajew's Dance
Artist=Noctopus
Album=Dunajew's Dance (EP)
Tracknumber=1
Year=2019
Genre=Post-Black Metal

[/more]

Register
(8) 1968_janeart, artscald, kim666, Olethros, robertho777, Rosen, vasiljev_sergej, wreak,
Sep 1 2019, 17:03:54 Swamp Temple - Life As Far From The World Today (2019)


*Artist: Swamp Temple
*Album: Life As Far From The World Today
*Year: 2019
*Genre: Black Metal
*Country: United States
*Format: mp3@CBR320kbps
*Size: 76MB

Tracklist:
Side A - Swamp
1. Dread Existence 03:42
2. The Longest Night 05:48
3. Walk the Forest Edge 03:42
4. Monolith of Destruction 02:45
5. Into Death's Passage 04:18
Side B - Temple
6. Consuming Entity 03:57
7. Life as Far from the World Today pt I 04:06
8. Life as Far from the World Today pt II 03:27
******************************
Total playing time: 31:45



[more=Extended info]Line - up:

Jake Boardman - Everything

[/more]

[more=Technical info]
Input File: 01. Dread existence.mp3
Channels : 2
Sample Rate : 44100
Precision : 16-bit
Duration : 00:03:42.63 = 9818027 samples = 16697.3 CDDA sectors
File Size : 8.91M
Bit Rate : 320k
Sample Encoding: MPEG audio (layer I, II or III)
Comments :
Title=Dread existence
Artist=Swamp Temple
Album=Life as far from the world today
Tracknumber=1
Year=2019
Genre=138

[/more]

Register
(15) 1968_janeart, artscald, atavist, Hell_Is_Here, kim666, nemx, Olethros, Rosen, Rover, SilentNidhogg, stub888, toly1917, VALERY, vasiljev_sergej, wreak,
Sep 1 2019, 16:36:03 Lothric - Adversarial Light (2019)


*Artist: Lothric
*Album: Adversarial Light
*Year: 2019
*Genre: Melodic Black Metal
*Country: United States
*Format: mp3@CBR320kbps
*Size: 104MB

Tracklist:
1. The Sanctity of Fire 04:26
2. Werewolves of Lapland 04:16
3. Vampiric Ascension 06:28
4. Eternal Northern Call 04:51
5. Crown of the Morning Star 05:58
6. My Temple of Flesh and Worms 04:52
7. Possessed by Strength 04:30
8. True Death 07:26
******************************
Total playing time: 42:47



[more=Extended info]Line - up:

Seath - All instruments, Vocals (Primal Gore, Sculpted Horror, Woccon, Chopping Mall, ex-Valkiria, ex-Peregrine)

[/more]

[more=Technical info]
Input File: 01 The Sanctity of Fire.mp3
Channels : 2
Sample Rate : 44100
Precision : 16-bit
Duration : 00:04:26.86 = 11768438 samples = 20014.4 CDDA sectors
File Size : 10.7M
Bit Rate : 320k
Sample Encoding: MPEG audio (layer I, II or III)
Comments :
Title=The Sanctity Of Fire
Artist=Lothric
Album=Adversarial Light
Tracknumber=01
Year=2019
Genre=Melodic Black Metal

[/more]

Register
(14) andivi, artscald, kim666, kimkayoung, metalwoman, Mogozoz, Olethros, Rosen, Rover, Shadechaser, TeamatSE, VALERY, wreak, zhol,
Aug 31 2019, 18:53:21 Ergerlig - Virulent Hag [ep] (2019)


*Artist: Ergerlig
*Album: Virulent Hag [ep]
*Year: 2019
*Genre: Black Metal
*Country: Australia
*Format: mp3@CBR320kbps
*Size: 62MB

Tracklist:
1. Cursed 05:08
2. No God Awaits 05:38
3. Heathen Lust 05:04
4. Virulent Hag 06:53
5. Into the Crypts of Rays (Celtic Frost cover) 03:45
******************************
Total playing time: 26:28



[more=Technical info]
Input File: 01. Cursed.mp3
Channels : 2
Sample Rate : 44100
Precision : 16-bit
Duration : 00:05:08.63 = 13610583 samples = 23147.2 CDDA sectors
File Size : 12.4M
Bit Rate : 323k
Sample Encoding: MPEG audio (layer I, II or III)
Comments :
Title=Cursed
Artist=Ergerlig
Album=Virulent Hag (EP)
Tracknumber=1
Year=2019
Genre=138

[/more]

Register
(13) 1968_janeart, artscald, cist, infiltrator, kim666, Olethros, RENыч, Rosen, SilentNidhogg, stub888, VALERY, vasiljev_sergej, wreak,
Aug 31 2019, 17:59:30 Stillbirth - Back To The Stoned Age (2019)


*Artist: Stillbirth
*Album: Back To The Stoned Age
*Year: 2019
*Genre: Brutal Death Metal/Deathcore
*Country: Germany
*Format: mp3@CBR320kbps
*Size: 88MB

Tracklist:
1. Riot auffer Buehne 2.0 03:18
2. Open Up This Fkn Pit 2.0 03:28
3. Endgame Is Near 2.0 02:37
4. Human Parasite 2.0 03:00
5. Chainsaw vs. Face 2.0 00:49
6. Beating Pacifists 2.0 02:41
7. Global Error 2.0 02:58
8. Individual Related 2.0 01:37
9. Legalize It 02:31
10. Steuerklasse 1 und keiner sagt danke 2.0 01:55
11. Addicted to Abortion 2.0 04:16
12. On the Edge of Society 2.0 04:17
13. Brootal Party 2.0 03:15
******************************
Total playing time: 36:42



[more=Extended info]Old songs re-recorded with actual line up + unreleased new songs

Line - up:

Lukas Swiaczny - Vocals (lead) (Placenta Powerfist, Ingested (live), XavlegbmaofffassssitimiwoamndutroabcwapwaeiippohfffX (live))
Dominik "Pumpa" König - Bass, Vocals (backing) (ex-Bereaved, ex-Anus Predator, ex-B(ind) T(orture) K(ill), ex-Immortal Pumpas Tubagrindcombo, ex-Incredible, ex-Lawriderz, ex-S.A.R.S, ex-Unseen Holocaust, ex-Used Cars, ex-Victims of Evil)
Martin Grupe - Drums (Diaroe, ex-Lethal Dawn, ex-Wounded Entrails, The John Doe Massacre, XavlegbmaofffassssitimiwoamndutroabcwapwaeiippohfffX (live))
Sims Stürmlinger - Guitars (ex-God Delusion, ex-Ichorid)
Jens Strack - Guitars (Obsolete Incarnation, ex-By Brute Force)
Lukas Kaminski - Bass (Diaroe, Omnivores, Placenta Powerfist, XavlegbmaofffassssitimiwoamndutroabcwapwaeiippohfffX (live), ex-Divine:Zero, ex-In Weak Lights (live))

[/more]

[more=Technical info]
Input File: 05_stillbirth-chainsaw_vs_face_2_0_(ft_kaushal_lakiradipali)-utp.mp3
Channels : 2
Sample Rate : 44100
Precision : 16-bit
Duration : 00:00:49.82 = 2197106 samples = 3736.57 CDDA sectors
File Size : 2.00M
Bit Rate : 321k
Sample Encoding: MPEG audio (layer I, II or III)
Comments :
Title=Chainsaw Vs. Face 2.0 (ft Kaushal Lakiradipali)
Artist=Stillbirth
Album=Back To The Stoned Age
Tracknumber=5
Year=2019-08-31
Genre=Brutal Death Metal/Deathcore

[/more]

Register
(15) aa144aa, artscald, atavist, Bloodn Lord, Hell_Is_Here, infiltrator, jollo, maochen, Olethros, Ostin Devil, Rosen, Saalingurth, vyacheslav, wreak, WX419,
Aug 31 2019, 17:04:44 Círculo En El Sol - Eternauta [single] (2019)


*Artist: Círculo En El Sol
*Album: Eternauta [single]
*Year: 2019
*Genre: Progressive Stoner Rock/Metal
*Country: Chile
*Format: flac
*Size: 75MB

Tracklist:
1. Eternauta 07:07
******************************
Total playing time: 7:07



[more=Extended info]Line - up:
Fernando "Iwa" Zapata - Drums (Dishearthed)
ítalo Sánchez - Bass
Federico Santander - Guitars
Gonzalo Pairoa - Guitars, Vocals

Guest/Session:
Fabrizio Cremaschi - Vocals (backing)

[/more]

Register
(3) infiltrator, Olethros, Rosen,
Aug 31 2019, 16:52:14 Alchemical Wake - Cassiopea (2019)


*Artist: Alchemical Wake
*Album: Cassiopea
*Year: 2019
*Genre: Drone/Doom/Stoner Metal
*Country: Italy
*Format: mp3@CBR320kbps
*Size: 89MB

Tracklist:
1. Libra 11:50
2. Noctua 07:26
3. Orion 08:02
4. Andromeda 13:36
******************************
Total playing time: 40:54



[more=Extended info]Line - up:

Staffilocheccons - Drums (The Made in Indonesia, Venanera)
Rod Raner - Vocals, Guitars, Bass (The Made in Indonesia)

[/more]

[more=Technical info]
Input File: 03. Orion.mp3
Channels : 2
Sample Rate : 44100
Precision : 16-bit
Duration : 00:08:02.96 = 21298316 samples = 36221.6 CDDA sectors
File Size : 19.3M
Bit Rate : 320k
Sample Encoding: MPEG audio (layer I, II or III)
Comments :
Title=Orion
Artist=Alchemical Wake
Album=Cassiopea
Tracknumber=3
Year=2019
Genre=Drone/Doom/Stoner Metal

[/more]

Register
(9) artscald, infiltrator, Olethros, Ostinato, Rosen, skidnik, stub888, valafar, wreak,
Aug 30 2019, 19:03:06 Beeldenstorm - Herkoms (2019)


*Artist: Beeldenstorm
*Album: Herkoms
*Year: 2019
*Genre: Melodic Death Metal
*Country: South Africa
*Format: mp3@CBR320kbps
*Size: 80MB

Tracklist:
1. Boerewors 03:07
2. Die Plaag 02:48
3. Siener 03:56
4. Die Vrees 03:03
5. Woltemade 03:46
6. Varings 04:18
7. Oupoot 03:34
8. Heiden 04:14
9. Asielstad 05:14
******************************
Total playing time: 34:00



[more=Extended info]Line - up:

Waldi van Hunks - Guitars (lead) (Woltemade)
Stephen Brink-Jones - Guitars (rhythm)
Hilton Niersteen Olivier - Vocals
Eugene Rossouw - Bass
Alex Toua - Drums

[/more]

[more=Technical info]
Input File: 03. Siener.mp3
Channels : 2
Sample Rate : 44100
Precision : 16-bit
Duration : 00:03:56.66 = 10436662 samples = 17749.4 CDDA sectors
File Size : 9.47M
Bit Rate : 320k
Sample Encoding: MPEG audio (layer I, II or III)
Comments :
Title=Siener
Artist=Beeldenstorm
Album=Herkoms
Tracknumber=3
Year=2019
Genre=Melodic Death Metal

[/more]

Register
(13) artscald, BugEyes, DenisKov, metalwoman, Mogozoz, Olethros, Rosen, sergsazan, terron, VALERY, wreak, zhol, Сварог Барг,
Aug 30 2019, 18:57:40 The Virulent - Sentenced To Death (2019)


*Artist: The Virulent
*Album: Sentenced To Death
*Year: 2019
*Genre: Death/Thrash Metal
*Country: United States
*Format: mp3@CBR320kbps
*Size: 67MB

Tracklist:
1. Eye of the Storm 00:42
2. They Live 05:18
3. The Other 99 05:03
4. Sacred Lands 05:09
5. The Protocol... We Are the Virulent 03:59
6. Drones 04:15
7. Sentenced to Death 05:47
******************************
Total playing time: 30:13



[more=Extended info][/more]

[more=Technical info]
Input File: 02. They Live.mp3
Channels : 2
Sample Rate : 44100
Precision : 16-bit
Duration : 00:05:17.77 = 14013833 samples = 23833 CDDA sectors
File Size : 12.7M
Bit Rate : 321k
Sample Encoding: MPEG audio (layer I, II or III)
Comments :
Title=They Live
Artist=The Virulent
Album=Sentenced to Death
Tracknumber=2
Year=2019
Genre=Death/Thrash Metal

[/more]

Register
(11) artscald, atavist, boby9052, jollo, metala, older68, Olethros, Rosen, sergsazan, wgs73, wreak,
Aug 30 2019, 18:14:17 Demonhead - Black Devil Lies (2019)


*Artist: Demonhead
*Album: Black Devil Lies
*Year: 2019
*Genre: Heavy Metal
*Country: Australia
*Format: mp3@CBR320kbps
*Size: 97MB

Tracklist:
1. Against the Grain 04:50
2. Betrayal Avenged 03:15
3. The Ritual 02:53
4. Children of the Night 04:27
5. Blood Debt 03:58
6. Black Devil Lies 03:29
7. Eyes of the Insane 04:56
8. Zombocalypse 03:20
9. Double Cross the Dead 04:15
10. Face Your Demons 05:26
******************************
Total playing time: 40:49



[more=Extended info]Line - up:

Mav - Bass (Envenomed, ex-Eye of the Enemy)
Dean Lewer - Drums (ex-Horizons Edge)
Rooey Dog Dogskin - Guitars, Vocals (backing)
Squid - Vocals (lead), Guitars (ex-Envenomed, ex-In Malice's Wake)

[/more]

[more=Technical info]
Input File: 10. Face Your Demons.mp3
Channels : 2
Sample Rate : 44100
Precision : 16-bit
Duration : 00:05:26.68 = 14406676 samples = 24501.1 CDDA sectors
File Size : 13.1M
Bit Rate : 321k
Sample Encoding: MPEG audio (layer I, II or III)
Comments :
Title=Face Your Demons
Artist=Demonhead
Album=Black Devil Lies
Tracknumber=10
Year=2019
Genre=137

[/more]

Register
(13) artscald, aviacademy, Herrant, metalwoman, Mogozoz, Olethros, pichileon, Rover, sergsazan, vir2al, wgs73, wreak, Сварог Барг,
Aug 30 2019, 17:47:28 Glass Skeleton Death March - Marauder (2019)


*Artist: Glass Skeleton Death March
*Album: Marauder
*Year: 2019
*Genre: Heavy Metal/Hard Rock
*Country: United States
*Format: mp3@CBR320kbps
*Size: 95MB

Tracklist:
1. The Gathering Storm 01:27
2. Magnus Oculus 04:59
3. Futility 06:05
4. End of Days 04:37
5. Bloodletter 05:19
6. Afterburner 03:14
7. Visions of the Dead 05:16
8. Terror of the Eternal Night 01:46
9. The City Within 06:45
******************************
Total playing time: 39:28



[more=Extended info]Line - up:

Juice - Bass (Anabasis, ex-Declension)
Vincent Octavio - Drums
Tim-Tam - Guitars
Sean O'Riley - Vocals

[/more]

[more=Technical info]
Input File: 03. Futility.mp3
Channels : 2
Sample Rate : 44100
Precision : 16-bit
Duration : 00:06:05.92 = 16137072 samples = 27444 CDDA sectors
File Size : 14.7M
Bit Rate : 321k
Sample Encoding: MPEG audio (layer I, II or III)
Comments :
Title=Futility
Artist=Glass Skeleton Death March
Album=Marauder
Tracknumber=3
Year=2019
Genre=Heavy Metal/Hard Rock

[/more]

Register
(7) artscald, Mogozoz, Olethros, Olrak, Rosen, Rover, wreak,

70 Pages V   1 2 3 > » 
- Lo-Fi Version Support form
Copyrights and abuse reports form
Time is now: 16th September 2019 - 15:05:11