Welcome Guest ( Log In | Register )

История благодарностей участнику Necrokilldozer ::: Спасибо сказали: 17823 раз(а)
Дата поста: В теме: За сообщение: Спасибо сказали:
Yesterday, 17:42:27 Feasting & Erythrite Throne - Feasting​/​ Erythrite Throne [split] (2019)


*Artist: Feasting & Erythrite Throne
*Album: Feasting​/​ Erythrite Throne [split]
*Year: 2019
*Genre: Folk/Black Metal/Ambient | Black/Doom Metal/Ambient
*Country: United States | Canada
*Format: mp3@CBR320kbps
*Size: 136MB

Tracklist:
Feasting:
1.Herbs in the Garden 06:27
2.Sacred Summons 04:46
3.Rain upon Fields of Green 08:20
4.Guiding Me Home 09:24
Erythrite Throne:
5.Scrolls of Desolate Wisdom 08:00
6.The Amethyst Castle 04:10
7.Staff of Hag's Wrath 07:33
8.A Gleam of Malevolence 08:56
******************************
Total playing time: 57:36



[more=Extended info]FLAC RIP[/more]

[more=Technical info]
Input File: 06. The Amethyst Castle (Erythrite Throne).mp3
Channels : 2
Sample Rate : 44100
Precision : 16-bit
Duration : 00:04:10.27 = 11036907 samples = 18770.2 CDDA sectors
File Size : 10.0M
Bit Rate : 320k
Sample Encoding: MPEG audio (layer I, II or III)
Comments :
Title=The Amethyst Castle (Erythrite Throne)
Artist=Erythrite Throne
Album=Feasting / Erythrite Throne (Split)
Tracknumber=6
Year=2019
Genre=Black/Doom Metal/Ambient

[/more]

Register
(3) gena, satanist666, vasiljev_sergej,
Jan 21 2020, 19:56:31 Fabula Rasa - Through The Molten Eye [ep] (2020)


*Artist: Fabula Rasa
*Album: Through The Molten Eye [ep]
*Year: 2020
*Genre: Power/Folk Metal
*Country: Germany
*Format: flac
*Size: 142MB

Tracklist:
1.Gap in the World 04:08
2.Sanity 04:17
3.The Path 04:18
4.Arienne Firefly 06:05
******************************
Total playing time: 18:48



[more=Extended info]Line - up:

Daniel Neugebauer - Bass
Dennis Steinmann - Drums (Valcyrion)
Gerrit Neumann - Guitars (Hidden Agenda)
Pedro Espinosa Menchen - Guitars
Lucia Bovender - Violin
Achim Hopf - Vocals (Ferromanic, Stallion, ex-Hyghlander)

[/more]

Register
(6) infiltrator, Olethros, Rosen, satanist666, sergsazan, zhol,
Jan 21 2020, 18:35:03 Eluveitie - Live At Masters Of Rock [live] (2019)


*Artist: Eluveitie
*Album: Live At Masters Of Rock [live]
*Year: 2019
*Genre: Folk/Melodic Death Metal, Folk
*Country: Switzerland
*Format: mp3@CBR320kbps
*Size: 177MB

Tracklist:
1.Ategnatos
2.King
3.The Call of the Mountains
4.Deathwalker
5.Worship
6.Artio
7.Epona
8.A Rose for Epona
9.Thousandfold
10.Ambiramus
11.Drumsolo
12.Havoc
13.Breathe
14.Helvetios
15.Rebirth
16.Inis Mona
******************************
Total playing time: 1:15:16





[more=Extended info]Line - up:

Chrigel Glanzmann - Vocals, Whistle, Mandola (ex-Folkearth, ex-Branâ Keternâ, ex-Môr Cylch, ex-Sacer, ex-Verveine)
Kay Brem - Bass (In Slumber, ex-Tribes of Caïn, ex-Cataract)
Rafael Salzmann - Guitars (lead) (Tvinna)
Nicole Ansperger - Violin (Paddy Goes to Holyhead, ex-Haggard (live), ex-Across the Border, ex-The Hooters (live))
Matteo Sisti - Whistle, Bagpipes, Uilleann pipes, Bodhrán, Bagpipes, Whistles, - Guitars (acoustic) (Krampus)
Alain Ackermann - Drums (ex-Suborned, ex-TinkaBelle, ex-Terry Lynn (live))
Jonas Wolf - Guitars (rhythm), Guitars (Illumishade, Tobey Lucas, Spandex of Doom (live), The Bianca Story (live), The Wedding Party Massacre (live))
Michalina Malisz - Hurdy gurdy
Fabienne Erni - Vocals, Harp (Illumishade, Spandex of Doom (live))

[/more]

[more=Technical info]
Input File: 05. Worship (Live).mp3
Channels : 2
Sample Rate : 44100
Precision : 16-bit
Duration : 00:05:27.15 = 14427403 samples = 24536.4 CDDA sectors
File Size : 13.1M
Bit Rate : 320k
Sample Encoding: MPEG audio (layer I, II or III)
Comments :
Title=Worship (Live)
Artist=Eluveitie
Album=Live at Masters of Rock (Live)
Tracknumber=5
Year=2019
Genre=Folk/Melodic Death Metal, Folk

[/more]

Register
(14) Bregon, caro, Fater_Hu, Forest, infiltrator, let4ikmiha, Olethros, postal67, Reverend, Rosen, sergsazan, stone88, VALERY, Сварог Барг,
Jan 21 2020, 17:49:42 Initiation - Demo [demo] (2020)


*Artist: Initiation
*Album: Demo [demo]
*Year: 2020
*Genre: Black/Death Metal
*Country: France
*Format: mp3@CBR320kbps
*Size: 54MB

Tracklist:
1.Rituels 08:18
2.Noir berger des âmes 06:50
3.Dans la mort l'illusion 07:29
******************************
Total playing time: 22:37



[more=Extended info]FLAC RIP[/more]

[more=Technical info]
Input File: 03. Dans la mort l\'illusion.mp3
Channels : 2
Sample Rate : 44100
Precision : 16-bit
Duration : 00:07:29.26 = 19812146 samples = 33694.1 CDDA sectors
File Size : 18.0M
Bit Rate : 320k
Sample Encoding: MPEG audio (layer I, II or III)
Comments :
Title=Dans la mort l'illusion
Artist=Initiation
Album=Demo (Demo)
Tracknumber=3
Year=2020
Genre=Black/Death Metal

[/more]

Register
(8) infiltrator, Olethros, Rosen, satanist666, thenecromancer, VALERY, vasiljev_sergej, wanderer73,
Jan 20 2020, 17:01:33 Psychosurgical Intervention - Prologue [ep] (2020)


*Artist: Psychosurgical Intervention
*Album: Prologue [ep]
*Year: 2020
*Genre: Brutal Death Metal
*Country: Russian Federation
*Format: mp3@CBR320kbps
*Size: 44MB

Tracklist:
1.Manmade Omnicidal Purgation 03:43
2.Pedosadistic Chemical Immobilization 04:15
3.Savage Revengeful Execution 04:09
4.Insidious Punitive Invasion 02:31
5.Mass Slaughter Retaliation 03:47
******************************
Total playing time: 18:25



[more=Extended info]Line - up:

Roman Kartashov - Guitars, Bass, Vocals (Kraworath)
Peter Fateyev - Drums (Svartstorm, ex-Князь Тьмы, ex-Рви Меха!, ex-Стихия, Пламя в Нас, Сколот, ex-Activator, ex-Dawhn, ex-Druknroll, ex-Eternal Hate (live), ex-Духи Предков, ex-Demogorgoth (live), ex-Икзорт, ex-Furycracy (live), ex-Avoiding Sins, ex-Едва Ли (live))[/more]

[more=Technical info]
Input File: 05. Mass Slaughter Retaliation.mp3
Channels : 2
Sample Rate : 44100
Precision : 16-bit
Duration : 00:03:47.10 = 10015022 samples = 17032.4 CDDA sectors
File Size : 9.09M
Bit Rate : 320k
Sample Encoding: MPEG audio (layer I, II or III)
Comments :
Title=Mass Slaughter Retaliation
Artist=Psychosurgical Intervention
Album=Prologue (EP)
Tracknumber=5
Year=2020-01-20
Genre=Brutal Death Metal

[/more]

Register
(10) Bregon, cesar, Grev, infiltrator, maochen, morbidangelo, Olethros, Rosen, satanist666, spazm,
Jan 19 2020, 19:04:39 Firstbourne - Pick Up The Torch (2019)


*Artist: Firstbourne
*Album: Pick Up The Torch
*Year: 2019
*Genre: Melodic Heavy Metal/Rock
*Country: United States
*Format: mp3@CBR320kbps
*Size: 144MB

Tracklist:
1.Intro 00:43
2.Home 03:23
3.Truth of the Lion 04:20
4.Control 03:43
5.New Tomorrow 03:35
6.When Morning Breaks 04:16
7.My Choices 04:11
8.Breaking Chains 04:08
9.Riot 03:35
10.Firstbourne Heart 03:36
11.Pretend 03:26
12.For Now 04:22
13.Pick up the Torch 03:52
14.Spinning Out 03:05
15.Symphony of Subconscious 04:47
16.Rising Force (Yngwie J. Malmsteen cover) 04:49
******************************
Total playing time: 59:51



CDBaby

[more=Extended info]Line - up:

Ven Thangaraj - Bass (Hostilian, Mike Kerr)
Mike Kerr - Guitars (Mike Kerr)
Joe Bertola - Drums (Mike Kerr)
Ian Raposa - Vocals (Without Warning, Fever Pitch)[/more]

[more=Technical info]
Input File: 03. Truth Of The Lion.mp3
Channels : 2
Sample Rate : 44100
Precision : 16-bit
Duration : 00:04:20.41 = 11483905 samples = 19530.5 CDDA sectors
File Size : 10.5M
Bit Rate : 322k
Sample Encoding: MPEG audio (layer I, II or III)
Comments :
Title=Truth Of The Lion
Artist=FirstBourne
Album=Pick Up The Torch
Tracknumber=3
Year=2019
Genre=Melodic Heavy Metal/Rock

[/more]

Register
(9) AHBAnep, infiltrator, metala, Olethros, postal67, Rosen, Rover, sadmannn, Сварог Барг,
Jan 19 2020, 09:03:31 Dark Cinder - Akelarre Beltzaren Sugarra [ep] (2019)


*Artist: Dark Cinder
*Album: Akelarre Beltzaren Sugarra [ep]
*Year: 2019
*Genre: Raw Pagan Black Metal
*Country: Spain
*Format: mp3@CBR320kbps
*Size: 67MB

Tracklist:
1.Vocationem 03:38
2.Tributum diaboli 03:07
3.Bacchanalia 07:16
4.Festum 06:34
5.Outro 07:50 instrumental
******************************
Total playing time: 28:25



[more=Extended info]Line - up:

A.U. - All instruments, Vocals

[/more]

[more=Technical info]
Input File: 04. Festum.mp3
Channels : 2
Sample Rate : 44100
Precision : 16-bit
Duration : 00:06:34.08 = 17379016 samples = 29556.1 CDDA sectors
File Size : 15.8M
Bit Rate : 320k
Sample Encoding: MPEG audio (layer I, II or III)
Comments :
Title=Festum
Artist=Dark Cinder
Album=Akelarre beltzaren sugarra (EP)
Tracknumber=4
Year=2019
Genre=Raw Pagan Black Metal

[/more]

Register
(12) Hefir, infiltrator, kim666, morbidangelo, Olethros, Raw1488, Rosen, satanist666, SilentNidhogg, stub888, vasiljev_sergej, zhol,
Jan 17 2020, 19:30:39 Revenant Marquis - Youth In Ribbons (2020)


*Artist: Revenant Marquis
*Album: Youth In Ribbons
*Year: 2020
*Genre: Raw Black Metal
*Country: United Kingdom
*Format: mp3@CBR320kbps
*Size: 90MB

Tracklist:
1.Menstruation 01:38
2.Ephebiphobia 04:08
3.Ephebophilic Wraith 04:31
4.Grave Lit Transmogrification 05:23
5.Ysgol 03:25
6.The Blood of Lady Tasker 02:00
7.The Bones of Lady Tasker 03:49
8.Taskermilward 03:39
9.The Incorporeal Hallways 04:26
10.Propagator of an Unspeakable Incestuous Coven 04:59
******************************
Total playing time: 37:58



[more=Technical info]
Input File: 07. The Bones of Lady Tasker.mp3
Channels : 2
Sample Rate : 44100
Precision : 16-bit
Duration : 00:03:48.90 = 10094490 samples = 17167.5 CDDA sectors
File Size : 9.16M
Bit Rate : 320k
Sample Encoding: MPEG audio (layer I, II or III)
Comments :
Title=The Bones of Lady Tasker
Artist=Revenant Marquis
Album=Youth in Ribbons
Tracknumber=07
Year=2020
Genre=Raw Black Metal

[/more]

Register
(15) 1968_janeart, ASkyThatBurns, atavist, Cosmic_Sorcerer, infiltrator, judaz, kim666, Olethros, Rosen, satanist666, SilentNidhogg, Tyrone, VALERY, vasiljev_sergej, zhol,
Jan 17 2020, 18:37:50 Die Like Gentlemen - Stories (2020)


*Artist: Die Like Gentlemen
*Album: Stories
*Year: 2020
*Genre: Sludge/Progressive Doom Metal
*Country: United States
*Format: mp3@CBR320kbps
*Size: 97MB

Tracklist:
1.Blind in One Eye
2.The Head of John the Baptist
3.Empty Kettle
4.After We're Dead
5.Drought
6.Harbinger of Joy
7.Dead Skin Mask
8.Come Closer
******************************
Total playing time: 40:24



[more=Extended info]Line - up:

Sean - Bass
Shawn - Drums
Adam - Guitars, Vocals
Matt - Guitars (lead)

[/more]

[more=Technical info]
Input File: 01 - Blind in One Eye.mp3
Channels : 2
Sample Rate : 44100
Precision : 16-bit
Duration : 00:01:42.15 = 4504683 samples = 7661.03 CDDA sectors
File Size : 4.14M
Bit Rate : 324k
Sample Encoding: MPEG audio (layer I, II or III)
Comments :
Title=Blind in One Eye
Artist=Die Like Gentlemen
Album=Stories
Tracknumber=1
Year=2020
Genre=Sludge/Progressive Doom Metal

[/more]

Register
(8) ASkyThatBurns, infiltrator, metala, Olethros, stub888, stumpheavyrock, templeofdoometal, VALERY,
Jan 17 2020, 17:34:07 Dragonlore - Lucifer's Descent (2020)


*Artist: Dragonlore
*Album: Lucifer's Descent
*Year: 2020
*Genre: Heavy/Power Metal
*Country: United States
*Format: mp3@CBR320kbps
*Size: 113MB

Tracklist:
1.Lucifer's Descent 03:27
2.At the Mercy of Kings 04:35
3.Destroyer of Thee Undead 04:25
4.Blood of the Barbarian 03:52
5.Hand of the Gypsy 07:23
6.Saved by Love 05:38
7.Witchunt 04:48
8.Lord of Illusion 03:45
9.Tomb of Alalu 05:18
10.Driving Out the Demons 05:11
******************************
Total playing time: 48:22



[more=Extended info]Line - up:

Marty Buchaus - Bass, Vocals (backing) (ex-Stone Magnum, ex-Black Rhoades, ex-Latent Fury)
James Marlow - Drums
Skip Stinski - Guitars, Vocals (backing)
Jim Brucks - Guitars, Vocals (backing) (ex-Stone Magnum, Black Rhoades, Quadra)
Joe Lawson - Vocals (lead) (ScreamKing, ex-Cryptic Visions, ex-Mutinys Fold, ex-Wrath of Wolves, ex-Blind Rage, ex-Structural Damage)

[/more]

[more=Technical info]
Input File: 07 - Witchunt.mp3
Channels : 2
Sample Rate : 44100
Precision : 16-bit
Duration : 00:04:48.46 = 12721262 samples = 21634.8 CDDA sectors
File Size : 11.6M
Bit Rate : 322k
Sample Encoding: MPEG audio (layer I, II or III)
Comments :
Title=Witchunt
Artist=Dragonlore
Album=Lucifer's Descent
Tracknumber=7
Year=2020
Genre=Heavy/Power Metal

[/more]

Register
(17) ace73pq, ASkyThatBurns, aviacademy, gwar, Herrant, infiltrator, metala, morbidangelo, Niknne, Olethros, postal67, Rosen, Rover, satanist666, sergsazan, VALERY, zhol,
Jan 17 2020, 16:55:09 Rage Of Samedi - Blood Ritual (2020)


*Artist: Rage Of Samedi
*Album: Blood Ritual
*Year: 2020
*Genre: Doom Metal/Sludge
*Country: Germany
*Format: mp3@CBR320kbps
*Size: 85MB

Tracklist:
1.I Spit Hate
2.Abyss
3.Blood Ritual
4.Grief
5.RPLS
6.Charlie Says pt II
7.Last Words
******************************
Total playing time: 35:25



[more=Extended info]Line - up:

Ian O'Field - Drums
Sam D. Durango - Guitars (ex-Cry of Mankind, ex-John Frums Cargo Cult, ex-SLUG)
Lou Cifer - Vocals
Nick 'Scrios' Perkele - Bass (The Whiteness of the Whale, ex-Threnodia, ex-Nocturnal Opera, Necrovulpes, Nicolas "Scrios" Perrault, PTAH, Revelation, Verachtung)
Thorsten - Guitars (lead)

[/more]

[more=Technical info]
Input File: 03 - Blood Ritual.mp3
Channels : 2
Sample Rate : 44100
Precision : 16-bit
Duration : 00:06:21.91 = 16842143 samples = 28643.1 CDDA sectors
File Size : 15.4M
Bit Rate : 322k
Sample Encoding: MPEG audio (layer I, II or III)
Comments :
Title=Blood Ritual
Artist=Rage Of Samedi
Album=Blood Ritual
Tracknumber=03
Year=2020
Genre=Doom/Sludge Metal

[/more]

Register
(9) ASkyThatBurns, gena, infiltrator, metala, Olethros, Rosen, SatanicPanzer, stub888, VALERY,
Jan 17 2020, 16:29:09 Elder Druid - Golgotha (2020)


*Artist: Elder Druid
*Album: Golgotha
*Year: 2020
*Genre: Doom Metal/Sludge
*Country: United Kingdom
*Format: mp3@CBR320kbps
*Size: 88MB

Tracklist:
1.Sleeping Giant 05:35
2.Golgotha 06:41
3.Sentinel 03:15
4.Vincere Vel Mori 05:32
5.Dreadnought 06:32
6.Paegan Dawn of Anubis 06:00
7.The Archmage 06:14
******************************
Total playing time: 39:49



[more=Extended info]Line - up:

Dale Hughes - Bass,Fender Rhodes, Theremin (Electric Octopus, ex-'Tric, ex-The Hardjets)
Brien Gillen - Drums
Jake Wallace - Guitars (lead)
Mikey Scott - Guitars (rhythm)
Gregg McDowell - Vocals

[/more]

[more=Technical info]
Input File: 03-elder_druid-sentinel-b7425a96.mp3
Channels : 2
Sample Rate : 44100
Precision : 16-bit
Duration : 00:03:15.17 = 8607173 samples = 14638 CDDA sectors
File Size : 7.81M
Bit Rate : 320k
Sample Encoding: MPEG audio (layer I, II or III)
Comments :
Title=Sentinel
Artist=Elder Druid
Album=Golgotha
Tracknumber=3
Year=2020
Genre=Doom/Sludge Metal

[/more]

Register
(14) Andr, ASkyThatBurns, Bolitho, denver, fishish, gena, infiltrator, NecroButcher, Olethros, Rosen, SaintVitus, sludge666, stub888, VALERY,
Jan 16 2020, 20:06:03 Steve Harris' British Lion - The Burning (2020)


*Artist: Steve Harris' British Lion
*Album: The Burning
*Year: 2020
*Genre: Hard Rock
*Country: United Kingdom
*Format: mp3@CBR320kbps
*Size: 143MB

Tracklist:
1.City of Fallen Angels 05:20
2.The Burning 05:15
3.Father Lucifer 04:38
4.Elysium 05:11
5.Lightning 05:49
6.Last Chance 06:05
7.Legend 04:06
8.Spit Fire 06:19
9.Land of the Perfect People 04:52
10.Bible Black 06:33
11.Native Son 06:03
******************************
Total playing time: 1:00:11



[more=Extended info]Line - up:

Steve Harris - Bass (Iron Maiden, ex-Gypsy's Kiss, ex-Smiler)
Simon Dawson - Drums (ex-Dearly Beheaded, ex-Deep Switch, The Dead Soul Communion, ex-Devilment, ex-Airrace, ex-The Outfield)
Grahame Leslie - Guitars (ex-British Lion, ex-The Outfield (live))
David Hawkins - Guitars, Keyboards (ex-Inner Sanctum)
Richard Taylor - Vocals (ex-British Lion)

[/more]

[more=Technical info]
Input File: 05. Lightning.mp3
Channels : 2
Sample Rate : 44100
Precision : 16-bit
Duration : 00:05:49.83 = 15427415 samples = 26237.1 CDDA sectors
File Size : 14.0M
Bit Rate : 320k
Sample Encoding: MPEG audio (layer I, II or III)
Comments :
Title=Lightning
Artist=Steve Harris' British Lion
Album=The Burning
Tracknumber=5
Year=2020
Genre=79

[/more]

Register
(11) A.L.Rapsod, cesar, Diflock, DMIYUR, Evgen79, infiltrator, Lord_Hip, mevgal, Old Vyaine, Olethros, rammmirez,
Jan 16 2020, 19:02:10 Crown Of Asteria - Fern Flower [single] (2019)


*Artist: Crown Of Asteria
*Album: Fern Flower [single]
*Year: 2019
*Genre: Atmospheric Black/Doom Metal/Folk/Ambient
*Country: United States
*Format: flac
*Size: 103MB

Tracklist:
1.Fern Flower 09:30 instrumental
******************************
Total playing time: 9:30



[more=Extended info]Line - up:

Meghan Wood - Everything (Andvari, Devils, Enon Chapel, Iarnvidjur, Smother, ex-Great Cold Emptiness)

[/more]

Register
(8) infiltrator, Occultas, Olethros, Rosen, satanist666, varlam4, vasiljev_sergej, zhol,
Jan 16 2020, 18:07:31 Briselas - Tierra De Poetas (2019)


*Artist: Briselas
*Album: Tierra De Poetas
*Year: 2019
*Genre: Celtic Folk Metal
*Country: Chile
*Format: mp3@CBR320kbps
*Size: 143MB

Tracklist:
1.Intro, tiempos de paz y guerra
2.Tierra de poetas
3.Licán
4.Perdido
5.La furia de Kai-Kai
6.El libro de los poetas (Capítulo I)
7.El Trauco
8.Duendes en el sur
9.Calafate
10.El cuento del brujo
11.El libro de los poetas (Capítulo II)
12.Leftraru, lejos del final
******************************
Total playing time: 59:44

spotify

[more=Extended info]Line - up:

Alain Duchens - Guitars
Rodrigo Guajardo - Guitars
Dam-Folk - Keyboards, Vocals (backing), Accordion
Juan Pablo Yañez Aburto - Vocals, Guitars (acoustic), Bass
Gerardo Fabres - Drums
Claudia Salamanca - Vocals

[/more]

[more=Technical info]
Input File: 04. Perdido.mp3
Channels : 2
Sample Rate : 44100
Precision : 16-bit
Duration : 00:04:02.33 = 10686665 samples = 18174.6 CDDA sectors
File Size : 9.75M
Bit Rate : 322k
Sample Encoding: MPEG audio (layer I, II or III)
Comments :
Title=Perdido
Artist=Briselas
Album=Tierra de Poetas
Tracknumber=04
Year=2019
Genre=Celtic Folk Metal

[/more]

Register
(13) ASkyThatBurns, aviacademy, Cartman223, chipsgott, djsema4, Foneg, gwar, infiltrator, Olethros, Oskulum, Rosen, satanist666, Сварог Барг,
Jan 15 2020, 20:05:04 Sallow Moth - The Larval Hope (2020)


*Artist: Sallow Moth
*Album: The Larval Hope
*Year: 2020
*Genre: Death Metal
*Country: United States
*Format: mp3@CBR320kbps
*Size: 74MB

Tracklist:
1.Noxious Revival 05:51
2.Death Mutation vs Metallurgic Summonings 03:07
3.The Larval Hope (Piercer of Spells) 04:39
4.Temporal Trespass 04:57
5.Ancient Grudge 04:02
6.Glimpse the Unthinkable 08:45
******************************
Total playing time: 31:21



[more=Extended info]Line - up:
Garry Brents - All instruments, Vocals, Songwriting (Cara Neir, Thō, ex-Ghastrah Proxiima, ex-Parabstruse, ex-Semen Across Lips, Bunrage, They Mostly Come Out at Night, ex-Wildspeaker, ex-Lunarian Sea, ex-Nautilusk, ex-Smoosz, ex-Sugar Highlands, ex-Writhe)

Guest/Session:
Armando Puente Jr - Guitar Solo on Track 1
Andrea Taylor - Robotic speech on Track 2

[/more]

[more=Technical info]
Input File: 03. The Larval Hope (Piercer of Spells).mp3
Channels : 2
Sample Rate : 44100
Precision : 16-bit
Duration : 00:04:39.87 = 12342179 samples = 20990.1 CDDA sectors
File Size : 11.2M
Bit Rate : 320k
Sample Encoding: MPEG audio (layer I, II or III)
Comments :
Title=The Larval Hope (Piercer of Spells)
Artist=Sallow Moth
Album=The Larval Hope
Tracknumber=3
Year=2020
Genre=22

[/more]

Register
(9) ASkyThatBurns, atavist, jollo, metala, multizwilling, Olethros, Rosen, serjred, VALERY,
Jan 15 2020, 19:39:23 Black Kirin - 秦淮 [ep] (2019)


*Artist: Black Kirin
*Album: 秦淮 [ep]
*Year: 2019
*Genre: Melodic Death/Folk Metal
*Country: China
*Format: mp3@CBR320kbps
*Size: 75MB

Tracklist:
1.秦淮 12:01
2.故土 02:57 instrumental
3.南京 05:17
4.卸甲一战 04:05
5.凶寒 03:45
6.黑太阳 03:10
******************************
Total playing time: 31:15



[more=Extended info]Line - up:

Fang Sen - Guitars
Huai Wei - Bass (Ephemerality, Skeletal Augury, ex-—)
杜思聪 - Drums
Wu Peng - Guitars (窒息, Massmurder, ex-Regicide)
Filth - Vocals (ObscureDream, Deep Throat, DirtyCreed, DyingMirage, ex-阵亡, ex-黑水仙)

[/more]

[more=Technical info]
Input File: 03 南京.mp3
Channels : 2
Sample Rate : 44100
Precision : 16-bit
Duration : 00:05:17.54 = 14003470 samples = 23815.4 CDDA sectors
File Size : 12.7M
Bit Rate : 320k
Sample Encoding: MPEG audio (layer I, II or III)
Comments :
Title=南京
Artist=Black Kirin
Album=秦淮 (EP)
Tracknumber=03
Year=2019
Genre=Melodic Death/Folk Metal

[/more]

Register
(13) ASkyThatBurns, Cartman223, Druidir, fuoco, gwar, Olethros, Orgasmik, Rosen, satanist666, VALERY, varlam4, Авел, Сварог Барг,
Jan 14 2020, 19:45:46 Beorn's Hall - High Command [single] (2019)


*Artist: Beorn's Hall
*Album: High Command [single]
*Year: 2019
*Genre: Pagan Black Metal
*Country: United States
*Format: flac
*Size: 71MB

Tracklist:
1.High Command (Earth cover) 05:36
******************************
Total playing time: 5:36



[more=Extended info]Line - up:

Vulcan - Drums, Vocals (Ancestral Shadows, Killbeast, ex-Trioxin, ex-Cryptic Defilement, Grind of the Dead (live), ex-Archaic Eclipse, ex-Sonic Pulse, ex-Wolven Skys, ex-Zamalustrious)
Rognvaldr - Guitars, Bass, Keyboards, Vocals (Storm of Evil, ex-Trioxin, ex-Cryptic Defilement, ex-Bloodshot, ex-Matricide, ex-Moon Worship, ex-Zamalustrious)

[/more]

Register
(6) dulak, infiltrator, Olethros, Rosen, satanist666, vasiljev_sergej,
Jan 14 2020, 19:28:09 Bauda - Brvjo (2019)


*Artist: Bauda
*Album: Brvjo
*Year: 2019
*Genre: Alternative/Post-Rock
*Country: Chile
*Format: mp3@CBR320kbps
*Size: 108MB

Tracklist:
1.Trance 06:03
2.Lúmina 06:22
3.Astro sur 05:32
4.Éter 06:30
5.Global Mesmerize 04:31
6.Brvjo 07:57
7.Solsticio 08:03
******************************
Total playing time: 44:58



[more=Extended info]Line - up:

Nicolas Recabarren - Drums
Pablo Selman - Bass
Eliseo Peña - Keyboards (Asterion, Favna Abisal, Nébirus)
César Márquez - Vocals, Guitars, Keyboards (Leuku, ex-Nefastus Abbatia, ex-Animus Mortis, ex-AstorVoltaires (live))
[/more]

[more=Technical info]
Input File: 07 - Solsticio.mp3
Channels : 2
Sample Rate : 44100
Precision : 16-bit
Duration : 00:08:02.90 = 21296022 samples = 36217.7 CDDA sectors
File Size : 19.3M
Bit Rate : 320k
Sample Encoding: MPEG audio (layer I, II or III)
Comments :
Title=Solsticio
Artist=Bauda
Album=Brvjo
Tracknumber=7
Year=2019
Genre=Post-Metal/Folk Metal

[/more]

Register
(7) 0x13, infiltrator, kimkayoung, Olethros, VALERY, varlam4, vasiljev_sergej,
Jan 14 2020, 18:15:37 Ad Omega - Golden Age In Blasphemy [ep] (2020)


*Artist: Ad Omega
*Album: Golden Age In Blasphemy [ep]
*Year: 2020
*Genre: Black Metal
*Country: Italy
*Format: mp3@CBR320kbps
*Size: 41MB

Tracklist:
1.Non Serviam 00:58
2.Lux(I)Fer 05:36
3.Heretical Path 03:35
4.Great Mother Lilith 07:08
******************************
Total playing time: 17:17



[more=Extended info]FLAC RIP

Line - up:

Noktvrnal - Guitars, Vocals (Sethlans)
Phersu - Guitars (lead), Bass, Vocals (backing), Drum programming, Synths (Shoreborn, Tractors, Voltumna, ex-Betelgeuse, ex-November Leaf, LSMD, ex-Mizar)

[/more]

[more=Technical info]
Input File: 02. Lux(I)Fer.mp3
Channels : 2
Sample Rate : 44100
Precision : 16-bit
Duration : 00:05:36.90 = 14857114 samples = 25267.2 CDDA sectors
File Size : 13.5M
Bit Rate : 320k
Sample Encoding: MPEG audio (layer I, II or III)
Comments :
Title=Lux(I)Fer
Artist=Ad Omega
Album=Golden Age in Blasphemy (EP)
Tracknumber=2
Year=2020
Genre=138

[/more]

Register
(14) 1968_janeart, ASkyThatBurns, infiltrator, kim666, Olethros, robertho777, Rosen, satanist666, scorpionmk, SilentNidhogg, stub888, VALERY, varlam4, vasiljev_sergej,
Jan 14 2020, 17:45:10 Black Tar Prophet - Sentenced [ep] (2020)


*Artist: Black Tar Prophet
*Album: Sentenced [ep]
*Year: 2020
*Genre: Instrumental Stoner/Doom Metal
*Country: United States
*Format: flac
*Size: 41MB

Tracklist:
1.Impious 02:52
2.Misery 02:46
******************************
Total playing time: 5:38



[more=Extended info]Line - up:

Greg Swinehart - Bass
Erik Dever - Drums

[/more]

Register
(5) infiltrator, marilin, Olethros, Rosen, thenecromancer,
Jan 14 2020, 17:23:42 Haderach - Cult Of Personality [ep] (2020)


*Artist: Haderach
*Album: Cult Of Personality [ep]
*Year: 2020
*Genre: Doom/Stoner Metal
*Country: Canada
*Format: mp3@CBR320kbps
*Size: 66MB

Tracklist:
1.Space Crusade 10:02
2.Vision from Within 08:42
3.Ghost of the Desert 08:37
******************************
Total playing time: 27:21



[more=Technical info]
Input File: 02. Vision From Within.mp3
Channels : 2
Sample Rate : 44100
Precision : 16-bit
Duration : 00:08:42.19 = 23028711 samples = 39164.5 CDDA sectors
File Size : 20.9M
Bit Rate : 320k
Sample Encoding: MPEG audio (layer I, II or III)
Comments :
Title=Vision From Within
Artist=Haderach
Album=Cult of Personality (EP)
Tracknumber=2
Year=2020
Genre=Doom/Stoner Metal

[/more]

Register
(8) ASkyThatBurns, infiltrator, marilin, Olethros, Rosen, stub888, stumpheavyrock, VALERY,
Jan 14 2020, 17:06:38 Wormreign - Wormreign [ep] (2020)


*Artist: Wormreign
*Album: Wormreign [ep]
*Year: 2020
*Genre: Black Metal
*Country: Canada
*Format: mp3@CBR320kbps
*Size: 35MB

Tracklist:
1.Ad Vermiis 08:18
2.Sangvinarivm 06:33
******************************
Total playing time: 14:51



[more=Technical info]
Input File: 02. Sangvinarivm.mp3
Channels : 2
Sample Rate : 44100
Precision : 16-bit
Duration : 00:06:33.32 = 17345588 samples = 29499.3 CDDA sectors
File Size : 15.7M
Bit Rate : 320k
Sample Encoding: MPEG audio (layer I, II or III)
Comments :
Title=Sangvinarivm
Artist=Wormreign
Album=Wormreign (EP)
Tracknumber=2
Year=2020
Genre=138

[/more]

Register
(20) 1968_janeart, ASkyThatBurns, CRUNCH, eternald, infiltrator, kim666, milosdjor, morbidangelo, nemx, Occultas, Olethros, robertho777, Rosen, satanist666, scorpionmk, SilentNidhogg, stub888, VALERY, varlam4, vasiljev_sergej,
Jan 13 2020, 20:17:31 Nympha & Antiquus Scriptum & Faethon - Triunvirato [split] (2019)


*Artist: Nympha & Antiquus Scriptum & Faethon
*Album: Triunvirato [split]
*Year: 2019
*Genre: Doom/Gothic Metal | Black/Viking Metal, Ambient | Black Metal
*Country: Portugal | Portugal | Greece
*Format: mp3@CBR320kbps
*Size: 157MB

Tracklist:
Nympha:
1.Preludium 02:27
2.Embracing the Night 07:26
3.Summer Unborn 06:18
4.Grief 05:09
Antiquus Scriptum:
5.Fleurs du Mal - Initium 01:24
6.Bula ad Extirpenda (Innocentio IVth, MCCLII - The Saint Office of Inquisition of Faith) 08:58
7.In Pulverem Reverteris 01:57
8.A Nightside of Eden - Finalis 04:54
Faethon:
9.Hymn to Apollo 04:00
10.Pan, Lord of the Woods 05:18
11.Ultima Thule 03:43
12....of Ancient Mountains and Enchanting Forests 03:39
13.Hordes of Zeus 07:43
14.Ancestral Wisdom 03:58
******************************
Total playing time: 1:06:54



[more=Extended info]В ЛОУ[/more]

[more=Technical info]
Input File: 13. Faethon - Hordes Of Zeus.mp3
Channels : 2
Sample Rate : 44100
Precision : 16-bit
Duration : 00:07:50.01 = 20727265 samples = 35250.5 CDDA sectors
File Size : 18.8M
Bit Rate : 320k
Sample Encoding: MPEG audio (layer I, II or III)
Comments :
Title=Hordes Of Zeus
Artist=Faethon
Album=Triunvirato (Split)
Tracknumber=13
Year=2019
Genre=138

[/more]

Register
(9) Cartman223, infiltrator, morbidangelo, Rosen, satanist666, sergsazan, socrates9, VALERY, varlam4,
Jan 13 2020, 17:51:22 Nachtlieder - Avgrunden [single] (2020)


*Artist: Nachtlieder
*Album: Avgrunden [single]
*Year: 2020
*Genre: Black Metal
*Country: Sweden
*Format: flac
*Size: 71MB

Tracklist:
1.Avgrunden 05:05
2.Autumn Walk (2009, acoustic demo) 03:18
******************************
Total playing time: 8:23



[more=Extended info]Line - up:

Dagny Susanne - All instruments, Vocals (ex-Wicked)
[/more]

Register
(7) 1968_janeart, Cyrci, infiltrator, Olethros, Rosen, satanist666, vasiljev_sergej,

84 Pages V   1 2 3 > » 
- Lo-Fi Version Support form
Copyrights and abuse reports form
Time is now: 23rd January 2020 - 08:31:33