Welcome Guest ( Log In | Register )

История благодарностей участнику Necrokilldozer ::: Спасибо сказали: 30356 раз(а)
Дата поста: В теме: За сообщение: Спасибо сказали:
Yesterday, 07:58:32 Abscess Lord & Encoffinate - Abscess Lord/Encoffinate [split] (2020)


*Artist: Abscess Lord & Encoffinate
*Album: Abscess Lord/Encoffinate [split]
*Year: 2020
*Genre: Sludge/Doom/Death Metal | Death Metal
*Country: Australia | Canada
*Format: mp3@CBR320kbps
*Size: 94MB

Tracklist:
Abscess Lord:
1. Morbid Exaltation 04:27
2. Osseous Matter 05:38
3. Stripped of Marrow 06:45
Encoffinate:
4. Man Eater 06:49
5. Autointerment 04:39
6. Black Skies of Terror 05:46
7. Beneath the Wheels of Blades 05:18
******************************
Total playing time: 39:22



[more=Technical info]
Input File: 03. Stripped of Marrow.mp3
Channels : 2
Sample Rate : 44100
Precision : 16-bit
Duration : 00:06:45.97 = 17903189 samples = 30447.6 CDDA sectors
File Size : 16.2M
Bit Rate : 320k
Sample Encoding: MPEG audio (layer I, II or III)
Comments :
Title=Stripped of Marrow
Artist=Abscess Lord
Album=Abscess Lord / Encoffinate (Split)
Tracknumber=3
Year=2020
Genre=Sludge/Doom/Death Metal

[/more]

Register
(5) gena, infiltrator, lacrimoza, stumpheavyrock, VALERY,
Yesterday, 07:32:53 Insanis - Black Metal Marginals (2020)


*Artist: Insanis
*Album: Black Metal Marginals
*Year: 2020
*Genre: Black/Death Metal
*Country: Russian Federation
*Format: mp3@CBR320kbps
*Size: 75MB

Tracklist:
1. Black Metal Marginals 03:48
2. Innsmouth Hate 03:51
3. Keziah Mason 04:12
4. Wasted Sleep 03:08
5. Satanic Road Trip 03:50
6. Fvkk The World...Fvkk You All 04:34
7. Midnight Blasphemers 03:34
8. Circle II 03:23
9. Bite it You Scum (GG Allin cover) 02:32
******************************
Total playing time: 32:52



[more=Extended info]Line - up:

Roman Gantsev - Bass (ex-Innerside)
Alexander Ataev - Drums (Innerside)
DKXIII - Guitars
A... - Guitars
Qain - Vocals

[/more]

[more=Technical info]
Input File: 06. Fvkk The World... Fvkk You All.mp3
Channels : 2
Sample Rate : 44100
Precision : 16-bit
Duration : 00:04:34.51 = 12106023 samples = 20588.5 CDDA sectors
File Size : 11.1M
Bit Rate : 322k
Sample Encoding: MPEG audio (layer I, II or III)
Comments :
Title=Fvkk The World... Fvkk You All
Artist=Insanis
Album=Black Metal Marginals
Tracknumber=6
Year=2020
Genre=Black/Death Metal

[/more]

Register
(7) AHBAnep, DarkHorde, infiltrator, Olethros, VALERY, wanderer73, Сварог Барг,
Nov 23 2020, 17:24:18 Decaying Remains - ...The Dead Will Walk The Earth [ep] (2020)


*Artist: Decaying Remains
*Album: ...The Dead Will Walk The Earth [ep]
*Year: 2020
*Genre: Death Metal
*Country: International
*Format: mp3@CBR320kbps
*Size: 53MB

Tracklist:
1. The Dead Will Walk The Earth 05:09
2. Suspended In Agony 03:36
3. Moribund Upon the Crucifix 03:37
4. Tied to a Stake and Force Fed His Own Intestines 05:41
5. Hash Zombies 04:37
******************************
Total playing time: 22:40



[more=Extended info]Line - up:

Steven Putrifier - Drums (Putrifier, Unholy Necrosis, Vantablack, ex-Garroted, ex-Hadean, ex-A Warning Too Late, ex-Exalted Plague, ex-Eye of Anubis, ex-Morbid Reality, ex-Pravda)
Alex C. - Guitars (Gutspawn)[/more]

[more=Technical info]
Input File: 03. Moribund Upon the Crucifix.mp3
Channels : 2
Sample Rate : 44100
Precision : 16-bit
Duration : 00:03:37.43 = 9588751 samples = 16307.4 CDDA sectors
File Size : 8.70M
Bit Rate : 320k
Sample Encoding: MPEG audio (layer I, II or III)
Comments :
Title=Moribund Upon the Crucifix
Artist=Decaying Remains
Album=...The Dead Will Walk The Earth (EP)
Tracknumber=3
Year=2020
Genre=22

[/more]

Register
(7) andreikun, infiltrator, Marek, Olethros, pabedit, VALERY, wanderer73,
Nov 23 2020, 17:14:41 Nail Grinder - Dystopia Vol. 2: Rituals (2020)


*Artist: Nail Grinder
*Album: Dystopia Vol. 2: Rituals
*Year: 2020
*Genre: Experimental Black Metal
*Country: United States
*Format: mp3@CBR320kbps
*Size: 59MB

Tracklist:
1. Visitations 01:06
2. A.C.A.B. 01:17
3. Opening Call 03:36
4. Murder!!! 00:21
5. Bael 04:48
6. Smokeless Fire 00:32
7. Departure 03:36
8. Ethereal Calling 00:51
9. Feast on My... 00:04
10. Chaos Culling 00:38
11. Q Transmission 00:38
12. Endless Fall 01:40
13. Sads 05:27
******************************
Total playing time: 24:34



[more=Technical info]
Input File: 10. Chaos Culling.mp3
Channels : 2
Sample Rate : 44100
Precision : 16-bit
Duration : 00:00:38.46 = 1695954 samples = 2884.28 CDDA sectors
File Size : 1.54M
Bit Rate : 321k
Sample Encoding: MPEG audio (layer I, II or III)
Comments :
Title=Chaos Culling
Artist=Nail Grinder
Album=Dystopia Vol. 2: Rituals (Compilation)
Tracknumber=10
Year=2020
Genre=Experimental Black Metal

[/more]

Register
(8) 1968_janeart, infiltrator, kimkayoung, metala, Olethros, stub888, VALERY, vasiljev_sergej,
Nov 23 2020, 17:08:53 Бурелом - The Songs Of The Snowy Taiga (2020)


*Artist: Бурелом
*Album: The Songs Of The Snowy Taiga
*Year: 2020
*Genre: Folk Doom Death Metal
*Country: Russian Federation
*Format: mp3@CBR320kbps
*Size: 125MB

Tracklist:
1. The Night of Veles 02:48 instrumental
2. The First Song 21:30
3. Korochun 02:20 instrumental
4. The Second Song 12:30
5. Rebirth 01:20 instrumental
6. The Third Song 11:13
7. Call of Spring 01:30 instrumental
******************************
Total playing time: 53:11



[more=Technical info]
Input File: 02. The First Song.mp3
Channels : 2
Sample Rate : 44100
Precision : 16-bit
Duration : 00:21:30.13 = 56894777 samples = 96759.8 CDDA sectors
File Size : 51.6M
Bit Rate : 320k
Sample Encoding: MPEG audio (layer I, II or III)
Comments :
Title=The First Song
Artist=Burelom
Album=The Songs Of The Snowy Taiga
Tracknumber=2
Year=2020
Genre=Folk Doom Death Metal

[/more]

Register
(12) Aresson, Bregon, Druidir, Guns, infiltrator, kimkayoung, lacrimoza, Olethros, RUDACHUR, stumpheavyrock, VALERY, Сварог Барг,
Nov 22 2020, 19:17:35 Infested Monastery - Awake In Death (2020)


*Artist: Infested Monastery
*Album: Awake In Death
*Year: 2020
*Genre: Death Metal/Grindcore
*Country: France
*Format: mp3@CBR320kbps
*Size: 51MB

Tracklist:
1. Fortress of Fear 00:26 instrumental
2. King of Rotten Corpses 01:31
3. Eviscerated with Cruelty 01:28
4. Mankind Hater 01:54
5. Forest of Dripping Wrenched Bigots 01:25
6. Desires of Maggots Infested Bowels 02:08
7. Haunting Visions of Decimated Bodies 02:56
8. Boundless Hate of Cursed Souls 02:39
9. Blind Army of Liars 01:56
10. Remains of Walls and Guts 01:57 instrumental
11. Chaotic War Apocalypse 01:42
12. Successor of the Rust Throne 01:47
******************************
Total playing time: 21:49



[more=Technical info]
Input File: 10. Remains of walls and guts.mp3
Channels : 2
Sample Rate : 44100
Precision : 16-bit
Duration : 00:01:57.90 = 5199390 samples = 8842.5 CDDA sectors
File Size : 4.72M
Bit Rate : 320k
Sample Encoding: MPEG audio (layer I, II or III)
Comments :
Title=Remains of walls and guts
Artist=Infested Monastery
Album=Awake in death
Tracknumber=10
Year=2020
Genre=Death Metal/Grindcore

[/more]

Register
(6) infiltrator, jollo, Marek, Olethros, SadistikSlayer, vyacheslav,
Nov 22 2020, 18:55:46 Goddessless - A Giraffe In The Sky (2020)


*Artist: Goddessless
*Album: A Giraffe In The Sky
*Year: 2020
*Genre: Instrumental Avant-Garde/Death Metal
*Country: New Zealand
*Format: mp3@CBR320kbps
*Size: 92MB

Tracklist:
1. The Giraffe In The Sky 02:32
2. Disfiguring Icecream 02:31
3. りんごです 02:52
4. Getting a USB in on the First Try 02:02
5. My Tears Are Saved for Anime 03:04
6. Ass, the other vagina 02:13
7. An Indian Girl Holding Hands with a White Girl 01:54
8. Superman Is a Dike Cunt 02:45
9. Making noises on the train 01:22
10. Vaginal Grooves 02:20
11. You Can Sit All Lopsided on a Naught, but You Still Gotta Cry Sometmes 04:07
12. Jizz City 02:18
13. I've seen a lot of bad things, and they all make me cum 01:54
14. 土下座して謝りなさい 04:58
15. What's It All for Though 02:04
******************************
Total playing time: 38:56



[more=Technical info]
Input File: 07. An Indian girl holding hands with a white girl.mp3
Channels : 2
Sample Rate : 44100
Precision : 16-bit
Duration : 00:01:54.97 = 5070353 samples = 8623.05 CDDA sectors
File Size : 4.64M
Bit Rate : 323k
Sample Encoding: MPEG audio (layer I, II or III)
Comments :
Title=An Indian girl holding hands with a white girl
Artist=Goddessless
Album=A Giraffe In The Sky
Tracknumber=7
Year=2020
Genre=Instrumental Avant-garde/Death Metal

[/more]

Register
(5) infiltrator, kimkayoung, metala, Olethros, skidnik,
Nov 22 2020, 18:25:28 Waterland - Freedom (2020)


*Artist: Waterland
*Album: Freedom
*Year: 2020
*Genre: Melodic Power Metal
*Country: Portugal
*Format: mp3@CBR128kbps
*Size: 37MB

Tracklist:
1. Destiny VI 03:30
2. Freedom 04:19
3. Dark Princess 04:26
4. The Key of Your Life 03:17
5. Secret Kingdom 03:42
6. Fly High 04:03
7. Greenland 03:56
8. The Eyes of Darkness 03:38
9. The Last Days of Mankind 03:39
10. Breath Again 03:49
******************************
Total playing time: 38:19



[more=Extended info]Line - up:
Miguel Gomes - Guitars (ex-Oratory)
Tó Silva - Keyboards (ex-Oratory)
Tiago Moreira - Drums (Eyeblast, ex-The Pisces)
Ivan Batista - Bass
Patricia Loureiro - Vocals

Guest/Session:
Bruno Gomes - Vocals (track 1)
Leonel Silva - Vocals (track 2) (Timescale, Endymion, Fantasy Opus, Hourswill, Mindfeeder, ex-Negacy, ex-Scar for Life)
Raquel Subtil - Vocals (track 3) (Secret Chord)
Rodrigo Doug - Bass (track 3, 10)
Paulo Pires - Vocals (track 4)
Rute Fevereiro - Vocals (track 5) (Enchantya, Black Widows, ex-Naven, ex-Caedeous, ex-Dark Tales, ex-Djamal)
Artur Almeida - Vocals (track 6) (Attick Demons, ex-Iron Mask)
Miriam Dias - Vocals (track 7)
Luis Gothes - Vocals (track 8)
Patricia Loureiro - Vocals (track 9)
Paulo Lima - Vocals (track 10)

[/more]

[more=Technical info]
Input File: 02 Waterland - Freedom.mp3
Channels : 2
Sample Rate : 44100
Precision : 16-bit
Duration : 00:04:19.87 = 11460355 samples = 19490.4 CDDA sectors
File Size : 4.16M
Bit Rate : 128k
Sample Encoding: MPEG audio (layer I, II or III)
Comments :
Title=Freedom
Artist=Waterland
Album=Freedom
Tracknumber=2
Year=2020
Genre=Melodic Power Metal

[/more]

Register
(8) after21allD, boby9052, infiltrator, Luminous, metala, Olethros, sergsazan, zhol,
Nov 22 2020, 18:02:15 Apathetic Bastard - Apathetic Bastard [ep] (2020)


*Artist: Apathetic Bastard
*Album: Apathetic Bastard [ep]
*Year: 2020
*Genre: Black Metal
*Country: United Kingdom
*Format: mp3@CBR320kbps
*Size: 58MB

Tracklist:
1. Oroboros: The Tide of Filth 06:33
2. Prejudice Unites Us 05:49
3. Moral Decadence Forever 12:03
******************************
Total playing time: 24:25



[more=Technical info]
Input File: 01. Oroboros The Tide of Filth.mp3
Channels : 2
Sample Rate : 44100
Precision : 16-bit
Duration : 00:06:33.09 = 17335225 samples = 29481.7 CDDA sectors
File Size : 15.7M
Bit Rate : 320k
Sample Encoding: MPEG audio (layer I, II or III)
Comments :
Title=Oroboros: The Tide of Filth
Artist=Apathetic Bastard
Album=Apathetic Bastard (EP)
Tracknumber=1
Year=2020
Genre=138

[/more]

Register
(10) 1968_janeart, infiltrator, kim666, Olethros, robertho777, SadistikSlayer, stub888, VALERY, vasiljev_sergej, yuratroll,
Nov 22 2020, 17:41:56 Iōhannēs - Vile Restlessness [compilation] (2020)


*Artist: Iōhannēs
*Album: Vile Restlessness [compilation]
*Year: 2020
*Genre: Progressive/Black Metal
*Country: United States
*Format: mp3@CBR320kbps
*Size: 72MB

Tracklist:
1. Memories of Ice 04:23
2. Forest Magic 02:24
3. Vile Restlessness 03:28
4. Filling 03:37
5. Shameless 02:17
6. Lucid States 03:13
7. King of Spiders 03:44
8. Special 03:54
9. That Pang, Guilt 02:59
******************************
Total playing time: 29:59



[more=Extended info]FLAC RIP[/more]

[more=Technical info]
Input File: 04. Filling.mp3
Channels : 2
Sample Rate : 44100
Precision : 16-bit
Duration : 00:03:37.43 = 9588751 samples = 16307.4 CDDA sectors
File Size : 8.79M
Bit Rate : 323k
Sample Encoding: MPEG audio (layer I, II or III)
Comments :
Title=Filling
Artist=Iohannes
Album=Vile Restlessness (Compilation)
Tracknumber=4
Year=2020
Genre=Progressive/Black Metal

[/more]

Register
(6) 1968_janeart, infiltrator, kimkayoung, Olethros, robertho777, VALERY,
Nov 21 2020, 17:44:20 Calea Dreaming - We Stood Boundless To The Earth (2020)


*Artist: Calea Dreaming
*Album: We Stood Boundless To The Earth
*Year: 2020
*Genre: Instrumental Atmospheric Post-Black Metal
*Country: Australia
*Format: mp3@CBR320kbps
*Size: 144MB

Tracklist:
1. We Stood Boundless to the Earth
2. The Wind Breathes Loneliness
3. Path of the Wanderer
4. Walking in a Grove of Trees
5. Heart of the Forest
6. To Dwell Among the Beauties of Earth
******************************
Total playing time: 1:00:04



[more=Technical info]
Input File: 03 - Path of the Wanderer.mp3
Channels : 2
Sample Rate : 44100
Precision : 16-bit
Duration : 00:09:54.00 = 26195400 samples = 44550 CDDA sectors
File Size : 23.8M
Bit Rate : 321k
Sample Encoding: MPEG audio (layer I, II or III)
Comments :
Title=Path of the Wanderer
Artist=Calea Dreaming
Album=We Stood Boundless to the Earth
Tracknumber=3
Year=2020-21-11
Genre=Instrumental Atmospheric Post-Black Metal

[/more]

Register
(7) Buregon, infiltrator, kim666, legion01, Olethros, Ostinato, vasiljev_sergej,
Nov 20 2020, 19:52:58 Cristiano Filippini's Flames Of Heaven - The Force Within (2020)


*Artist: Cristiano Filippini's Flames Of Heaven
*Album: The Force Within
*Year: 2020
*Genre: Symphonic Power Metal
*Country: Italy
*Format: mp3@CBR320kbps
*Size: 148MB

Tracklist:
1. The Force Within 01:43
2. We Fight for Eternity 06:49
3. Far Away 05:43
4. Against the Hellfire 06:08
5. Always with You 05:35
6. Dying for Love 05:28
7. Finding Yourself 05:28
8. Lightning in the Night 05:40
9. Missing You 06:04
10. Moonlight Phantom 05:03
11. The Angel and the Faith 06:49
12. Ab Angelis Defensa 02:13
******************************
Total playing time: 1:02:43



[more=Extended info]Line - up:

Giorgio "JT" Terenziani - Bass (Absynth Aura, Arthemis, ex-Killing Touch, ex-Silver Lady, Angels&Demons, Mr.Pig, Ship of Theseus)
Paolo Caridi - Drums (Ellefson, Hollow Haze, Sweet Oblivion, ex-Killing Touch, Cosmic Dead Ringers, The Bad Guy Experiment, ex-Arthemis)
Cristiano Filippini - Guitars
Michele "Dr.Viossy" Vioni - Guitars (Absynth Aura, ex-Killing Touch, ex-Silver Lady, Mr. Pig, Edu Falaschi (live))
Marco Pastorino - Vocals (Even Flow, Light & Shade, Temperance, The Ritual, Virtual Symmetry, ex-Bejelit, HateTyler, ex-Light Emitter Death, ex-Secret Sphere, ex-Shining Fury, ex-Timesword)

[/more]

[more=Technical info]
Input File: 08. Lightning in the Night.mp3
Channels : 2
Sample Rate : 44100
Precision : 16-bit
Duration : 00:05:40.42 = 15012654 samples = 25531.7 CDDA sectors
File Size : 13.7M
Bit Rate : 322k
Sample Encoding: MPEG audio (layer I, II or III)
Comments :
Title=Lightning in the Night
Artist=Cristiano Filippini's Flames Of Heaven
Album=The Force Within
Tracknumber=8
Year=2020
Genre=Symphonic Power Metal

[/more]

Register
(18) ace73pq, after21allD, Alpha_Prime, boby9052, Cartman223, gwar, Herrant, infiltrator, kakha_k, kimkayoung, Morgoth, Olethros, Olrak, Rover, sergsazan, thenecromancer, zhol, Сварог Барг,
Nov 20 2020, 19:11:14 Apocalyptic Society - The Silent Extinction [ep] (2020)


*Artist: Apocalyptic Society
*Album: The Silent Extinction [ep]
*Year: 2020
*Genre: Death Metal
*Country: United States
*Format: mp3@CBR320kbps
*Size: 32MB

Tracklist:
1. Distorted 02:09
2. Quiet Room 05:54
3. The Silent Extinction 05:18
******************************
Total playing time: 13:21



[more=Extended info]Line - up:

Ryan Lacerenza - Bass
Dan Hoffman - Guitars (rhythm)
Michael Beers - Vocals
Bailey Usilton - Guitars
Zach Kuhn - Guitars

[/more]

[more=Technical info]
Input File: 02. Quiet Room.mp3
Channels : 2
Sample Rate : 44100
Precision : 16-bit
Duration : 00:05:54.95 = 15653207 samples = 26621.1 CDDA sectors
File Size : 14.2M
Bit Rate : 320k
Sample Encoding: MPEG audio (layer I, II or III)
Comments :
Title=Quiet Room
Artist=Apocalyptic Society
Album=The Silent Extinction (EP)
Tracknumber=2
Year=2020
Genre=Death Metal

[/more]

Register
(7) infiltrator, Marek, Olethros, VALERY, varlam4, vyacheslav, wanderer73,
Nov 20 2020, 18:52:59 Ленар Деллерт - Сны (2020)


*Artist: Ленар Деллерт
*Album: Сны
*Year: 2020
*Genre: Doom/Death Metal/Rock
*Country: Russian Federation
*Format: mp3@CBR320kbps
*Size: 127MB

Tracklist:
1. Сцена I. Мгновение 03:27
2. Сцена II. Забыться 09:15
3. Сцена III. Туманной тропой 04:48
4. Сцена IV. Тени 04:44
5. Сцена V. Оцепенение 03:59
6. Сцена VI. Картина из тысячи глаз 08:23
7. Сцена VII. Всё ближе рассвет 07:45
8. Сцена VIII. Созерцание 01:42
9. Сцена IX. Утро 09:25
******************************
Total playing time: 53:28



[more=Technical info]
Input File: 02. Сцена II. Забыться.mp3
Channels : 2
Sample Rate : 44100
Precision : 16-bit
Duration : 00:09:15.16 = 24482644 samples = 41637.1 CDDA sectors
File Size : 22.2M
Bit Rate : 320k
Sample Encoding: MPEG audio (layer I, II or III)
Comments :
Title=Сцена II. Забыться
Artist=Ленар Деллерт
Album=Сны
Tracknumber=2
Year=2020
Genre=Doom/Death Metal, Rock

[/more]

Register
(17) A.L.Rapsod, aleon, alikkon, Aresson, Den_M, DMIYUR, infiltrator, lacrimoza, Morgoth, Olethros, SatanicPanzer, stumpheavyrock, tamerz, tOmV, VALERY, varlam4, Сварог Барг,
Nov 20 2020, 16:21:19 Subterraen - Rotten Human Kingdom (2020)


*Artist: Subterraen
*Album: Rotten Human Kingdom
*Year: 2020
*Genre: Blackened Sludge/Doom Metal
*Country: France
*Format: mp3@CBR320kbps
*Size: 115MB

Tracklist:
1. Blood for the Blood Gods 13:28
2. For a Fistful of Silver 14:30
3. Oceans are Rising 02:33
4. Wrath of a Downtrodden Planet 18:20
******************************
Total playing time: 48:51



[more=Extended info]Line - up:

Milvus - Drums
Chris KKP - Guitar, Sound design (Abjvration, ex-HKY, ex-Hangman's Chair (live), ex-Time to Burn, ex-Huata, ex-Every Reason to...)
Clem Helvete - Guitars, Vocals (Owl Coven)

[/more]

[more=Technical info]
Input File: 04. Wrath of a Downtrodden Planet.mp3
Channels : 2
Sample Rate : 44100
Precision : 16-bit
Duration : 00:18:21.02 = 48554982 samples = 82576.5 CDDA sectors
File Size : 44.0M
Bit Rate : 320k
Sample Encoding: MPEG audio (layer I, II or III)
Comments :
Title=Wrath of a Downtrodden Planet
Artist=Subterraen
Album=Rotten Human Kingdom
Tracknumber=4
Year=2020
Genre=Blackened Sludge/Doom Metal

[/more]

Register
(9) Dmitry1977, Hell_Is_Here, infiltrator, Olethros, robertho777, sludge666, VALERY, varlam4, vasiljev_sergej,
Nov 20 2020, 09:53:18 Lure In - Cynic/Agnostic [single] (2020)


*Artist: Lure In
*Album: Cynic/Agnostic [single]
*Year: 2020
*Genre: Metalcore
*Country: United Kingdom
*Format: flac
*Size: 33MB

Tracklist:
1. Cynic 02:34
2. Agnostic 03:11
******************************
Total playing time: 5:45



[more=Extended info]Line - up:

Jonny Barker - Bass
Sammy Coker - Drums (Existential Dread)
Jake Coulson - Guitars
James Whittle - Guitars
Cameron Wilson - Vocals (Ensuffering, Forget Our Names, ex-Antares, ex-Losing Streak)

[/more]

Register
(2) infiltrator, Olethros,
Nov 20 2020, 09:39:31 King Gizzard & The Lizard Wizard - Live In San Francisco '16 [live] (2020)


*Artist: King Gizzard & The Lizard Wizard
*Album: Live In San Francisco '16 [live]
*Year: 2020
*Genre: Psychedelic/Garage Rock/Doom/Thrash/Speed Metal/Various
*Country: Australia
*Format: mp3@CBR320kbps
*Size: 192MB

Tracklist:
1. Robot Stop 04:21
2. Hot Water 03:40
3. Big Fig Wasp 05:11
4. Gamma Knife 04:01
5. People-Vultures 05:21
6. Trapdoor 03:22
7. I'm In Your Mind 03:21
8. I'm Not In Your Mind 03:22
9. Cellophane 02:57
10. I'm In Your Mind Fuzz 02:58
11. The River 10:57
12. Evil Death Roll 08:12
13. Head On/Pill 22:30
******************************
Total playing time: 1:20:13



[more=Extended info]Line - up:

Lucas Skinner - Bass
Michael Cavanagh - Drums
Cook Craig - Guitars, Bass
Joey Walker - Guitars, Keyboards
Ambrose Kenny-Smith - Vocals (backing), Harmonica, Keyboards
Stu Mackenzie - Vocals, Guitars, Keyboards, Piano, Synthesizer, Mellotron, Flute, Bass

[/more]

[more=Technical info]
Input File: 07 - I\'m In Your Mind.mp3
Channels : 2
Sample Rate : 44100
Precision : 16-bit
Duration : 00:03:21.65 = 8892897 samples = 15124 CDDA sectors
File Size : 8.07M
Bit Rate : 320k
Sample Encoding: MPEG audio (layer I, II or III)
Comments :
Title=I'm In Your Mind
Artist=King Gizzard & The Lizard Wizard
Album=Live In San Francisco '16 (Live)
Tracknumber=7
Year=2020
Genre=Psychedelic/Garage Rock, Doom/Thrash/Speed Metal, Various

[/more]

Register
(5) infiltrator, marilin, Niknne, Olethros, stumpheavyrock,
Nov 20 2020, 08:47:40 Ilsa - Preyer (2020)


*Artist: Ilsa
*Album: Preyer
*Year: 2020
*Genre: Death/Doom Metal/Crust
*Country: United States
*Format: mp3@CBR320kbps
*Size: 107MB

Tracklist:
1. Epigraph 02:33
2. Poor Devil 04:13
3. Moonflower 05:00
4. Shibboleth 02:39
5. Mother of God 05:04
6. Scavengers 04:12
7. Widdershins 05:06
8. Preyer 04:53
9. Lady Diamond 04:21
10. Behind the Veil 02:37
11. The Square Coliseum 04:39
******************************
Total playing time: 45:17



[more=Extended info]FLAC RIP

Line - up:

Sharad - Bass (ex-Midnight Eye (live))
Joshy - Drums (Dagger Moon, ex-Time of the Wolf, ex-Integrity, ex-Midnight Eye (live), ex-Exosus)
Brendan - Guitars (Dagger Moon)
Orion - Vocals (ex-Time of the Wolf)
Tim - Guitars (ex-Time of the Wolf)
Dylan - Guitars (ex-Time of the Wolf, ex-Midnight Eye, ex-Warlord U.K. (live), ex-Stull)

[/more]

[more=Technical info]
Input File: 09. Lady Diamond.mp3
Channels : 2
Sample Rate : 44100
Precision : 16-bit
Duration : 00:04:21.87 = 11548423 samples = 19640.2 CDDA sectors
File Size : 10.5M
Bit Rate : 321k
Sample Encoding: MPEG audio (layer I, II or III)
Comments :
Title=Lady Diamond
Artist=Ilsa
Album=Preyer
Tracknumber=9
Year=2020
Genre=Death/Doom Metal/Crust

[/more]

Register
(16) andreikun, BERZERK, Doooomed, Hell_Is_Here, infiltrator, marilin, metala, Niknne, Olethros, Ostinato, sergsazan, sludge666, smysl, stumpheavyrock, VALERY, vyacheslav,
Nov 20 2020, 08:26:07 Fuck The Facts - Pleine Noirceur (2020)


*Artist: Fuck The Facts
*Album: Pleine Noirceur
*Year: 2020
*Genre: Grindcore
*Country: Canada
*Format: mp3@CBR320kbps
*Size: 98MB

Tracklist:
1. Doubt, Fear, Neglect 06:47
2. Ailleurs 01:17
3. Pleine Noirceur 05:42
4. Aube 01:24
5. Sans Lumière 04:23
6. Sans Racines 00:38
7. Everything I Love Is Ending 04:14
8. A Dying Light 03:41
9. Dropping Like Flies 04:05
10. L'abandon 02:07
11. An Ending 03:27
12. _cide 03:59
******************************
Total playing time: 41:44



[more=Technical info]
Input File: 08. A Dying Light.mp3
Channels : 2
Sample Rate : 44100
Precision : 16-bit
Duration : 00:03:41.27 = 9758095 samples = 16595.4 CDDA sectors
File Size : 8.93M
Bit Rate : 323k
Sample Encoding: MPEG audio (layer I, II or III)
Comments :
Title=A Dying Light
Artist=Fuck The Facts
Album=Pleine Noirceur
Tracknumber=8
Year=2020
Genre=Grindcore

[/more]

Register

Register
(15) A.L.Rapsod, alikkon, BandR75, Bitchkiller, DarkHorde, Deada, ENDSMOUTH, Hell_Is_Here, infiltrator, metaljosue, Moonshtook, Olethros, Paradayz, Tyrone, yuratroll,
Nov 20 2020, 08:11:42 Avandra - Skylighting (2020)


*Artist: Avandra
*Album: Skylighting
*Year: 2020
*Genre: Progressive Metal/Rock
*Country: Puerto Rico
*Format: mp3@CBR320kbps
*Size: 99MB

Tracklist:
1. Celestial Wreaths 05:08
2. Noetic Probes 05:12
3. Life Is Not a Circle, but a Sphere 05:15
4. Eternal Return 09:36
5. ProcGen 05:44
6. Afferent Realms 06:49
7. New Origins 04:07
******************************
Total playing time: 41:51



[more=Extended info]Line - up:

Gabriel Alejandro Rodriguez - Bass
Adrián Arroyo - Drums
Christian Ayala - Guitars, Vocals
Luis Javier Rivera Guilbot - Guitars

[/more]

[more=Technical info]
Input File: 06. Afferent Realms.mp3
Channels : 2
Sample Rate : 44100
Precision : 16-bit
Duration : 00:06:49.63 = 18064463 samples = 30721.9 CDDA sectors
File Size : 16.4M
Bit Rate : 321k
Sample Encoding: MPEG audio (layer I, II or III)
Comments :
Title=Afferent Realms
Artist=Avandra
Album=Skylighting
Tracknumber=6
Year=2020
Genre=Progressive Metal/Rock

[/more]

Register
(8) Cartman223, infiltrator, metala, nnnmmm, Olethros, Rover, varlam4, Yngwarr,
Nov 20 2020, 07:42:40 Dark Psychosis - The Edge Of Nowhere... (2020)


*Artist: Dark Psychosis
*Album: The Edge Of Nowhere...
*Year: 2020
*Genre: Black/Thrash Metal
*Country: United States
*Format: mp3@CBR320kbps
*Size: 117MB

Tracklist:
1. Old Fear 05:12
2. Born to Lose 04:44
3. Dead as Sheep 02:57
4. The Edge of Nowhere... 03:35
5. Dark Call 07:04
6. Late Night (Syd Barrett cover) 03:15
7. Ominous Black 05:14
8. As the Longing Grows 05:02
9. New Decay / Outro 11:11
10. Wrath and Woeful 02:53
******************************
Total playing time: 51:07




[more=Extended info][youtube]WlCWs6jVhsA[/youtube]
[youtube]RXe4lqTvNCI[/youtube][/more]

[more=Technical info]
Input File: 10. Drink Fight and Fuck (Digital Only Bonus Track).mp3
Channels : 2
Sample Rate : 44100
Precision : 16-bit
Duration : 00:01:12.13 = 3180977 samples = 5409.82 CDDA sectors
File Size : 2.96M
Bit Rate : 328k
Sample Encoding: MPEG audio (layer I, II or III)
Comments :
Title=Drink Fight and Fuck (Digital Only Bonus Track)
Artist=Dark Psychosis
Album=The Edge of Nowhere...
Tracknumber=10
Year=2020
Genre=Black/Thrash Metal

[/more]

Register
(10) boby9052, infiltrator, metala, multizwilling, Olethros, sergsazan, SilentNidhogg, stumpheavyrock, varlam4, Wail,
Nov 19 2020, 19:46:50 Pillars Of Autumn & Beguiler - Kenopsia [split] (2020)


*Artist: Pillars Of Autumn & Beguiler
*Album: Kenopsia [split]
*Year: 2020
*Genre: Technical Deathcore | Deathcore
*Country: Canada | Canada
*Format: mp3@CBR320kbps
*Size: 61MB

Tracklist:
Pillars of Autumn:
1. Paroxysm of Man 04:27
2. Dawn the Sickened Crown 04:04
3. Requiem of a Dying World 04:29
Beguiler:
4. Hands of a Savage (feat. Aiden Versteegh) 03:37
5. Strangled 04:52
6. Half Measure 03:42
******************************
Total playing time: 25:11



[more=Technical info]
Input File: 01 Pillars of Autumn - Paroxysm of Man.mp3
Channels : 2
Sample Rate : 44100
Precision : 16-bit
Duration : 00:04:27.22 = 11784578 samples = 20041.8 CDDA sectors
File Size : 10.7M
Bit Rate : 322k
Sample Encoding: MPEG audio (layer I, II or III)
Comments :
Title=Paroxysm of Man
Artist=Pillars of Autumn
Album=Kenopsia (Split)
Tracknumber=1
Year=2020

[/more]

Register
(6) Hell_Is_Here, infiltrator, maochen, Marek, Rosen, sludge666,
Nov 19 2020, 19:19:00 Anderwelt - 2084 (2020)


*Artist: Anderwelt
*Album: 2084
*Year: 2020
*Genre: Post-Metal
*Country: Austria
*Format: mp3@CBR320kbps
*Size: 93MB

Tracklist:
1. #plenty
2. #true
3. #luv
4. #pax
******************************
Total playing time: 40:00



[more=Extended info]Line - up:

Niki - Bass
Andi - Cello
Tom - Drums
Simon - Guitars (In Slumber, Olemus, Leinöl, ex-Thirdmoon, ex-Underground Groove Front)
Phil - Vocals (Reap)

[/more]

[more=Technical info]
Input File: 03. Luv.mp3
Channels : 2
Sample Rate : 44100
Precision : 16-bit
Duration : 00:06:52.08 = 18172772 samples = 30906.1 CDDA sectors
File Size : 16.5M
Bit Rate : 320k
Sample Encoding: MPEG audio (layer I, II or III)
Comments :
Title=Luv
Artist=Anderwelt
Album=2084
Tracknumber=3
Year=2020
Genre=Post-Metal

[/more]

Register
(13) as71, Buregon, craP_cillA, infiltrator, Olethros, Ostinato, robertho777, Rosen, sadmannn, VALERY, varlam4, zbysio, дивин,
Nov 19 2020, 18:50:05 Without Mercy - Seismic (2020)


*Artist: Without Mercy
*Album: Seismic
*Year: 2020
*Genre: Death/Groove Metal/Metalcore
*Country: Canada
*Format: mp3@CBR320kbps
*Size: 104MB

Tracklist:
1. Thunderbird
2. Abysmal
3. Left Alone
4. Wiindigo
5. Disinfect the Soul
6. The Disaster
7. Possessed
8. I Break the Chain
9. Uprooted
******************************
Total playing time: 44:27



[more=Extended info]Line - up:

Ryan Loewen - Bass
Alex Friis - Vocals (Tyrannicide)
DJ Temple - Guitars
Matt Helie - Drums

[/more]

[more=Technical info]
Input File: 01. Thunderbird.mp3
Channels : 2
Sample Rate : 44100
Precision : 16-bit
Duration : 00:04:53.35 = 12936647 samples = 22001.1 CDDA sectors
File Size : 11.8M
Bit Rate : 322k
Sample Encoding: MPEG audio (layer I, II or III)
Comments :
Title=Thunderbird
Artist=Without Mercy
Album=Seismic
Tracknumber=1
Year=2020
Genre=Death/Groove Metal, Metalcore

[/more]

Register
(5) infiltrator, Marek, Morgoth, Olethros, Rosen,
Nov 19 2020, 18:23:59 Thrown Into Exile - Illusion Of Control (2020)


*Artist: Thrown Into Exile
*Album: Illusion Of Control
*Year: 2020
*Genre: Metalcore
*Country: United States
*Format: mp3@CBR320kbps
*Size: 112MB

Tracklist:
1. Beyond the Grey 04:00
2. The Wronged 04:06
3. Misfortune Follows 04:39
4. Wake of Fire 05:10
5. The Mourning 05:08
6. Edge of the Unknown 03:18
7. Echoes from the Abyss 04:50
8. Dead of Winter 07:46
9. Hedonist 04:22
10. Lower Self 03:40
******************************
Total playing time: 46:59

[more=Extended info]Line - up:

Mario - Guitars
Dave Corsile - Bass (ex-Supervillain)
Ray Sanchez - Guitars (Our Dying World, Yeghikian)
Scott Shelko - Drums (Yeghikian)
Joey Dalo - Vocals (ex-Brain Dead)

[youtube]uWUtJt5dx9o[/youtube]
[youtube]xHZffTl9aBQ[/youtube]
[youtube]9cGjfSdph6E[/youtube]

[/more]

[more=Technical info]
Input File: 09. Hedonist.mp3
Channels : 2
Sample Rate : 44100
Precision : 16-bit
Duration : 00:04:22.02 = 11555302 samples = 19651.9 CDDA sectors
File Size : 10.5M
Bit Rate : 321k
Sample Encoding: MPEG audio (layer I, II or III)
Comments :
Title=Hedonist
Artist=Thrown into Exile
Album=Illusion of Control
Tracknumber=9
Year=2020
Genre=Metalcore

[/more]

Register
(6) infiltrator, Marek, Olethros, Rosen, sadmannn, zhol,

125 Pages V   1 2 3 > » 
- Lo-Fi Version Support form
Copyrights and abuse reports form
Time is now: 25th November 2020 - 02:58:02