Welcome Guest ( Log In | Register )

История благодарностей участнику Necrokilldozer ::: Спасибо сказали: 25119 раз(а)
Дата поста: В теме: За сообщение: Спасибо сказали:
Jun 30 2020, 18:29:49 K.F.R - Nihilist (2020)


*Artist: K.F.R
*Album: Nihilist
*Year: 2020
*Genre: Black Metal/Dark Ambient
*Country: France
*Format: mp3@CBR320kbps
*Size: 141MB

Tracklist:
1. Ô Mastema 05:08
2. Lord of the Flies 07:40
3. Insect Boy 04:58
4. Mastema, Ruler of Larvae 05:14
5. Nihilist 06:02
6. Exil Métaphysique 07:03
7. I'm a Sick Painter 06:01
8. All I See Is You 09:39
9. It's Not Over Yet (The Rape of Sympony 7) 08:22
******************************
Total playing time: 1:00:07



[more=Extended info]В ЛОУ[/more]

[more=Technical info]
Input File: 03. Insect Boy.mp3
Channels : 2
Sample Rate : 44100
Precision : 16-bit
Duration : 00:04:57.08 = 13101404 samples = 22281.3 CDDA sectors
File Size : 11.9M
Bit Rate : 320k
Sample Encoding: MPEG audio (layer I, II or III)
Comments :
Title=Insect Boy
Artist=K.F.R
Album=Nihilist
Tracknumber=03
Year=2020
Genre=Black Metal/Dark Ambient

[/more]

Register
(12) 1968_janeart, Alexis The Best, cen0byte666, dvlz, infiltrator, kim666, LazarShadow, Occultas, Olethros, scorn33, stub888, vasiljev_sergej,
Jun 28 2020, 16:36:58 Triglathena - Terminal [single] (2020)


*Artist: Triglathena
*Album: Terminal [single]
*Year: 2020
*Genre: Death/Doom Metal
*Country: United States
*Format: flac
*Size: 83MB

Tracklist:
1. Terminal 13:41
******************************
Total playing time: 13:41



Register
(3) infiltrator, Olethros, sergsazan,
Jun 27 2020, 15:58:39 Insilence - El Hechizo [ep] (2020)


*Artist: Insilence
*Album: El Hechizo [ep]
*Year: 2020
*Genre: Gothic Metal
*Country: Mexico
*Format: mp3@CBR320kbps
*Size: 42MB

Tracklist:
1. Intro 02:06 instrumental
2. El hechizo 04:02
3. Tu recuerdo 03:17
4. La promesa 04:26
5. Yo te amo 03:50
******************************
Total playing time: 17:41



[more=Extended info]Line - up:

Arnulfo Flores - Drums, Bass (ex-Supplicium)
Alex Salazar - Guitars, Keyboards, Vocals (backing) (ex-Supplicium)
Zareeh PoisonLust - Vocals

[/more]

[more=Technical info]
Input File: 02. El Hechizo.mp3
Channels : 2
Sample Rate : 44100
Precision : 16-bit
Duration : 00:04:02.59 = 10698175 samples = 18194.2 CDDA sectors
File Size : 9.71M
Bit Rate : 320k
Sample Encoding: MPEG audio (layer I, II or III)
Comments :
Title=El Hechizo
Artist=Insilence
Album=El Hechizo (EP)
Tracknumber=2
Year=2020
Genre=Gothic Metal

[/more]

Register
(6) Cartman223, chipsgott, infiltrator, Lukittaz, Olethros, VALERY,
Jun 27 2020, 15:35:36 Fear Connection - Progeny Of A Social Disease [single] (2020)


*Artist: Fear Connection
*Album: Progeny Of A Social Disease [single]
*Year: 2020
*Genre: Death/Thrash Metal/Crust
*Country: Germany
*Format: flac
*Size: 68MB

Tracklist:
1. Cerebral Attack 04:21
2. Fight the Plague 03:36
******************************
Total playing time: 7:57



[more=Extended info]Line - up:

Christian - Bass (ex-Slavelab)
Doc Tim - Drums (ex-Blind Bullets)
Naushad - Guitars (ex-Misconceived)
Rolf - Vocals (ex-Lunar Eclipse, ex-Ctulu, ex-Gut Absorber, ex-Riot Instinct)

[/more]

Register
(3) boby9052, infiltrator, Olethros,
Jun 26 2020, 18:41:14 Mushroomhead - A Wonderful Life (2020)


*Artist: Mushroomhead
*Album: A Wonderful Life
*Year: 2020
*Genre: Avant-garde/Experimental Metal
*Country: United States
*Format: mp3@CBR320kbps
*Size: 167MB

Tracklist:
1. A Reqiuem for Tomorrow
2. Madness Within
3. Seen It All
4. The Heresy
5. What a Shame
6. Pulse
7. Carry On
8. The Time Has Come
9. 11th Hour
10. I Am the One
11. The Flood
12. Where the End Begins
13. Confutatis
14. To the Front [Bonus Track]
15. Sound of Destruction [Bonus Track]
16. Another Ghost [Bonus Track]
17. Lacrimosa [Bonus Track]
******************************
Total playing time: 1:11:00



[more=Extended info][youtube]PJKjFSyAHKw[/youtube]
[youtube]_-zWpdq3_2s[/youtube][/more]

[more=Technical info]
Input File: 09. 11th Hour.mp3
Channels : 2
Sample Rate : 44100
Precision : 16-bit
Duration : 00:05:09.15 = 13633647 samples = 23186.5 CDDA sectors
File Size : 12.4M
Bit Rate : 320k
Sample Encoding: MPEG audio (layer I, II or III)
Comments :
Title=11th Hour
Artist=Mushroomhead
Album=A Wonderful Life (Deluxe Edition)
Tracknumber=9
Year=2020
Genre=Nu Metal

[/more]

Register
(8) gwar, infiltrator, lucifix, metala, Olethros, Semargl2010, VALERY, zerger,
Jun 26 2020, 18:05:48 Amun - An Absence Of Presence [ep] (2020)


*Artist: Amun
*Album: An Absence Of Presence [ep]
*Year: 2020
*Genre: Black Metal
*Country: United States
*Format: mp3@CBR320kbps
*Size: 89MB

Tracklist:
1. Silent Giant
2. For Joey
3. Vessel (Candle / Vessel / To Be Without)
******************************
Total playing time: 40:18



[more=Extended info]Line - up:

Joseph Snodgrass - Bass, Guitars, Vocals (Xenolith)
C.J. Yacoub - Drums, Vocals (Neverdawn)
Simon James - Electronics
Aidan Robinson - Guitars
Jonathon Nunn - Guitars, Vocals[/more]

[more=Technical info]
Input File: 02. For Joey.mp3
Channels : 2
Sample Rate : 44100
Precision : 16-bit
Duration : 00:10:00.17 = 26467629 samples = 45013 CDDA sectors
File Size : 24.0M
Bit Rate : 320k
Sample Encoding: MPEG audio (layer I, II or III)
Comments :
Title=For Joey
Artist=Amun
Album=An Absence of Presence (EP)
Tracknumber=2
Year=2020
Genre=138

[/more]

Register
(11) 1968_janeart, dan22, El_Chibo, infiltrator, kim666, Olethros, robertho777, SilentNidhogg, VALERY, varlam4, vasiljev_sergej,
Jun 26 2020, 17:56:34 Kalahari - Theia [ep] (2020)


*Artist: Kalahari
*Album: Theia [ep]
*Year: 2020
*Genre: Death/Groove Metal
*Country: Italy
*Format: flac
*Size: 165MB

Tracklist:
1. Theia
2. Followers of the Lich
3. Zombie Night
4. I Am the Mountain
5. Cabled Core
******************************
Total playing time: 22:12



[more=Extended info]Line - up:

Joshua Pini - Bass
Alessandro Visani
Gabriele Meglio - Guitars
Gino Annicchiarico - Guitars
Nicola Pellacani - Vocals

[/more]

Register
(3) infiltrator, Mares, Olethros,
Jun 26 2020, 16:07:24 Wren - Groundswells (2020)


*Artist: Wren
*Album: Groundswells
*Year: 2020
*Genre: Stoner Metal/Sludge
*Country: United Kingdom
*Format: mp3@CBR320kbps
*Size: 98MB

Tracklist:
1. Chromed 08:57
2. Seek the Unkindred 06:46
3. Murmur 06:00
4. Crossed Out Species 04:52
5. Subterranean Messiah 10:21
6. The Throes 07:38
******************************
Total playing time: 44:34



[more=Extended info]Line - up:

Robert Letts - Unknown
Seb Tull - Unknown
Owen Jones - Unknown, Vocals
Chris Pickering - Unknown

[/more]

[more=Technical info]
Input File: 02-wren-seek_the_unkindred-31d996dc.mp3
Channels : 2
Sample Rate : 44100
Precision : 16-bit
Duration : 00:06:46.10 = 17908966 samples = 30457.4 CDDA sectors
File Size : 16.3M
Bit Rate : 322k
Sample Encoding: MPEG audio (layer I, II or III)
Comments :
Title=Seek the Unkindred
Artist=Wren
Album=Groundswells
Tracknumber=2
Year=2020
Genre=Stoner/Sludge Metal

[/more]

Register
(7) gena, infiltrator, marilin, Olethros, robertho777, Sabbathian, sludge666,
Jun 26 2020, 15:11:40 Ravenlight - Project Genesis (2020)


*Artist: Ravenlight
*Album: Project Genesis
*Year: 2020
*Genre: Symphonic Power Metal
*Country: United Kingdom
*Format: flac
*Size: 326MB

Tracklist:
1. The Circle 04:57
2. The End of the World 03:54
3. Sanctuary 03:51
4. Echoes 03:34
5. Words Unspoken 03:54
6. Where the Stars Grow 04:50
7. The Spell 03:36
8. Strong Enough to Fall 04:44
9. The Wild Hunt 04:24
10. Edenfall 03:14
11. Call of the Wild 04:44
******************************
Total playing time: 45:42



[more=Extended info]Line - up:

John Connor - Guitars, Keyboards (ex-Selene, ex-Gate XIII)
Rebecca Feeney - Vocals (ex-Sentinel)
Michal Bugajski - Drums

[youtube]ub8bIJc_p34[/youtube]
[youtube]FNMxvRznGRg[/youtube]
[youtube]XzcaVN29WJE[/youtube]
[youtube]vg-CMshVuqw[/youtube]
[youtube]VrjsEj4ygjs[/youtube]

[/more]

Register
(10) Alpha_Prime, boby9052, cesar, infiltrator, Mares, metala, Olethros, sergsazan, wn129aa, zhol,
Jun 25 2020, 18:48:42 Creature - Ex Cathedra (2020)


*Artist: Creature
*Album: Ex Cathedra
*Year: 2020
*Genre: Progressive Black Metal
*Country: France
*Format: mp3@CBR320kbps
*Size: 141MB

Tracklist:
1. Fugue en Sol mineur 06:01
2. “zÑ5♦mı 03:45
3. L'odyssée hyperpropulsée 06:52
4. Involution - Expectations 06:18
5. Note anticosmique 05:13 instrumental
6. Neo Habilis 05:59
7. Le Roi Zogue 04:41
8. La brèvité de l'aphélie 03:41
9. Atlantis 11:20
10. Éthernellement 10:33
******************************
Total playing time: 1:04:23



[more=Extended info]Line - up:
Raphaël Fournier - Everything

Guest/Session:
Perrine Neulet - Flute
Maria Grigoryeva - Violin (track 9) (Michael Harris)
Alexis Bertran - Vocals (track 7) (Unna)[/more]

[more=Technical info]
Input File: 05. Note Anticosmique.mp3
Channels : 2
Sample Rate : 44100
Precision : 16-bit
Duration : 00:05:13.23 = 13813355 samples = 23492.1 CDDA sectors
File Size : 12.5M
Bit Rate : 320k
Sample Encoding: MPEG audio (layer I, II or III)
Comments :
Title=Note Anticosmique
Artist=Creature
Album=Ex Cathedra
Tracknumber=5
Year=2020
Genre=Progressive Black Metal

[/more]

Register
(25) 1968_janeart, ahp, AlexSmith, atavist, Bilal, BlackTroll, csgmnk, infiltrator, LEGION69, Mares, metala, Morgoth, nsk2008, Olethros, robertho777, Sanctus, SatanicPanzer, stumpheavyrock, supremo, VALERY, varlam4, vasiljev_sergej, yuratroll, Луч, Сварог Барг,
Jun 25 2020, 17:10:19 Thecodontion - Supercontinent (2020)


*Artist: Thecodontion
*Album: Supercontinent
*Year: 2020
*Genre: Black/Death Metal
*Country: Italy
*Format: flac
*Size: 320MB

Tracklist:
1. Gyrosia 02:09 Instrumental
2. Vaalbara 04:12
3. Ur 06:33
4. Kenorland 04:24
5. Lerova 02:24 Instrumental
6. Nuna 06:02
7. Rodinia 03:52
8. Tethys 01:58 Instrumental
9. Laurasia-Gondwana 03:06
10. Pangaea 07:37
11. Panthalassa 02:41
******************************
Total playing time: 44:58



[more=Extended info]Line - up:
G.D. - Bass (Batrakos, Deathvoid, Framheim, Perpetuum Mobile, Veia, ex-Arvensvarthe, Quilmoloncm)
G.E.F. - Vocals (Batrakos, Framheim, Perpetuum Mobile, Veia, ex-Turdus Eremita, Atlantic Ridge, ex-Illuminated Manuscripts, ex-Solitude Project)

Guest/Session:
V.P. - Drums (SVNTH, Thecodontion (live), Verano's Dogs (live), ex-For My Demons, ex-Odd, ex-Bedsore (live), ex-Dreariness (live))
J.G.P. - Guitars (baritone) (track 9) (SVNTH, Night Gaunt, Angew, Atlantic Ridge, Bedsore)
R.C. - Vocals (additional) (track 10) (SVNTH, Shores of Null (live), Angew, ex-Endless Emptiness, ex-Forgotten Thought, Rodolfo Ciuffo, Tibia (live), ex-Crepusculum, ex-Dreariness (live))
Skaðvaldur - Vocals (track 3) (Igor Mortis, Sküllfükk SS, Urðun, Ziegenhorn)

[/more]

Register
(7) atavist, Daale, infiltrator, lestllk, Occultas, Olethros, Sanctus,
Jun 25 2020, 16:56:40 Wino - Forever Gone (2020)


*Artist: Wino
*Album: Forever Gone
*Year: 2020
*Genre: Acoustic Rock
*Country: United States
*Format: flac
*Size: 279MB

Tracklist:
1. Forever Gone
2. Taken
3. The Song Is at the Bottom of the Bottle
4. No Wrong
5. Dark Ravine
6. Dead Yesterday
7. So Fine
8. Crystal Madonna
9. Lavender and Sage
10. Was, Is, and Shall Be
11. Isolation
******************************
Total playing time: 4:42



[more=Extended info]Line - up:

Jean-Paul Gaster - Drums (Clutch, King Hobo, The Bakerton Group, ex-Corrosion of Conformity (live), ex-King Valley, ex-Kamchatka)
Scott "Wino" Weinrich - Guitars, Vocals, Bass (The Obsessed, Shrinebuilder, ex-Premonition 13, ex-Spirit Caravan, ex-The Hidden Hand, ex-Probot (live), ex-Shine, Wino & Conny Ochs, ex-Lost Breed, ex-Place of Skulls, ex-Saint Vitus, ex-Victor Griffin, ex-Bedemon (live), ex-Mentors (live), ex-Warhorse)

[/more]

Register
(2) gongshow, muskatnuss,
Jun 25 2020, 16:29:12 Magick Touch - Heads Have Got To Rock'n'roll (2020)


*Artist: Magick Touch
*Album: Heads Have Got To Rock'n'roll
*Year: 2020
*Genre: Heavy Metal
*Country: Norway
*Format: flac
*Size: 328MB

Tracklist:
1. (This Isn't) Your First Rodeo 03:54
2. Watchman's Requiem 03:56
3. To the Limit 04:25
4. Love Is a Heart Disease 03:58
5. Ready for the Quake 04:56
6. Bad Decisions 03:30
7. Phantom Friend 05:12
8. Waiting for the Parasites 03:58
9. Daggers Dance 03:26
10. Doomsday I'm in Love 05:58
******************************
Total playing time: 43:13



[more=Extended info]Line - up:

Christer Ottesen - Bass, Vocals (lead) (ex-Paraplegic)
Bård Nordvik - Drums, Vocals (backing) (The Batallion)
HK Rein - Guitars, Vocals (lead)

[/more]

Register
(8) BandR75, cesar, infiltrator, Lukittaz, Mares, Olethros, sergsazan, wgs73,
Jun 25 2020, 15:59:23 Ahab - Live Prey [live] (2020)


*Artist: Ahab
*Album: Live Prey [live]
*Year: 2020
*Genre: Funeral Doom Metal
*Country: Germany
*Format: flac
*Size: 455MB

Tracklist:
1. Below the Sun 12:54
2. The Pacific 10:34
3. Old Thunder 10:57
4. Ahab's Oath 12:37
5. The Hunt 16:55
******************************
Total playing time: 1:03:57



[more=Extended info]Line - up:

Chris Hector - Guitars (ex-Penetralia, ex-Midnattsol)
Daniel Droste - Vocals, Guitars, Keyboards (ex-Endzeit, ex-Penetralia, ex-Midnattsol)
Cornelius Althammer - Drums (Dead Eyed Sleeper, Ekranoplan, BlackDust (live), ex-Deadlock, ex-Legacy, ex-Disbelief, ex-Maladie, ex-Mortified, ex-Mystic Circle, ex-A.K.G.)
Stephan Wandernoth - Bass (Dead Eyed Sleeper, ex-Legacy)

[/more]

Register
(15) AHBAnep, Aresson, Bergthron, cesar, infiltrator, Lucifer, Lucju, Mares, Metalass, Pinhead666, recber, Sabbathian, Sanctus, soulskinner681, Сатаник,
Jun 25 2020, 05:59:54 Desinsertion - The Meaning Of Life Is Death (2020)


*Artist: Desinsertion
*Album: The Meaning Of Life Is Death
*Year: 2020
*Genre: Death Metal/Grindcore
*Country: United States
*Format: mp3@CBR320kbps
*Size: 72MB

Tracklist:
1. The Meaning of Life Is Death 死 01:57
2. Skullcrusher つぶす 02:02
3. Regurgitating Putridity 腐敗 02:43
4. Scalp Him 頭皮 03:06
5. Affinity for Blood 血液 00:58
6. Ribcage 胸郭 03:17
7. Fuck You All ファック 01:08
8. Bug バグ 02:27
9. Thrashing and Clawing 爪 01:35
10. Entrusting You with My Greatest Fuck 陰茎 01:10
11. Make Me 力 01:42
12. Bathtub Bodyparts ボディバッグ 01:45
13. Stupid Cunt 愚か 02:11
14. Hacksaw to Flesh 肉 02:12
15. This Is What Lust Is All About 殺害 01:53
******************************
Total playing time: 30:06



[more=Technical info]
Input File: 10. Entrusting You with My Greatest Fuck 陰茎.mp3
Channels : 2
Sample Rate : 44100
Precision : 16-bit
Duration : 00:01:10.90 = 3126822 samples = 5317.72 CDDA sectors
File Size : 2.84M
Bit Rate : 320k
Sample Encoding: MPEG audio (layer I, II or III)
Comments :
Title=Entrusting You with My Greatest Fuck ??
Artist=Desinsertion
Album=The Meaning of Life Is Death
Tracknumber=10
Year=2020
Genre=Death Metal/Grindcore

[/more]

Register
(8) alikkon, atavist, infiltrator, jollo, killingod, Olethros, SadistikSlayer, vyacheslav,
Jun 23 2020, 19:01:25 Ohhms - Close (2020)


*Artist: Ohhms
*Album: Close
*Year: 2020
*Genre: Sludge/Post-Metal
*Country: United Kingdom
*Format: mp3@CBR320kbps
*Size: 71MB

Tracklist:
1. Alive!
2. ((Flaming Youth))
3. Revenge
4. ((Strange Ways))
5. Destroyer
6. Asylum
7. Unplugged
******************************
Total playing time: 30:09



[more=Extended info]Line - up:

Chainy Chainy - Bass (Avenge Thee)
Max Newton - Drums (ex-Hooden)
Marc George - Guitars
Daniel Sargent - Guitars
Paul Waller - Vocals

[/more]

[more=Technical info]
Input File: 06 Asylum.mp3
Channels : 2
Sample Rate : 44100
Precision : 16-bit
Duration : 00:01:50.87 = 4889455 samples = 8315.4 CDDA sectors
File Size : 4.44M
Bit Rate : 320k
Sample Encoding: MPEG audio (layer I, II or III)
Comments :
Title=Asylum
Artist=OHHMS
Album=Close
Tracknumber=6
Year=2020
Genre=Sludge/Post-Metal

[/more]

Register
(9) 555, grimoir, HMHamster, infiltrator, marilin, Occultas, Olethros, sacredserenity, sludge666,
Jun 23 2020, 18:53:22 Hornwood Fell - Cursed Thoughts - I Ii [compilation] (2020)


*Artist: Hornwood Fell
*Album: Cursed Thoughts - I Ii [compilation]
*Year: 2020
*Genre: Black Metal
*Country: Italy
*Format: mp3@CBR320kbps
*Size: 186MB

Tracklist:
1. The Joyous Defunct 05:48
2. Magnetic Horror 05:44
3. Obsession 06:57
4. The Possessed One 06:51
5. The Spiritual Dawn 06:40
6. The Giantess 06:09
7. Dream-Land 05:09
8. The Spirits Of The Dead 06:01
9. Alone 07:21
10. The Divine Right Of Kings 06:28
11. The Lake 06:57
12. The Sleeper 04:29
13. The Valley Of Unrest 05:02
******************************
Total playing time: 1:19:36



[more=Extended info]Line - up:

Andrea Basili - Drums (Hastur, Nur Run, ex-Hastur Evocation, ex-Kailash, ex-Vinter Fresa, ex-Krom)
Marco Basili - Guitars, Vocals, Bass (Hastur, Nor, Nur Run, ex-Hastur Evocation, ex-Kailash, ex-Vinter Fresa, ex-Krom)

[/more]

[more=Technical info]
Input File: 10. The Divine Right Of Kings.mp3
Channels : 2
Sample Rate : 44100
Precision : 16-bit
Duration : 00:06:28.07 = 17114019 samples = 29105.5 CDDA sectors
File Size : 15.5M
Bit Rate : 320k
Sample Encoding: MPEG audio (layer I, II or III)
Comments :
Title=The Divine Right Of Kings
Artist=Hornwood Fell
Album=Cursed Thoughts (Compilation)
Tracknumber=10
Year=2020
Genre=138

[/more]

Register
(12) 1968_janeart, infiltrator, kim666, Olethros, robertho777, SilentNidhogg, stub888, supremo, VALERY, varlam4, vasiljev_sergej, Wail,
Jun 23 2020, 17:37:26 Pyrrhon - Abscess Time (2020)


*Artist: Pyrrhon
*Album: Abscess Time
*Year: 2020
*Genre: Technical Death Metal
*Country: United States
*Format: mp3@CBR320kbps
*Size: 126MB

Tracklist:
1. Abscess Time 05:11
2. Down at Liberty Ashes 04:56
3. Teuchnikskreis 01:01
4. The Lean Years 07:24
5. Another Day in Paradise 05:51
6. The Cost of Living 08:41
7. Overwinding 01:40
8. Human Capital 02:55
9. Cornered Animal 02:47
10. Solastagia 03:59
11. The State of Nature 04:12
12. Rat King Lifecycle 08:19
******************************
Total playing time: 56:56



[more=Extended info]В ЛОУ

Line - up:

Erik Malave - Bass (Seputus, ex-Imperial Triumphant, ex-Artificial Brain (live))
Dylan DiLella - Guitars (Chad Thundercock)
Doug Moore - Vocals (Seputus, Weeping Sores, Glorious Depravity)
Steve Schwegler - Drums (Seputus, Weeping Sores)

[/more]

[more=Technical info]
Input File: 11 - State Of Nature.mp3
Channels : 2
Sample Rate : 44100
Precision : 16-bit
Duration : 00:04:12.46 = 11133662 samples = 18934.8 CDDA sectors
File Size : 10.1M
Bit Rate : 320k
Sample Encoding: MPEG audio (layer I, II or III)
Comments :
Title=State Of Nature
Artist=Pyrrhon
Album=Abscess Time
Tracknumber=11
Year=2020
Genre=Technical Death Metal

[/more]

Register
(12) atavist, BandR75, Dmitry1977, Ghostb, infiltrator, infozahist, metala, mirotvorets, Moonshtook, Olethros, Tino, Witchmaster,
Jun 23 2020, 09:40:02 Fetal Sewage - Butchering The Dead [ep] (2020)


*Artist: Fetal Sewage
*Album: Butchering The Dead [ep]
*Year: 2020
*Genre: Death Metal
*Country: United States
*Format: flac
*Size: 113MB

Tracklist:
1. Passion in Homicide 05:41
2. Mutilated and Left for Dead 02:41
3. The Final Tragedy 05:55
4. Skewed and Manured 01:46
******************************
Total playing time: 16:03



Register
(4) cesar, infiltrator, Mares, Olethros,
Jun 23 2020, 09:08:34 Sledgehammergenocide - Molested In A Septic Tank [ep] (2020)


*Artist: Sledgehammergenocide
*Album: Molested In A Septic Tank [ep]
*Year: 2020
*Genre: Brutal Death Metal/Goregrind
*Country: United States
*Format: flac
*Size: 77MB

Tracklist:
1. Eater of Maggots 01:28
2. Hacked and Slashed 02:22
3. Gnawing at the Corpse 02:19
******************************
Total playing time: 6:09



Register
(3) infiltrator, Olethros, Styx,
Jun 23 2020, 08:52:40 The Chasm - Covers 1999-2000 [ep] (2020)


*Artist: The Chasm
*Album: Covers 1999-2000 [ep]
*Year: 2020
*Genre: Death Metal
*Country: United States
*Format: mp3@CBR320kbps
*Size: 50MB

Tracklist:
1. Abominations (Morbid Angel cover) 04:28
2. Metalstorm/Face the Slayer (Slayer cover) 04:44
3. Take Their Lives (Kreator cover) 06:17
4. Deathtrap (Destruction cover) 05:25
******************************
Total playing time: 20:54



[more=Extended info]Line - up:

Daniel Corchado - Bass, Guitars, Vocals (Acerus, Magnum Itiner Interius, ex-Damned Cross, ex-Cenotaph, ex-Incantation, ex-Obeisance, ex-Metalucifer (live), ex-Nuclear Death)
Antonio León - Drums (Ancient Gods, Heavens Decay, ex-Thy Only Forgotten, ex-Hellnomorf, ex-Obeisance, ex-The Suffering, ex-Question of Madness (live))
Scott Wright - Bass (Ancient Gods, ex-Mordrid, ex-Terminate, ex-Blood of the Wolf, ex-Deadnight)

[/more]

[more=Technical info]
Input File: 03. Take their Lives (Kreator).mp3
Channels : 2
Sample Rate : 44100
Precision : 16-bit
Duration : 00:06:17.60 = 16652028 samples = 28319.8 CDDA sectors
File Size : 15.1M
Bit Rate : 320k
Sample Encoding: MPEG audio (layer I, II or III)
Comments :
Title=Take their Lives (Kreator)
Artist=The Chasm
Album=Covers 1999-2000 (EP)
Tracknumber=3
Year=2020
Genre=22

[/more]

Register
(18) 555, AHBAnep, BladeOvDarkness, boardd, cesar, chipsgott, infiltrator, kauyumari, killingod, maochen, Mares, oldvarg, Olethros, terron, Tino, VALERY, vyacheslav, wtk.412,
Jun 23 2020, 08:12:31 Brainslug - Return To The Vast Sea (2020)


*Artist: Brainslug
*Album: Return To The Vast Sea
*Year: 2020
*Genre: Heavy/Doom Metal
*Country: United States
*Format: mp3@CBR320kbps
*Size: 121MB

Tracklist:
1. The Void 02:43
2. The Impact 04:07
3. The Sun and the Second Seed 04:42
4. The Man of the Wood 07:51
5. The Two 07:03
6. The Felling 07:54
7. The Ocean 07:40
8. The Song of the Gods 06:35
9. The Return to the Vast Sea 03:12
******************************
Total playing time: 51:47



[more=Technical info]
Input File: 05. the TWO.mp3
Channels : 2
Sample Rate : 44100
Precision : 16-bit
Duration : 00:07:03.31 = 18668147 samples = 31748.5 CDDA sectors
File Size : 17.0M
Bit Rate : 320k
Sample Encoding: MPEG audio (layer I, II or III)
Comments :
Title=the TWO
Artist=Brainslug
Album=Return to the Vast Sea
Tracknumber=5
Year=2020
Genre=Heavy/Doom Metal

[/more]

Register
(11) autumnwood, HMHamster, infiltrator, Lukittaz, metala, Olethros, sergsazan, stumpheavyrock, VALERY, varlam4, vir2al,
Jun 23 2020, 07:46:46 The Moon And The Nightspirit - Aether (2020)


*Artist: The Moon And The Nightspirit
*Album: Aether
*Year: 2020
*Genre: Neofolk/Medieval
*Country: Hungary
*Format: flac
*Size: 263MB

Tracklist:
1. Aether 07:38
2. Kaputlan kapukon át 06:36
3. Égi messzeségek 05:40
4. A szárny 04:35
5. Logos 03:49
6. A mindenség hívása 07:33
7. Asha 04:36
******************************
Total playing time: 40:27



Register
(10) BlackTroll, Cartman223, Der_Hexer, fylopaloma, garml2, gwar, infiltrator, leks, Old Vyaine, Olethros,
Jun 23 2020, 07:21:21 Veldlokk - Crushing The Servants Of The Plaguethrone [ep] (2020)


*Artist: Veldlokk
*Album: Crushing The Servants Of The Plaguethrone [ep]
*Year: 2020
*Genre: Black Metal
*Country: United States
*Format: mp3@CBR320kbps
*Size: 73MB

Tracklist:
1. Anointed in Sulphur Pits 06:11
2. The Weeping Desert (Part II) 05:35
3. Crusaders Return (Elegy for a Fallen Warmaster) 06:33
4. Transcending the Ravenous Stellar Abyss 05:23
5. Veiled Faces Mutilated Beneath Our Blades 06:51
******************************
Total playing time: 30:33



[more=Extended info]Line - up:

A. Scourge - Guitars
B. Amick - Guitars, Bass, Drums
K. Saeter - Vocals[/more]

[more=Technical info]
Input File: 03. Crusaders Return (Elegy for a Fallen Warmaster).mp3
Channels : 2
Sample Rate : 44100
Precision : 16-bit
Duration : 00:06:33.09 = 17335225 samples = 29481.7 CDDA sectors
File Size : 15.7M
Bit Rate : 320k
Sample Encoding: MPEG audio (layer I, II or III)
Comments :
Title=Crusaders Return (Elegy for a Fallen Warmaster)
Artist=Veldlokk
Album=Crushing the Servants of the Plaguethrone (EP)
Tracknumber=3
Year=2020
Genre=138

[/more]

Register
(14) 1968_janeart, Ildjarn, infiltrator, kim666, Ludwig Hagen, Olethros, randumbum, rickzammuto, robertho777, SilentNidhogg, stub888, VALERY, varlam4, vasiljev_sergej,
Jun 23 2020, 06:59:41 Azzarok - Life Countdown (2020)


*Artist: Azzarok
*Album: Life Countdown
*Year: 2020
*Genre: Heavy Metal
*Country: Brazil
*Format: mp3@CBR320kbps
*Size: 105MB

Tracklist:
1. Genesis 01:44
2. Voices from Beyond 04:42
3. Pay with Blood 06:07
4. Lost Fight 04:30
5. Life Countdown 04:08
6. Reach Your Dreams 04:50
7. Last Chance 04:02
8. The Reaper Comes 05:09
9. End of Life 04:49
10. Apocalypse 03:48
******************************
Total playing time: 43:49

[more=Extended info]Line - up:

Moisés Corazza - Bass, Vocals
Reinaldo Carvalho - Drums
Filipe Rocha - Guitars
Lucas Souza - Guitars
Matheus Eleto - Vocals

[youtube]r68aKOBYZR0[/youtube]

[/more]

[more=Technical info]
Input File: 03 - Pay with Blood.mp3
Channels : 2
Sample Rate : 44100
Precision : 16-bit
Duration : 00:06:07.10 = 16188934 samples = 27532.2 CDDA sectors
File Size : 14.7M
Bit Rate : 321k
Sample Encoding: MPEG audio (layer I, II or III)
Comments :
Title=Pay with Blood
Artist=Azzarok
Album=Life Countdown
Tracknumber=03
Year=2020
Genre=137

[/more]

Register
(9) aviacademy, infiltrator, Lukittaz, metala, Olethros, Rover, sergsazan, terron, varlam4,

109 Pages V   1 2 3 > » 
- Lo-Fi Version Support form
Copyrights and abuse reports form
Time is now: 3rd July 2020 - 20:28:32