Welcome Guest ( Log In | Register )

История благодарностей участнику Necrokilldozer ::: Спасибо сказали: 15710 раз(а)
Дата поста: В теме: За сообщение: Спасибо сказали:
Yesterday, 18:27:50 Murderbird - Pillars Of Creation (2019)


*Artist: Murderbird
*Album: Pillars Of Creation
*Year: 2019
*Genre: Heavy/Groove Metal
*Country: Sweden
*Format: mp3@CBR320kbps
*Size: 155MB

Tracklist:
1.Into Fire 04:17
2.Life Begins 04:02
3.Mr & Mrs Prejudice 04:14
4.The Silver Lining of Yesteryear 04:34
5.Lift Me Up 04:32
6.Shining Star 05:25
7.Inferno 06:34
8.Long Live Wanderlust 05:30
9.Lifting the Veil 06:24
10.Wildfire 05:06
11.Just Another Tuesday 06:53
12.Volition 07:00
******************************
Total playing time: 1:04:31



[more=Extended info]Line - up:

Stevie - Bass
Mackie - Drums (ex-Kaptain Sun, ex-Clandestine)
Hammer - Guitars
Putte - Guitars (ex-Eternal Exile)
Toob - Vocals (lead) (ex-Eternal Exile)

[/more]

[more=Technical info]
Input File: 09. Lifting The Veil.mp3
Channels : 2
Sample Rate : 44100
Precision : 16-bit
Duration : 00:06:24.08 = 16937752 samples = 28805.7 CDDA sectors
File Size : 15.4M
Bit Rate : 321k
Sample Encoding: MPEG audio (layer I, II or III)
Comments :
Title=Lifting The Veil
Artist=Murderbird
Album=Pillars Of Creation
Tracknumber=9
Year=2019
Genre=Heavy/Groove Metal

[/more]

Register
(3) infozahist, Rover, stumpheavyrock,
Nov 20 2019, 20:05:10 Einar - Anhedonia [single] (2019)


*Artist: Einar
*Album: Anhedonia [single]
*Year: 2019
*Genre: Black Metal
*Country: United Kingdom
*Format: flac
*Size: 74MB

Tracklist:
1. Anhedonia 10:24 instrumental
******************************
Total playing time: 10:24



[more=Extended info]Line - up:

Einar - Everything[/more]

Register
(2) Olethros, vasiljev_sergej,
Nov 20 2019, 19:50:44 Skyblood - Skyblood (2019)


*Artist: Skyblood
*Album: Skyblood
*Year: 2019
*Genre: Epic Progressive Metal
*Country: Sweden
*Format: mp3@CBR320kbps
*Size: 106MB

Tracklist:
01 Skyblood Manifesto 02:14
02 The Voice 04:23
03 The Not Forgotten 03:29
04 Wake up to the Truth 04:28
05 Once Invisible 05:18
06 One Eye for an Eye 04:26
07 Out of the Hollow 05:57
08 For or Against 04:45
09 Le Venimeux 10:09
******************************
Total playing time: 45:09



[more=Extended info]Line - up:

Mats Leven (CANDLEMASS) - Vocals, Instruments
Martin "Axe" Axenrot (BLOODBATH, OPETH, WITCHERY) - Drums
Nalley Pahlsson (TREAT, THERION) - Bass
Snowy Shaw (ex-KING DIAMOND) - Drums
Petter Karlsson (ex-THERION, DIABLO SWING ORCHESTRA) - Drums[/more]

[more=Technical info]
Input File: 02. The Voice.mp3
Channels : 2
Sample Rate : 44100
Precision : 16-bit
Duration : 00:04:23.07 = 11601387 samples = 19730.2 CDDA sectors
File Size : 10.6M
Bit Rate : 323k
Sample Encoding: MPEG audio (layer I, II or III)
Comments :
Title=The Voice
Artist=Skyblood
Album=Skyblood
Tracknumber=2
Year=2019

[/more]

Register
(16) ace73pq, AHBAnep, Battaleon, chipsgott, EVENGAR, Fryz, gwynnbleid, kimkayoung, metala, mirotvorets, Morgoth, Olethros, stone88, terron, Yarri, Сварог Барг,
Nov 20 2019, 19:24:59 Tottal Tømming - Hælvette På Hamar - Live @ Sebs 081119 [live] (2019)


*Artist: Tottal Tømming
*Album: Hælvette På Hamar - Live @ Sebs 081119 [live]
*Year: 2019
*Genre: Grindcore
*Country: Norway
*Format: mp3@CBR320kbps
*Size: 115MB

Tracklist:
1.Fredrik føkker opp intron 01:44
2.Jeg vetta faen hva intron skal hete jeg vel!!! 01:12
3.En sittuasjon jeg ikke passer inni!!! 02:23
4.Gærnådomm 02:13
5.Ronny Råtass 02:34
6.Attomkniven 02:15
7.Kollektiv tarm 02:25
8.Proud Mary (CCR cover) 02:26
9.Lille promille 03:44
10.Psykdom (GH salsa kåvver) 02:16
11.Skrem de Kristne 05:27
12.Arr 02:16
13.Lille stille psykkopat 02:45
14.Jeg har en kniv (kniv) 04:29
15.Schtøgg verden 03:04
16.Skjært barn har mange navn 02:30
17.Tottal tømming 04:34
******************************
Total playing time: 48:17



[more=Extended info]Line - up:

Atle Sjørengen - Bass (Wyruz)
Øystein - Bass (Grotesque Hysterectomy, Metal Militia (Metallica tribute), ex-Grimfist, ex-Pantheon I (live), ex-Dead Trooper, ex-Damage, ex-Death Injector, ex-JUJ, ex-SFW (So Fucking What), ex-X-Ray, ex-TrollfesT & The Devil's Dangleberries (live))
Pelle Peddal - Drums (Autumn Inspiration, Zerozonic, Trollfest (live), ex-Dead Trooper, ex-Scum Culture, Metal Militia (Metallica tribute), Silence the Sky)
Ronny Råtass - Drums (Svartelder, Trollfest, ex-Pantheon I, ex-Sarkom, ex-Urgehal, ex-Djevel (live), ex-Koldbrann (live))
Alexander Klæboe - Guitars (Fastlane Flower, Kodeks, ex-Shot at Dawn, Fastlane Flower)
Chris Marchand - Guitars (ex-Shot at Dawn)
Max Feedback - Guitars (Pantheon I, Trollfest, Metal Militia (Metallica tribute), ex-Sarkom, ex-Abiotic (Nor))
Sigrid Vollgraven - Vocals (Manhunter, Trollfest (live), ex-Dead Trooper, ex-Rambokk (live), Metal Militia (Metallica tribute), ex-Grimfist, ex-1349 (live), ex-Cadaverized, ex-Damage, ex-Death Injector, ex-MDK, ex-Piss, ex-SFW (So Fucking What), ex-TrollfesT & The Devils Dangleberries (live))

[/more]

[more=Technical info]
Input File: 03. En Sittuasjon Jeg Ikke Passer Inni!!!.mp3
Channels : 2
Sample Rate : 44100
Precision : 16-bit
Duration : 00:02:23.79 = 6341095 samples = 10784.2 CDDA sectors
File Size : 5.76M
Bit Rate : 320k
Sample Encoding: MPEG audio (layer I, II or III)
Comments :
Title=En Sittuasjon Jeg Ikke Passer Inni!!!
Artist=Tottal Tomming
Album=H?lvette pa Hamar - Live @Sebs 081119 (Live)
Tracknumber=3
Year=2019
Genre=Grindcore

[/more]

Register
(1) Olethros,
Nov 20 2019, 18:51:46 Goatchrist - Pythagoras (2019)


*Artist: Goatchrist
*Album: Pythagoras
*Year: 2019
*Genre: Blackened Death Metal
*Country: United Kingdom
*Format: mp3@CBR320kbps
*Size: 109MB

Tracklist:
1.The Initiation of Pythagoras by Thoth Hermes Tresmegistus 01:12
2.Worlds 08:44
3.The Tetractys 04:00
4.Pythagorean Solids 04:19
5.Introduction to Numbers 01:01
6.Numbers 05:45
7.Harmony of the Spheres 04:14
8.Metempsychosis 08:28
9.The Death of Pythagoras 10:50
******************************
Total playing time: 48:33



[more=Extended info]Line - up:
J. Guilherme - Instruments and vocals (Mors Voluntaria, ex-Lord Andras, ex-Rancid Entity, ex-Nattsvargr, ex-Kierkegaard, ex-Mundus)

Guest/Session:
V. Calin - Lead guitar (track II), vocals (track IX)
D. Tann Vocals (track II)[/more]

[more=Technical info]
Input File: 02. Worlds.mp3
Channels : 2
Sample Rate : 44100
Precision : 16-bit
Duration : 00:08:44.26 = 23119734 samples = 39319.3 CDDA sectors
File Size : 21.0M
Bit Rate : 320k
Sample Encoding: MPEG audio (layer I, II or III)
Comments :
Title=Worlds
Artist=Goatchrist
Album=Pythagoras
Tracknumber=2
Year=2019
Genre=Blackened Death Metal

[/more]

Register
(11) atavist, metala, multizwilling, Occultas, older68, Olethros, Ostinato, Reverend, samokot, VALERY, wtk.412,
Nov 20 2019, 18:33:33 Hajduk - Свобода [ep] (2019)


*Artist: Hajduk
*Album: Свобода [ep]
*Year: 2019
*Genre: Black Metal
*Country: Bulgaria
*Format: flac
*Size: 146MB

Tracklist:
1.На прощаване 11:56
2.Моята молитва 07:50
******************************
Total playing time: 19:46



[more=Extended info]Line - up:

Belgun - All instruments (Festung, Mythenmetz)[/more]

Register
(2) Olethros, vasiljev_sergej,
Nov 20 2019, 18:10:09 Acroma - Tribus [ep] (2019)


*Artist: Acroma
*Album: Tribus [ep]
*Year: 2019
*Genre: Melodic Death Metal
*Country: Argentina
*Format: mp3@CBR320kbps
*Size: 53MB

Tracklist:
1.Tribus 23:53
******************************
Total playing time: 23:53



[more=Extended info]Line - up:

Julian Rueda - Bass
Nicole Trinchero - Drums (The Nothing, ex-UnFear)
Juan Bach - Guitars, Vocals (Bestiarum, Terra, Terror Messiah, The Nothing, ex-Climatic Terra, ex-UnFear)
Julia Sergent - Vocals (The Nothing, ex-UnFear)
Germán Sandoval - Bass
Gabriel Olivares - Guitars (Silence)

[/more]

[more=Technical info]
Input File: 01. Tribus.mp3
Channels : 2
Sample Rate : 44100
Precision : 16-bit
Duration : 00:23:53.21 = 63204649 samples = 107491 CDDA sectors
File Size : 57.4M
Bit Rate : 320k
Sample Encoding: MPEG audio (layer I, II or III)
Comments :
Title=Tribus
Artist=Acroma
Album=Tribus (EP)
Tracknumber=1
Year=2019
Genre=Melodic Death Metal

[/more]

Register
(5) metalwoman, Olethros, sergsazan, VALERY, zhol,
Nov 20 2019, 17:29:21 Canyon Of The Skull - Sins Of The Past (2019)


*Artist: Canyon Of The Skull
*Album: Sins Of The Past
*Year: 2019
*Genre: Instrumental Doom/Sludge Metal
*Country: United States
*Format: mp3@CBR320kbps
*Size: 135MB

Tracklist:
1.The Ghost Dance 25:32
2.The Sun Dance 34:12
******************************
Total playing time: 59:44



[more=Extended info]Line - up:

Erik Ogershok - Guitars
Todd Haug - Bass
Mike Miczek - Drums (Broken Hope, Earthburner, Eat Their Own, The Atlas Moth, ex-Jungle Rot (live))

[/more]

[more=Technical info]
Input File: 02. The Sun Dance.mp3
Channels : 2
Sample Rate : 44100
Precision : 16-bit
Duration : 00:34:12.32 = 90507400 samples = 153924 CDDA sectors
File Size : 82.2M
Bit Rate : 320k
Sample Encoding: MPEG audio (layer I, II or III)
Comments :
Title=The Sun Dance
Artist=Canyon of the Skull
Album=Sins of the Past
Tracknumber=2
Year=2019
Genre=Instrumental Doom/Sludge Metal

[/more]

Register
(5) FuneralWolf, marilin, Olethros, plagueofflies, Zash,
Nov 19 2019, 19:23:12 Misfit River - Dark Waters [ep] (2018)


*Artist: Misfit River
*Album: Dark Waters [ep]
*Year: 2018
*Genre: Melodic Groove Metal
*Country: Hungary
*Format: flac
*Size: 146MB

Tracklist:
1.Core Collapse 03:37
2.Hyperventillating 04:06
3.Animosity 02:43
4.Chameleon Syndrome 04:19
5.Bulldog 03:32
******************************
Total playing time: 18:17



[more=Extended info]Line - up:

Farkas Ferenc - Bass (Everwood, ex-Neverwood)
Sándor Dudás - Drums (ex-Sicitur Adastra)
Ódor József Szabolcs - Guitars (lead)
Bozó Gyula - Guitars (rhythm)

[/more]

Register
(1) Olethros,
Nov 19 2019, 19:02:57 Misanthropist - Myrmidon [ep] (2018)


*Artist: Misanthropist
*Album: Myrmidon [ep]
*Year: 2018
*Genre: Instrumental Heavy/Groove Metal
*Country: United Kingdom
*Format: flac
*Size: 69MB

Tracklist:
1.Tyrant 03:47
2.Myrmidon pt1 03:45
3.Myrmidon pt2 03:22
******************************
Total playing time: 10:54



Register
(2) kimkayoung, Olethros,
Nov 19 2019, 18:36:22 Metavoid - Heliosophist [ep] (2018)


*Artist: Metavoid
*Album: Heliosophist [ep]
*Year: 2018
*Genre: Groove/Progressive Metal
*Country: Germany
*Format: mp3@CBR320kbps
*Size: 61MB

Tracklist:
1.Helios I 02:23
2.Aphelion 07:30
3.Decarboxilation 03:45
4.Embryophyte 07:35
5.Helios II 04:43
******************************
Total playing time: 25:56



[more=Extended info]Line - up:

Thomas Niederreiner - Bass
Philipp Schlothauer - Guitars (Slavery, ex-Havok)
Jan Hase - Guitars ((ex-Cryptonite (live))
Ruben Schlagowski - Vocals (Abysmal)
Daniel Immerz - Drums

[/more]

[more=Technical info]
Input File: 04. Embryophyte.mp3
Channels : 2
Sample Rate : 44100
Precision : 16-bit
Duration : 00:07:35.68 = 20095576 samples = 34176.1 CDDA sectors
File Size : 18.3M
Bit Rate : 322k
Sample Encoding: MPEG audio (layer I, II or III)
Comments :
Title=Embryophyte
Artist=MetaVoid
Album=Heliosophist (EP)
Tracknumber=4
Year=2018
Genre=Groove/Progressive Metal

[/more]

Register
(4) chipsgott, daemonarch, metala, Olethros,
Nov 19 2019, 17:50:29 Metal Eater - Dirty Dishes [ep] (2018)


*Artist: Metal Eater
*Album: Dirty Dishes [ep]
*Year: 2018
*Genre: Thrash/Groove Metal/Hardcore Punk
*Country: United States
*Format: mp3@CBR320kbps
*Size: 36MB

Tracklist:
1.Bag Dragger 01:06
2.Litter 00:51
3.Lager 02:13
4.Floor Man 01:56
5.Dog Food 02:32
6.Throw You Out 01:04
7.Corpse-colored Room 01:28
8.Make You Deaf 01:40
9.Scold You 02:19
******************************
Total playing time: 15:09



[more=Extended info]Line - up:

Nick - Drums
Greg - Guitars
Jeff - Vocals, Bass

[/more]

[more=Technical info]
Input File: 01. Bag dragger.mp3
Channels : 2
Sample Rate : 44100
Precision : 16-bit
Duration : 00:01:06.33 = 2925197 samples = 4974.82 CDDA sectors
File Size : 2.75M
Bit Rate : 332k
Sample Encoding: MPEG audio (layer I, II or III)
Comments :
Title=Bag dragger
Artist=Metal Eater
Album=Dirty Dishes (EP)
Tracknumber=1
Year=2018
Genre=Thrash/Groove Metal/Hardcore Punk

[/more]

Register
(3) boby9052, Olethros, stumpheavyrock,
Nov 18 2019, 19:16:39 Makasrr - Demo 2018 [demo] (2018)


*Artist: Makasrr
*Album: Demo 2018 [demo]
*Year: 2018
*Genre: Groove Metal/Metalcore
*Country: Belgium
*Format: flac
*Size: 97MB

Tracklist:
1.Human Race 05:42
2.Inner Demon 07:19
******************************
Total playing time: 13:01



[more=Extended info]Line - up:

Robin Derriks - Bass
Terence Gevaert - Drums (Her Fault)
Gerald Goedhart - Guitars
David Decoutere - Guitars
Matthias Mahieu - Vocals

[/more]

Register
(1) Olethros,
Nov 18 2019, 17:45:22 Conflict - Decision Code (2019)


*Artist: Conflict
*Album: Decision Code
*Year: 2019
*Genre: Industrial/Death Metal
*Country: Russian Federation
*Format: mp3@CBR320kbps
*Size: 155MB

Tracklist:
1.2048 05:12
2.Autonomous 04:53
3.Art of Resistance 04:39
4.D-Evolution 05:08
5.Megapolis 02:56 instrumental
6.Decision Code 06:17
7.To Serve and Protect 04:57
8.Room 101 04:39
9.Speechless 05:56
10.The Architect 05:42
11.Deadlock 06:32
12.New Industrial Order 07:50
******************************
Total playing time: 1:04:41



[more=Extended info]Introduction to "Autonomous" by Paul Charles Dozsa [1940 - 2003]
Spoken word on "Decision Code" by Robert Oppenheimer [1904 - 1967]

Line - up:
Mikhail - Drums
Alexey - Guitars, Bass
Rodion - Guitars (Big Guns)
Anna - Vocals (Stentorian Voice, ex-Forgotten Past (Rus), ex-Pavor Nocturnus (Rus))

Guest/Session:
Dave Lowmiller - Vocals (track 4) (A Dark Halo)
Alex Blake - Vocals (track 6)
Karsten "Jagger" Jäger - Vocals (track 9) (Disbelief, Morgoth)
Burton C. Bell - Vocals (track 10) (Fear Factory, Ministry (live), Ascension of the Watchers, ex-Geezer, ex-City of Fire)
Jayce Lewis - Vocals (Losing Sun)
Roman Arsafes - Spoken word (tracks 1 & 8) (Arsafes, Hellrune, Kartikeya, ex-Крамола, ex-Невидь, Chatalhüyük, ex-Witchcraft, ex-Zmey Gorynich, ex-Изморозь, ex-Above the Earth, ex-Katari, ex-Miasma, ex-Multiverse, ex-Vengeance Is Mine)
Mikhail "Vaarwel" Saveliev - Spoken word (track 12) (Big Guns, Frozen Ocean, Goatpsalm, Heather Grave, Smothered Bowels, Поцелуй Бомжа)
Dmitriy Trifonov - Saxophone (track 5)
Anna Yerilina - Violin (Beer Bear, ex-Morbid Violence, ex-Equinox (live))
Elizaveta Bazhenova - Violin
Elena Melkumova - Viola
Sabira Omurdzhanova - Cello

[/more]

[more=Technical info]
Input File: 06. Decision Code (feat. Alex Blake).mp3
Channels : 2
Sample Rate : 44100
Precision : 16-bit
Duration : 00:06:18.04 = 16671652 samples = 28353.1 CDDA sectors
File Size : 15.1M
Bit Rate : 320k
Sample Encoding: MPEG audio (layer I, II or III)
Comments :
Title=Decision Code
Artist=Conflict
Album=Decision Code
Tracknumber=6
Year=2019-11-18
Genre=Industrial/Death Metal

[/more]

Register
(9) avkruchinin, chipsgott, gwar, jollo, multizwilling, Olethros, Shadechaser, VALERY, Волос,
Nov 17 2019, 17:28:54 Grizzly Fetish - 怨毒 [demo] (2019)


*Artist: Grizzly Fetish
*Album: 怨毒 [demo]
*Year: 2019
*Genre: Black/Death Metal/Grindcore
*Country: Japan
*Format: flac
*Size: 84MB

Tracklist:
1.怨毒 04:52
2.無常の風 01:21
******************************
Total playing time: 6:13



Register
(4) Olethros, Rosen, Sanctus, vasiljev_sergej,
Nov 17 2019, 17:20:26 Leviatan - Katharsis (2019)


*Artist: Leviatan
*Album: Katharsis
*Year: 2019
*Genre: Heavy/Thrash Metal/Hard Rock
*Country: Spain
*Format: mp3@CBR320kbps
*Size: 100MB

Tracklist:
1.Puños en alto 04:10
2.Tu superstición 05:53
3.La sangre del pueblo 05:03
4.Perdido en los 80 04:31
5.Nuestra sentencia 03:51
6.Bajo tus pies 04:21
7.Depredador 05:17
8.Pobre idiota 04:22
9.Vuela 04:05
******************************
Total playing time: 41:33



[more=Extended info]Line - up:

Patxi Alaminos - Bass
Txus Alaminos - Guitars, Vocals (backing)
Emilio Modino - Guitars, Vocals (backing) (Tabú)
Marcos Pastor - Vocals
Enrique Larios - Drums (ex-Bronka)

[/more]

[more=Technical info]
Input File: 08 - Pobre Idiota.mp3
Channels : 2
Sample Rate : 44100
Precision : 16-bit
Duration : 00:04:22.60 = 11580660 samples = 19695 CDDA sectors
File Size : 10.5M
Bit Rate : 320k
Sample Encoding: MPEG audio (layer I, II or III)
Comments :
Title=Pobre Idiota
Artist=Leviatan
Album=Katharsis
Tracknumber=8
Year=2019
Genre=Heavy/Thrash Metal/Hard Rock

[/more]

Register
(7) avkruchinin, Diflock, multizwilling, Olethros, Rosen, Rover, VALERY,
Nov 15 2019, 19:26:55 Chamber Of Torture - Necrodomain [ep] (2019)


*Artist: Chamber Of Torture
*Album: Necrodomain [ep]
*Year: 2019
*Genre: Death Metal
*Country: Russian Federation
*Format: mp3@CBR320kbps
*Size: 59MB

Tracklist:
1.Shriveled Stump 02:50
2.Necrocarnage Spree 03:15
3.Degenerated 03:25
4.Bog of Decayed 03:22
5.Consecrated Ground 02:02
6.Human Fertilizer 03:10
7.Necrodomain 03:15
8.Zombiecide 03:23
******************************
Total playing time: 24:42



[more=Extended info]Line - up:

Alisher Zoom - Bass (ex-Constrictor, ex-Corroded Realms)
Nikita Stepanov - Drums
Necrom - Guitars (ex-Corroded Realms, ex-Dead Off)
Kostek Dolganov - Guitars (Bodybag, Cenobite, Internal Damage, Neva)
Pavel Vakhlakov - Vocals (Bodybag, Infiltration, ex-Lethal Prophecy, ex-Abnormal)

[/more]

[more=Technical info]
Input File: 07. Necrodomain.mp3
Channels : 2
Sample Rate : 44100
Precision : 16-bit
Duration : 00:03:16.09 = 8647525 samples = 14706.7 CDDA sectors
File Size : 7.85M
Bit Rate : 320k
Sample Encoding: MPEG audio (layer I, II or III)
Comments :
Title=Necrodomain
Artist=Chamber of Torture
Album=Necrodomain (EP)
Tracknumber=7
Year=2019
Genre=22

[/more]

Register
(3) Olethros, Rosen, VALERY,
Nov 15 2019, 18:43:40 R.U.S.T.X - Center Of The Universe (2019)


*Artist: R.U.S.T.X
*Album: Center Of The Universe
*Year: 2019
*Genre: Heavy Metal
*Country: Cyprus
*Format: mp3@CBR320kbps
*Size: 101MB

Tracklist:
1.Defendre le rock 04:51
2.Running Man 03:25
3.Black Heart 04:29
4.I Stand to Live 05:26
5.Endless Skies 04:32
6.Center of the Universe 09:09
7.Widow's Cry 05:36
8.Wake Up 04:45
******************************
Total playing time: 42:13



[more=Extended info]Line - up:
George Xanthou - Bass, Vocals
Katerina Xanthou - Keyboards, Vocals
Peter Pan Xanthou - Guitars, Vocals
John Xanthou - Drums, Vocals

Guest/Session:
Paolo "Nipa" Ninci - Unknown (Dark Quarterer, ex-Il Vecchio Mulino, ex-Mediterraneo)
Andrea Ramacciotti - Unknown

[/more]

[more=Technical info]
Input File: 07 - Widow\'s Cry.mp3
Channels : 2
Sample Rate : 44100
Precision : 16-bit
Duration : 00:05:38.52 = 14928556 samples = 25388.7 CDDA sectors
File Size : 13.6M
Bit Rate : 322k
Sample Encoding: MPEG audio (layer I, II or III)
Comments :
Title=Widow's Cry
Artist=R.U.S.T.X
Album=Center of the Universe
Tracknumber=7
Year=2019
Genre=137

[/more]

Register
(7) DTGB, metala, Olethros, Rosen, sergsazan, vir2al, Сварог Барг,
Nov 15 2019, 18:05:45 Axxis - Best Of Emi-Years (2019)


*Artist: Axxis
*Album: Best Of Emi-Years
*Year: 2019
*Genre: Melodic Heavy/Power Metal
*Country: Germany
*Format: mp3@CBR320kbps
*Size: 223MB

Tracklist:
Disc 1
1.Living in a World 03:54
2.Kingdom of the Night 04:13
3.Never Say Never 03:45
4.Fire and Ice 04:05
5.Young Souls 03:34
6.Love Is like an Ocean 03:32
7.The Moon 03:58
8.Tears of the Trees 04:30
9.Kings Made of Steel 03:34
10.Save Me 04:18
11.Touch the Rainbow 03:09
12.Rolling like Thunder 04:08

Disc 2
13.Ships Are Sailing 03:57
14.Little Look Back 04:18
15.Face to Face 05:29
16.Stay Don't Leave Me 04:19
17.Little War 03:55
18.Brother Moon 04:52
19.Waterdrop 04:22
20.Ecstasy 03:30
21.C'est la vie 03:00
22.Just a Story 03:11
23.Helena 04:11
24.The Show Is Over 04:45
******************************
Total playing time: 1:36:29





[more=Extended info]Line - up:
Bernhard Weiß - Vocals, Guitars
Harry Öllers - Keyboards
Rob Schomaker - Bass (Regicide, ex-Cyberya, ex-Trinity)
Dirk Brand - Drums (Lee Z, Subsignal, ex-Geoff Downes & John Wetton)
Matthias Degener - Guitars (Fight/Delight, Hate Force One, ex-Misery Speaks (live), EpitomE, Kixx)

Guest/Session:
Dirk Schlag - Guitars (lead) (CD 1, track 6)
Axel "Ironfinger" Ritt - Guitars (lead) (CD 1, track 12) (Grave Digger, Domain, Monstergroove, ex-Wise Man, ex-Zünder)
Manni Schmidt - Guitars (lead) (CD 1, track 7) (Refuge, ex-Grave Digger, ex-Rage, ex-Jack of Hearts, ex-Rusty Nail, ex-Übergas, ex-Vötca)
Marcos Rodríguez - Guitars (lead) (CD 1, track 11) (Rage, Soundchaser, Diolegacy, ex-Torre de Marfil)
René Shades - Guitars (lead) (CD 1, track 4) (Pretty Maids, Shades & Peters, ex-!pride!, ex-Sateria, ex-Vegas Vampire)
Sascha Gerstner - Guitars (lead) (CD 1, track 1) (Helloween, Palast, ex-Freedom Call, ex-Lanzer (live))

[/more]

[more=Technical info]
Input File: 15. Face to Face (Rerecorded).mp3
Channels : 2
Sample Rate : 44100
Precision : 16-bit
Duration : 00:05:27.88 = 14459684 samples = 24591.3 CDDA sectors
File Size : 13.1M
Bit Rate : 320k
Sample Encoding: MPEG audio (layer I, II or III)
Comments :
Title=Face to Face (Rerecorded)
Artist=Axxis
Album=Best of EMI-Years
Tracknumber=15
Year=2019
Genre=Melodic Heavy/Power Metal
Discnumber=2

[/more]

Register
(9) ace73pq, AHBAnep, Aresson, gwynnbleid, Olethros, Rosen, Rover, vir2al, Сварог Барг,
Nov 15 2019, 16:25:48 Die Krupps - Vision 2020 Vision (2019)


*Artist: Die Krupps
*Album: Vision 2020 Vision
*Year: 2019
*Genre: Industrial Metal
*Country: Germany
*Format: mp3@CBR320kbps
*Size: 133MB

Tracklist:
1.Vision 2020 Vision 04:23
2.Welcome to the Blackout 03:59
3.Trigger Warning 03:48
4.Wolfen (Her Pack) 04:21
5.Extinction Time 04:15
6.The Carpet Crawlers 05:26
7.Fires 05:11
8.Obacht 04:32
9.DestiNation Doomsday 04:08
10.Allies 03:58
11.Fuck You 03:45
12.Active Shooter Situation 04:18
13.Human 04:35
******************************
Total playing time: 56:39



[more=Extended info]Line - up:

Jürgen Engler - Guitars, Vocals (Die Klute, ex-Doro)
Marcel Zürcher - Guitars
Ralf Dörper - Synthesizers

[/more]

[more=Technical info]
Input File: 02. Welcome to the Blackout.mp3
Channels : 2
Sample Rate : 44100
Precision : 16-bit
Duration : 00:03:59.43 = 10558775 samples = 17957.1 CDDA sectors
File Size : 9.58M
Bit Rate : 320k
Sample Encoding: MPEG audio (layer I, II or III)
Comments :
Title=Welcome to the Blackout
Artist=Die Krupps
Album=Vision 2020 Vision
Tracknumber=2
Year=2019
Genre=Industrial Metal

[/more]

Register
(11) alikkon, Angry_Chair, Branis, gwar, Infidel, oldvarg, p4B10, recber, Rosen, tOmV, v.v.m,
Nov 14 2019, 19:49:01 Magnus Wakander - Enforcer (2018)


*Artist: Magnus Wakander
*Album: Enforcer
*Year: 2018
*Genre: Melodic Death/Groove Metal
*Country: Sweden
*Format: mp3@CBR320kbps
*Size: 93MB

Tracklist:
1.Enforcer 03:54
2.Hammer 02:17
3.Domesticated 06:00
4.Immortal 03:55
5.Spite 03:29
6.Stripped 02:29
7.Haunted 66 01:16
8.Entropical Release 03:50
9.Slaughtered 03:34
10.Low Place 03:13
11.Impaled 02:56
12.Rollin' 01:39
******************************
Total playing time: 38:32

Google ►

[more=Extended info]Line - up:

Magnus Wakander - All instruments, Vocals (Obrero, ex-Phidion, ex-Elmer, ex-Fat Dragon Band, ex-Lena & the Fearsome Orchestra, ex-New Wave Stoner, ex-Saidi & Kollektivet, ex-Sgt. Black, ex-X:O)

[/more]

[more=Technical info]
Input File: 02. Hammer.mp3
Channels : 2
Sample Rate : 44100
Precision : 16-bit
Duration : 00:02:17.60 = 6068028 samples = 10319.8 CDDA sectors
File Size : 5.56M
Bit Rate : 323k
Sample Encoding: MPEG audio (layer I, II or III)
Comments :
Title=Hammer
Artist=Magnus Wakander
Album=Enforcer
Tracknumber=2
Year=2018
Genre=Melodic Death/Groove Metal

[/more]

Register
(9) gwynnbleid, kimkayoung, Olethros, Rosen, soulflesh, VALERY, wanderer73, zhol, Сварог Барг,
Nov 14 2019, 19:36:17 Magma - Imental (2018)


*Artist: Magma
*Album: Imental
*Year: 2018
*Genre: Groove Metal
*Country: Serbia
*Format: mp3@CBR320kbps
*Size: 119MB

Tracklist:
1.Burning Wings 04:16
2.Centrifuge 04:26
3.Crawling 05:02
4.Don't Ask 04:49
5.Hear Me Talking 04:45
6.iMental 06:43
7.No Vanity 04:30
8.Spiral 03:40
9.Truth Be Told 03:56
10.Unscared 03:18
11.Weakness 05:18
******************************
Total playing time: 50:43



[more=Extended info]Line - up:
Weehor - Bass (ing Size, Scaffold (live), Audbel, Danilo Petrović Trio, ex-Pero Defformero, ex-Rapidforce)
Yeqy - Drums (Organized Chaos, ex-Draconic, Jailbreak Band (Guns N' Roses tribute), Sanja Ilić & Balkanika, The Yeqy, David Maxim Micic (live), ex-Amaranth, ex-Chontaraz, ex-Consecration, ex-King Size, ex-Oblivion Awaits, ex-Rapidforce, ex-Destiny Potato, ex-Kryn, ex-The CUBE)
Lale - Guitars
Jay Lee - Vocals (ex-Draconic, ex-Final Thought, FEUD, Instead of a Kill, ex-BoneYard, ex-FakeFreedom)

Guest/Session:
Hornsman Coyote - Vocals (track 5) (Dead Ideas, Eyesburn, Hornsman Coyote, Remedy, Soulcraft, ex-Del Arno Band, ex-Shappa, ex-Sunshine)

[/more]

[more=Technical info]
Input File: 03. Crawling.mp3
Channels : 2
Sample Rate : 44100
Precision : 16-bit
Duration : 00:05:02.57 = 13343337 samples = 22692.8 CDDA sectors
File Size : 12.2M
Bit Rate : 322k
Sample Encoding: MPEG audio (layer I, II or III)
Comments :
Title=Crawling
Artist=Magma
Album=iMental
Tracknumber=3
Year=2018
Genre=Groove Metal

[/more]

Register
(5) Foneg, Olethros, Rosen, RotAnus, sasham060,
Nov 14 2019, 19:02:24 Mad Head Machine - Snakes [ep] (2018)


*Artist: Mad Head Machine
*Album: Snakes [ep]
*Year: 2018
*Genre: Southern/Stoner Metal/Rock
*Country: Brazil
*Format: mp3@CBR320kbps
*Size: 40MB

Tracklist:
1.Wild 'n' Loose 03:58
2.Stoner Head 04:02
3.Snake's Lair 03:29
4.Kings of the New Days 05:04
******************************
Total playing time: 16:33



[more=Extended info]Line - up:

André Luiz - Bass
Cristian Vitor Dias - Drums
Henrique Silveira - Vocals, Guitars

[/more]

[more=Technical info]
Input File: 2 - Stoner Head.mp3
Channels : 2
Sample Rate : 44100
Precision : 16-bit
Duration : 00:04:02.09 = 10676301 samples = 18157 CDDA sectors
File Size : 9.69M
Bit Rate : 320k
Sample Encoding: MPEG audio (layer I, II or III)
Comments :
Title=Stoner Head
Artist=Mad Head Machine
Album=Snakes (EP)
Tracknumber=2
Year=2019
Genre=Southern/Stoner Metal/Rock

[/more]

Register
(6) Ice Gnoll, marilin, Olethros, Rosen, stumpheavyrock, TAKATAEL,
Nov 14 2019, 18:23:06 Lumberjack Commando - Chapter Iii (2019)


*Artist: Lumberjack Commando
*Album: Chapter Iii
*Year: 2019
*Genre: Southern Metal/Rock
*Country: Hungary
*Format: mp3@CBR320kbps
*Size: 68MB

Tracklist:
1.Stripe 01:35
2.Dream & Reality 03:40
3.Frozen Breath 04:15
4.Learn to Fuck Alone 03:09
5.Fifth Hour 04:17
6.Pussycat Idol 02:51
7.Limit of Humanity 03:54
8.Crucified Anger 04:42
******************************
Total playing time: 28:23



[more=Extended info]FLAC RIP

Line - up:

Morvai Martin - Guitars
Péter Parti - Bass, Vocals
Tamás Péter - Drums

[/more]

[more=Technical info]
Input File: 01. Stripe.mp3
Channels : 2
Sample Rate : 44100
Precision : 16-bit
Duration : 00:01:35.28 = 4201716 samples = 7145.78 CDDA sectors
File Size : 3.81M
Bit Rate : 320k
Sample Encoding: MPEG audio (layer I, II or III)
Comments :
Title=Stripe
Artist=Lumberjack Commando
Album=Chapter III
Tracknumber=1
Year=2019
Genre=Southern Metal/Rock

[/more]

Register
(5) gwar, Ice Gnoll, Olethros, Rosen, Witchmaster,
Nov 14 2019, 17:41:24 Shadow Puncher - The Almighty Exorcist [ep] (2019)


*Artist: Shadow Puncher
*Album: The Almighty Exorcist [ep]
*Year: 2019
*Genre: Death Metal
*Country: Norway
*Format: mp3@CBR320kbps
*Size: 44MB

Tracklist:
1.Interlude (Excorcism) 01:02
2.Your Mercy Is Enough 03:50
3.Sick 03:22
4.The Peace That Ain't from This World 01:03
5.Walking Through the Fire 05:04
6.Shadows 03:48
******************************
Total playing time: 18:09



[more=Extended info]Line - up:

Meatgrinder - Everything (Rotten Earth, Tunge Byrder, Walking Through the Storm)

[/more]

[more=Technical info]
Input File: 02. Your mercy is enough.mp3
Channels : 2
Sample Rate : 44100
Precision : 16-bit
Duration : 00:03:50.21 = 10152085 samples = 17265.5 CDDA sectors
File Size : 9.21M
Bit Rate : 320k
Sample Encoding: MPEG audio (layer I, II or III)
Comments :
Title=Your mercy is enough
Artist=Shadow Puncher
Album=The Almighty Exorcist (EP)
Tracknumber=2
Year=2020
Genre=22

[/more]

Register
(7) Olethros, Rosen, samokot, stumpheavyrock, TeamatSE, VALERY, wanderer73,

76 Pages V   1 2 3 > » 
- Lo-Fi Version Support form
Copyrights and abuse reports form
Time is now: 22nd November 2019 - 20:55:48