Welcome Guest ( Log In | Register )

История благодарностей участнику Necrokilldozer ::: Спасибо сказали: 43291 раз(а)
Дата поста: В теме: За сообщение: Спасибо сказали:
Sep 21 2021, 17:37:14 Hellhound666 - Black Metal Against Modern World [compilation] (2021)


*Artist: Hellhound666
*Album: Black Metal Against Modern World [compilation]
*Year: 2021
*Genre: Black/Death Metal/Grindcore
*Country: International
*Format: mp3@VBR205kbps
*Size: 105MB

Tracklist:
1. I Hate You
2. Hetzjagd
3. Nuklear Ritual
4. Genickschuss und Strick
5. Black Metal Bootboys
6. Vernichtung (Demo Version)
7. Genocide Kommando
8. Holocaustic Black Metal War
9. Die Terrorfront
10. Panzersturm
11. Antiislamic Jihad (Napalm on Mecca)
12. Мрази современного мира
13. Panzerkorps ov Baphomet
14. Die Letze Wintersonnenwende
15. Schwarze Sonne
16. Repapsed, Bvt Still In Tolerasty
******************************
Total playing time: 1:07:57

[more=Extended info]Line - up:

Bodyrott - Guitars, Bass (ex-Holokaust Kommändo, Wrath)
Xenocider - Vocals, Drums (ex-Holokaust Kommändo, Kvnstobjekt, Outlaw Misanthrop, Svart666, Wasteyard Membrane, ex-Resistance of Death, ex-xXKorrosionXx)[/more]

[more=Technical info]
Input File: 05.Black Metal Bootboys.mp3
Channels : 2
Sample Rate : 44100
Precision : 16-bit
Duration : 00:04:49.24 = 12755440 samples = 21692.9 CDDA sectors
File Size : 5.79M
Bit Rate : 160k
Sample Encoding: MPEG audio (layer I, II or III)
Comments :
Title=Black Metal Bootboys
Artist=Hellhound666
Album=Black Metal Against Modern World (Compilation)
Tracknumber=5
Year=2021
Genre=Black/Death Metal/Grindcore

[/more]

Register
(7) dcatagua, Reverend, supremo, Taakeferd, VALERY, varlam4, wreak,
Sep 20 2021, 18:34:22 Endless Sleep - Hollow [single] (2021)


*Artist: Endless Sleep
*Album: Hollow [single]
*Year: 2021
*Genre: Funeral Doom Metal
*Country: Russian Federation
*Format: flac
*Size: 54MB

Tracklist:
1. Hollow 07:37
******************************
Total playing time: 7:37



Register
(1) wreak,
Sep 20 2021, 17:46:54 Zengaia - Nichts, Wovon Die Nachwelt Sprechen Wird (2021)


*Artist: Zengaia
*Album: Nichts, Wovon Die Nachwelt Sprechen Wird
*Year: 2021
*Genre: Black Metal
*Country: Germany
*Format: mp3@CBR320kbps
*Size: 77MB

Tracklist:
1. Forever Zengaia Pt. II 01:30
2. Vorwärts, Marsch! 04:31
3. Schwarzheimzombie 02:35
4. Tiere als Führer 01:29
5. So kaputt 01:37
6. Alles so wie gestern 03:14
7. In China essen sie Hunde 02:33
8. Degeneration Revolution 01:12
9. Follow me on Fickr 02:23
10. Unterbelichtungszeit 01:57
11. Elitäre haben keinen Platz im Hardcore 02:26
12. Das Leben ist schön 02:56
13. Nichts wovon die Nachwelt sprechen wird 01:31
14. Das Experiment (Japanische Kampfhörspiele cover) 01:39
******************************
Total playing time: 31:33



[more=Technical info]
Input File: 06. Alles so wie gestern.mp3
Channels : 2
Sample Rate : 44100
Precision : 16-bit
Duration : 00:03:14.60 = 8581860 samples = 14595 CDDA sectors
File Size : 7.86M
Bit Rate : 323k
Sample Encoding: MPEG audio (layer I, II or III)
Comments :
Title=Alles so wie gestern
Artist=Zengaia
Album=Nichts wovon die Nachwelt sprechen wird
Tracknumber=6
Year=2011
Genre=138

[/more]

Register
(13) cist, deadpyhto, dermarsoran, kim666, multizwilling, Olethros, robertho777, stormhatt, supremo, VALERY, varlam4, vasiljev_sergej, wreak,
Sep 20 2021, 17:41:51 Zengaia - Der Zeit Ein End [ep] (2021)


*Artist: Zengaia
*Album: Der Zeit Ein End [ep]
*Year: 2021
*Genre: Black Metal
*Country: Germany
*Format: flac
*Size: 84MB

Tracklist:
1. Der Zeit ein Ende 03:39
2. Euer Fleisch so kalt 02:34
3. Forever Zengaia Pt. I (Version 2013) 04:18
4. Unbefriedigt (Version 2013) 01:41
******************************
Total playing time: 12:12



Register
(6) dermarsoran, kim666, stormhatt, varlam4, vasiljev_sergej, wreak,
Sep 20 2021, 17:34:56 Futurism - Opus Ix - Nonusphere [compilation] (2021)


*Artist: Futurism
*Album: Opus Ix - Nonusphere [compilation]
*Year: 2021
*Genre: Instrumental Doom/Black/Death Metal
*Country: Australia
*Format: mp3@CBR320kbps
*Size: 91MB

Tracklist:
1. Pretence 06:39
2. The Inevitable 04:07
3. Last Bastion 04:36
4. Minatory 04:52
5. Vanquished by Fear 04:24
6. Grand Capitulation 04:23
7. Forever Aghast 03:50
8. Besieged by Ignorance 04:51
******************************
Total playing time: 37:42



[more=Technical info]
Input File: 04 - Minatory.mp3
Channels : 2
Sample Rate : 44100
Precision : 16-bit
Duration : 00:04:52.00 = 12877200 samples = 21900 CDDA sectors
File Size : 11.7M
Bit Rate : 320k
Sample Encoding: MPEG audio (layer I, II or III)
Comments :
Title=Minatory
Artist=Futurism
Album=Opus IX Nonusphere (Compilation)
Tracknumber=4
Year=2021-09-20
Genre=Instrumental Doom/Black/Death Metal

[/more]

Register
(7) dermarsoran, lacrimoza, Mencae77, Olethros, supremo, varlam4, wreak,
Sep 19 2021, 19:02:12 Hollowed - Hollowed [ep] (2021)


*Artist: Hollowed
*Album: Hollowed [ep]
*Year: 2021
*Genre: Sludge
*Country: United States
*Format: flac
*Size: 90MB

Tracklist:
1. Hollowed 04:20
2. The Great Heathen Army 03:50
3. Vicious Cycle 04:05
******************************
Total playing time: 12:15



[more=Extended info]Line - up:

Joe Yoksh - Bass, Vocals
Michael Salvato - Drums
Mason Armstrong - Guitars[/more]

Register
(2) Wail, wreak,
Sep 19 2021, 18:44:25 Hln - Demo [demo] (2021)


*Artist: Hln
*Album: Demo [demo]
*Year: 2021
*Genre: Sludge/Doom Metal
*Country: France
*Format: mp3@CBR320kbps
*Size: 65MB

Tracklist:
1. Regarder les gens s'aimer 08:04
2. Plus d'espoir 04:56
3. Contempler le néant 05:54
4. Et puis pleurer 08:32
******************************
Total playing time: 27:26



[more=Technical info]
Input File: 03. Contempler Le Néant.mp3
Channels : 2
Sample Rate : 44100
Precision : 16-bit
Duration : 00:05:54.09 = 15615193 samples = 26556.5 CDDA sectors
File Size : 14.2M
Bit Rate : 321k
Sample Encoding: MPEG audio (layer I, II or III)
Comments :
Title=Contempler Le Neant
Artist=Hln
Album=Demo (Demo)
Tracknumber=3
Year=2021
Genre=Sludge/Doom Metal

[/more]

Register
(6) marilin, Olethros, stumpheavyrock, VALERY, Wail, wreak,
Sep 19 2021, 17:11:10 Energema - Promised Land (2021)


*Artist: Energema
*Album: Promised Land
*Year: 2021
*Genre: Power Metal
*Country: Colombia
*Format: mp3@CBR320kbps
*Size: 85MB

Tracklist:
1. The Rise of Ramses II (Overture) 01:02 instrumental
2. The Eyes of Pharaoh 04:35
3. Promised Land 04:30
4. The Burning Bush 07:02
5. Foreign Reign 04:42
6. Secret Spells 04:26
7. River of Blood 04:55
8. Exodus 02:49
9. Crossing the Sea (Epilogue) 01:23 instrumental
******************************
Total playing time: 35:24



[more=Extended info]Line - up:

Camilo Duarte - Bass (Nonsense Premonition, Razo)
Julián VillWolfs - Drums
Jeff Castro - Guitars
Arley Gómez - Vocals (ex-Altered Symmetry)
Nicolas Waldo - Guitars, Keyboards (Fire Lineage, Nicolas Waldo, ex-Heaven Flames, ex-Vorpal Nomad)

[youtube]e6CpW9jIXNg[/youtube][/more]

[more=Technical info]
Input File: 01 - The Rise of Ramses II (Overture).mp3
Channels : 2
Sample Rate : 44100
Precision : 16-bit
Duration : 00:01:02.00 = 2734200 samples = 4650 CDDA sectors
File Size : 2.53M
Bit Rate : 326k
Sample Encoding: MPEG audio (layer I, II or III)
Comments :
Title=The Rise of Ramses II (Overture)
Artist=Energema
Album=Promised Land
Tracknumber=01
Year=2021
Genre=Power Metal

[/more]

Register
(12) ace73pq, boby9052, Herrant, HMHamster, Lukittaz, Marek, metala, Olethros, Wail, wn129aa, wreak, Сварог Барг,
Sep 19 2021, 16:53:38 Blacnk - Lost Allegories From The Forest Of Aveliyin - Vol. Ii (2021)


*Artist: Blacnk
*Album: Lost Allegories From The Forest Of Aveliyin - Vol. Ii
*Year: 2021
*Genre: Black Metal
*Country: Australia
*Format: mp3@CBR320kbps
*Size: 105MB

Tracklist:
1. The Perishing of the Third Moon 10:01
2. Flames from the Cursed 09:11
3. The Haven of the Forewarned 06:11
4. Tomb of the Aveliyin Lost 03:16
5. Their Ashes Were Sold in the Fog 06:04
6. When Summer Killed Winter and Wept for Its Swine 09:24
******************************
Total playing time: 44:07



[more=Technical info]
Input File: 01. The Perishing of the Third Moon.mp3
Channels : 2
Sample Rate : 44100
Precision : 16-bit
Duration : 00:10:01.40 = 26521784 samples = 45105.1 CDDA sectors
File Size : 24.1M
Bit Rate : 321k
Sample Encoding: MPEG audio (layer I, II or III)
Comments :
Title=The Perishing of the Third Moon
Artist=Blacnk
Album=Lost Allegories From The Forest Of Aveliyin - Vol. II
Tracknumber=1
Year=2021
Genre=138

[/more]

Register
(5) AlexSmith, kim666, stormhatt, vasiljev_sergej, Wail,
Sep 18 2021, 18:13:29 Putrid Invökation - Taog Eht Esiarp [demo] (2021)


*Artist: Putrid Invökation
*Album: Taog Eht Esiarp [demo]
*Year: 2021
*Genre: Black/Death/Doom Metal
*Country: United States
*Format: mp3@CBR320kbps
*Size: 60MB

Tracklist:
1. Annihilate The Heavens 04:36
2. Sabbaoth Reich 04:37
3. Hordes Of Necromayhem 08:29
4. Hellfucking Militia 05:47
5. Seven Bells 03:28
******************************
Total playing time: 26:57



[more=Extended info]Line - up:

Goatchrist - Bass, Vocals (Brennofen, Gesundrian, Masts of Macha, Nxaaxul, Wehrkraft, Wrolok, ex-Filthwar, ex-Funereal Owlblood, ex-Stosstruppen, ex-War Vomit, ex-Ziegfinsternis, Cxaxukluth, Devimantra, Soldiers of Satan Kommando, ex-Buraddosodo, ex-Corpse Amputation, ex-Death Symmetry, ex-Dunkeltroll, ex-Eisen, ex-Eisenstürm, ex-Fortress of Glory, ex-Funeral Church of the Owl's Blood, ex-Mors Xenophobos, ex-Slaughtered Jehovah, ex-Vulva Christ)
Corpse Feltcher - Drums (Masts of Macha, ex-Wretched Dawn)
Grave Sodomizer - Guitars, Vocals (Masts of Macha, ex-Purgatorial Blue Flame, ex-Allöcer, ex-Nein Hydra, ex-Public Execution)[/more]

[more=Technical info]
Input File: 03. Hordes Of Necromayhem.mp3
Channels : 2
Sample Rate : 44100
Precision : 16-bit
Duration : 00:08:29.97 = 22489545 samples = 38247.5 CDDA sectors
File Size : 20.4M
Bit Rate : 320k
Sample Encoding: MPEG audio (layer I, II or III)
Comments :
Title=Hordes Of Necromayhem
Artist=Putrid Invokation
Album=Taog Eht Esiarp (Demo)
Tracknumber=3
Year=2021
Genre=Black/Death/Doom Metal

[/more]

Register
(3) sergsazan, vasiljev_sergej, Wail,
Sep 18 2021, 16:58:28 Vampyric Castle Fog - The Halloween Tree [ep] (2021)


*Artist: Vampyric Castle Fog
*Album: The Halloween Tree [ep]
*Year: 2021
*Genre: Atmospheric Doom/Death Metal
*Country: United Kingdom
*Format: flac
*Size: 87MB

Tracklist:
1. The Crimson Temple 04:35
2. The Reaper Won't Come 04:45
3. Welcome to the Halloween Tree 05:07
******************************
Total playing time: 14:27



Register
(4) Ice Gnoll, stumpheavyrock, Wail, wreak,
Sep 18 2021, 16:25:20 Filtheater - Obfuscated [ep] (2021)


*Artist: Filtheater
*Album: Obfuscated [ep]
*Year: 2021
*Genre: Death Metal
*Country: United States
*Format: mp3@CBR320kbps
*Size: 33MB

Tracklist:
1. Cadaverment Entanglement
2. Dripping Despair
3. The Fog
******************************
Total playing time: 13:21

bandcamp

[more=Technical info]
Input File: 03. The Fog.mp3
Channels : 2
Sample Rate : 48000
Precision : 16-bit
Duration : 00:03:56.62 = 11357712 samples ~ 17746.4 CDDA sectors
File Size : 9.47M
Bit Rate : 320k
Sample Encoding: MPEG audio (layer I, II or III)
Comments :
Title=The Fog
Artist=Filtheater
Album=Obfuscated (EP)
Tracknumber=03
Year=2021
Genre=22

[/more]

Register
(9) caro, chipsgott, cist, marilin, Olethros, VALERY, vyacheslav, Wail, wreak,
Sep 17 2021, 18:58:22 Cogas - Unconscious Sons Of The Reptile God (2021)


*Artist: Cogas
*Album: Unconscious Sons Of The Reptile God
*Year: 2021
*Genre: Black/Death Metal
*Country: United Kingdom
*Format: mp3@CBR320kbps
*Size: 84MB

Tracklist:
1. The Mistress of the Damned 04:48
2. Unconscious Sons of the Reptile God 07:12
3. Sulfur 05:47
4. A Dying Sun 05:15
5. Coffin Mandatory 01:28
6. A Deceiving Light through the Mist 04:37
7. Ettagramma 06:00
******************************
Total playing time: 35:07



[more=Extended info]Line - up:

Michal Poplawski - Bass
Francis Ball - Drums (Atvm, Cythraul)
Davide Ambu - Guitars (ex-Demon's Bridge)
Piero Paranoia - Vocals[/more]

[more=Technical info]
Input File: 01 - Intro.mp3
Channels : 2
Sample Rate : 44100
Precision : 16-bit
Duration : 00:00:26.13 = 1152201 samples = 1959.53 CDDA sectors
File Size : 1.05M
Bit Rate : 321k
Sample Encoding: MPEG audio (layer I, II or III)
Comments :
Title=Intro
Artist=Cogas
Album=Unconscious Sons of the Reptile God
Tracknumber=1
Year=2021
Genre=Black/Death Metal

[/more]

Register
(19) AHBAnep, AlexSmith, caro, cist, GorAtheist, grimoir, kim666, Marek, metala, Olethros, supremo, Taakeferd, THROWER666, Tyrone, VALERY, vasiljev_sergej, Wail, wanderer73, wreak,
Sep 17 2021, 18:33:50 Gumomaniacs - Live Tales Of Terror [live] (2021)


*Artist: Gumomaniacs
*Album: Live Tales Of Terror [live]
*Year: 2021
*Genre: Thrash Metal
*Country: Germany
*Format: mp3@CBR320kbps
*Size: 118MB

Tracklist:
1. My Satanic Rite
2. Kill Again Tonight
3. Legions of Death
4. Insurrection
5. Poetry in Black
6. The Architect
7. Marooned
8. Waiting for This Day
9. Strike of Death
10. Nation of Evil
11. For a Greater Cause
12. Brimstone Baptism
13. Ashes to Ashes
******************************
Total playing time: 48:48

iTunes

[more=Extended info]Line - up:

Robert Hofmann - Bass (Upiór, ex-Metal Raign)
Michael Hofmann - Drums (ex-Metal Raign)
Daniel "Gumo" Reiß - Guitars, Vocals (Domination, ex-Thargos, ex-Wizzard)

[youtube]HbefGZfVFfU[/youtube]
[youtube]KVQ-9rBKd7A[/youtube][/more]

[more=Technical info]
Input File: 04 - Insurrection (Live).mp3
Channels : 2
Sample Rate : 44100
Precision : 16-bit
Duration : 00:03:54.00 = 10319400 samples = 17550 CDDA sectors
File Size : 9.40M
Bit Rate : 321k
Sample Encoding: MPEG audio (layer I, II or III)
Comments :
Title=Insurrection (Live)
Artist=GumoManiacs
Album=Live Tales of Terror (Live)
Tracknumber=4
Year=2021-09-17
Genre=144

[/more]

Register
(12) after21allD, caro, dulak, HMHamster, Marek, Olethros, sergsazan, stumpheavyrock, supremo, Wail, wreak, WX419,
Sep 17 2021, 17:27:52 Abolishment Of Flesh - In The Presence Of Darkness (2021)


*Artist: Abolishment Of Flesh
*Album: In The Presence Of Darkness
*Year: 2021
*Genre: Melodic Death Metal
*Country: United States
*Format: mp3@CBR320kbps
*Size: 110MB

Tracklist:
1. Tranquility in Desolation
2. Behind Deceitful Eyes
3. When Life Ends in Pain
4. Self Righteous Regurgitation
5. Absence of Light
6. Purification by Fire
7. Deterioration of Human Complexity
8. In the Presence of Darkness
9. Inner Self
******************************
Total playing time: 45:59

iTunes


[more=Extended info]flac rip

Line - up:

Ramón Cazares - Drums, Guitars, Vocals (ex-Abolishment, ex-Rottenness, ex-Skinned (live), ex-Infliction)
Izaak Chavez - Guitars

[youtube]dhCWlo4jB7s[/youtube]
[youtube]NtyGSfuUnXQ[/youtube][/more]

[more=Technical info]
Input File: 08. In the Presence of Darkness.mp3
Channels : 2
Sample Rate : 44100
Precision : 16-bit
Duration : 00:07:44.59 = 20488419 samples = 34844.2 CDDA sectors
File Size : 18.7M
Bit Rate : 321k
Sample Encoding: MPEG audio (layer I, II or III)
Comments :
Title=In the Presence of Darkness
Artist=Abolishment of Flesh
Album=In the Presence of Darkness
Tracknumber=8
Year=2021
Genre=Melodic Death Metal

[/more]

Register
(19) akym, BugEyes, caro, cist, GorAtheist, Lukittaz, Marek, Olethros, sergsazan, stumpheavyrock, Taakeferd, TeamatSE, VALERY, Wail, wanderer73, wreak, WX419, zhol, Сварог Барг,
Sep 17 2021, 16:56:24 Joe Stump - Diabolical Ferocity (2021)


*Artist: Joe Stump
*Album: Diabolical Ferocity
*Year: 2021
*Genre: Heavy Metal/Shred
*Country: United States
*Format: mp3@CBR320kbps
*Size: 109MB

Tracklist:
1. Ignition 01:58 instrumental
2. Burn It Down 04:40 instrumental
3. King of the Underworld 04:24 instrumental
4. The Snake Charmer's Fate 06:39 instrumental
5. Nacht J.S. Bach 01:34 instrumental
6. Sneak Attack 04:20 instrumental
7. Die by the Sword 05:28 instrumental
8. Viking Pillage 03:49 instrumental
9. Maximum Damage 05:07 instrumental
10. Forever Moore 08:22 instrumental
******************************
Total playing time: 46:21

iTunes

[more=Extended info]Line - up:

Francisco Palomo - Keyboards, Drum programming (HolyHell, ex-Cristal y Acero, ex-Manowar (live))
Joe Stump - Guitars, Bass, Songwriting (HolyHell, Raven Lord, Shooting Hemlock, ex-The Reign of Terror, Alcatrazz, ex-Exorcism, ex-Tower of Babel, ex-Trash Broadway)

[youtube]https://youtu.be/PZRCgxqXfRI[/youtube][/more]

[more=Technical info]
Input File: 07. Die by the Sword.mp3
Channels : 2
Sample Rate : 44100
Precision : 16-bit
Duration : 00:05:28.09 = 14468901 samples = 24607 CDDA sectors
File Size : 13.4M
Bit Rate : 328k
Sample Encoding: MPEG audio (layer I, II or III)
Comments :
Title=Die by the Sword
Artist=Joe Stump
Album=Diabolical Ferocity
Tracknumber=7
Year=2021
Genre=Heavy Metal/Shred

[/more]

Register
(15) ace73pq, boby9052, caro, gretopi, Herrant, HMHamster, Marek, markblasi, Olethros, rabindranad, sadmannn, Taakeferd, Wail, wreak, Сварог Барг,
Sep 16 2021, 17:42:11 Whyzdom - Of Wonders And Wars (2021)


*Artist: Whyzdom
*Album: Of Wonders And Wars
*Year: 2021
*Genre: Symphonic Metal
*Country: France
*Format: mp3@CBR320kbps
*Size: 142MB

Tracklist:
1. Wanderers and Dreamers 06:26
2. Child of Damnation 06:17
3. Stonehenge 06:52
4. Ariadne 07:32
5. Touch the Sky 05:40
6. War 04:20
7. Metropolis Lights 04:34
8. Pyramids 05:37
9. The Final Collapse 05:12
10. Notre Dame 06:42
******************************
Total playing time: 59:12



[more=Extended info]Line - up:

Nico Chaumeaux - Drums
Régis Morin - Guitars
Vynce Leff - Guitars, Orchestrations
Marie Mac Leod - Vocals (ex-Entropia, ex-Katarsis, ex-Throne of the Doomed)

[youtube]FvqDI0PWtgg[/youtube][/more]

[more=Technical info]
Input File: 06 - War.mp3
Channels : 2
Sample Rate : 44100
Precision : 16-bit
Duration : 00:04:20.00 = 11466000 samples = 19500 CDDA sectors
File Size : 10.4M
Bit Rate : 320k
Sample Encoding: MPEG audio (layer I, II or III)
Comments :
Title=War
Artist=Whyzdom
Album=Of Wonders and Wars
Tracknumber=6
Year=2021-09-17
Genre=Symphonic Metal

[/more]

Register
(16) after21allD, Alpha_Prime, aviacademy, caro, Cartman223, gwar, Herrant, metala, Olethros, Reverend, Rover, sadmannn, sergsazan, Wail, wreak, WX419,
Sep 15 2021, 17:31:55 Dickless Tracy - Grave New World (2021)


*Artist: Dickless Tracy
*Album: Grave New World
*Year: 2021
*Genre: Grindcore/Death Metal
*Country: Slovenia
*Format: mp3@CBR320kbps
*Size: 111MB

Tracklist:
1. Deathless 04:11
2. Dawn of the Living Dead 03:55
3. Pathetic Descendant of Apes 03:07
4. The Apostles of Terror 06:19
5. Grave New World 04:41
6. Morphing Into Maelstrom 05:30
7. Devoured from the Inside 04:55
8. Faydark Forest 05:45
9. Dissection of the Mind 04:07
10. The Curse of Michael Myers 01:49
11. The Darkside 01:46
******************************
Total playing time: 46:05



[more=Extended info]Line - up:

Ivan "Tegla" Cepanec - Drums (Eruption, ex-Tenacious Zhgantsi, Ascension, Chernozyom, ex-Glista, ex-The Stone (live))
Tomi "Tzeppo" Cepanec - Guitars, Vocals (ex-Tenacious Zhgantsi, ex-Vulvathrone (live))
Jernej "Horzs" Rejc - Bass (ex-Mrtva Goša, ex-Aeonic, ex-Temnava)[/more]

[more=Technical info]
Input File: 04. The Apostles of Terror.mp3
Channels : 2
Sample Rate : 44100
Precision : 16-bit
Duration : 00:06:19.33 = 16728585 samples = 28450 CDDA sectors
File Size : 15.2M
Bit Rate : 320k
Sample Encoding: MPEG audio (layer I, II or III)
Comments :
Title=The Apostles of Terror
Artist=Dickless Tracy
Album=Grave New World
Tracknumber=04
Year=2021
Genre=Grindcore/Death Metal

[/more]

Register
(14) caro, chipsgott, dcatagua, INDARKNESS, jollo, metala, Olethros, spazm, supremo, Taakeferd, vyacheslav, Wail, wreak, WX419,
Sep 12 2021, 18:58:57 Riders On The Bones - Obelus (2021)


*Artist: Riders On The Bones
*Album: Obelus
*Year: 2021
*Genre: Doom/Death Metal
*Country: Russian Federation
*Format: mp3@CBR320kbps
*Size: 100MB

Tracklist:
1. Obelus 05:55
2. Interrobang 05:05
3. Paresthesean 04:46
4. Mare Imbrium 04:24
5. Thwarted 04:47
6. Petrichor 05:44
7. Phosphene 05:00
8. Frisson 04:45
9. You Are Invited to Masquerade! 01:40
******************************
Total playing time: 42:06

[more=Extended info]Line - up:

Lefthander - All instruments (Harmahis, Lefthander, Raxa, Sea of Desperation, Tenochtitlan, Старшие Арканы, ex-Lamia Phantasma, ex-Инкунабункул, Ethnico, ex-Fatal Rampage, ex-Groves in Mist, ex-Rintra, ex-Откровение 95, ex-Самониос)
IOS - Samples

[youtube]D7EAJxhdUJM[/youtube][/more]

[more=Technical info]
Input File: 03. Paresthesean.mp3
Channels : 2
Sample Rate : 44100
Precision : 16-bit
Duration : 00:04:46.24 = 12623272 samples = 21468.1 CDDA sectors
File Size : 11.5M
Bit Rate : 320k
Sample Encoding: MPEG audio (layer I, II or III)
Comments :
Title=Paresthesean
Artist=Riders On The Bones
Album=Obelus
Tracknumber=3
Year=2021
Genre=Doom | Death Metal

[/more]

Register
(22) AHBAnep, autumnwood, caro, Doooomed, HMHamster, lacrimoza, Mencae77, metala, Niknne, oldvarg, Olethros, robertho777, sergsazan, Shadechaser, StoneTemple, stumpheavyrock, supremo, tOmV, VALERY, Wail, wanderer73, wreak,
Sep 12 2021, 17:51:01 Banshee - Labyrinth [ep] (2021)


*Artist: Banshee
*Album: Labyrinth [ep]
*Year: 2021
*Genre: Heavy Metal
*Country: Ireland
*Format: mp3@CBR320kbps
*Size: 61MB

Tracklist:
1. Dead Religion
2. Blood Lust
3. Broken Black Line
4. Enter the Steel Age
5. Labyrinth
******************************
Total playing time: 25:14



[more=Extended info]Line - up:

Charlie Webster - Bass
James Moriarty-Smyth - Drums, Vocals
Dara Le Noac'h - Guitars, Vocals
Liam Ongaro - Guitars, Vocals[/more]

[more=Technical info]
Input File: 02. Dead Religion.mp3
Channels : 2
Sample Rate : 44100
Precision : 16-bit
Duration : 00:04:02.88 = 10710876 samples = 18215.8 CDDA sectors
File Size : 9.72M
Bit Rate : 320k
Sample Encoding: MPEG audio (layer I, II or III)
Comments :
Title=Dead Religion
Artist=Banshee
Album=Labyrinth (EP)
Tracknumber=2
Year=2021
Genre=137

[/more]

Register
(13) after21allD, aviacademy, caro, chipsgott, DeathDragon, gwar, HMHamster, Marek, Olethros, Rover, sergsazan, Wail, wreak,
Sep 11 2021, 18:48:42 Taithur & Cyclical Nightmare - Dirge For The Black Hearts [split] (2021)


*Artist: Taithur & Cyclical Nightmare
*Album: Dirge For The Black Hearts [split]
*Year: 2021
*Genre: Atmospheric Black Metal | Acoustic Blackened Experimental
*Country: United States | United States
*Format: mp3@CBR320kbps
*Size: 65MB

Tracklist:
Taithur:
1. Black Sternotomy... 05:38
2. Neige Sur Ma Tombe 05:56
3. ...and Dreams of Death 05:37
Cyclical Nightmare:
4. Eyes That Pry in Defiance, Perennial (Purgatory) 03:01
5. Sovereign Remedies (An Alchemical Array) 03:39
6. Coagula 02:25
7. To Inscribe Autumn In Aether ∞ (Outroit) 01:14
******************************
Total playing time: 27:30



[more=Extended info]Lossy-mastered[/more]

[more=Technical info]
Input File: 04. Eyes That Pry In Defiance, Perennial (Purgatory).mp3
Channels : 2
Sample Rate : 44100
Precision : 16-bit
Duration : 00:03:01.38 = 7998902 samples = 13603.6 CDDA sectors
File Size : 7.29M
Bit Rate : 322k
Sample Encoding: MPEG audio (layer I, II or III)
Comments :
Title=Eyes That Pry In Defiance, Perennial (Purgatory)
Artist=Cyclical Nightmare
Album=Dirge for The Black Hearts (Split)
Tracknumber=4
Year=2021

[/more]

Register
(9) aleon, Carcharoth, caro, kim666, nemx, stub888, vasiljev_sergej, Wail, wreak,
Sep 11 2021, 17:17:31 Spiral Wounds - Spiral Wounds [ep] (2021)


*Artist: Spiral Wounds
*Album: Spiral Wounds [ep]
*Year: 2021
*Genre: Black/Death Metal
*Country: Italy
*Format: mp3@CBR320kbps
*Size: 36MB

Tracklist:
1. Dying in Solitude 04:13
2. Steps Across 03:48
3. Uber Feral Winds 03:56
4. The Spire 03:06
******************************
Total playing time: 15:03



[more=Technical info]
Input File: 03. Uber Feral Winds.mp3
Channels : 2
Sample Rate : 44100
Precision : 16-bit
Duration : 00:03:56.56 = 10432076 samples = 17741.6 CDDA sectors
File Size : 9.47M
Bit Rate : 320k
Sample Encoding: MPEG audio (layer I, II or III)
Comments :
Title=Uber Feral Winds
Artist=Spiral Wounds
Album=Spiral Wounds (EP)
Tracknumber=3
Year=2021
Genre=Black/Death Metal

[/more]

Register
(7) caro, Olethros, VALERY, vasiljev_sergej, Wail, wanderer73, wreak,
Sep 10 2021, 18:55:52 Dawn Fades - Ode (2021)


*Artist: Dawn Fades
*Album: Ode
*Year: 2021
*Genre: Post-Metal
*Country: United States
*Format: mp3@CBR320kbps
*Size: 97MB

Tracklist:
1. Dearth
2. Taste
3. Ode Pt 1
4. Ode Pt 2
5. Front
6. Chains
7. Turning
******************************
Total playing time: 40:08



[more=Extended info]Line - up:

Markus Erren Pardiñas - Bass
Scott Quist - Drums
Adam El-Gerbi - Guitars (Atomey)
Nate Hertweck - Guitars
Sam Sherwood - Vocals (ex-Anger Mgt.)[/more]

[more=Technical info]
Input File: 03 - Ode, Pt. 1.mp3
Channels : 2
Sample Rate : 44100
Precision : 16-bit
Duration : 00:01:50.00 = 4851000 samples = 8250 CDDA sectors
File Size : 4.51M
Bit Rate : 328k
Sample Encoding: MPEG audio (layer I, II or III)
Comments :
Title=Ode, Pt. 1
Artist=Dawn Fades
Album=Ode
Tracknumber=3
Year=2021-09-10
Genre=Post-Metal

[/more]

Register
(2) Wail, yuratroll,
Sep 10 2021, 18:37:54 Seven Spires - Gods Of Debauchery (2021)


*Artist: Seven Spires
*Album: Gods Of Debauchery
*Year: 2021
*Genre: Symphonic Metal
*Country: United States
*Format: mp3@CBR320kbps
*Size: 185MB

Tracklist:
1. Wanderer’s Prayer 01:42
2. Gods of Debauchery 06:46
3. The Cursed Muse 04:19
4. Ghost of Yesterday 03:53
5. Lightbringer 03:03
6. Echoes of Eternity 05:13
7. Shadow on an Endless Sea 05:10
8. Dare to Live 04:44
9. In Sickness, in Health 04:21
10. This God Is Dead 10:37
11. Oceans of Time 04:19
12. The Unforgotten Name 05:26
13. Gods Amongst Men 04:10
14. Dreamchaser 05:40
15. Through Lifetimes 04:13
16. Fall with Me 04:00
******************************
Total playing time: 1:17:36

[more=Extended info]Line - up:
Jack Kosto - Guitars (Threads of Fate)
Adrienne Cowan - Vocals, Keyboards (Light & Shade, Sascha Paeth's Masters of Ceremony, Winds of Plague, Avantasia (live), ex-FirstBourne, ex-Mike Kerr (live), ex-Sonic Pulse (live), ex-Frontiers All Stars, ex-Riot Underground)
Peter de Reyna - Bass (FireWing, ex-Morbid Vitality, ex-Aversed, ex-Unflesh, ex-Rithiya Henry Khiev (live), ex-Ghost Train, ex-Merakï, ex-Zxari)
Chris Dovas - Drums (Dovas, FireWing, Omega Point, Vital Remains (live), ex-FirstBourne, ex-Unflesh, ex-Aversed (live), ex-Rithiya Henry Khiev (live), ex-Sonic Pulse (live))

Guest/Session:
David Åkesson - Vocals (backing), vocals (choirs) on tracks 1, 2, 4, 6, 8, 10, 13, 14 (Qantice, Celestial Decay (live), ex-Moonlight Agony)
Roy Khan - Vocals (track 10) (Conception, Roy Khan, ex-Kamelot)
Casey Lee Williams - Vocals (track 5) (Ok Goodnight)
Jon Pyres - Vocals (track 12) (Threads of Fate, Among the Giants, Spawn of Thirteen)

[youtube]_O7LUgm9JKw[/youtube]
[youtube]B_42HNyRUck[/youtube]
[youtube]Z7Bwda8JEAY[/youtube][/more]

[more=Technical info]
Input File: 10. This God is Dead.mp3
Channels : 2
Sample Rate : 44100
Precision : 16-bit
Duration : 00:10:37.19 = 28100123 samples = 47789.3 CDDA sectors
File Size : 25.5M
Bit Rate : 320k
Sample Encoding: MPEG audio (layer I, II or III)
Comments :
Title=This God is Dead
Artist=Seven Spires
Album=Gods of Debauchery
Tracknumber=10
Year=2021
Genre=Symphonic Metal

[/more]

Register
(25) ace73pq, after21allD, Alpha_Prime, BladeOvDarkness, boby9052, caro, Cartman223, GorAtheist, grimoir, gwar, Herrant, kimkayoung, metala, Olethros, Rover, sadmannn, sergsazan, Shadechaser, Slam91, smes, supremo, t0t0, Wail, wreak, Сварог Барг,
Sep 10 2021, 17:43:48 Rotted Through - /The_Depths (2021)


*Artist: Rotted Through
*Album: /The_Depths
*Year: 2021
*Genre: Death Metal/Deathcore
*Country: United States
*Format: mp3@CBR320kbps
*Size: 107MB

Tracklist:
1. Infinite_depths 05:30
2. What Does / B / Keep in the Freezer? 03:29
3. Tor.ist 05:44
4. The Silk_en Road 04:12
5. .human Experiment 05:28
6. Vile_encryption 04:42
7. "Foul Enough to Eat" 04:33
8. To Stretch... to Tear... 03:56
9. /red/room 05:42
10. That Which Is Abysmal 05:17
******************************
Total playing time: 48:33



[more=Technical info]
Input File: 10. That Which Is Abysmal.mp3
Channels : 2
Sample Rate : 44100
Precision : 16-bit
Duration : 00:05:22.08 = 14203904 samples = 24156.3 CDDA sectors
File Size : 13.0M
Bit Rate : 322k
Sample Encoding: MPEG audio (layer I, II or III)
Comments :
Title=That Which Is Abysmal
Artist=Rotted Through
Album=/the_Depths
Tracknumber=10
Year=2021
Genre=Death Metal/Deathcore

[/more]

Register
(12) caro, chipsgott, infozahist, LordOvDarkness, maochen, Marek, Morgoth, Olethros, smes, Taakeferd, Wail, wreak,

163 Pages V   1 2 3 > » 
- Lo-Fi Version Support form
Copyrights and abuse reports form
Time is now: 24th September 2021 - 00:40:45