Welcome Guest ( Log In | Register )

История благодарностей участнику Necrokilldozer ::: Спасибо сказали: 9709 раз(а)
Дата поста: В теме: За сообщение: Спасибо сказали:
Dec 8 2018, 17:08:11 Amortem - Mechanica (2018)


*Artist: Amortem
*Album: Mechanica
*Year: 2018
*Genre: Industrial/Symphonic Metal
*Country: Russian Federation
*Format: mp3@CBR320kbps
*Size: 87MB

Tracklist:
1. Mechanica(L) Heart (Intro) 00:41
2. Поп-стар 03:52
3. Зло в твоих глазах 03:51
4. Давай! 04:00
5. Ведьма 04:01
6. Молитва. Часть 3 (Призрак замка) 04:02
7. Танцы на битом стекле 03:40
8. Игра 03:58
9. Марш смерти 04:09
10. Театр абсурда 03:57
******************************
Total playing time: 36:11

vk.com

[more=Extended info]Line - up:

Alexx - Guitars (Sangara)
Damien Hākkinen - Bass, Keyboards, Programming, Vocals (backing) (ex-Rose of Steel)
Alexandra Foxxy - Vocals

[/more]

[more=Technical info]
Input File: 08. Игра.mp3
Channels : 2
Sample Rate : 44100
Precision : 16-bit
Duration : 00:03:58.38 = 10512690 samples = 17878.7 CDDA sectors
File Size : 9.54M
Bit Rate : 320k
Sample Encoding: MPEG audio (layer I, II or III)
Comments :
Title=Игра
Artist=Amortem
Album=Mechanica
Tracknumber=08
Year=2018
Genre=Industrial / Symphonic Metal

[/more]

Register
(2) A.L.Rapsod, v.v.m,
Dec 8 2018, 16:40:31 The Neologist - In Flames We Trust (Volume 2) [ep] (2018)


*Artist: The Neologist
*Album: In Flames We Trust (Volume 2) [ep]
*Year: 2018
*Genre: Melodic Death Metal
*Country: United States
*Format: flac
*Size: 60MB

Tracklist:
1. Suburban Me (In Flames Cover) 03:34
2. Alias (In Flames Cover) 04:53
******************************
Total playing time: 8:27



[more=Extended info]Line - up:

Devin Walsh - Guitars, Bass (Crimson Roots, Sever)
James Lewis - Vocals, Guitars, Programming (Sever, This Cold Life)

[/more]

Register
(2) Rosen, zhol,
Dec 8 2018, 07:28:59 Of Spire & Throne - Penance (2018)


*Artist: Of Spire & Throne
*Album: Penance
*Year: 2018
*Genre: Doom Metal/Sludge

*Country: United Kingdom
*Format: mp3@CBR320kbps
*Size: 150MB

Tracklist:
1. From Dust 07:23
2. Reliquary 13:04
3. Their Shadow Cast 14:03
4. Sorcerer 07:57
5. In the Wake 13:38
6. Dissident 07:30
******************************
Total playing time: 1:03:35



[more=Extended info]Line - up:

Graham Stewart - Drums, Synths
Ali Lauder - Guitars, Vocals (ex-Acatalepsy)
Joe Turner - Bass (Úir, A Dream of Poe (live), ex-King Witch)

[/more]

[more=Technical info]
Input File: 02. Reliquary.mp3
Channels : 2
Sample Rate : 48000
Precision : 16-bit
Duration : 00:13:04.90 = 37675152 samples ~ 58867.4 CDDA sectors
File Size : 31.5M
Bit Rate : 321k
Sample Encoding: MPEG audio (layer I, II or III)
Comments :
Title=Reliquary
Artist=Of Spire & Throne
Album=Penance
Tracknumber=2
Year=2018
Genre=Doom / Sludge Metal

[/more]

Register
(6) artscald, Olethros, Ostinato, Rosen, stub888, VALERY,
Dec 1 2018, 17:37:09 Henry Metal - 8 (2018)


*Artist: Henry Metal
*Album: 8
*Year: 2018
*Genre: Heavy Metal
*Country: United States
*Format: mp3@CBR320kbps
*Size: 76MB

Tracklist:
1. Robes of 8 03:06
2. Sparta 04:33
3. I Got the Fever 04:21
4. Bodhisattva 03:52
5. Gotta Get Back to Chicago 04:26
6. Propaganda 03:23
7. Winberry Lavender 05:41
8. Raven 05:02
******************************
Total playing time: 34:24



[more=Technical info]
Input File: 01. Robes of 8.mp3
Channels : 2
Sample Rate : 44100
Precision : 16-bit
Duration : 00:03:06.16 = 8209744 samples = 13962.1 CDDA sectors
File Size : 7.50M
Bit Rate : 322k
Sample Encoding: MPEG audio (layer I, II or III)
Comments :
Title=Robes of 8
Artist=Henry Metal
Album=8
Tracknumber=1
Year=2018
Genre=137

[/more]

Register
(7) artscald, Bruce, metala, Olethros, Olrak, Rosen, vir2al,
Dec 1 2018, 17:30:40 Symphony Of The Damned - Sol (2018)


*Artist: Symphony Of The Damned
*Album: Sol
*Year: 2018
*Genre: Progressive Blackened Doom Metal
*Country: Canada
*Format: mp3@CBR320kbps
*Size: 117MB

Tracklist:
1. Stellar Requiem 09:04
2. Bathed in Light 09:30
3. Dreams of Cambrian Seas 11:55
4. Infanticide 10:21
5. Longing for Your Light 08:41
******************************
Total playing time: 49:31



[more=Technical info]
Input File: 01. Stellar Requiem.mp3
Channels : 2
Sample Rate : 48000
Precision : 16-bit
Duration : 00:09:04.32 = 26127504 samples ~ 40824.2 CDDA sectors
File Size : 21.8M
Bit Rate : 320k
Sample Encoding: MPEG audio (layer I, II or III)
Comments :
Title=Stellar Requiem
Artist=Symphony of the Damned
Album=Sol
Tracknumber=1
Year=2018
Genre=Progressive Blackened Doom Metal

[/more]

Register
(6) artscald, Doooomed, Olethros, Ostinato, Rosen, satanist666,
Nov 25 2018, 16:18:56 Cadaveric Fumes & Skelethal - Heirs Of Hideous Secrecies [split] (2018)


*Artist: Cadaveric Fumes & Skelethal
*Album: Heirs Of Hideous Secrecies [split]
*Year: 2018
*Genre: Death Metal | Death Metal
*Country: France | France
*Format: mp3@CBR128kbps
*Size: 14MB

Tracklist:
Cadaveric Fumes:
1. The Spectral Parade 02:49
2. Necromancy Sublime 04:26
Skelethal:
3. Emerging from the Ethereal Threshold 04:28
4. Torrents of Putrefying Viscosity 02:24
******************************
Total playing time: 14:07




[more=Extended info]
[/more]

[more=Technical info]
Input File: 01 Cadaveric Fumes - The Spectral Parade.mp3
Channels : 2
Sample Rate : 44100
Precision : 16-bit
Duration : 00:02:48.98 = 7452150 samples = 12673.7 CDDA sectors
File Size : 2.71M
Bit Rate : 128k
Sample Encoding: MPEG audio (layer I, II or III)
Comments :
Title=The Spectral Parade
Artist=Cadaveric Fumes
Album=Heirs Of Hideous Secrecies [Split]
Tracknumber=1
Year=2018
Genre=22

[/more]

Register
(7) artscald, Asle, boba, deatholocaust, jpvalentim, Rosen, scorpionmk,
Nov 25 2018, 07:45:12 Eternal Silence - Metamorphosis 2008-2018 [ep] (2018)


*Artist: Eternal Silence
*Album: Metamorphosis 2008-2018 [ep]
*Year: 2018
*Genre: Symphonic Gothic Metal
*Country: Italy
*Format: mp3@CBR320kbps
*Size: 52MB

Tracklist:
1. Tempesta 04:51
2. Braving My Destiny (2018 version) 04:37
3. Incubus (2018 version) 04:10
4. December Demise (2018 version) 03:31
5. They Call Me Django (Gipsy Lee Pistolero cover) 04:38
******************************
Total playing time: 21:47




[more=Extended info]Line - up:

Davide Rigamonti - Guitars
Alessio Sessa - Bass
Alberto Cassina - Guitars, Vocals
Marika Vanni - Vocals (Blut)
Andrea Zannin - Drums

[/more]

[more=Technical info]
Input File: 05 They Call Me Django.mp3
Channels : 2
Sample Rate : 44100
Precision : 16-bit
Duration : 00:04:38.30 = 12273074 samples = 20872.6 CDDA sectors
File Size : 11.1M
Bit Rate : 320k
Sample Encoding: MPEG audio (layer I, II or III)
Comments :
Title=They Call Me Django
Artist=Eternal Silence
Album=Metamorphosis 2008 - 2018 (EP)
Tracknumber=5
Year=2018
Genre=Symphonic Gothic Metal

[/more]

Register
(10) Alpha_Prime, artscald, Cartman223, gwar, Olethros, Rosen, satanist666, terron, VALERY, zhol,
Nov 24 2018, 07:16:23 Absent/Minded - Raum (2018)


*Artist: Absent/Minded
*Album: Raum
*Year: 2018
*Genre: Doom Metal/Sludge
*Country: Germany
*Format: mp3@CBR320kbps
*Size: 94MB

Tracklist:
1. Deep Roots aren´t reached by the Frost 07:25
2. Treasure 08:31
3. Fore Ever 07:34
4. Shore 06:22
5. Yrtm (spoken by iain hargreaves) 02:56
6. Alpha 09:46
******************************
Total playing time: 42:34



[more=Extended info]Line - up:

Jürgen - Drums (Neocosmic, Unmercenaries, ex-My Shameful, ex-Sources, ex-Falling Down, ex-Aasgeier)
Uwe - Guitars (ex-Carpe Noctum, ex-Abdomen, ex-Karthasis)
Stevie - Vocals
Andi - Bass

[/more]

[more=Technical info]
Input File: 06. Alpha.mp3
Channels : 2
Sample Rate : 44100
Precision : 16-bit
Duration : 00:09:46.77 = 25876645 samples = 44007.9 CDDA sectors
File Size : 23.5M
Bit Rate : 320k
Sample Encoding: MPEG audio (layer I, II or III)
Comments :
Title=Alpha
Artist=Absent/Minded
Album=Raum
Tracknumber=6
Year=2018
Genre=Doom/Sludge Metal

[/more]

Register
(7) artscald, marilin, Ostinato, Rosen, stub888, VALERY, varlam4,
Nov 18 2018, 16:45:43 Throat Breach - Hideous (2018)


*Artist: Throat Breach
*Album: Hideous
*Year: 2018
*Genre: Grindcore/Death Metal
*Country: United States
*Format: mp3@CBR320kbps
*Size: 51MB

Tracklist:
1. Enforced Mutation 01:03
2. Black Mesa 01:20
3. Becoming One With the Nanomachines 03:40
4. Carnivorous Flesh Virus 00:35
5. Assimilation 00:55
6. Communion With Advanced Lifeforms 01:47
7. Depersonalization 02:44
8. Prison of Faces 00:31
9. Vacuous Intruder 00:44
10. Aggregate 04:12
11. Disambulate 00:53
12. 10,000 Bodies Being Crushed Into One Shape 01:06
13. Voluntarily Dissolved 02:00
******************************
Total playing time: 21:30



[more=Extended info]Line - up:

Ethan Mallory - Bass
Frazier Krohn - Drums
Ian Turpin - Vocals, Guitars

[/more]

[more=Technical info]
Input File: 05. Assimilation.mp3
Channels : 2
Sample Rate : 48000
Precision : 16-bit
Duration : 00:00:55.40 = 2658960 samples ~ 4154.62 CDDA sectors
File Size : 2.22M
Bit Rate : 321k
Sample Encoding: MPEG audio (layer I, II or III)
Comments :
Title=Assimilation
Artist=Throat Breach
Album=Hideous
Tracknumber=5
Year=2018
Genre=Grindcore / Death Metal

[/more]

Register
(8) artscald, carnegrinder, jollo, Ostinato, satanist666, Tyrone, vyacheslav, Герб,
Nov 18 2018, 16:28:07 Shambling Corpse - Intangible Blasphemies [demo] (2018)


*Artist: Shambling Corpse
*Album: Intangible Blasphemies [demo]
*Year: 2018
*Genre: Death Metal
*Country: Canada
*Format: mp3@CBR320kbps
*Size: 30MB

Tracklist:
1. Valley of Defilement 05:11
2. Tomb Juice 04:26
3. Rituals of Isolation 03:00
******************************
Total playing time: 12:37



[more=Extended info]Line - up:

Sarah James - Guitars (rhythm), Vocals[/more]

[more=Technical info]
Input File: 03. RITUALS OF ISOLATION.mp3
Channels : 2
Sample Rate : 48000
Precision : 16-bit
Duration : 00:03:00.94 = 8685072 samples ~ 13570.4 CDDA sectors
File Size : 7.24M
Bit Rate : 320k
Sample Encoding: MPEG audio (layer I, II or III)
Comments :
Title=RITUALS OF ISOLATION
Artist=Shambling Corpse
Album=Intangible Blasphemies (Demo)
Tracknumber=3
Year=2018
Genre=22

[/more]

Register
(3) artscald, Rosen, Герб,
Nov 18 2018, 16:15:14 Suicidal Ideation - Dawn Inside [single] (2018)


*Artist: Suicidal Ideation
*Album: Dawn Inside [single]
*Year: 2018
*Genre: Black Metal
*Country: Japan
*Format: mp3@CBR320kbps
*Size: 35MB

Tracklist:
1. Dawn Inside 07:24
2. Naught Ideal 07:19
******************************
Total playing time: 14:43



[more=Extended info]Line - up:

Kaede - All instruments, Programming, Vocals

[/more]

[more=Technical info]
Input File: 02. Naught ideal.mp3
Channels : 2
Sample Rate : 48000
Precision : 16-bit
Duration : 00:07:19.56 = 21099024 samples ~ 32967.2 CDDA sectors
File Size : 17.6M
Bit Rate : 320k
Sample Encoding: MPEG audio (layer I, II or III)
Comments :
Title=Naught ideal
Artist=suicidal ideation
Album=Dawn inside (Single)
Tracknumber=2
Year=2018
Genre=138

[/more]

Register
(6) artscald, kim666, Rosen, satanist666, VALERY, vasiljev_sergej,
Nov 17 2018, 18:05:53 Haustið - Howling, The Sol Above, Nothing Below [demo] (2018)


*Artist: Haustið
*Album: Howling, The Sol Above, Nothing Below [demo]
*Year: 2018
*Genre: Post-Black Metal
*Country: Brazil
*Format: mp3@CBR320kbps
*Size: 35MB

Tracklist:
1. Howling 08:49
2. Yet All We Grasp Is Black Void 05:57
******************************
Total playing time: 14:46



[more=Extended info]Line - up:

Draug - All instruments, Vocals[/more]

[more=Technical info]
Input File: 01. Howling.mp3
Channels : 2
Sample Rate : 48000
Precision : 16-bit
Duration : 00:08:50.02 = 25440912 samples ~ 39751.4 CDDA sectors
File Size : 21.2M
Bit Rate : 320k
Sample Encoding: MPEG audio (layer I, II or III)
Comments :
Title=Howling
Artist=Hausti?
Album=Howling, The Sol Above, Nothing Below (Demo)
Tracknumber=1
Year=2018
Genre=Post-Black Metal

[/more]

Register
(9) 1968_janeart, artscald, kim666, Ostinato, Rosen, satanist666, Tyrone, varg-38ru, vasiljev_sergej,
Nov 16 2018, 19:57:47 Liksminke - Kyrkjebrann [ep] (2018)


*Artist: Liksminke
*Album: Kyrkjebrann [ep]
*Year: 2018
*Genre: Black Metal
*Country: Norway
*Format: flac
*Size: 73MB

Tracklist:
1. Kyrkjebrann
2. Blasfemisk sodomi
******************************
Total playing time: 8:25



[more=Extended info]Line - up:

Mannedaud - All instruments, Vocals

[/more]

Register
(10) artscald, cancer1974, Ludwig Hagen, Ostinato, Razorbladeswaltz, Rosen, satanist666, SilentNidhogg, Sjelekval, vasiljev_sergej,
Nov 16 2018, 19:36:35 Drown My Day - The Ghost Tales (2018)


*Artist: Drown My Day
*Album: The Ghost Tales
*Year: 2018
*Genre: Deathcore
*Country: Poland
*Format: mp3@CBR320kbps
*Size: 79MB

Tracklist:
1. Introvert 01:08
2. Nightmare Becomes Reality 03:04
3. Land of Misery 03:13
4. Yurei's Revenge 03:06
5. Carnage 04:29
6. Devil's Forest 02:40
7. Burn It Down 03:00
8. Battle Royale 04:02
9. Blue Skin 04:02
10. You Will Not Get Rid of Me 03:45
******************************
Total playing time: 32:29



[more=Extended info]Line - up:

Arkadiusz Antosz - Bass
Maciej Korczak - Vocals
Sergiusz Smolnicki - Guitars
Sławomir Wojtas - Guitars
Kuba Homik - Drums (Totem (live), ex-Sunday Driver on Tour, ex-Psychotic Violence)

[/more]

[more=Technical info]
Input File: 06 - Devils Forest.mp3
Channels : 2
Sample Rate : 44100
Precision : 16-bit
Duration : 00:02:41.81 = 7135997 samples = 12136 CDDA sectors
File Size : 6.48M
Bit Rate : 320k
Sample Encoding: MPEG audio (layer I, II or III)
Comments :
Title=Devils Forest
Artist=Drown My Day
Album=The Ghost Tales
Tracknumber=06
Year=2018
Genre=Deathcore

[/more]

Register
(3) Ostinato, Rosen, WX419,
Nov 16 2018, 19:10:06 Arkaid - Crematoria (2018)


*Artist: Arkaid
*Album: Crematoria
*Year: 2018
*Genre: Groove Metal, Metalcore
*Country: Sweden
*Format: mp3@CBR320kbps
*Size: 83MB

Tracklist:
1. Crematoria 02:24
2. Tragical 03:29
3. Se Bomb 03:30
4. The Ruined Bouquet 04:36
5. November 03:46
6. Far Away 03:52
7. Wielder of Your Past 04:55
8. Dagger and a Drink 03:19
9. Here at the End of All 04:47
******************************
Total playing time: 34:38



[more=Extended info]Line - up:

Delilah Paris - Bass
J.R. "The Law" Kensington - Vocals (lead), Guitars
Eric Highbury - Drums
Spike - Guitars

[/more]

[more=Technical info]
Input File: 07. Wielder of Your Past.mp3
Channels : 2
Sample Rate : 44100
Precision : 16-bit
Duration : 00:04:55.20 = 13018452 samples = 22140.2 CDDA sectors
File Size : 11.8M
Bit Rate : 320k
Sample Encoding: MPEG audio (layer I, II or III)
Comments :
Title=Wielder of Your Past
Artist=Arkaid
Album=Crematoria
Tracknumber=7
Year=2018
Genre=Groove Metal, Metalcore

[/more]

Register
(3) artscald, Ostinato, Rosen,
Nov 16 2018, 18:34:48 Blood Of The Wolf - Album I + Ii [compilation] (2018)


*Artist: Blood Of The Wolf
*Album: Album I + Ii [compilation]
*Year: 2018
*Genre: Blackened Death Metal
*Country: United States
*Format: mp3@CBR320kbps
*Size: 170MB

Tracklist:
1. Annihilation Overture 02:01
2. With Iron Weapons and Will 03:26
3. Ours Is the Blood of Courage 03:58
4. Overretaliate 02:37
5. The Darkness of Chaos 04:01
6. Bellicose Ethos 02:40
7. Of Strength and Valor 04:05
8. Reborne of Wind and War 03:48
9. Lex Talionis 05:11
10. With Satan and Victorious Weapons 03:29
11. Thunder the Drums of War 02:24
12. Campaign of Extermination 04:00
13. Benedictio Ultionis: Their Blood for My Glory 05:22
14. Erupting Volcanic Wrath 03:28
15. The Sword Is My Light and My Salvation 05:23
16. Scorched Earth Ceremony 04:12
17. With Fire and a Thousand Flashing Blades 04:39
18. A Sermon of Slaughtered Foes 05:53
******************************
Total playing time: 1:10:37



[more=Extended info]Line - up:

Mike Koniglio - Vocals, Guitars (ex-Rellik, ex-Kommandant)
Frank Garcia - Guitars (lead) (Asphyxiator, Nekropsy, ex-Dark Oasis, ex-Waking Chaos, ex-Worms Inside)
Rick Hernandez - Drums (God Dementia, Reign Inferno, Withering Soul, ex-Dead for Days, ex-Euphoric Evisceration, ex-Earthen)
Krystopher - Bass (Empyreus (live))

[/more]

[more=Technical info]
Input File: 16 Scorched Earth Ceremony.mp3
Channels : 2
Sample Rate : 44100
Precision : 16-bit
Duration : 00:04:12.28 = 11125592 samples = 18921.1 CDDA sectors
File Size : 10.1M
Bit Rate : 320k
Sample Encoding: MPEG audio (layer I, II or III)
Comments :
Title=Scorched Earth Ceremony
Artist=Blood Of The Wolf
Album=Album I + II (Compilation)
Tracknumber=16
Year=2018
Genre=Blackened Death Metal

[/more]

Register
(11) AHBAnep, artscald, Ostinato, Pinhead666, Rosen, satanist666, THROWER666, VALERY, vyacheslav, WX419, Герб,
Nov 16 2018, 18:09:21 Ravaged Spleen Outburst - The Church Of Anemia (2018)


*Artist: Ravaged Spleen Outburst
*Album: The Church Of Anemia
*Year: 2018
*Genre: Brutal Death Metal
*Country: Serbia
*Format: mp3@CBR320kbps
*Size: 71MB

Tracklist:
1. Deformities of the Saints
2. The Ones Who See
3. Cult of the Vein
4. Breeding the Bleeding
5. Desecrated Frescos
6. Anointing of the Sick
******************************
Total playing time: 28:49



[more=Extended info]Line - up:

A. Đ. - Guitars, Bass, Vocals, Drum Programming

[/more]

[more=Technical info]
Input File: 04. Breeding the Bleeding.mp3
Channels : 2
Sample Rate : 48000
Precision : 16-bit
Duration : 00:04:56.04 = 14210064 samples ~ 22203.2 CDDA sectors
File Size : 11.8M
Bit Rate : 320k
Sample Encoding: MPEG audio (layer I, II or III)
Comments :
Title=Breeding the Bleeding
Artist=Ravaged Spleen Outburst
Album=The Church of Anemia
Tracknumber=4
Year=2018
Genre=Brutal Death Metal

[/more]

Register
(8) jollo, maochen, metala, Rosen, satanist666, uk82, vyacheslav, Герб,
Nov 16 2018, 17:39:21 Barbarian Hermit - Solitude And Savagery (2018)


*Artist: Barbarian Hermit
*Album: Solitude And Savagery
*Year: 2018
*Genre: Stoner/Sludge Metal
*Country: United Kingdom
*Format: mp3@CBR320kbps
*Size: 104MB

Tracklist:
1. Enter the Hermitage 06:01
2. Black Mass 06:24
3. No Sleep 04:08
4. Beyond the Wall 07:24
5. Life Breather 05:29
6. Reawaken 06:59
7. Laniakea 10:59
******************************
Total playing time: 47:24



[more=Extended info]Line - up:
Mike "Big Daddy Reegs" Regan - Guitars (ex-Bisonhammer)
Adam Robertshaw - Guitars
Ed Campbell - Vocals (ex-Fatal Fear, Sack Blabbath, ex-Severed Fate)
Rob "Spadge" Sutcliffe - Bass, Vocals
Gareth Manning - Drums

Guest/Session:
Alex Hurst - Vocals (tracks 1, 7) (Boss Keloid, Lost Dogs, River Junkies, The Hicks)

[/more]

[more=Technical info]
Input File: 02-barbarian_hermit-black_mass-9a80940b.mp3
Channels : 2
Sample Rate : 44100
Precision : 16-bit
Duration : 00:06:24.86 = 16972326 samples = 28864.5 CDDA sectors
File Size : 15.4M
Bit Rate : 320k
Sample Encoding: MPEG audio (layer I, II or III)
Comments :
Title=Black Mass
Artist=Barbarian Hermit
Album=Solitude and Savagery
Tracknumber=2
Year=2018
Genre=Stoner / Sludge Metal

[/more]

Register
(7) alexthenext, djsema4, Korpse, Ostinato, Rosen, snot, stub888,
Nov 16 2018, 17:23:58 Funeral Chic - Superstition (2018)


*Artist: Funeral Chic
*Album: Superstition
*Year: 2018
*Genre: Black Metal/Hardcore
*Country: United States
*Format: mp3@CBR320kbps
*Size: 72MB

Tracklist:
1. Rotten to the Core 03:06
2. Superstition 02:03
3. Left Alone 03:09
4. Jump 01:22
5. Baptized 01:16
6. Deep Pockets 02:25
7. Off the Rails 02:16
8. Decorated 01:56
9. Stay Useless 01:37
10. Suffer Together Forever 02:25
11. Red Laces 04:07
12. Say No 02:46
13. D.R.E.A.M. 01:58
14. Fantasy 02:23
******************************
Total playing time: 32:49



[more=Extended info]Line - up:

Alex Psaroudis - Drums
John Andrew Hawkins - Guitars
Robert Gray - Guitars
Dustin Carpenter - Vocals (ex-Young and in the Way (live))

[/more]

[more=Technical info]
Input File: 02-funeral_chic-superstition-7be33583.mp3
Channels : 2
Sample Rate : 44100
Precision : 16-bit
Duration : 00:02:02.76 = 5413672 samples = 9206.93 CDDA sectors
File Size : 4.91M
Bit Rate : 320k
Sample Encoding: MPEG audio (layer I, II or III)
Comments :
Title=Superstition
Artist=Funeral Chic
Album=Superstition
Tracknumber=2
Year=2018
Genre=Black Metal / Hardcore

[/more]

Register
(6) artscald, deadterror, Ostinato, Rosen, VALERY, Герб,
Nov 16 2018, 16:33:12 Deceased - Ghostly White (2018)


*Artist: Deceased
*Album: Ghostly White
*Year: 2018
*Genre: Death/Thrash/Heavy Metal
*Country: United States
*Format: mp3@CBR128kbps
*Size: 52MB

Tracklist:
1. Mrs. Allardyce 07:11
2. Germ of Distorted Lore 13:20
3. A Palpitation's Warning 03:36
4. To Serve the Insane 05:56
5. Endless Well 06:01
6. The Shivers 06:01
7. Thoughts from a Leaking Brain 05:28
8. Pale Surroundings 06:55
******************************
Total playing time: 54:28



[more=Extended info]Line - up:

Kingsley "King" Fowley - Vocals, Keyboards (October 31, ex-Doomstone, ex-Abominog)
Les Snyder - Bass (ex-Abominog, ex-Doomstone)
Mike Smith - Guitars (ex-Recalcitrance)
Dave "Scarface" Castillo (R.I.P. 2018) - Drums (ex-October 31)
Shane Fuegel - Guitars (ex-Biovore, ex-Bionic Man, ex-Drugs of Faith)

[/more]

[more=Technical info]
Input File: 08 - Pale Surroundings.mp3
Channels : 2
Sample Rate : 44100
Precision : 16-bit
Duration : 00:06:55.26 = 18313098 samples = 31144.7 CDDA sectors
File Size : 6.65M
Bit Rate : 128k
Sample Encoding: MPEG audio (layer I, II or III)
Comments :
Title=Pale Surroundings
Artist=Deceased
Album=Ghostly White
Tracknumber=02
Year=2018
Genre=Death / Thrash / Heavy Metal

[/more]

Register
(5) boby9052, Proteus_666, quicksand, troll_swamp, wn129aa,
Nov 11 2018, 17:51:01 Fall And Resist - Fading Cinders (2018)


*Artist: Fall And Resist
*Album: Fading Cinders
*Year: 2018
*Genre: Metalcore
*Country: Australia
*Format: mp3@CBR320kbps
*Size: 89MB

Tracklist:
1. Life and Death
2. Severity
3. When Virtues Break
4. Pride and Glory
5. Stitch
6. Anger and Sadness
7. Mend Me
8. Mind Hacker
9. In Ignorance
10. Cinders
******************************
Total playing time: 37:17




[more=Extended info]Line - up:

Rory - Bass
Benito - Drums (ex-Bel-Dalkhu, ex-Darker Half, ex-Hell Itself)
Brendon - Guitars, Vocals (backing)
Frosty - Guitars, Vocals (2016-present) (ex-Into Ruin, ex-Maleficium (live))

[/more]

[more=Technical info]
Input File: 01 - Life and Death.mp3
Channels : 2
Sample Rate : 44100
Precision : 16-bit
Duration : 00:03:53.66 = 10304186 samples = 17524.1 CDDA sectors
File Size : 9.43M
Bit Rate : 323k
Sample Encoding: MPEG audio (layer I, II or III)
Comments :
Title=Life and Death
Artist=Fall and Resist
Album=Fading Cinders
Tracknumber=01
Year=2018
Genre=Metalcore

[/more]

Register
(5) Foneg, Ostinato, Rosen, satanist666, zhol,
Nov 10 2018, 18:01:29 Adder's Fork - The Individualist [ep] (2018)


*Artist: Adder's Fork
*Album: The Individualist [ep]
*Year: 2018
*Genre: Heavy/Gothic Metal
*Country: Austria
*Format: mp3@CBR320kbps
*Size: 51MB

Tracklist:
1. Moodshift 01:21 instrumental
2. The Individualist 04:48
3. Witchgrove Mountain 04:27
4. We Stare Into the Fading Sun 05:00
5. A Wall Behind the Curtain 05:38
******************************
Total playing time: 21:14



[more=Extended info]Line - up:

Marko Köfler - Vocals, Guitars, Bass, Keyboards, Drum programming (ex-Shores of Sheol, ex-Coffinfeeder (Aut), ex-God Was Created, ex-Nocturnal Delusion)

[/more]

[more=Technical info]
Input File: 05. A Wall Behind the Curtain.mp3
Channels : 2
Sample Rate : 48000
Precision : 16-bit
Duration : 00:05:38.26 = 16236432 samples ~ 25369.4 CDDA sectors
File Size : 13.5M
Bit Rate : 320k
Sample Encoding: MPEG audio (layer I, II or III)
Comments :
Title=A Wall Behind the Curtain
Artist=Adder's Fork
Album=The Individualist (EP)
Tracknumber=5
Year=2018
Genre=Heavy / Gothic Metal

[/more]

Register
(6) Cartman223, csgmnk, Mogozoz, sergsazan, VALERY, zhol,
Nov 9 2018, 18:14:04 Morning Again - Survival Instinct [ep] (2018)


*Artist: Morning Again
*Album: Survival Instinct [ep]
*Year: 2018
*Genre: Metalcore
*Country: United States
*Format: flac
*Size: 79MB

Tracklist:
1. Reinventor
2. Susina
3. Backbiter
4. Of Oneself
******************************
Total playing time: 10:10

iTunes

[more=Extended info]Line - up:

Geraldo Villarroel - Bass
Steve Looker - Guitars
Kevin Byers - Vocals (ex-Dead Blue Sky)
John Wylie - Guitars (ex-Culture, ex-Night of Broken Glass, ex-Organized Pain, ex-Tension, ex-Toetag, ex-Trust No One, ex-Until the End, ex-Where Fear and Weapons Meet)
Joshua Williams - Drums (ex-Culture)

[/more]

Register
(4) BandR75, Rosen, satanist666, scrollbar,
Nov 9 2018, 17:29:28 Vuohi - Witchcraft Warfare (2018)


*Artist: Vuohi
*Album: Witchcraft Warfare
*Year: 2018
*Genre: Thrash/Black/Death Metal, Grindcore
*Country: Finland
*Format: mp3@CBR128kbps
*Size: 26MB

Tracklist:
1. The Rain 02:27
2. Witchcraft Warfare 04:23
3. Pissing o.t.N.F. 02:48
4. Arsonist Dreams 04:30
5. Isotope Annihilation 04:23
6. Cathedral of Runes 03:09
7. Ziᛏ 05:32
******************************
Total playing time: 27:12



[more=Extended info]Line - up:

Raaka - Bass
Veri - Drums, Vocals (additional)
Luoti - Guitars, Vocals (additional)
Saha - Vocals (lead)

[/more]

[more=Technical info]
Input File: 02 - Witchcraft Warfare.mp3
Channels : 2
Sample Rate : 44100
Precision : 16-bit
Duration : 00:04:22.85 = 11591685 samples = 19713.8 CDDA sectors
File Size : 4.21M
Bit Rate : 128k
Sample Encoding: MPEG audio (layer I, II or III)
Comments :
Title=Witchcraft Warfare
Artist=Vuohi
Album=Witchcraft Warfare
Tracknumber=2
Year=2018
Genre=Thrash / Black / Death Metal, Grindcore

[/more]

Register
(1) satanist666,
Nov 9 2018, 17:03:15 Convent Guilt - Diamond Cut Diamond (2018)


*Artist: Convent Guilt
*Album: Diamond Cut Diamond
*Year: 2018
*Genre: Heavy Metal, Hard Rock
*Country: Australia
*Format: mp3@CBR320kbps
*Size: 79MB

Tracklist:
1. Howling Vengeance 04:43
2. Born to Trouble 03:43
3. Powder Dry 05:40
4. Scream Out Your Heart 04:11
5. Bonnie and Clyde 04:58
6. Thief in the Night 05:05
7. Foxes Run 07:44
******************************
Total playing time: 36:04



[more=Extended info]Line - up:

Brent - Drums (Sluggard)
Andrew - Guitars
Dario - Guitars (ex-Shackles)
Ian - Vocals, Bass (ex-Shackles, ex-Ghastly (live), ex-Trench Hell)

[/more]

[more=Technical info]
Input File: 02. Born to Trouble.mp3
Channels : 2
Sample Rate : 44100
Precision : 16-bit
Duration : 00:03:43.34 = 9849162 samples = 16750.3 CDDA sectors
File Size : 9.02M
Bit Rate : 323k
Sample Encoding: MPEG audio (layer I, II or III)
Comments :
Title=Born to Trouble
Artist=Convent Guilt
Album=Diamond Cut Diamond
Tracknumber=2
Year=2018
Genre=Heavy Metal, Hard Rock

[/more]

Register
(1) Asketto,

52 Pages V   1 2 3 > » 
- Lo-Fi Version Support form
Copyrights and abuse reports form
Time is now: 10th December 2018 - 02:41:54