Welcome Guest ( Log In | Register )

История благодарностей участнику Necrokilldozer ::: Спасибо сказали: 9296 раз(а)
Дата поста: В теме: За сообщение: Спасибо сказали:
Sep 22 2018, 16:12:16 Moment Of Winter - Eventual Melancholy [demo] (2018)


*Artist: Moment Of Winter
*Album: Eventual Melancholy [demo]
*Year: 2018
*Genre: Instrumental Black/Doom Metal
*Country: United States
*Format: flac
*Size: 48MB

Tracklist:
1. Consuming Consternation 04:11
2. Eventual Melancholy 02:26
******************************
Total playing time: 6:37



Register
(2) Rosen, vasiljev_sergej,
Sep 22 2018, 15:56:00 Goblin Hovel - On The Bright Side Of The Dark Forest (2018)


*Artist: Goblin Hovel
*Album: On The Bright Side Of The Dark Forest
*Year: 2018
*Genre: Folk Rock
*Country: United States
*Format: mp3@CBR320kbps
*Size: 77MB

Tracklist:
1. Ros Grazh 01:18
2. Pareidolia 03:45
3. Son of the Pines 04:15
4. Follow Me up to Carlow 02:42
5. (How to) Start a Witch Hunt 04:39
6. Squonk Tears 04:22
7. Moonshiners 02:15
8. Lady of the Noose 05:25
9. Eyes Like the Sunrise 03:17
******************************
Total playing time: 31:58



[more=Extended info]Line - up:
Goblin - Guitars, Vocals, Throat Singing, Percussion, Cello (Eira, Mephistoph, ex-Nazgûl, ex-Armageddon, ex-Gnome Hut, ex-Monolith)
Rawbeard - Bouzouki, Whistles, Bodhran, Guitars (Chalice of Suffering, Wandering Oak, ex-Warsynium)
Petuth - Banjo, Mandolin
Dr. Ethereal - Bass, Melodica (ex-Warsynium)
Damn Barbarian - Vocals (lead) (Wandering Oak)

Guest/Session:
Shane Bruno - U-bass, Vibraslap (Wandering Oak)

[/more]

[more=Technical info]
Input File: 02. Pareidolia.mp3
Channels : 2
Sample Rate : 48000
Precision : 16-bit
Duration : 00:03:45.56 = 10826640 samples ~ 16916.6 CDDA sectors
File Size : 9.03M
Bit Rate : 320k
Sample Encoding: MPEG audio (layer I, II or III)
Comments :
Title=Pareidolia
Artist=Goblin Hovel
Album=On The Bright Side of the Dark Forest
Tracknumber=2
Year=2018
Genre=Folk / Doom Metal, Neofolk

[/more]

Register
(3) Buregon, Cartman223, infozahist,
Sep 22 2018, 15:36:13 Heterodox - Salt Earth [ep] (2018)


*Artist: Heterodox
*Album: Salt Earth [ep]
*Year: 2018
*Genre: Doom/Stoner Metal
*Country: New Zealand
*Format: flac
*Size: 110MB

Tracklist:
1. Salt Earth 05:25
2. In View 05:31
3. Meander 04:03
******************************
Total playing time: 14:59



[more=Extended info]Line - up:

Floyd Pepper - Bass, Vocals (backing)
Jared Green - Drums, Vocals (backing)
Luke Burns - Guitars, Vocals

[/more]

Register
(1) Rosen,
Sep 22 2018, 15:23:01 Coughdust - Coughdust [ep] (2018)


*Artist: Coughdust
*Album: Coughdust [ep]
*Year: 2018
*Genre: Stoner/Death Metal
*Country: Finland
*Format: mp3@CBR320kbps
*Size: 29MB

Tracklist:
1. Reflecting the Scale 07:34
2. A Relative Theory of Truth 05:19
******************************
Total playing time: 12:53



[more=Extended info]Line - up:

Peltokangas - Bass (Conform)
Latva - Guitars (O, Rotten Sound, ex-Deathbound, ex-Ghost Guard, ex-Havoc Unit, All in Me, ex-...and Oceans)
Murtonen - Vocals (Conform, ex-Corpset, ex-Ward)
Hartikainen - Drums (Worthless, ex-Lowmen)

[/more]

[more=Technical info]
Input File: 02-coughdust-a_relative_theory_of_truth-42752706.mp3
Channels : 2
Sample Rate : 44100
Precision : 16-bit
Duration : 00:05:19.66 = 14096786 samples = 23974.1 CDDA sectors
File Size : 12.8M
Bit Rate : 320k
Sample Encoding: MPEG audio (layer I, II or III)
Comments :
Title=A Relative Theory of Truth
Artist=Coughdust
Album=Coughdust (EP)
Tracknumber=2
Year=2018
Genre=Stoner / Death Metal

[/more]

Register
(7) Leshiy666, marilin, Ostinato, ripper33, Rosen, SatanicPanzer, VALERY,
Sep 21 2018, 18:15:22 Betzefer - Entertain Your Force Of Habit (2018)


*Artist: Betzefer
*Album: Entertain Your Force Of Habit
*Year: 2018
*Genre: Groove Metal/Metalcore
*Country: Israel
*Format: mp3@CBR320kbps
*Size: 88MB

Tracklist:
1. One Way to No Way 03:17
2. Dead Lines 03:35
3. Ain't No Party 'Til You Hurt Somebody 03:27
4. Never Been 03:53
5. Crash 03:33
6. Light Away 04:46
7. Truck Leaking Gasoline 02:48
8. Dying Man 04:09
9. Hand in Hand to Hell 03:15
10. The Last Song in the World 04:25
******************************
Total playing time: 37:08




[more=Extended info]Line - up:

Roey Berman - Drums
Matan Cohen-Grumi - Guitars (ex-Nail Within, ex-Sonne Adam)
Rotem Inbar - Bass (ex-Nail Within)
Aharon Ragoza - Vocals (Shredhead)

[/more]

[more=Technical info]
Input File: 01. One Way to No Way.mp3
Channels : 2
Sample Rate : 48000
Precision : 16-bit
Duration : 00:03:17.19 = 9464976 samples ~ 14789 CDDA sectors
File Size : 7.89M
Bit Rate : 320k
Sample Encoding: MPEG audio (layer I, II or III)
Comments :
Title=One Way to No Way
Artist=Betzefer
Album=Entertain Your Force of Habit
Tracknumber=1
Year=2018
Genre=Groove Metal / Metalcore

[/more]

Register
(6) lortz, METALHUNTER, pichileon, Rosen, spiritualdecay666, terron,
Sep 21 2018, 17:24:59 Terranaut & Chaosophy - Terranaut/Chaosophy [split] (2018)


*Artist: Terranaut & Chaosophy
*Album: Terranaut/Chaosophy [split]
*Year: 2018
*Genre: Black Metal | Black Metal
*Country: United States | United States
*Format: mp3@CBR320kbps
*Size: 108MB

Tracklist:
Terranaut:
1. Profound Inevitable Fate 02:02
2. Beneath the Water Lillies 03:35
3. Foretold Demise 06:24
4. Those Who Live On 04:24
5. Remnants 06:16
6. Futile Legacy 02:44
Chaosophy:
7. Whores of the Christ God 08:04
8. Serpents of Thoughtless Light 07:12
9. Sitra Achra 08:06
******************************
Total playing time: 48:47



[more=Extended info]
[/more]

[more=Technical info]
Input File: 03-terranaut_and_chaosophy-foretold_demise-000eafd7.mp3
Channels : 2
Sample Rate : 44100
Precision : 16-bit
Duration : 00:06:24.08 = 16937752 samples = 28805.7 CDDA sectors
File Size : 15.4M
Bit Rate : 320k
Sample Encoding: MPEG audio (layer I, II or III)
Comments :
Title=Foretold Demise
Artist=Terranaut
Album=Terranaut & Chaosophy (Split)
Tracknumber=3
Year=2018
Genre=138

[/more]

Register
(11) 1968_janeart, kim666, Korpse, Ostinato, Rosen, SilentNidhogg, spiritualdecay666, stub888, VALERY, varg-38ru, vasiljev_sergej,
Sep 21 2018, 16:51:58 Kotiteollisuus - Valtatie 666 (2018)


*Artist: Kotiteollisuus
*Album: Valtatie 666
*Year: 2018
*Genre: Heavy Metal/Rock
*Country: Finland
*Format: mp3@CBR320kbps
*Size: 156MB

Tracklist:
1. Kusipää
2. Kyy povessa
3. Järjen ääni
4. Kaikki on kaupan
5. Sädekehä
6. Taakka
7. Vääräleuka
8. Valtatie 666
9. Pimeyden ytimeen
10. Heikoilla jäillä
11. Maailma nukahtaa
******************************
Total playing time: 1:11:13



[more=Extended info]Line - up:

Janne Hongisto - Bass (ex-Hullu ukko ja kotiteollisuus)
Jari Sinkkonen - Drums (ex-Hullu ukko ja kotiteollisuus, ex-Pronssinen Pokaali)
Jouni Hynynen - Guitars, Vocals (ex-Hullu ukko ja kotiteollisuus, ex-Pronssinen Pokaali)
Miitri Aaltonen - Guitars, Vocals (backing) (Monsteriser)

[/more]

[more=Technical info]
Input File: 10. Heikoilla Jäillä.mp3
Channels : 2
Sample Rate : 44100
Precision : 16-bit
Duration : 00:05:25.74 = 14365222 samples = 24430.6 CDDA sectors
File Size : 13.1M
Bit Rate : 322k
Sample Encoding: MPEG audio (layer I, II or III)
Comments :
Title=Heikoilla Jäillä
Artist=Kotiteollisuus
Album=Valtatie 666
Tracknumber=10
Year=2018
Genre=Heavy Metal / Rock

[/more]

Register
(6) MеtalHead, natrogrii, Paradayz, Rosen, Rover, spiritualdecay666,
Sep 21 2018, 16:07:22 Horseman - Of Hope, Freedom And Future (2018)


*Artist: Horseman
*Album: Of Hope, Freedom And Future
*Year: 2018
*Genre: Hardcore/Thrash Metal
*Country: Germany
*Format: mp3@CBR320kbps
*Size: 105MB

Tracklist:
1. Of Hope, Freedom and Future 01:24
2. A Thousand Wars 04:33
3. Hunters 05:28
4. See Me Hanging 04:52
5. The Monsters I Feed 05:04
6. Die Gedanken Sind Frei 00:30
7. Teach Them to Question 04:50
8. An Open Mind Breaks Down Walls 02:42
9. The Giant 04:18
10. Fools Keep Marching 04:43
11. The Final Dance 03:54
12. Shellshock 05:22
******************************
Total playing time: 47:40



[more=Extended info]Line - up:

Michael Kolar - Drums (ex-Devil's Fate, ex-Almanac)
Malte Edinger - Guitars
Stefan Bohm - Vocals
Christoph Brennecke - Bass
Gregor Panic - Guitars

[/more]

[more=Technical info]
Input File: 09-horseman-the_giant-1a01a4e8.mp3
Channels : 2
Sample Rate : 44100
Precision : 16-bit
Duration : 00:04:18.08 = 11381372 samples = 19356.1 CDDA sectors
File Size : 10.3M
Bit Rate : 320k
Sample Encoding: MPEG audio (layer I, II or III)
Comments :
Title=The Giant
Artist=Horseman
Album=Of Hope, Freedom and Future
Tracknumber=9
Year=2018
Genre=Hardcore / Thrash Metal

[/more]

Register
(7) gwar, metala, METALHUNTER, pichileon, Rosen, spiritualdecay666, volostakoeto,
Sep 19 2018, 17:11:40 Kylmä Vuori - 1 (2018)


*Artist: Kylmä Vuori
*Album: 1
*Year: 2018
*Genre: Post-Black Metal
*Country: Finland
*Format: mp3@CBR320kbps
*Size: 138MB

Tracklist:
1. Todistus / Rukous 13:43
2. Puoliväli / Nollapiste 11:46
3. Vankila / Temppeli 15:41
4. Luominen / Tuhoaminen 13:57
******************************
Total playing time: 55:07



[more=Extended info]Line - up:

Nimetön - Everything (ex-Epäihminen)[/more]

[more=Technical info]
Input File: 03. Vankila Temppeli.mp3
Channels : 2
Sample Rate : 48000
Precision : 16-bit
Duration : 00:15:41.07 = 45171216 samples ~ 70580 CDDA sectors
File Size : 37.6M
Bit Rate : 320k
Sample Encoding: MPEG audio (layer I, II or III)
Comments :
Title=Vankila / Temppeli
Artist=Kylma Vuori
Album=1
Tracknumber=3
Year=2018
Genre=Post-Black Metal

[/more]

Register
(8) 1968_janeart, Hypothermia, murian, Ostinato, Rosen, Shadechaser, VALERY, vasiljev_sergej,
Sep 18 2018, 16:49:20 Verminlord - Sojourn [ep] (2018)


*Artist: Verminlord
*Album: Sojourn [ep]
*Year: 2018
*Genre: Black Metal
*Country: United States
*Format: mp3@CBR320kbps
*Size: 53MB

Tracklist:
1. Shed Your Skin 06:03
2. Phra Rahu 04:29
3. Sojourn 11:24
******************************
Total playing time: 21:56



[more=Extended info]Line - up:

Teo Acosta - Everything (Murkwytch)

[/more]

[more=Technical info]
Input File: 03. Sojourn.mp3
Channels : 2
Sample Rate : 48000
Precision : 16-bit
Duration : 00:11:24.70 = 32865552 samples ~ 51352.4 CDDA sectors
File Size : 27.4M
Bit Rate : 320k
Sample Encoding: MPEG audio (layer I, II or III)
Comments :
Title=Sojourn
Artist=Verminlord
Album=Sojourn (EP)
Tracknumber=3
Year=2018
Genre=138

[/more]

Register
(8) 1968_janeart, kim666, marilin, Rosen, SilentNidhogg, stub888, VALERY, vasiljev_sergej,
Sep 18 2018, 15:59:58 Striborg - One With The Night/Beyond The Shadow Of Silence [ep] (2018)


*Artist: Striborg
*Album: One With The Night/Beyond The Shadow Of Silence [ep]
*Year: 2018
*Genre: Black Metal/Ambient
*Country: Australia
*Format: flac
*Size: 104MB

Tracklist:
1. One with the Night 04:11
2. Beyond the Shadow of Silence 03:46
******************************
Total playing time: 7:57



[more=Extended info]Line - up:

Sin Nanna - All instruments, Vocals (ex-Cromlech, ex-Pentemple, ex-Kathaaria, Veil of Darkness, ex-M.S.I.)

[/more]

Register
(10) 1968_janeart, Alexis The Best, jerrytodd, LazarShadow, Pinhead666, recber, Rosen, varg-38ru, vasiljev_sergej, Vidder242,
Sep 16 2018, 18:07:33 Witchcult 71 - Blessings In Black [ep] (2018)


*Artist: Witchcult 71
*Album: Blessings In Black [ep]
*Year: 2018
*Genre: Black/Death/Sludge Metal
*Country: Netherlands
*Format: mp3@CBR320kbps
*Size: 62MB

Tracklist:
1. Blood Of Summer 07:05
2. Slow Season Of The Witch 07:22
3. Skull Generation 06:19
4. New Maps Of Hell 05:33
******************************
Total playing time: 26:19



[more=Extended info]Line - up:

Ingmar Regeling - Drums (Monism, Sidius, Alvenrad (live), ex-Stone in Egypt)
Tjeerd de Jong - Guitars, Bass (Serpentarius, Stone in Egypt, ex-Doomsday B.C., ex-Lethargy, ex-Beyond Belief, ex-Villingur)
Robin Kok - Vocals (The Monolith Deathcult, ex-Exposing Innards, ex-Slayne, ex-Monolith, ex-VATT)
Michiel Dekker - Vocals

[/more]

[more=Technical info]
Input File: 04. New Maps Of Hell.mp3
Channels : 2
Sample Rate : 48000
Precision : 16-bit
Duration : 00:05:33.44 = 16004880 samples ~ 25007.6 CDDA sectors
File Size : 13.3M
Bit Rate : 320k
Sample Encoding: MPEG audio (layer I, II or III)
Comments :
Title=New Maps Of Hell
Artist=Witchcult 71
Album=Blessings in Black (EP)
Tracknumber=4
Year=2018
Genre=Black / Death / Sludge Metal

[/more]

Register
(8) Daale, marilin, murian, Rosen, sacredserenity, VALERY, vasiljev_sergej, Wolftribes,
Sep 16 2018, 17:02:28 Witchcraft - Nightmare Goetia [demo] (2018)


*Artist: Witchcraft
*Album: Nightmare Goetia [demo]
*Year: 2018
*Genre: Black/Death Metal
*Country: Finland
*Format: mp3@CBR128kbps
*Size: 24MB

Tracklist:
1. Intro: Witches Sabbath Sorcery 05:20
2. Heavenly Debauchery 06:32
3. Nightmare Goetia 05:55
4. Desecration Hammer 03:25
5. Nightmare Goetia (rehearsal) * 06:20
6. Desecration Hammer (rehearsal) * 03:38
******************************
Total playing time: 31:10

[more=Extended info]Line - up:

Goat Prayer of Black Baptism - Bass, Vocals (Ceremonial Torture, Necromonarchia Daemonum, ex-Black Feast, ex-Moonfall, ex-OfDoom, ex-Under Horns, Necromantical Psalm, Throat Vomica)
Grotesque Demon of Darkness & Bloodiabolus - Drums (ex-Black Feast, ex-OfDoom, ex-Loathsomeness, ex-Imeinavor)
Black Moon Necromancer of Funeral Fornication - Guitars, Vocals (Necromonarchia Daemonum, ex-Black Feast, ex-OfDoom, ex-Imeinavor, ex-Moonfall)
[/more]

[more=Technical info]
Input File: 04 Desecration Hammer.mp3
Channels : 2
Sample Rate : 44100
Precision : 16-bit
Duration : 00:02:43.03 = 7189491 samples = 12227 CDDA sectors
File Size : 2.61M
Bit Rate : 128k
Sample Encoding: MPEG audio (layer I, II or III)
Comments :
Title=Desecration Hammer
Artist=Witchcraft
Album=Nightmare Goetia (Demo)
Tracknumber=4
Year=2018
Genre=Black / Death Metal

[/more]

Register
(13) artscald, Beazth, Boozer, Evilded, kim666, marilin, Pinhead666, Rosen, RUSP73, varg-38ru, vasiljev_sergej, Vidder242, wolverine,
Sep 16 2018, 14:10:58 Bestial Devastator - Until Death Occurs... (2018)


*Artist: Bestial Devastator
*Album: Until Death Occurs...
*Year: 2018
*Genre: Black/Thrash Metal
*Country: Germany
*Format: mp3@CBR320kbps
*Size: 82MB

Tracklist:
1. Arisen from the Crypts 04:13
2. Fire, Leather and Hell 04:43
3. Conquering the Towers 04:02
4. ...of Tyrants and Wolves 04:16
5. The Summoning 01:27
6. Blackened Fire 05:13
7. Cult of Darkness 04:24
8. Beneath the Gallows 04:36
9. Until Death Occurs 03:26
******************************
Total playing time: 36:20



[more=Extended info]Line - up:

Eviscerator - Guitars
Infernal Aggressor - Vocals, Bass, Guitars
Heavy Destructor - Drums[/more]

[more=Technical info]
Input File: 07. Cult Of Darkness.mp3
Channels : 2
Sample Rate : 48000
Precision : 16-bit
Duration : 00:04:24.27 = 12684816 samples ~ 19820 CDDA sectors
File Size : 10.6M
Bit Rate : 322k
Sample Encoding: MPEG audio (layer I, II or III)
Comments :
Title=Cult Of Darkness
Artist=Bestial Devastator
Album=Until Death Occurs
Tracknumber=7
Year=2018
Genre=Black / Thrash Metal

[/more]

Register
(16) Asketto, Beazth, DarkHorde, maochen, marilin, metala, METALHUNTER, Ostinato, Pinhead666, postal67, Rosen, satanas189, THROWER666, volostakoeto, wgs73, Wolftribes,
Sep 15 2018, 16:28:39 Sun Won't Rise - Not Here, Not Now (2018)


*Artist: Sun Won't Rise
*Album: Not Here, Not Now
*Year: 2018
*Genre: Raw Black Metal/Crust/Post-Metal
*Country: Canada
*Format: mp3@CBR320kbps
*Size: 107MB

Tracklist:
1. She's Allowed to Feel the Way She Feels 09:31
2. I'm Not Here 12:28
3. See You Tomorrow 11:39
4. Sever 11:37 instrumental
******************************
Total playing time: 45:15



[more=Extended info]Line - up:

Michael Mosher - Everything (Cult of Divine Mercy, Devotee, Exalted Saviour, Rotting Serpent, ex-Melchizedek, ex-Photosynthesis, ex-Mourning Woods, Be Glad, Earth and Sky!, CrrYxiA, DeCRYPTed, Escape from Hell, Exekution, Skörne, Victory, βαρ†ιστ Chvrch, ex-AnHero, ex-Diet of Worms, ex-Doxomedon, ex-Hated, ex-Intra-Uterine Sabbat, ex-Katachthonios, ex-Medic!, ex-Rob Grave$, ex-Self-Hatred, ex-The Dipshit Losers)

[/more]

[more=Technical info]
Input File: 03. See You Tomorrow.mp3
Channels : 2
Sample Rate : 48000
Precision : 16-bit
Duration : 00:11:39.39 = 33570576 samples ~ 52454 CDDA sectors
File Size : 28.1M
Bit Rate : 321k
Sample Encoding: MPEG audio (layer I, II or III)
Comments :
Title=See You Tomorrow
Artist=Sun Won't Rise
Album=Not Here, Not Now
Tracknumber=3
Year=2018
Genre=Raw Black Metal / Crust / Post-Metal

[/more]

Register
(2) Rosen, vasiljev_sergej,
Sep 15 2018, 16:09:27 Schawehrmacht - Halal Black Metal (2018)


*Artist: Schawehrmacht
*Album: Halal Black Metal
*Year: 2018
*Genre: Black Metal
*Country: Russian Federation
*Format: mp3@CBR320kbps
*Size: 72MB

Tracklist:
1. Halal Black Metal 30:37 instrumental
******************************
Total playing time: 30:37



[more=Extended info]Line - up:

Obersturmbannführer Jürgen Niggerschwarz - All instruments (Anal Kudasai, Black Sunrise Prophets, ex-Pregnant Ladyboyz, ex-Hateflame, ex-Obscurus Codex, Alin Veneris, ex-Kawaii Guts)
Rottenfürer Said Halifat - Vocals

[/more]

[more=Technical info]
Input File: 01. Halal Black Metal.mp3
Channels : 2
Sample Rate : 48000
Precision : 16-bit
Duration : 00:30:38.02 = 88224912 samples ~ 137851 CDDA sectors
File Size : 73.5M
Bit Rate : 320k
Sample Encoding: MPEG audio (layer I, II or III)
Comments :
Title=Halal Black Metal
Artist=Schawehrmacht
Album=Halal Black Metal
Tracknumber=1
Year=2018
Genre=138

[/more]

Register
(3) 1968_janeart, Rosen, vasiljev_sergej,
Sep 15 2018, 15:35:20 Murena - Extinguish [ep] (2018)


*Artist: Murena
*Album: Extinguish [ep]
*Year: 2018
*Genre: Black Metal/Sludge
*Country: Russian Federation
*Format: mp3@CBR320kbps
*Size: 57MB

Tracklist:
1. Farewell Flower 03:42
2. To the Deep 04:00
3. Snakes and Silt 04:27
4. Groundcatcher 05:27
5. Undertree 04:20
6. Melancholia 05:14
******************************
Total playing time: 27:10



[more=Extended info]В ЛОУ?[/more]

[more=Technical info]
Input File: 03 - Snakes and Silt.mp3
Channels : 2
Sample Rate : 44100
Precision : 16-bit
Duration : 00:04:27.05 = 11776993 samples = 20028.9 CDDA sectors
File Size : 10.7M
Bit Rate : 320k
Sample Encoding: MPEG audio (layer I, II or III)
Comments :
Title=Snakes and Slik
Artist=Murena
Album=Extinguish (EP)
Tracknumber=03
Year=2018
Genre=Black / Sludge Metal

[/more]

Register
(5) marilin, Ostinato, Rosen, VALERY, vasiljev_sergej,
Sep 15 2018, 15:20:26 La Torture Des Ténèbres & Ashen Chalice - Ashen Chalice/La Torture Des Ténèbres [split] (2018)


*Artist: La Torture Des Ténèbres & Ashen Chalice
*Album: Ashen Chalice/La Torture Des Ténèbres [split]
*Year: 2018
*Genre: Black Metal/Ambient | Black Metal/Ambient
*Country: Canada | Croatia
*Format: mp3@CBR320kbps
*Size: 67MB

Tracklist:
La Torture des Ténèbres:
1. L'Éloignement 15:06
Ashen Chalice:
2. Represija ljuvabi 13:05
******************************
Total playing time: 28:11



[more=Extended info]FLAC RIP[/more]

[more=Technical info]
Input File: 01. La Torture Des Ténèbres - L\'Éloignement.mp3
Channels : 2
Sample Rate : 48000
Precision : 16-bit
Duration : 00:15:06.36 = 43505424 samples ~ 67977.2 CDDA sectors
File Size : 36.3M
Bit Rate : 320k
Sample Encoding: MPEG audio (layer I, II or III)
Comments :
Title=L'Eloignement
Artist=La Torture des Ténèbres
Album=Ashen Chalice / La Torture des Ténèbres (Split)
Tracknumber=1
Year=2018
Genre=Black Metal / Ambient

[/more]

Register
(10) 1968_janeart, A.L.Rapsod, Ostinato, Rosen, RUSP73, SilentNidhogg, stub888, Tyrone, varg-38ru, vasiljev_sergej,
Sep 14 2018, 15:55:56 Bayview Suspect - Survival Or Ruin [ep] (2018)


*Artist: Bayview Suspect
*Album: Survival Or Ruin [ep]
*Year: 2018
*Genre: Melodic Death Metal/Deathcore
*Country: Australia
*Format: mp3@CBR320kbps
*Size: 67MB

Tracklist:
1. Until Dusk
2. Renouncing Compliance
3. Watch Those Catch Light
4. Force Fed
5. Belly Full of Lies
6. Laced with Deception
7. Aftermath
8. Paralysis
******************************
Total playing time: 27:47



[more=Extended info]Line - up:

Buddha - Bass
Luke Specter - Drums
Brody Lawrance - Guitars (lead)
Tim Farmer - Guitars (rhythm)
Johnny Callaghan - Vocals
[/more]

[more=Technical info]
Input File: 06 Laced With Deception.mp3
Channels : 2
Sample Rate : 44100
Precision : 16-bit
Duration : 00:03:44.43 = 9897495 samples = 16832.5 CDDA sectors
File Size : 8.98M
Bit Rate : 320k
Sample Encoding: MPEG audio (layer I, II or III)
Comments :
Title=Laced With Deception
Artist=Bayview Suspect
Album=Survival or Ruin (EP)
Tracknumber=6
Year=2018
Genre=Melodic Death Metal / Deathcore

[/more]

Register
(3) Rosen, terron, VALERY,
Sep 14 2018, 15:47:35 Outloud - Virtual Hero Society (2018)


*Artist: Outloud
*Album: Virtual Hero Society
*Year: 2018
*Genre: Heavy Metal/Hard Rock
*Country: Greece
*Format: mp3@CBR320kbps
*Size: 117MB

Tracklist:
1. Fools’ Train
2. My Promise
3. Virtual Heroes
4. I Am the One
5. Share My Dreams
6. World-Go-Round
7. We Got Tonite
8. Borrowed Time
9. Live with It
10. …and I Tried
11. Fallen Love
12. Fight On!
******************************
Total playing time: 49:33





[more=Extended info]Line - up:

Jim Kyritsis - Guitars (Myst)
Bob Katsionis - Guitars (lead), Keyboards (Bob Katsionis, Burnt City, Constantine, Firewind, Ioannis Anastassakis, Teo Ross, ex-Encomium, ex-Imaginery, ex-Retrospect, ex-Revolution Renaissance, ex-Zion, ex-Mirage, ex-Skyward, ex-Acid Death, ex-Casus Belli, ex-Karmic Link, ex-Nightfall, ex-Perpetual, ex-Serious Black, ex-Deviser (live), ex-Septicflesh (live), ex-Star Queen, ex-Fatal Morgana, ex-Jade Lizard, ex-Lighthunters)
Chandler Mogel - Vocals (Porphyra, Theater of the Absurd, Two Hundred Feet, Chrome Public, Cities, Dangered Ace, NYC Outlaws, Talon, Until Destiny, ex-Legion)
Sverd - Bass (AmongRuins, Battleroar, ex-Bare Infinity, ex-The Silent Rage)
Thanos Pappas - Drums (Disharmony, Scar of the Sun, Fire and Steel, ex-Bigus Dickus)

[youtube]jLlSHBDYDIc[/youtube]
[youtube]tYRaqnNEXF0[/youtube]
[/more]

[more=Technical info]
Input File: 02 My Promise.mp3
Channels : 2
Sample Rate : 44100
Precision : 16-bit
Duration : 00:03:57.91 = 10491963 samples = 17843.5 CDDA sectors
File Size : 9.52M
Bit Rate : 320k
Sample Encoding: MPEG audio (layer I, II or III)
Comments :
Title=My Promise
Artist=Outloud
Album=Virtual Hero Society
Tracknumber=2
Year=2018
Genre=Heavy Metal, Hard Rock

[/more]

Register
(4) avkruchinin, eyes0re, metala, Rosen,
Sep 13 2018, 17:17:38 Ally The Fiddle - Up (2018)


*Artist: Ally The Fiddle
*Album: Up
*Year: 2018
*Genre: Folk Rock/Metal
*Country: Germany
*Format: mp3@CBR320kbps
*Size: 152MB

Tracklist:
1. Sisyphos 06:26
2. Aphotic Zone 06:01
3. The Bass Thing 08:01
4. The Path 07:43
5. Tree 06:08
6. Try to Stop Me 05:28
7. Living in a Bubble 06:23
8. Entering Stratosphere 04:22
9. Center Su(O)N' 08:33
10. Surfing with the Alien 04:17
******************************
Total playing time: 1:03:22





[more=Extended info]Line - up:

Stefan "Huky" Hukriede - Drums
Diemo Heuer - Guitars (Determination)
Robert "Rob" Klawonn - Guitars (Poised, ex-Weyland)
Almut "Ally" Storch-Hukriede - Vocals, Violin, Fiddle, Viola (Subway to Sally, ex-Folkearth, ex-Haggard)
Simon T. - Bass (Decision, ex-Othis, ex-The Gebruder Grim)
Rouven Haliti - Chapman Stick (Determination, CozmicRip)

[youtube]uM2eyLQUgn4[/youtube]

[/more]

[more=Technical info]
Input File: 03 The Bass Thing.mp3
Channels : 2
Sample Rate : 44100
Precision : 16-bit
Duration : 00:08:01.57 = 21237281 samples = 36117.8 CDDA sectors
File Size : 19.3M
Bit Rate : 321k
Sample Encoding: MPEG audio (layer I, II or III)
Comments :
Title=The Bass Thing
Artist=Ally The Fiddle
Album=Up
Tracknumber=3
Year=2018
Genre=Folk Rock / Metal

[/more]

Register
(8) csgmnk, djsema4, gwar, infozahist, Rosen, RotAnus, simonitro, скептик,
Sep 13 2018, 16:15:14 Moonlight Prophecy - Breaking Down [ep] (2018)


*Artist: Moonlight Prophecy
*Album: Breaking Down [ep]
*Year: 2018
*Genre: Progressive/Power Metal
*Country: United States
*Format: mp3@CBR320kbps
*Size: 42MB

Tracklist:
1. Slip of the Knife 03:45 instrumental
2. No More Control 04:50 instrumental
3. Breaking Down 03:24 instrumental
4. Battling Illness 03:16 instrumental
5. The Wind over the Atlantic 02:35 instrumental
******************************
Total playing time: 17:50



[more=Extended info]FLAC RIP

Line - up:

Raphael Gazal - Vocals (Bulletback, Leviathan, Tailgunners, Children of the Beast, ex-Pastore, ex-Blaze Bayley (live))
Lawrence Wallace - All instruments (ex-Evil Divine, ex-Shadows in the Crypt, ex-Lawrence's Creation, ex-Serpent ov Old)
Mika Mage - Bass (Nihilistinen Barbaarisuus, ex-Lawrence's Creation)

[/more]

[more=Technical info]
Input File: 03. Breaking Down (instrumental).mp3
Channels : 2
Sample Rate : 48000
Precision : 16-bit
Duration : 00:03:24.56 = 9818640 samples ~ 15341.6 CDDA sectors
File Size : 8.19M
Bit Rate : 320k
Sample Encoding: MPEG audio (layer I, II or III)
Comments :
Title=Breaking Down (instrumental)
Artist=Moonlight Prophecy
Album=Breaking Down (EP)
Tracknumber=3
Year=2018
Genre=Progressive / Power Metal

[/more]

Register
(2) csgmnk, Rosen,
Sep 9 2018, 16:44:29 Deduction Of A Miscalculation - Back From The Grave [compilation] (2018)


*Artist: Deduction Of A Miscalculation
*Album: Back From The Grave [compilation]
*Year: 2018
*Genre: Death Metal
*Country: Denmark
*Format: mp3@CBR320kbps
*Size: 262MB

Tracklist:
1. I Am (instrumental version) 00:26
2. The Seventeen (instrumental version) 00:38
3. If You're Happy and You Know It (instrumental version) 00:43
4. Bereavement (instrumental version) 02:07
5. Frogs (instrumental version) 02:19
6. Locust (instrumental version) 02:23
7. Swarms upon Swarms (instrumental version) 02:30
8. Gushing (instrumental version) 02:41
9. Black (instrumental version) 03:04
10. Hail and Fucking Fire (instrumental version) 03:05
11. Frightful Day (instrumental version) 03:08
12. The Ship (instrumental version) 03:24
13. The Garden of Eden (instrumental version) 03:25
14. Is This Even Me (instrumental version) 03:53
15. Fall of Venus (instrumental version) 03:55
16. Nile into Blood (instrumental version) 04:13
17. Left Behind (instrumental version) 04:15
18. Infestation (instrumental version) 04:43
19. Days of Darkness (instrumental version) 04:47
20. Ulceration (instrumental version) 04:48
21. Dinnertime (instrumental version) 05:04
22. Sail (instrumental version) 05:07
23. The Hidden Shame (instrumental version) 05:09
24. Teamwork (instrumental version) 05:09
25. Rinderpest (instrumental version) 05:12
26. Dessert (instrumental version) 05:12
27. Captain (instrumental version) 05:20
28. Demon (instrumental version) 06:12
29. My Emotions (instrumental version) 08:31
******************************
Total playing time: 1:51:23



[more=Extended info]FLAC RIP

Line - up:

Deamon Depresis - Bass
Manigga Ventablack - Drums
Deady Jones - Guitars
Saliva Planet - Guitars
Arnault Vermillet - Keyboards[/more]

[more=Technical info]
Input File: 09. Black (instrumental version).mp3
Channels : 2
Sample Rate : 48000
Precision : 16-bit
Duration : 00:03:04.32 = 8847504 samples ~ 13824.2 CDDA sectors
File Size : 7.43M
Bit Rate : 323k
Sample Encoding: MPEG audio (layer I, II or III)
Comments :
Title=Black (instrumental version)
Artist=Deduction Of A Miscalculation
Album=Back From The Grave (Compilation)
Tracknumber=9
Year=2018
Genre=22

[/more]

Register
(2) Rosen, VALERY,
Sep 8 2018, 18:04:21 Iron Blood - Growing Into (2018)


*Artist: Iron Blood
*Album: Growing Into
*Year: 2018
*Genre: Black Metal/Punk
*Country: Canada
*Format: flac
*Size: 75MB

Tracklist:
1. Growing Into 01:11
2. Revolution of the Hollow Man 02:33
3. What the Sharp Tooth Tears Away / Truly Awful Fate 03:06
4. Death Mask 02:23
5. Reduced to Iron and Ash 02:20
******************************
Total playing time: 11:33



[more=Extended info]Line - up:
Of Iron - Guitars, Vocals

Guest/Session:
Of Dust - Drums

[/more]

Register
(7) Necroeire, Rosen, stub888, Vakhangya, varg-38ru, vasiljev_sergej, wgs73,
Sep 5 2018, 19:04:23 Profane Omen - Ooka (2018)


*Artist: Profane Omen
*Album: Ooka
*Year: 2018
*Genre: Melodic Groove Metal
*Country: Finland
*Format: mp3@CBR320kbps
*Size: 80MB

Tracklist:
1. They Came For Us
2. Make It Count
3. One Man Show
4. Terminal Dysfunction
5. War Boy
6. White Noise
7. Aftersound
8. The Wave
9. The Tide
******************************
Total playing time: 33:47




[more=Extended info]В ЛОУ

Line - up:

Jules Näveri - Vocals (Enemy of the Sun, ex-Burning Empire, ex-The Nibiruan, ex-Misery Inc.)
Williami Kurki - Guitars
Andy J. Bonfire - Guitars (ex-Drowned in Life, ex-Kill the Romance)
Tuomas Saarenketo - Bass (Damngod, The Goat Radio, ex-Wreck Oil)
Samuli Mikkonen - Drums (The Goat Radio, Battle Beast (live), Ansur, ex-Arcadian Nocturne, ex-Uhrilehto, End Begins, Less Than Three, ex-Jonne, ex-Evil Angel (live))
Antti Seroff - Bass

[/more]

[more=Technical info]
Input File: 05 - War Boy.mp3
Channels : 2
Sample Rate : 44100
Precision : 16-bit
Duration : 00:04:38.93 = 12300725 samples = 20919.6 CDDA sectors
File Size : 11.2M
Bit Rate : 320k
Sample Encoding: MPEG audio (layer I, II or III)
Comments :
Title=War Boy
Artist=Profane Omen
Album=Ooka
Tracknumber=5
Year=2018
Genre=Melodic Groove Metal

[/more]

Register
(3) infozahist, Rosen, VALERY,

50 Pages V   1 2 3 > » 
- Lo-Fi Version Support form
Copyrights and abuse reports form
Time is now: 25th September 2018 - 01:53:10

Источник: тут.