Welcome Guest ( Log In | Register )

История благодарностей участнику Necrokilldozer ::: Спасибо сказали: 7002 раз(а)
Дата поста: В теме: За сообщение: Спасибо сказали:
May 22 2018, 17:26:50 Retaliate - Tormented By Eternity [demo] (2017)


*Artist: Retaliate
*Album: Tormented By Eternity [demo]
*Year: 2017
*Genre: Death/Thrash Metal
*Country: Brazil
*Format: flac
*Size: 78MB

Tracklist:
1. Where Yahweh Doesn't Dwell 03:12
2. Tormented by Eternity 02:56
******************************
Total playing time: 6:08



[more=Extended info]Line - up:

Julio Rot - Guitars
Cláudio Wurfel - Drums (ex-S.O:M.A)
Edson Souza - Vocals, Bass, Guitars (lead) (Zombie Cookbook, ex-Deadpan (live))

[/more]

Register
(4) infiltrator, pichileon, Rosen, wgs73,
May 21 2018, 18:19:18 Reputdeath - Buried Alive/Live 2013 [demo] (2017)


*Artist: Reputdeath
*Album: Buried Alive/Live 2013 [demo]
*Year: 2017
*Genre: Death Metal
*Country: Malaysia
*Format: flac
*Size: 67MB

Tracklist:
1. Suppuration Mutilation 02:32
2. Rotten Carnage / No More Living 03:31
3. Troops of Doom 02:19
******************************
Total playing time: 8:22



[more=Extended info]Line - up:

Faz - Drums
Mikail - Guitars
Sam - Vocals

[/more]

Register
(2) infiltrator, Rosen,
May 21 2018, 16:31:09 Drunk Dog - Back To Old Days [ep] (2018)


*Artist: Drunk Dog
*Album: Back To Old Days [ep]
*Year: 2018
*Genre: Thrash Metal/Crossover
*Country: Colombia
*Format: mp3@CBR320kbps
*Size: 29MB

Tracklist:
1. Criminal Hood 03:00
2. Alcohol Para Mí 01:50
3. Manipulado 03:40
4. Futuro Contaminado 02:52
5. Galletas Hasta El Final 02:00
******************************
Total playing time: 13:22



[more=Extended info]В ЛОУ

Line - up:
Mad Doggy - Vocals (ex-Burning)
Uairiko - Drums (Inner Betrayer, ex-Burning, ex-Jitoma Safiama, ex-Mortfina, ex-Éter Siniestro, ex-Some Day (live))
Lucho - Bass, Vocals (backing) (Psychomosher)

Guest/Session:
Julián Crosby - Guitars (ex-Burning, ex-Drunk Dog (live), ex-Manifestación Diabólica (live), ex-Advantage, ex-Human Damnation, ex-Like Any 1)

[/more]

[more=Technical info]
Input File: 05. Galletas Hasta el Final.mp3
Channels : 2
Sample Rate : 44100
Precision : 16-bit
Duration : 00:02:00.47 = 5312507 samples = 9034.88 CDDA sectors
File Size : 4.87M
Bit Rate : 323k
Sample Encoding: MPEG audio (layer I, II or III)
Comments :
Title=Galletas Hasta el Final
Artist=Drunk Dog
Album=Back to Old Days (EP)
Tracknumber=5
Year=2018
Genre=Thrash Metal / Crossover

[/more]

Register
(3) pichileon, Rosen, wgs73,
May 20 2018, 19:13:48 Reptilian Civilian - It's Impossible That Reptilians Don't Exist [ep] (2017)


*Artist: Reptilian Civilian
*Album: It's Impossible That Reptilians Don't Exist [ep]
*Year: 2017
*Genre: Deathcore
*Country: Australia
*Format: mp3@CBR320kbps
*Size: 58MB

Tracklist:
1. Agartha the Crystal City 04:27
2. Mokele Mbembe 02:57
3. S07E01 04:20
4. Panspermia 02:49
5. Genesis 04:52
6. Hatched from Filth 04:29
******************************
Total playing time: 23:54



[more=Extended info]Line - up:
Louis Cottier - Bass (Unbound, ex-Hurricane Death, ex-Puke)
Caleb Wilson - Drums (ex-Hurricane Death)
Jed Bermingham - Guitars
Oscar Hoffman - Guitars
Connor Fenton - Vocals

Guest/Session:
Redbear - Vocals (Track 4) (ex-Hurricane Death)

[/more]

[more=Technical info]
Input File: 02 Mokele Mbembe.mp3
Channels : 2
Sample Rate : 44100
Precision : 16-bit
Duration : 00:02:57.97 = 7848257 samples = 13347.4 CDDA sectors
File Size : 7.12M
Bit Rate : 320k
Sample Encoding: MPEG audio (layer I, II or III)
Comments :
Title=Mokele Mbembe
Artist=Reptilian Civilian
Album=It's Impossible That Reptilians Don't Exist (EP)
Tracknumber=2
Year=2017
Genre=Deathcore

[/more]

Register
(3) maochen, Ostinato, Rosen,
May 19 2018, 18:08:49 Esgaroth - Sable Sky (2018)


*Artist: Esgaroth
*Album: Sable Sky
*Year: 2018
*Genre: Black Metal
*Country: United States
*Format: mp3@CBR320kbps
*Size: 72MB

Tracklist:
1. Trapped on the Moon 02:12
2. Abhorred by Odious Devilry 05:52
3. Haunted by Wrathful Spirits 04:16
4. Hideous Creatures of Unknown Planets 05:12
5. Stars of the Sable Sky 03:44
6. Searching for the Cosmic Keys 06:24
7. The Experiment 02:40
******************************
Total playing time: 30:20



[more=Extended info]Line - up:

Lord Frostikus - All instruments, Vocals[/more]

[more=Technical info]
Input File: 05. Stars of the Sable Sky.mp3
Channels : 2
Sample Rate : 48000
Precision : 16-bit
Duration : 00:03:44.07 = 10755216 samples ~ 16805 CDDA sectors
File Size : 9.03M
Bit Rate : 322k
Sample Encoding: MPEG audio (layer I, II or III)
Comments :
Title=Stars of the Sable Sky
Artist=Esgaroth
Album=Sable Sky
Tracknumber=5
Year=2018
Genre=138

[/more]

Register
(7) 1968_janeart, kim666, Rosen, satanist666, stub888, VALERY, vasiljev_sergej,
May 19 2018, 17:11:53 Vomitself - Unhinged (2018)


*Artist: Vomitself
*Album: Unhinged
*Year: 2018
*Genre: Doom/Sludge Metal
*Country: Canada
*Format: mp3@CBR320kbps
*Size: 74MB

Tracklist:
1. Intro
2. Fucked Up
3. Suffocate
4. Dirt Weed
5. Wasted Life
******************************
Total playing time: 33:08



[more=Extended info]Line - up:

Paul Reyes Castillo - Drums
Rory Watson - Vocals, Guitars
Steven Playford - Bass

[/more]

[more=Technical info]
Input File: 03-vomitself-suffocate-60cf0d3e.mp3
Channels : 2
Sample Rate : 44100
Precision : 16-bit
Duration : 00:14:33.75 = 38532375 samples = 65531.2 CDDA sectors
File Size : 35.0M
Bit Rate : 320k
Sample Encoding: MPEG audio (layer I, II or III)
Comments :
Title=Suffocate
Artist=Vomitself
Album=Unhinged
Tracknumber=3
Year=2018
Genre=Doom / Sludge Metal

[/more]

Register
(6) ctulhudagon, LordOvDarkness, marilin, Rosen, stub888, VALERY,
May 18 2018, 19:00:13 Blessed Hellride - Bourbon King (2018)


*Artist: Blessed Hellride
*Album: Bourbon King
*Year: 2018
*Genre: Southern/Groove Metal
*Country: Germany
*Format: mp3@CBR320kbps
*Size: 103MB

Tracklist:
1. Bourbon King 05:20
2. Good Times Roll 04:00
3. Rock 'N' Rolla 04:30
4. Old Man's Gun 04:25
5. St. Lucifer 04:48
6. Crown of Evolution 03:58
7. Fucking Hairy Bastards 03:56
8. Ride Home 04:16
9. The Scavanger 04:34
10. All Hopes Gone 03:42
******************************
Total playing time: 43:29



[more=Extended info]Line - up:

Captain - Drums
Jack Stoned - Guitars
Tiny Fuel - Vocals
Maze Grey - Bass
Yacko José Gonzales - Guitars



[youtube]E2YNg9ppxd4[/youtube][/more]

[more=Technical info]
Input File: 08. Ride Home.mp3
Channels : 2
Sample Rate : 44100
Precision : 16-bit
Duration : 00:04:16.21 = 11298861 samples = 19215.8 CDDA sectors
File Size : 10.3M
Bit Rate : 322k
Sample Encoding: MPEG audio (layer I, II or III)
Comments :
Title=Ride Home
Artist=Blessed Hellride
Album=Bourbon King
Tracknumber=8
Year=2018
Genre=Southern / Groove Metal

[/more]

Register
(3) Ostinato, Rosen, Rover,
May 18 2018, 18:40:36 Tystnad - För En Tid Som Bara Går... [compilation] (2018)


*Artist: Tystnad
*Album: För En Tid Som Bara Går... [compilation]
*Year: 2018
*Genre: Black Metal
*Country: Sweden
*Format: mp3@CBR320kbps
*Size: 139MB

Tracklist:
1. Tystnaden talar 05:11
2. Misär 04:59
3. Själslig förmörkelse 07:21
4. Svart tomhet 05:50
5. Farväl 09:40
6. Rakt in i mörkret 06:17
7. Din själ 05:41
8. Nihils sakrament 04:00
9. Midnatt 04:20
10. Onda andar 05:43
******************************
Total playing time: 59:02



[more=Extended info]flac rip

Line - up:

Savopipo - Everything (Lidice, ex-Black Anima)[/more]

[more=Technical info]
Input File: 08. Nihils Sakrament.mp3
Channels : 2
Sample Rate : 48000
Precision : 16-bit
Duration : 00:04:00.15 = 11527056 samples ~ 18011 CDDA sectors
File Size : 9.69M
Bit Rate : 323k
Sample Encoding: MPEG audio (layer I, II or III)
Comments :
Title=Nihils Sakrament
Artist=Tystnad
Album=For en tid som bara gar ... (Compilation)
Tracknumber=8
Year=2018
Genre=138

[/more]

Register
(10) 1968_janeart, kim666, Rosen, satanist666, SilentNidhogg, Sjelekval, stub888, thenecromancer, VALERY, vasiljev_sergej,
May 18 2018, 18:09:50 Eternal Flame - Smoke On The Mountain (2018)


*Artist: Eternal Flame
*Album: Smoke On The Mountain
*Year: 2018
*Genre: Heavy Metal
*Country: Germany
*Format: mp3@CBR320kbps
*Size: 124MB

Tracklist:
1. Ignition (Intro) 01:59
2. Smoke On The Mountain 04:35
3. This Is My Life 03:59
4. Queen Of The Hill 04:47
5. You Can Save Me 04:36
6. Whatcha Gonna Do 03:35
7. I Believe In This Miracle 03:20
8. Got A Rock & Roll Fever 03:47
9. Out In The Dark 04:43
10. Dreaming 05:12
11. Take Me There For A Night 04:16
12. Tease My Love 04:46
13. Close To The End (Outro) 02:07
******************************
Total playing time: 51:42



[more=Extended info]Line - up:

Tom Keller - Bass, Vocals (backing)
Michael Hencky - Drums (ex-Jester's Tears)
Helmut Kohlpaintner - Keyboards
Michael Schinkel - Vocals (lead), Guitars (ex-Stormhammer)



[youtube]Arm1v_wmg1c[/youtube][/more]

[more=Technical info]
Input File: 05 You Can Save Me.mp3
Channels : 2
Sample Rate : 44100
Precision : 16-bit
Duration : 00:04:35.65 = 12155989 samples = 20673.5 CDDA sectors
File Size : 11.0M
Bit Rate : 320k
Sample Encoding: MPEG audio (layer I, II or III)
Comments :
Title=You Can Save Me
Artist=Eternal Flame
Album=Smoke on the Mountain
Tracknumber=5
Year=2018
Genre=137

[/more]

Register
(7) ace73pq, csgmnk, metala, Rosen, Rover, VALERY, vir2al,
May 18 2018, 17:31:52 Corners Of Sanctuary - The Galloping Hordes (2018)


*Artist: Corners Of Sanctuary
*Album: The Galloping Hordes
*Year: 2018
*Genre: Heavy Metal/Hard Rock
*Country: United States
*Format: mp3@CBR320kbps
*Size: 90MB

Tracklist:
1. The Galloping Hordes 02:42
2. Encage, Enslave or Die 04:44
3. If You Dare 03:20
4. A Soldier's Last 05:32
5. Hail, Hail 03:09
6. The Bitter End 03:34
7. Cloak of Fear 04:11
8. Vengeance of the Warrior 03:33
9. Lies in Your Eyes 02:48
10. My Revenge 03:48
******************************
Total playing time: 37:21



[more=Extended info]Line - up:

Frankie Cross - Vocals
James Pera - Bass
Sean Nelligan - Drums, Vocals (backing) (Seeker, ex-Final Prayer)
Mick Michaels - Guitars, Keyboards (Decypher, Seeker, ex-Corporate Mass)



[youtube]PPk1ymng93w[/youtube][/more]

[more=Technical info]
Input File: 08. Vengeance Of The Warrior.mp3
Channels : 2
Sample Rate : 44100
Precision : 16-bit
Duration : 00:03:33.03 = 9394403 samples = 15976.9 CDDA sectors
File Size : 8.52M
Bit Rate : 320k
Sample Encoding: MPEG audio (layer I, II or III)
Comments :
Title=Vengeance Of The Warrior
Artist=Corners Of Sanctuary
Album=The Galloping Hordes
Tracknumber=8
Year=2018
Genre=Heavy Metal / Hard Rock

[/more]

Register
(3) avkruchinin, metala, Rosen,
May 18 2018, 16:34:59 Duel - Live At The Electric Church [live] (2018)


*Artist: Duel
*Album: Live At The Electric Church [live]
*Year: 2018
*Genre: Psychedelic Doom/Stoner Metal/Rock
*Country: United States
*Format: mp3@CBR320kbps
*Size: 72MB

Tracklist:
1. This Old Crow
2. Electricity
3. Snake Queen
4. Heart of the Sun
5. Fears of the Dead
6. Locked Outside
******************************
Total playing time: 32:21



[more=Extended info]Line - up:

Shaun Avants - Bass, Vocals (ex-Scorpion Child)
JD Shadowz - Drums (ex-Ripper, ex-Tactics)
Derek Halfmann - Guitars (Keletiel, ex-Super Heavy Goat Ass, ex-Buzzbomb)
Tom Frank - Guitars, Vocals (ex-Scorpion Child)

[/more]

[more=Technical info]
Input File: 06-duel-locked_outside_(live)-52196e9d.mp3
Channels : 2
Sample Rate : 44100
Precision : 16-bit
Duration : 00:08:49.69 = 23359109 samples = 39726.4 CDDA sectors
File Size : 21.2M
Bit Rate : 320k
Sample Encoding: MPEG audio (layer I, II or III)
Comments :
Title=Locked Outside (Live)
Artist=Duel
Album=Live at the Electric Church (Live)
Tracknumber=6/6
Year=2018
Genre=Psychedelic Doom / Stoner Metal / Rock

[/more]

Register
(3) Rosen, VALERY, ZA670,
May 18 2018, 15:14:32 Spiral Skies - Blues For A Dying Planet (2018)


*Artist: Spiral Skies
*Album: Blues For A Dying Planet
*Year: 2018
*Genre: Psychedelic Doom Metal/Rock
*Country: Sweden
*Format: mp3@CBR320kbps
*Size: 85MB

Tracklist:
1. Black Hole Waltz 01:26
2. Awakening 03:31
3. Dark Side of the Cross 04:05
4. The Wizard's Ball 05:37
5. Danse Macabre 04:18
6. Labyrinth of the Mind 05:43
7. Shattered Hopes 03:18
8. Left Is Right and Right Is Left Behind 04:38
9. The Prisoner 06:03
******************************
Total playing time: 38:39



[more=Extended info]Line - up:

Eric - Bass
Daniel - Drums
Jonas - Guitars
Dan - Guitars
Frida - Vocals (ex-Lapis Lazuli)

[/more]

[more=Technical info]
Input File: 09 The Prisoner.mp3
Channels : 2
Sample Rate : 44100
Precision : 16-bit
Duration : 00:06:03.01 = 16008653 samples = 27225.6 CDDA sectors
File Size : 14.5M
Bit Rate : 320k
Sample Encoding: MPEG audio (layer I, II or III)
Comments :
Title=The Prisoner
Artist=Spiral Skies
Album=Blues For A Dying Planet
Tracknumber=09
Year=2018
Genre=Psychedelic Doom Metal / Rock

[/more]

Register
(9) avkruchinin, marilin, metala, Ostinato, Rosen, Sabbathian, stub888, VALERY, yuratroll,
May 17 2018, 18:00:53 Renewal - A Moment Of Clarity (2017)


*Artist: Renewal
*Album: A Moment Of Clarity
*Year: 2017
*Genre: Melodic Death Metal/Metalcore
*Country: Germany
*Format: mp3@CBR320kbps
*Size: 91MB

Tracklist:
1. Mankinds Abyss 02:53
2. Eight Years 03:36
3. Black Holes White Rabbits 04:19
4. Ink 05:04
5. Cut the Strings 03:15
6. Where Past and Future Cross 04:04
7. Endless Wars 04:26
8. Hourglass 04:20
9. Cry for Relief 05:07
10. A Moment of Clarity 04:33
******************************
Total playing time: 41:37




[more=Extended info]Line - up:

Jan - Guitars (rhythm), Vocals (backing)
Robert - Bass
Dennis - Drums (ex-Disgorgement)
Mario - Guitars (lead)
Alex - Vocals

[/more]

[more=Technical info]
Input File: 07 Endless Wars.mp3
Channels : 2
Sample Rate : 44100
Precision : 16-bit
Duration : 00:04:26.09 = 11734349 samples = 19956.4 CDDA sectors
File Size : 10.7M
Bit Rate : 323k
Sample Encoding: MPEG audio (layer I, II or III)
Comments :
Title=Endless Wars
Artist=Renewal
Album=A Moment of Clarity
Tracknumber=7
Year=2017
Genre=Melodic Death Metal / Metalcore

[/more]

Register
(3) infiltrator, Rosen, SymbyoticEntity,
May 17 2018, 17:31:47 Remission - Claws Of Vultures [single] (2017)


*Artist: Remission
*Album: Claws Of Vultures [single]
*Year: 2017
*Genre: Melodic Death/Thrash Metal
*Country: Australia
*Format: flac
*Size: 80MB

Tracklist:
1. Claws of Vultures 05:14
2. Temples 04:46
******************************
Total playing time: 10:00



[more=Extended info]Line - up:

Aaron Searle - Bass, Vocals (backing)
Lewis Oliver - Drums
Jacson Robb - Guitars
Ferdinand Handojo - Guitars, Vocals

[youtube]aNQCXdz-z2M[/youtube][/more]

Register
(4) infiltrator, Rosen, SymbyoticEntity, Vakhangya,
May 17 2018, 17:03:41 Apotamkin - Death To All Infidels [ep] (2018)


*Artist: Apotamkin
*Album: Death To All Infidels [ep]
*Year: 2018
*Genre: Black Metal
*Country: United States
*Format: flac
*Size: 26MB

Tracklist:
1. Blaspheme 03:04
2. The Black Goat 01:29
3. Death to All Infidels 02:20
******************************
Total playing time: 6:53



[more=Extended info]Line - up:

Terah - Everything (Black Armament, Ghoul Necropsy, Malignant Decay, Morbid Forest, Perception of Hades, Venereal Messiah, Acin, Cabal, Deo Natus, Indovina, Rodentcide, ex-Tenth Ward)[/more]

Register
(3) infiltrator, Rosen, vasiljev_sergej,
May 17 2018, 16:20:36 SDreamExplorerS - Ephemeral I: Letters And Longings (2018)


*Artist: SDreamExplorerS
*Album: Ephemeral I: Letters And Longings
*Year: 2018
*Genre: Melodic Death Metal
*Country: Belarus
*Format: mp3@CBR320kbps
*Size: 183MB

Tracklist:
1. Lost Dimension I
2. Flowering Miracle
3. Lost Dimension II
4. Dissolved Through Scattered Sunrises
5. Lost Dimension III
6. Indistinguishable Mirroring Fireflies
7. Lost Dimension IV
8. Stardust Flavoured Agony
9. Lost Dimension V
10. Suspended Homecoming
11. Raindrops
12. Stargazer *
13. Stargazer (Alternate Version) *
******************************
Total playing time: 1:17:25



[more=Extended info]Line - up:

Soul Strings - Everything (ex-Essence of Datum)[/more]

[more=Technical info]
Input File: 04. Dissolved Through Scattered Sunrises.mp3
Channels : 2
Sample Rate : 48000
Precision : 16-bit
Duration : 00:02:27.70 = 7089552 samples ~ 11077.4 CDDA sectors
File Size : 5.91M
Bit Rate : 320k
Sample Encoding: MPEG audio (layer I, II or III)
Comments :
Title=Dissolved Through Scattered Sunrises
Artist=SDreamExplorerS
Album=Ephemeral I: Letters and Longings
Tracknumber=4
Year=2018
Genre=Melodic Death Metal

[/more]

Register
(7) csgmnk, infiltrator, Rosen, satanist666, sergsazan, SymbyoticEntity, скептик,
May 16 2018, 18:36:50 Relinquished - Paranoiac Hell [demo] (2017)


*Artist: Relinquished
*Album: Paranoiac Hell [demo]
*Year: 2017
*Genre: Death Metal
*Country: United States
*Format: flac
*Size: 43MB

Tracklist:
1. Paranoiac Hell 01:26
2. Shapeshifter 04:25
******************************
Total playing time: 5:51



[more=Extended info]Line - up:

Tony D. - Bass
Conrad J. - Drums (Beg for Life)
John N. - Guitars
Randall B. - Vocals

[/more]

Register
(1) Rosen,
May 16 2018, 17:47:48 Maleceptor & Regurgitated Pus - Death From Above [split] (2017)


*Artist: Maleceptor & Regurgitated Pus
*Album: Death From Above [split]
*Year: 2017
*Genre: Brutal Death Metal | Brutal Death Metal
*Country: United Kingdom | United States
*Format: mp3@CBR320kbps
*Size: 48MB

Tracklist:
Maleceptor:
1. Doom 05:24
2. Dopehammer 03:36
3. Defective Breed 02:38
Regurgitated Pus:
4. Weedwackin' Through the Senior Center 01:54
5. Taking A Ride on Uncle Daddy's Mayonnaise Cannon 03:23
6. Country Fried Cum Chunks 02:58
******************************
Total playing time: 19:53



[more=Extended info]В Лоу


[/more]

[more=Technical info]
Input File: 04 Weedwackin\' Through the Senior Center.mp3
Channels : 2
Sample Rate : 48000
Precision : 16-bit
Duration : 00:01:54.34 = 5488272 samples ~ 8575.43 CDDA sectors
File Size : 4.58M
Bit Rate : 320k
Sample Encoding: MPEG audio (layer I, II or III)
Comments :
Title=Weedwackin' Through the Senior Center
Artist=Regurgitated Pus
Album=Death from Above (Split)
Tracknumber=04
Year=2017
Genre=Brutal Death Metal

[/more]

Register
(3) grobator, Rosen, satanist666,
May 16 2018, 16:43:26 Nocturnal Graves - Titan (2018)


*Artist: Nocturnal Graves
*Album: Titan
*Year: 2018
*Genre: Blackened Thrash Metal
*Country: Australia
*Format: mp3@VBR128kbps
*Size: 38MB

Tracklist:
1. Resistance 06:44
2. Roar of the Wild 03:41
3. Ecdysis, Shedding Weak Flesh 06:13
4. Souls Tribulation 03:42
5. And Hell Followed Them 04:15
6. Bow Before None 06:07
7. Silence the Martyrs 03:34
8. Titan 05:27
******************************
Total playing time: 39:43



[more=Extended info]Line - up:

Decaylust - Guitars (lead), Vocals (Denouncement Pyre, Hunters Moon, Oxygen Abortion)
Shrapnel - Guitars (lead) (ex-Razor of Occam, ex-Adorior, ex-Deströyer 666)
J.R. - Drums, Guitars (rhythm), Bass, Vocals (lead) (Coffin Lust, Impious Baptism, Sithlord, Deströyer 666 (live), ex-Armageddon Holocaust, ex-Crucifire, ex-Aphasia, ex-Black Serpent, ex-Destruktor, ex-Hobbs' Angel of Death, ex-Azazel's Harem (live), ex-Toxic Holocaust (live), ex-Zemial (live), ex-Cerekloth, ex-Trench Hell, ex-Damned for Eternity)

[/more]

[more=Technical info]
Input File: 08. Titan.mp3
Channels : 2
Sample Rate : 44100
Precision : 16-bit
Duration : 00:05:28.34 = 14479574 samples = 24625.1 CDDA sectors
File Size : 5.26M
Bit Rate : 128k
Sample Encoding: MPEG audio (layer I, II or III)
Comments :
Title=Titan
Artist=Nocturnal Graves
Album=Titan
Tracknumber=8
Year=2018
Genre=Blackened Thrash Metal

[/more]

Register
(5) metala, Narasimha, neoatheist, satanist666, sergsazan,
May 15 2018, 18:52:39 Regorge - Devoured By Parasites (2017)


*Artist: Regorge
*Album: Devoured By Parasites
*Year: 2017
*Genre: Death Metal
*Country: Brazil
*Format: mp3@CBR128kbps
*Size: 39MB

Tracklist:
1. Intro Nightmare 02:49
2. Aborted 03:10
3. Against the World 02:44
4. Devoured by Parasites 03:46
5. Lord of the Lost Souls 03:36
6. Drilling of the Pregnant Uterus 03:42
7. Fascinated by Pussy 03:09
8. Silent for Hape 01:32
9. Blood Ritual of Zombies 05:15
10. The Molester Corpses 02:52
11. Fetal Vomit 03:16
12. Hospice Visit 04:09
******************************
Total playing time: 40:00



[more=Extended info]Line - up:

Odailton - Bass (Blaspherion, ex-Short Thrash)
Beto Demented Retarded - Drums, Vocals (Putrefying Dead Flesh)
Marcelo Putrid - Vocals
Indio Larock - Guitars
Alex Morbid Grinder - Guitars

[/more]

[more=Technical info]
Input File: 03 Against The World.mp3
Channels : 2
Sample Rate : 44100
Precision : 16-bit
Duration : 00:02:44.51 = 7254935 samples = 12338.3 CDDA sectors
File Size : 2.64M
Bit Rate : 128k
Sample Encoding: MPEG audio (layer I, II or III)
Comments :
Title=Against The World
Artist=Regorge
Album=Devoured By Parasites
Tracknumber=3
Year=2017
Genre=22

[/more]

Register
(3) infiltrator, jollo, Rosen,
May 15 2018, 17:36:48 Redshift Void - Traversing In All Directions [ep] (2017)


*Artist: Redshift Void
*Album: Traversing In All Directions [ep]
*Year: 2017
*Genre: Progressive Death Metal
*Country: United States
*Format: mp3@CBR320kbps
*Size: 92MB

Tracklist:
1. Breathe 01:47 instrumental
2. Oclavus 10:18 instrumental
3. Terminus, the City of Ruins 04:58 instrumental
4. Traversing In All Directions 21:47 instrumental
******************************
Total playing time: 38:50



[more=Extended info]Line - up:
Noah Brook - Guitars
Nathan Ekkens - Guitars, Programming

Guest/Session:
Skyler Hamilton - Guitar solo (track 2)

[/more]

[more=Technical info]
Input File: 03. Terminus, The City Of Ruins.mp3
Channels : 2
Sample Rate : 48000
Precision : 16-bit
Duration : 00:04:58.80 = 14342544 samples ~ 22410.2 CDDA sectors
File Size : 12.0M
Bit Rate : 320k
Sample Encoding: MPEG audio (layer I, II or III)
Comments :
Title=Terminus, The City Of Ruins
Artist=Redshift Void
Album=Traversing In All Directions (EP)
Tracknumber=3
Year=2017
Genre=Progressive Death Metal

[/more]

Register
(5) infiltrator, Rosen, SymbyoticEntity, VALERY, vyacheslav,
May 15 2018, 16:43:30 Red Bible Black - Allah Is Satan's Toy [ep] (2017)


*Artist: Red Bible Black
*Album: Allah Is Satan's Toy [ep]
*Year: 2017
*Genre: Death Metal
*Country: Italy
*Format: mp3@CBR320kbps
*Size: 48MB

Tracklist:
1. Allah Is Satan's Toy 02:12
2. Pedophilic Baptism 02:34
3. Antibirth 11: Rape Your Mom 03:01
4. Dark Skinned Children Are for Burning 04:24
5. Promote, Support and Glorify Hatred 01:50
6. In This Beautiful Existence 06:31
******************************
Total playing time: 20:32



[more=Extended info]Line - up:

P.C. Odio - Guitars, Bass (Funeral of God, In League with Satan, Mincer, Septulchu, The Worst, ex-Wormphilism)
Emir Toğrul - Vocals, Drums (Funeral of God, Peosphoros, Viranesir, Yayla, ex-Blliigghhtted, ex-Destroyers of History)[/more]

[more=Technical info]
Input File: 03. Antibirth 11 Rape Your Mom.mp3
Channels : 2
Sample Rate : 48000
Precision : 16-bit
Duration : 00:03:01.16 = 8695440 samples ~ 13586.6 CDDA sectors
File Size : 7.25M
Bit Rate : 320k
Sample Encoding: MPEG audio (layer I, II or III)
Comments :
Title=Antibirth 11: Rape Your Mom
Artist=Red Bible Black
Album=Allah Is Satan's Toy (EP)
Tracknumber=3
Year=2017
Genre=22

[/more]

Register
(5) infiltrator, Rosen, SymbyoticEntity, VALERY, vyacheslav,
May 15 2018, 16:23:20 Rectus - Negeri Hitam (2017)


*Artist: Rectus
*Album: Negeri Hitam
*Year: 2017
*Genre: Technical Death Metal
*Country: Indonesia
*Format: mp3@CBR128kbps
*Size: 73MB

Tracklist:
1. Intimidasi 04:39
2. You Must Killed by My Hands 08:05
3. Damned Corruptor 03:18
4. Juru Selamat (Sin Offering cover) 05:18
5. Sumbu Pendek Penthol Korek 02:23
6. Beloved of Sancity 06:53
7. Destruction 04:53
8. Perang Dunia Kelam 10:30
9. Jancoxxxraimu 04:00
10. Akhirat Bukan Ilusi (Sin Offering cover) 05:33
11. War Soul 02:33
12. Negeri Hitam 06:24
13. Rimba Kutukan 07:38
14. Ambilkan Bulan Bu 04:03
******************************
Total playing time: 1:16:10



[more=Extended info]Line - up:

Arwan Virgothic - Everything (ex-Tragedy Kereta Jenazah)

[/more]

[more=Technical info]
Input File: 01 - Intimidasi.mp3
Channels : 2
Sample Rate : 44100
Precision : 16-bit
Duration : 00:04:39.81 = 12339489 samples = 20985.5 CDDA sectors
File Size : 4.54M
Bit Rate : 130k
Sample Encoding: MPEG audio (layer I, II or III)
Comments :
Title=Intimidasi
Artist=Rectus
Album=Negeri Hitam
Tracknumber=01
Year=2017
Genre=Technical Death Metal

[/more]

Register
(3) infiltrator, metala, Rosen,
May 13 2018, 18:43:10 Reave - Ruins EP [ep] (2017)


*Artist: Reave
*Album: Ruins EP [ep]
*Year: 2017
*Genre: Melodic Death Metal
*Country: United States
*Format: mp3@CBR320kbps
*Size: 61MB

Tracklist:
1. No Mercy for the Weak 03:22
2. Ruins 03:49
3. Masters of Mankind 02:28
4. Exodus to Andromeda 04:37
5. Beast of Creation 04:01
6. Berserk 05:01
7. Bersex (Bonus Special Japanese Edition Track) 02:36
******************************
Total playing time: 25:54



[more=Extended info]Line - up:

Kunal Shah - Drums
Craig Bartholomew - Guitars
Teddy Shao - Guitars (Anodyne Mynd)
Jack Nystrom - Vocals, Bass

[/more]

[more=Technical info]
Input File: 06. Berserk.mp3
Channels : 2
Sample Rate : 48000
Precision : 16-bit
Duration : 00:05:01.06 = 14450832 samples ~ 22579.4 CDDA sectors
File Size : 12.0M
Bit Rate : 320k
Sample Encoding: MPEG audio (layer I, II or III)
Comments :
Title=Berserk
Artist=Reave
Album=Ruins EP (EP)
Tracknumber=6
Year=2017
Genre=Melodic Death Metal

[/more]

Register
(6) ASkyThatBurns, csgmnk, Rosen, satanist666, SymbyoticEntity, VALERY,
May 13 2018, 15:18:55 Crawling Manifest - Battlegrounds (2018)


*Artist: Crawling Manifest
*Album: Battlegrounds
*Year: 2018
*Genre: Melodic Heavy/Thrash Metal
*Country: United States
*Format: mp3@CBR320kbps
*Size: 110MB

Tracklist:
1. Hall of the Gods 04:32
2. Maiden 04:32
3. Undying 04:02
4. Raise Your Glass 05:06
5. Break Me Away 04:31
6. Battlegrounds 05:20
7. Speed Demon 03:55
8. Valhalla Awaits 04:04
9. Northern Winds 05:51
10. Eternal War 08:23
******************************
Total playing time: 50:16




[more=Extended info]Line - up:

Trevor Layton - Guitars
Andrew Mimms - Guitars, Vocals (backing)
Andrew Gladu - Vocals (lead)

[/more]

[more=Technical info]
Input File: 03 Undying.mp3
Channels : 2
Sample Rate : 44100
Precision : 16-bit
Duration : 00:04:02.10 = 10676698 samples = 18157.6 CDDA sectors
File Size : 9.75M
Bit Rate : 322k
Sample Encoding: MPEG audio (layer I, II or III)
Comments :
Title=Undying
Artist=Crawling Manifest
Album=Battlegrounds
Tracknumber=3
Year=2018
Genre=Melodic Heavy / Thrash Metal

[/more]

Register
(7) boby9052, metala, METALHUNTER, Rosen, Rover, SymbyoticEntity, vir2al,

37 Pages V   1 2 3 > » 
- Lo-Fi Version Support form
Copyrights and abuse reports form
Time is now: 24th May 2018 - 03:08:14