Welcome Guest ( Log In | Register )

История благодарностей участнику Necrokilldozer ::: Спасибо сказали: 20147 раз(а)
Дата поста: В теме: За сообщение: Спасибо сказали:
Yesterday, 19:30:13 Wry - Lament For A Dying World [demo] (2020)


*Artist: Wry
*Album: Lament For A Dying World [demo]
*Year: 2020
*Genre: Doom/Black Metal
*Country: United Kingdom
*Format: flac
*Size: 96MB

Tracklist:
1. Lament for a Dying World 14:48
******************************
Total playing time: 14:48



Register
(1) vasiljev_sergej,
Yesterday, 19:24:55 Falling Giants & Grodek - Highwayman At The Vesper [split] (2020)


*Artist: Falling Giants & Grodek
*Album: Highwayman At The Vesper [split]
*Year: 2020
*Genre: Stoner/Sludge/Doom Metal With Progressive Influences | Melodic Black/Gothic Metal
*Country: Italy | Italy
*Format: mp3@CBR320kbps
*Size: 95MB

Tracklist:
Falling Giants:
1.They come from Embers 04:28 instrumental
2.Words as Flames 05:50
3.Falling Giants MMXX 10:20
Grodek:
4.Lightless 03:20
5.Human Venom 05:10
6.In Life and Death 07:54
7.Outro 02:38 instrumental
******************************
Total playing time: 39:40




[more=Technical info]
Input File: Falling Giants & Grodek_metalarea.org.rar
Channels : 1
Sample Rate : 16000
Precision : 16-bit
Duration : 00:00:25.02 = 400336 samples ~ 1876.58 CDDA sectors
File Size : 95.1M
Bit Rate : 30.4M
Sample Encoding: MPEG audio (layer I, II or III)

[/more]

Register
(1) vasiljev_sergej,
Yesterday, 18:46:21 Yak & Auld Ridge - Yak/Auld Ridge [split] (2020)


*Artist: Yak & Auld Ridge
*Album: Yak/Auld Ridge [split]
*Year: 2020
*Genre: Raw Black Metal/ | Atmospheric Black Metal/Ambient
*Country: Unknown | United Kingdom
*Format: mp3@CBR320kbps
*Size: 57MB

Tracklist:
Yak:
1.Oikophiliaaa 04:57
2.Ropefuel 02:57
3.Saline 02:47
Auld Ridge:
4.Circles That Enshrine the Dust 05:03
5.Singing Psalms to the Father 08:14
******************************
Total playing time: 23:58



[more=Technical info]
Input File: 05. Auld Ridge - Singing Psalms to the Father.mp3
Channels : 2
Sample Rate : 44100
Precision : 16-bit
Duration : 00:08:14.50 = 21807538 samples = 37087.6 CDDA sectors
File Size : 19.8M
Bit Rate : 321k
Sample Encoding: MPEG audio (layer I, II or III)
Comments :
Title=Singing Psalms to the Father
Artist=Auld Ridge
Album=Yak/Auld Ridge (Split)
Tracknumber=5
Year=2020
Genre=Atmospheric Black Metal/Ambient

[/more]

Register
(2) kim666, vasiljev_sergej,
Yesterday, 18:02:22 Natanas - Terminus [ep] (2020)


*Artist: Natanas
*Album: Terminus [ep]
*Year: 2020
*Genre: Black/Doom Metal
*Country: United States
*Format: mp3@CBR320kbps
*Size: 56MB

Tracklist:
1.Binding to the Levy 05:10
2.Soaking in Plague 04:50
3.Miners of Death 04:46
4.Never, Not Once 03:42
5.Coofer 05:05
******************************
Total playing time: 23:33



[more=Technical info]
Input File: 05. Coofer.mp3
Channels : 2
Sample Rate : 44100
Precision : 16-bit
Duration : 00:05:05.55 = 13474667 samples = 22916.1 CDDA sectors
File Size : 12.2M
Bit Rate : 320k
Sample Encoding: MPEG audio (layer I, II or III)
Comments :
Title=Coofer
Artist=Natanas
Album=Terminus (EP)
Tracknumber=5
Year=2020
Genre=Black/Doom Metal

[/more]

Register
(1) vasiljev_sergej,
Yesterday, 17:42:28 Phosphorus - 1917 [demo] (2020)


*Artist: Phosphorus
*Album: 1917 [demo]
*Year: 2020
*Genre: Black Metal
*Country: United States
*Format: flac
*Size: 97MB

Tracklist:
1.Shell Shock 00:28
2.Trench War 02:32
3.Reduced to Ash by Flamethrowers 02:26
4.Phosgene 03:30
******************************
Total playing time: 8:56



Register
(1) vasiljev_sergej,
Yesterday, 06:06:40 Verminlord - Ennui (2020)


*Artist: Verminlord
*Album: Ennui
*Year: 2020
*Genre: Black Metal
*Country: United States
*Format: mp3@CBR320kbps
*Size: 129MB

Tracklist:
1.You Never Really Cared
2.Visited by Procrastination
3.Golden Spires
4.Ode to the Flayed God
5.What Dwells Within
6.A Corpse Guided to Nature
7.Epilogue
******************************
Total playing time: 54:25



[more=Technical info]
Input File: 02. Visited By Procrastination.mp3
Channels : 2
Sample Rate : 44100
Precision : 16-bit
Duration : 00:05:10.41 = 13688949 samples = 23280.5 CDDA sectors
File Size : 12.4M
Bit Rate : 320k
Sample Encoding: MPEG audio (layer I, II or III)
Comments :
Title=Visited By Procrastination
Artist=Verminlord
Album=Ennui
Tracknumber=2
Year=2020
Genre=138

[/more]

Register
(9) alikkon, atavist, infiltrator, kim666, robertho777, stub888, Tyrone, VALERY, vasiljev_sergej,
Mar 29 2020, 17:56:39 Enkidu - To The Shadow [ep] (2020)


*Artist: Enkidu
*Album: To The Shadow [ep]
*Year: 2020
*Genre: Black Metal
*Country: Australia
*Format: mp3@CBR320kbps
*Size: 66MB

Tracklist:
1.Intro 00:48
2.Love Projektion 02:38
3.Tyranny of Being 02:30
4.Ether 04:35
5.By Thine Shadow 03:25
6.Sovereign 06:09
7.Eternal Dragons 06:52
******************************
Total playing time: 26:57



[more=Technical info]
Input File: 01. Intro.mp3
Channels : 2
Sample Rate : 44100
Precision : 16-bit
Duration : 00:00:48.07 = 2119931 samples = 3605.32 CDDA sectors
File Size : 2.01M
Bit Rate : 335k
Sample Encoding: MPEG audio (layer I, II or III)
Comments :
Title=Intro
Artist=Enkidu
Album=To The Shadow (EP)
Tracknumber=1
Year=2020
Genre=138

[/more]

Register
(5) infiltrator, kim666, robertho777, stub888, VALERY,
Mar 29 2020, 17:38:40 Soular - As We Fall Into The Sun (2020)


*Artist: Soular
*Album: As We Fall Into The Sun
*Year: 2020
*Genre: Progressive Death/Doom Metal
*Country: Canada
*Format: mp3@CBR320kbps
*Size: 133MB

Tracklist:
1.As We Fall into the Sun 08:28
2.Spirit 05:00
3.The Desert Sky 06:59
4.Cryostasis 04:41 instrumental
5.Natural Death 04:36
6.Call of the Wraith 12:07
7.A Song for Solitude 06:31
******************************
Total playing time: 48:22



[more=Technical info]
Input File: 05. Natural Death.mp3
Channels : 2
Sample Rate : 44100
Precision : 16-bit
Duration : 00:04:36.19 = 12179759 samples = 20713.9 CDDA sectors
File Size : 11.1M
Bit Rate : 321k
Sample Encoding: MPEG audio (layer I, II or III)
Comments :
Title=Natural Death
Artist=Soular
Album=As We Fall Into The Sun
Tracknumber=5
Year=2020
Genre=Progressive Death/Doom Metal

[/more]

Register
(5) infiltrator, metala, robertho777, sergsazan, VALERY,
Mar 29 2020, 16:31:17 Casket Slime - Rewind Or Die! [demo] (2020)


*Artist: Casket Slime
*Album: Rewind Or Die! [demo]
*Year: 2020
*Genre: Death/Thrash Metal
*Country: Canada
*Format: flac
*Size: 80MB

Tracklist:
1.Chopping Spree 03:22
2.Rip Your Guts Out 02:30
3.Flesh Obsessed 02:37
4.Death Kult 03:56
******************************
Total playing time: 12:25



Register
(1) infiltrator,
Mar 29 2020, 16:21:42 Aþigra - Asche Zu Asche [ep] (2020)


*Artist: Aþigra
*Album: Asche Zu Asche [ep]
*Year: 2020
*Genre: Depressive Black Metal
*Country: Germany
*Format: flac
*Size: 138MB

Tracklist:
1.Memoirs #01 02:24
2.Pain 03:20
3.Memoirs #02 00:56
4.Suicide 04:38
******************************
Total playing time: 11:18



Register
(1) infiltrator,
Mar 28 2020, 19:34:57 Dark Fount - 幽浮林澗之霧 [ep] (2020)


*Artist: Dark Fount
*Album: 幽浮林澗之霧 [ep]
*Year: 2020
*Genre: Black Metal
*Country: China
*Format: flac
*Size: 54MB

Tracklist:
1.幽浮林澗之霧 04:33
2.餘燼 06:08
******************************
Total playing time: 10:41



Register
(6) infiltrator, morbidangelo, nemx, Olethros, vasiljev_sergej, wendigo,
Mar 28 2020, 18:39:55 Nighttrain - Hell Central (2020)


*Artist: Nighttrain
*Album: Hell Central
*Year: 2020
*Genre: Heavy Metal
*Country: Germany
*Format: mp3@CBR320kbps
*Size: 105MB

Tracklist:
1.Monument of Ignorance 03:37
2.Child of Desire 04:25
3.My Insanity 04:40
4.Saved by the Bell 04:11
5.Numbered Days 05:03
6.Shifted View 03:59
7.From Sparks to Fire 03:40
8.Almost Perfect 03:53
9.We Are 04:52
10.The Cage 05:40
******************************
Total playing time: 44:00



[more=Extended info]Line - up:

Simon - Bass, Vocals
Benjamin - Drums, Vocals
Dominik - Guitars (lead), Vocals
Tobias - Guitars (rhythm) (ex-Kaltfront, ex-Creature)
Kevin - Vocals (lead)

[/more]

[more=Technical info]
Input File: 08 - Almost Perfect.mp3
Channels : 2
Sample Rate : 44100
Precision : 16-bit
Duration : 00:03:53.52 = 10298408 samples = 17514.3 CDDA sectors
File Size : 9.39M
Bit Rate : 322k
Sample Encoding: MPEG audio (layer I, II or III)
Comments :
Title=Almost Perfect
Artist=Nighttrain
Album=Hell Central
Tracknumber=8
Year=2020
Genre=137

[/more]

Register
(9) infiltrator, metala, morbidangelo, Olethros, postal67, sadmannn, senecazm, vir2al, wgs73,
Mar 28 2020, 18:27:23 Dakesis - Fractures (2020)


*Artist: Dakesis
*Album: Fractures
*Year: 2020
*Genre: Progressive/Power Metal
*Country: United Kingdom
*Format: mp3@CBR320kbps
*Size: 136MB

Tracklist:
1.Eos 02:10
2.Ends of Time, Pt. 1 04:16
3.Ends of Time, Pt. 2 06:43
4.Overthrown 05:32
5.Kairos 04:41
6.Surrender Your Fears 06:41
7.Hold Forever 07:05
8.Legacy in Memory 04:30
9.Fractures 15:12
******************************
Total playing time: 56:50




[more=Extended info]Line - up:

Amie Chatterley - Bass (ex-Musta Talvi)
Matt Jones - Lead Guitars, Backing Vocals (Christgrinder (live), ex-Triaxis (live))
Gemma Lawler - Vocals, Keyboards
Adam Harris - Drums (Christgrinder (live), ex-Adremelech)

[/more]

[more=Technical info]
Input File: 01 - Eos.mp3
Channels : 2
Sample Rate : 44100
Precision : 16-bit
Duration : 00:02:10.99 = 5776571 samples = 9824.1 CDDA sectors
File Size : 5.30M
Bit Rate : 324k
Sample Encoding: MPEG audio (layer I, II or III)
Comments :
Title=Eos
Artist=Dakesis
Album=Fractures
Tracknumber=1
Year=2020
Genre=Progressive/Power Metal

[/more]

Register
(12) Alpha_Prime, aviacademy, Herrant, infiltrator, infozahist, metala, morbidangelo, nospeedlimit, Olethros, Rover, sadmannn, zhol,
Mar 28 2020, 17:51:14 Creative Waste - Condemned (2020)


*Artist: Creative Waste
*Album: Condemned
*Year: 2020
*Genre: Grindcore
*Country: Saudi Arabia
*Format: mp3@CBR320kbps
*Size: 58MB

Tracklist:
1.Blowback 02:00
2.Enemy 01:43
3.Condemned 01:48
4.The Vocal Minority 01:30
5.Obedience 03:28
6.Retribution 02:43
7.The Powers That Be 02:18
8.The New Apartheid 03:07
9.Anomie 02:45
10.The Lowest Form of Existence 02:43
******************************
Total playing time: 24:05



[more=Extended info]Line - up:
Fawaz Al-Shawaf - Vocals, Guitars, Lyrics (Deathless Anguish)
Talal Al-Shawaf - Drums (Deathless Anguish)

Guest/Session:
Omar Zainal - Bass, Guitars (Hellionight)

[/more]

[more=Technical info]
Input File: 08. The New Apartheid.mp3
Channels : 2
Sample Rate : 44100
Precision : 16-bit
Duration : 00:03:07.34 = 8261562 samples = 14050.3 CDDA sectors
File Size : 7.50M
Bit Rate : 320k
Sample Encoding: MPEG audio (layer I, II or III)
Comments :
Title=The New Apartheid
Artist=Creative Waste
Album=Condemned
Tracknumber=8
Year=2020-03-28
Genre=Grindcore

[/more]

Register
(9) alikkon, atavist, infiltrator, jollo, Leshiy666, morbidangelo, Olethros, SadistikSlayer, wgs73,
Mar 28 2020, 07:50:29 E.F.6 - The Sound Of Meat (2020)


*Artist: E.F.6
*Album: The Sound Of Meat
*Year: 2020
*Genre: Death Metal/Goregrind
*Country: United States
*Format: mp3@CBR320kbps
*Size: 69MB

Tracklist:
1.Stoolpusher 01:28
2.Into the Mouth of Machineguns 01:21
3.Through the Barrel of Omnipotence 01:16
4.Alley Apple Facelift 01:06
5.Grind Biets and Mince Miets 00:38
6.Elderly Confinement 01:24
7.Electroviscous 01:29
8.Nihilist Night Terror 01:28
9.Pop Automaton 00:52
10.Pig of a Head 01:52
11.Man Made False by Man Made Pulse 01:15
12.High Class Savages 01:20
13.Jenkem Junkie 01:27
14.Kamikaze Karpool 01:21
15.Ashtray Made of Tofu 01:17
16.Debris Ball 01:08
17.Intro of Epic Proportions 01:06
18.Forced Entrance 00:52
19.All New Noises 01:28
******************************
Total playing time: 24:08



[more=Extended info][/more]

[more=Technical info]
Input File: 09. pop automaton.mp3
Channels : 2
Sample Rate : 44100
Precision : 16-bit
Duration : 00:00:52.98 = 2336506 samples = 3973.65 CDDA sectors
File Size : 2.12M
Bit Rate : 321k
Sample Encoding: MPEG audio (layer I, II or III)
Comments :
Title=pop automaton
Artist=E.F.6
Album=the Sound of Meat
Tracknumber=9
Year=2020
Genre=Death Metal/Goregrind

[/more]

Register
(6) alikkon, andreikun, atavist, infiltrator, jollo, Olethros,
Mar 28 2020, 07:43:34 Calea Dreaming - Red Cedar Falls (2020)


*Artist: Calea Dreaming
*Album: Red Cedar Falls
*Year: 2020
*Genre: Instrumental Atmospheric Post-Black Metal
*Country: Australia
*Format: mp3@CBR320kbps
*Size: 176MB

Tracklist:
1.Red Cedar Falls
2.A Rocky Descent
3.An Aged Forest
4.Dark Gullies
5.The Lush Undergrowth
6.Wildflowers
7.Fading Light into Darkness
******************************
Total playing time: 1:13:32



[more=Technical info]
Input File: 7 - Fading Light Into Darkness.mp3
Channels : 2
Sample Rate : 44100
Precision : 16-bit
Duration : 00:14:26.69 = 38220985 samples = 65001.7 CDDA sectors
File Size : 34.7M
Bit Rate : 321k
Sample Encoding: MPEG audio (layer I, II or III)
Comments :
Title=Fading Light Into Darkness
Artist=Calea Dreaming
Album=Red Cedar Falls
Tracknumber=7
Year=2020
Genre=Instrumental Atmospheric Post-Black Metal

[/more]

Register
(8) 0x13, autumnwood, Buregon, infiltrator, kim666, Olethros, senecazm, Shadechaser,
Mar 27 2020, 19:51:39 The Great Electric Quest - Live At Freak Valley Festival [live] (2020)


*Artist: The Great Electric Quest
*Album: Live At Freak Valley Festival [live]
*Year: 2020
*Genre: Doom/Heavy Metal/Hard Rock
*Country: United States
*Format: mp3@CBR320kbps
*Size: 124MB

Tracklist:
1.In the Flesh 01:28
2.Seeker of the Flame 04:40
3.Of Earth Part I 07:54
4.Of Earth Part II 06:05
5.Of Earth Part III 02:57
6.Victim of Changes 08:22
7.The Madness 03:44
8.Heart of the Son 05:44
9.Wicked Hands 03:45
10.Highway Star 07:05
******************************
Total playing time: 51:44



[more=Extended info]Line - up:

Jared Bliss - Bass
Daniel "MuchoDrums" Velasco - Drums (Gygax)
Buddy Donner - Guitars
Tyler "T-Sweat" DIngvell - Vocals

[/more]

[more=Technical info]
Input File: 07 - The Madness.mp3
Channels : 2
Sample Rate : 44100
Precision : 16-bit
Duration : 00:03:44.25 = 9889425 samples = 16818.8 CDDA sectors
File Size : 9.07M
Bit Rate : 323k
Sample Encoding: MPEG audio (layer I, II or III)
Comments :
Title=The Madness
Artist=Great Electric Quest
Album=Live at Freak Valley Festival (Live)
Tracknumber=7
Year=2020
Genre=Doom/Heavy Metal/Hard Rock

[/more]

Register
(5) autumnwood, infiltrator, marilin, Olethros, VALERY,
Mar 27 2020, 19:18:38 Vanish - Altered Insanity [ep] (2020)


*Artist: Vanish
*Album: Altered Insanity [ep]
*Year: 2020
*Genre: Power Metal
*Country: Germany
*Format: mp3@CBR320kbps
*Size: 56MB

Tracklist:
1.The Pale King (feat. Alicja Mroczka)
2.We Become What We Are (feat. Tim Ripper Owens)
3.Disbelief (feat. Ben Galster)
4.Heaven and Hell - A Tribute to Dio and Black Sabbath
5.The Grand Design (feat. Ralf Scheepers)
******************************
Total playing time: 25:32



[more=Extended info]Line - up:

Ralf Nopper - Drums (ex-Mercadia)
Thomas Rösch - Guitars (rhythm)
Bastian Rose - Vocals, Piano, Keyboards (ex-Fireleaf)
Philipp Schönle - Guitars (lead) (ex-Legal Crime, ex-Thunderbold)
Andreas Armbruster - Bass (Forensick, ex-Cruelty)

[/more]

[more=Technical info]
Input File: 02. We Become What We Are (feat. Tim -Ripper- Owens).mp3
Channels : 2
Sample Rate : 44100
Precision : 16-bit
Duration : 00:06:00.33 = 15890553 samples = 27024.8 CDDA sectors
File Size : 14.4M
Bit Rate : 320k
Sample Encoding: MPEG audio (layer I, II or III)
Comments :
Title=We Become What We Are (feat. Tim "Ripper" Owens)
Artist=Vanish
Album=Altered Insanity (EP)
Tracknumber=2
Year=2020
Genre=Power Metal

[/more]

Register
(15) aviacademy, boby9052, dimcho0, Herrant, infiltrator, infozahist, morbidangelo, Olethros, postal67, senecazm, sergsazan, stumpheavyrock, vir2al, zhol, Сварог Барг,
Mar 27 2020, 19:01:27 Stone Machine Electric - Stone Machine Electric [compilation] (2020)


*Artist: Stone Machine Electric
*Album: Stone Machine Electric [compilation]
*Year: 2020
*Genre: Stoner Metal/Sludge
*Country: United States
*Format: flac
*Size: 97MB

Tracklist:
1.Mushroom Cloud 06:58
2.Walking Among the Blind 06:55
******************************
Total playing time: 13:53



[more=Extended info]Line - up:

Kitchens - Drums, Vocals, Keyboards
Dub - Guitars, Vocals

[/more]

Register
(3) infiltrator, marilin, Olethros,
Mar 27 2020, 18:54:11 Merged In Abyss - Attristant (2020)


*Artist: Merged In Abyss
*Album: Attristant
*Year: 2020
*Genre: Black/Death Metal
*Country: Slovakia
*Format: mp3@CBR320kbps
*Size: 126MB

Tracklist:
1.Attristant 02:13
2.Pure Nihil 05:17
3.Emptybia 05:50
4.Hate, pt. 1 02:42
5.Hate, pt. 2 04:51
6.Covenant of Violence 05:48 instrumental
7.White Death 01:40 instrumental
8.Black Life 08:59
9.Hunt on My Life 15:40
******************************
Total playing time: 53:00



[more=Extended info]Line - up:
Nullus - Vocals, Guitars, Bass, Drums (Iria, Holorem, Constipation, Fragments Of Earth)

Guest/Session:
Orfeus - Co-songwritting (track 1) (Iria, ex-Kalpa-Taru)

[/more]

[more=Technical info]
Input File: 07. White Death.mp3
Channels : 2
Sample Rate : 44100
Precision : 16-bit
Duration : 00:01:40.08 = 4413660 samples = 7506.22 CDDA sectors
File Size : 4.01M
Bit Rate : 320k
Sample Encoding: MPEG audio (layer I, II or III)
Comments :
Title=White Death
Artist=Merged In Abyss
Album=Attristant
Tracknumber=7
Year=2020
Genre=Black/Death Metal

[/more]

Register
(11) AlexSmith, alikkon, atavist, cist, infiltrator, morbidangelo, Olethros, randumbum, Shadechaser, VALERY, Сварог Барг,
Mar 27 2020, 17:51:30 Vinnum Sabbathi - Of Dimensions & Theories (2020)


*Artist: Vinnum Sabbathi
*Album: Of Dimensions & Theories
*Year: 2020
*Genre: Instrumental Stoner/Drone/Doom Metal
*Country: Mexico
*Format: mp3@CBR320kbps
*Size: 124MB

Tracklist:
1.In Search of M-Theory 09:14
2.Quantum Determinism 09:44
3.An Appraisal 04:30
4.Beyond Perturbative States 04:39
5.A Superstring Revolution I 12:46
6.A Superstring Revolution II 06:20
******************************
Total playing time: 47:13



[more=Extended info]Line - up:

Samuel - Bass (Bloodwitch)
Alberto Tamayo - Guitars (Bloodwitch)
Roman Tamayo - Samples
Gerardo Arión - Drums (Cegvera, 4 Ciénegas, Bar de Monjas)

[youtube]1mKnGAaC-sc[/youtube]

[/more]

[more=Technical info]
Input File: 03. An Appraisal.mp3
Channels : 2
Sample Rate : 44100
Precision : 16-bit
Duration : 00:04:30.49 = 11928609 samples = 20286.8 CDDA sectors
File Size : 10.8M
Bit Rate : 320k
Sample Encoding: MPEG audio (layer I, II or III)
Comments :
Title=An Appraisal
Artist=Vinnum Sabbathi
Album=of Dimensions & Theories
Tracknumber=3
Year=2020
Genre=Instrumental Stoner/Drone/Doom Metal

[/more]

Register
(6) dunkelheit, Goatlord666, infiltrator, Leshiy666, marilin, Olethros,
Mar 27 2020, 17:14:06 Telepathy - Burn Embrace (2020)


*Artist: Telepathy
*Album: Burn Embrace
*Year: 2020
*Genre: Atmospheric Sludge/Post-Metal
*Country: United Kingdom
*Format: mp3@CBR320kbps
*Size: 99MB

Tracklist:
1.Eternal Silence instrumental
2.Pariah instrumental
3.The Void in Aimless Flight instrumental
4.Black Earth instrumental
5.Aonaran instrumental
6.Sorrow Surrenders Its Crown
7.Burn Embrace
******************************
Total playing time: 43:53



[more=Extended info]Line - up:

Albert Turek - Drums, Vocals
Piotr Turek - Guitar, Vocals
Richard Powley - Guitar, Vocals
Teddy-James Driscoll - Bass, Vocals (Old Man Lizard (live), ex-Overrider, ex-Laguna Sunrise)

[/more]

[more=Technical info]
Input File: 06-telepathy-sorrow_surrenders_its_crown-de1f1e71.mp3
Channels : 2
Sample Rate : 44100
Precision : 16-bit
Duration : 00:07:29.65 = 19829433 samples = 33723.5 CDDA sectors
File Size : 18.0M
Bit Rate : 320k
Sample Encoding: MPEG audio (layer I, II or III)
Comments :
Title=Sorrow Surrenders Its Crown
Artist=Telepathy
Album=Burn Embrace
Tracknumber=6
Year=2020
Genre=Atmospheric Sludge/Post-Metal

[/more]

Register
(10) Barlak, Goatlord666, infiltrator, Kwaad, MeatWolf, Olethros, Sanctus, SatanicPanzer, Velmi, Герб,
Mar 27 2020, 09:50:12 Enzo And The Glory Ensemble - In The Name Of The World Spirit (2020)


*Artist: Enzo And The Glory Ensemble
*Album: In The Name Of The World Spirit
*Year: 2020
*Genre: Symphonic Progressive Metal
*Country: Italy
*Format: mp3@CBR320kbps
*Size: 141MB

Tracklist:
1.Precariousness
2.Nothingness (It's Everyone's Fate)
3.The Bronze Age
4.Try to Put in Pit the Fear
5.To Every Chest
6.Just in My Heart the Blame
7.I'll Add More
8.My Pillory
9.Last Weep
10.Psalm 13 (Tell Me)
11.Echo
12.One Reason
13.The SIlence Speaks for Us
******************************
Total playing time: 1:05:54

[more=Extended info][youtube]GX5jZNgY8Kk[/youtube]
[youtube]QaE8_07Sf6U[/youtube]
[youtube]elzcvzBDHpU[/youtube][/more]

[more=Technical info]
Input File: 03 - The Bronze Age.mp3
Channels : 2
Sample Rate : 44100
Precision : 16-bit
Duration : 00:04:50.11 = 12793807 samples = 21758.2 CDDA sectors
File Size : 11.7M
Bit Rate : 322k
Sample Encoding: MPEG audio (layer I, II or III)
Comments :
Title=The Bronze Age
Artist=Enzo and the Glory Ensemble
Album=In the Name of the World Spirit
Tracknumber=3
Year=2020
Genre=Symphonic Progressive Metal

[/more]

Register
(12) ace73pq, Cartman223, chipsgott, Herrant, infiltrator, infozahist, morbidangelo, Olethros, Rover, Sanctus, senecazm, Сварог Барг,
Mar 27 2020, 07:47:01 Nicumo - Inertia (2020)


*Artist: Nicumo
*Album: Inertia
*Year: 2020
*Genre: Melodic Gothic Metal/Rock
*Country: Finland
*Format: mp3@CBR320kbps
*Size: 100MB

Tracklist:
1.Three Pyres
2.Dark Rivers
3.Same Blood
4.Witch Hunt
5.Tree of Life
6.Mother and the Snake
7.Who You Are
8.Time Won't Heal
9.Black Wolf
******************************
Total playing time: 41:49



[more=Extended info]Line - up:
Sami Kotila - Bass (Seasons in Autumn Rain)
Aki Pusa - Drums, Percussion (Slow Fall)
Atte Jääskelä - Guitars
Tapio Anttiroiko - Guitars
Hannu Karppinen - Vocals

Guest/Session:
Mikko-Ilari Ojala - Saxophone

[/more]

[more=Technical info]
Input File: 09 - Black Wolf.mp3
Channels : 2
Sample Rate : 44100
Precision : 16-bit
Duration : 00:06:54.96 = 18299516 samples = 31121.6 CDDA sectors
File Size : 16.6M
Bit Rate : 321k
Sample Encoding: MPEG audio (layer I, II or III)
Comments :
Title=Black Wolf
Artist=Nicumo
Album=Inertia
Tracknumber=9
Year=2020
Genre=Melodic Gothic Metal/Rock

[/more]

Register
(13) Alpha_Prime, Cartman223, chipsgott, DenisKov, infiltrator, infozahist, leks, Olethros, robertho777, Rover, satanist666, senecazm, VALERY,
Mar 27 2020, 07:26:31 Aevum - Multiverse (2020)


*Artist: Aevum
*Album: Multiverse
*Year: 2020
*Genre: Symphonic Metal
*Country: Italy
*Format: mp3@CBR320kbps
*Size: 132MB

Tracklist:
1.The Pilgrim 03:57
2.Spark of Life 04:26
3.Tair 04:24
4.Black Honeymoon 04:15
5.The Time Machine 04:15
6.Cold Spot 05:12
7.Ulas 03:44
8.Hopeless 04:01
9.Fratricide 04:24
10.Wwill 04:12
11.Seeds 04:45
12.The Garden of Mars 04:46
13.Cessate, omai cessate 02:38
******************************
Total playing time: 54:59



[more=Extended info]Line - up:

Lord of Destruction - Guitars (rhythm)
Richard - Piano, Vocals (growls, backing)
Ian - Keyboards
Hydra - Vocals (growls) (ex-Daemusinem, ex-Eyes of Hydra)
Paul Grey Hunter - Bass
Emanuel la Croix - Guitars (Genocya)
Lucille Nightshade - Vocals (soprano) (ex-Sound Storm (live))
Cosimo De Nola - Drums (NIB, Six-Point Lead, Broken Art, ex-Dying Awkward Angel, ex-MaterDea)

[youtube]w1bPNJp9f3c[/youtube]

[/more]

[more=Technical info]
Input File: 01 - The Pilgrim.mp3
Channels : 2
Sample Rate : 44100
Precision : 16-bit
Duration : 00:03:57.08 = 10455096 samples = 17780.8 CDDA sectors
File Size : 9.54M
Bit Rate : 322k
Sample Encoding: MPEG audio (layer I, II or III)
Comments :
Title=The Pilgrim
Artist=Aevum
Album=Multiverse
Tracknumber=1
Year=2020
Genre=Symphonic Metal

[/more]

Register
(22) ace73pq, Alpha_Prime, aviacademy, Cartman223, chipsgott, death1ess, DenisKov, Goatlord666, gwar, infiltrator, infozahist, MeatWolf, metala, Olethros, Rover, senecazm, sergsazan, valera2010, varlam4, Vladimir, yuratroll, Сварог Барг,

91 Pages V   1 2 3 > » 
- Lo-Fi Version Support form
Copyrights and abuse reports form
Time is now: 31st March 2020 - 07:27:17