Welcome Guest ( Log In | Register )

История благодарностей участнику Necrokilldozer ::: Спасибо сказали: 10843 раз(а)
Дата поста: В теме: За сообщение: Спасибо сказали:
Feb 19 2019, 18:11:07 Caesarius - Dreamland [ep] (2018)


*Artist: Caesarius
*Album: Dreamland [ep]
*Year: 2018
*Genre: Power Metal
*Country: Russian Federation
*Format: flac
*Size: 124MB

Tracklist:
1. Werewolf 03:41
2. Kingdom of Fun 03:46
3. Dragon 04:31
4. Dreamland 04:04
******************************
Total playing time: 16:02



[more=Extended info]Line - up:
Sergius Harrington - Bass, Vocals (backing)
Vitaly Virbul - Drums (Вечный Страж, ex-Eihwaz, ex-Arcana Imperia)
Andrew Gluss - Guitars (lead), Vocals (backing)
Slava Salinger - Guitars (rhythm), Vocals (backing)
Vasi Lichtenberg - Vocals

Guest/Session:
Robert Raz - Vocals (backing)
Marina Khlyupina - Vocals (backing)
Federico Lucchi - Vocals (backing) (Skycrater)

[/more]

Register
(2) Rosen, satanist666,
Feb 18 2019, 18:42:07 Blind Guardian - The Tides Of War - Live At Rock Hard Festival 2016 [ep] (2018)


*Artist: Blind Guardian
*Album: The Tides Of War - Live At Rock Hard Festival 2016 [ep]
*Year: 2018
*Genre: Power Metal
*Country: Germany
*Format: mp3@CBR320kbps
*Size: 83MB

Tracklist:
1. The Tides of War 05:18
2. Lord of the Rings (live) 04:47
3. Journey Through the Dark (live) 05:05
4. Majesty (live) 07:55
5. The Bard's Song - In the Forest (live) 03:42
6. Valhalla (live) 08:31
******************************
Total playing time: 35:18



[more=Extended info]Line - up:
Hansi Kürsch - Vocals (Demons & Wizards, ex-Lucifer's Heritage, ex-Executor)
André Olbrich - Guitars (lead) (ex-Lucifer's Heritage, ex-European, ex-Zero Fault)
Marcus Siepen - Guitars (rhythm) (ex-Sinbreed)
Frederik Ehmke - Drums (Tracks 2-6) (Sinbreed, ex-Schattentantz, ex-Neoshine)
Thomen Stauch - Drums (Track 1) (Coldseed, ex-Savage Circus, ex-Heavenward, ex-Iron Savior, ex-Serious Black, ex-Stormrider, ex-Lucifer's Heritage, ex-Stranded Guns)

Guest/Session:
Matthias Ulmer - Keyboards (Track 1) (Anyone's Daughter)
Oliver Holzwarth - Bass (Track 1) (Coldseed, Abracadabra, ex-Sieges Even, ex-Looking-Glass-Self, ex-Sodom, ex-Val'Paraiso, Brutal Godz, ex-Paradox, ex-Pergana, ex-Power Quest, ex-Rhapsody of Fire, ex-Demons & Wizards (live), ex-Leaves' Eyes (live), ex-Tarja (live), ex-Chinchilla (live))
Barend Courbois - Bass (Tracks 2-6), Vocals (backing) (Tracks 2-6) (Vengeance, ex-Biss, ex-Tank)
Michael Schüren - Keyboards (Tracks 2-6), Vocals (backing) (Tracks 2-6) (Coldseed, ex-Savage Circus)
Billy King - Vocals (backing) (Track 1) (Knight Fury)
Olaf Senkbeil - Vocals (backing) (Track 1) (Jack's Hammer, Dreamtide, Prime Suspect, ex-Uli Jon Roth (live))
Hacky Hackmann - Vocals (backing) (Track 1) (Saris)

[/more]

[more=Technical info]
Input File: 06 Valhalla (Live).mp3
Channels : 2
Sample Rate : 44100
Precision : 16-bit
Duration : 00:08:31.80 = 22570204 samples = 38384.7 CDDA sectors
File Size : 20.5M
Bit Rate : 320k
Sample Encoding: MPEG audio (layer I, II or III)
Comments :
Title=Valhalla (Live)
Artist=Blind Guardian
Album=The Tides of War - Live at Rock Hard Festival 2016 (EP)
Tracknumber=6
Year=2018
Genre=Power Metal

[/more]

Register
(16) ace73pq, acundof, AHBAnep, Aresson, artscald, dulak, kostja, LEGION69, Old Vyaine, Olethros, PerYngveOhlin, recber, ripper33, Rosen, Rover, SAPOGi,
Feb 18 2019, 17:58:24 Battle Cry - 20 Años [compilation] (2018)


*Artist: Battle Cry
*Album: 20 Años [compilation]
*Year: 2018
*Genre: Heavy/Power Metal
*Country: Argentina
*Format: mp3@CBR320kbps
*Size: 91MB

Tracklist:
1. Día en llamas 05:21
2. Sorpresa de Yavi 05:06
3. Sangre para la corona 04:26
4. Fuerte como un leon 04:55
5. Guerrero 05:23
6. Renacer 05:33
7. Venganza 04:17
8. Tierra arrasada 05:38
******************************
Total playing time: 40:39



[more=Extended info]Line - up:

David Quispe - Guitars (Eneysth, Panteon)
Ezequiel Molina - Keyboards
Pedro Gennari - Vocals, Guitars (ex-Stridor, ex-Ecliptic Sunset)
Manuel Cusi - Drums (Anikilador)
Diego Moyano - Bass (Eneysth)
Leonardo Campos - Vocals

[/more]

[more=Technical info]
Input File: 03 - Sangre Para La Corona.mp3
Channels : 2
Sample Rate : 44100
Precision : 16-bit
Duration : 00:04:27.07 = 11777655 samples = 20030 CDDA sectors
File Size : 10.7M
Bit Rate : 320k
Sample Encoding: MPEG audio (layer I, II or III)
Comments :
Title=Sangre Para La Corona
Artist=Battle Cry
Album=20 Años (Compilation)
Tracknumber=03
Year=2018
Genre=Heavy / Power Metal

[/more]

Register
(5) artscald, finmetal, Olethros, Rosen, Rover,
Feb 18 2019, 17:07:25 Sardonic Wrath - Immortalized Mourning [single] (2019)


*Artist: Sardonic Wrath
*Album: Immortalized Mourning [single]
*Year: 2019
*Genre: Black/Death/Doom Metal, Ambient
*Country: United States
*Format: flac
*Size: 41MB

Tracklist:
1. Immortalized Mourning 10:00 instrumental
******************************
Total playing time: 10:00



[more=Extended info]Line - up:

Sadistic Blasphemer - All instruments (Adiatuanos, ex-Jord)

[/more]

Register
(5) artscald, marilin, Olethros, Rosen, vasiljev_sergej,
Feb 16 2019, 16:41:43 Sparkle - Life (Black Point In World) (2019)


*Artist: Sparkle
*Album: Life (Black Point In World)
*Year: 2019
*Genre: Instrumental Funeral Doom/Post-Black Metal, Dark Ambient, Post-Rock
*Country: Iran
*Format: mp3@CBR320kbps
*Size: 131MB

Tracklist:
1. Imagine the End 08:42
2. Radiant of Void 06:49
3. Never Breathe 09:55
4. Life (Black Point in World) 08:33
5. Mind on the Way Back 11:37
6. Sparkle from Inside 10:02
******************************
Total playing time: 55:38



[more=Extended info]Line - up:

Parviz Shabrang - Everything[/more]

[more=Technical info]
Input File: 04. Life (Black Point in World).mp3
Channels : 2
Sample Rate : 48000
Precision : 16-bit
Duration : 00:08:33.70 = 24657552 samples ~ 38527.4 CDDA sectors
File Size : 20.6M
Bit Rate : 321k
Sample Encoding: MPEG audio (layer I, II or III)
Comments :
Title=Life (Black Point in World)
Artist=Sparkle
Album=Life (Black Point in World)
Tracknumber=4
Year=2019
Genre=Instrumental Funeral Doom / Post-Black Metal, Dark Ambient, Post-Rock

[/more]

Register
(7) armagedeon, artscald, Rosen, SatanicPanzer, tOmV, vasiljev_sergej, Герб,
Feb 15 2019, 18:40:50 Seeking Eternity - Seeking Eternity [ep] (2019)


*Artist: Seeking Eternity
*Album: Seeking Eternity [ep]
*Year: 2019
*Genre: Melodic Death Metal
*Country: United States
*Format: flac
*Size: 94MB

Tracklist:
1. Barren Earth 08:06
2. The Weaver 03:25
******************************
Total playing time: 11:31



[more=Extended info]Line - up:

Steve Maalt - Guitars
Brittany Martin - Vocals[/more]

Register
(2) satanist666, zhol,
Feb 15 2019, 17:36:34 Born From Pain - True Love (2019)


*Artist: Born From Pain
*Album: True Love
*Year: 2019
*Genre: Hardcore
*Country: Netherlands
*Format: mp3@CBR320kbps
*Size: 78MB

Tracklist:
1. Glück auf
2. Antitown
3. New Beginnings
4. True Love
5. End of the Line
6. Live Forever
7. Bombs Away
8. City Nights
9. Suffocate
10. Rebirth
11. Unstoppable
12. Marching to the Beat of Death
******************************
Total playing time: 32:48



[more=Extended info]Line - up:

Rob Franssen - Vocals (ex-Bloodsport, ex-Feeding the Fire)
Servé Olieslagers - Guitars (ex-Blind Sight (live))
Dominik Stammen - Guitars
Max van Winkelhof - Drums (Arma Gathas, ex-Disloyal)
Tommie Gawellek - Bass [/more]

[more=Technical info]
Input File: 03. New Beginnings.mp3
Channels : 2
Sample Rate : 44100
Precision : 16-bit
Duration : 00:02:28.73 = 6558817 samples = 11154.5 CDDA sectors
File Size : 5.95M
Bit Rate : 320k
Sample Encoding: MPEG audio (layer I, II or III)
Comments :
Title=New Beginnings
Artist=Born From Pain;Chris Robson;TRC
Album=True Love
Tracknumber=3
Year=2019
Genre=Thrash Metal / Hardcore

[/more]

Register
(4) Diflock, Konst, Olethros, Tino,
Feb 15 2019, 16:40:28 Chainbreaker - Lethal Desire (2019)


*Artist: Chainbreaker
*Album: Lethal Desire
*Year: 2019
*Genre: Thrash/Speed Metal
*Country: Canada
*Format: mp3@CBR128kbps
*Size: 36MB

Tracklist:
1. Atomica 02:46
2. Born Loud 02:46
3. Chainbreaker 02:31
4. Get Yer Feed 02:50
5. Lethal Desire 02:33
6. Methalina 03:33
7. Leatherized 02:32
8. Constant Craving 02:57
9. Hellbound 03:04
10. Postmortem Dreams 02:52
11. March of the Dead 02:08
12. The List 03:39
13. Get Yer Feed * 02:51
******************************
Total playing time: 37:02



[more=Extended info]Line - up:

Al Biddle - Drums (Vanik, ex-Rammer, Dentata, Hassler, ex-Cauldron, ex-Dawn of Svarogh, ex-Toxic Holocaust, ex-Bat (live), ex-Castle (live), ex-Redeemer (live), ex-Goat Horn, ex-Diemonds)
Ian Chains - Guitars (Cauldron, ex-Thor, ex-Striker (live), ex-Volture (live))
Rob Ouellette - Vocals (ex-Burn to Black)
Phil Zeller - Bass (ex-Rammer, ex-Toxic Holocaust, ex-Kingdom of Sorrow (live))

[/more]

[more=Technical info]
Input File: 2.Born Loud.mp3
Channels : 2
Sample Rate : 44100
Precision : 16-bit
Duration : 00:02:45.98 = 7319674 samples = 12448.4 CDDA sectors
File Size : 2.66M
Bit Rate : 128k
Sample Encoding: MPEG audio (layer I, II or III)
Comments :
Title=Born Loud
Artist=Chainbreaker
Album=Lethal Desire
Tracknumber=2
Year=2019
Genre=Thrash / Speed Metal

[/more]

Register
(12) autopsy67, Beazth, boby9052, canadaspaceman, CORPSEMIXA, Diflock, gwar, metala, postal67, sergsazan, stumpheavyrock, wgs73,
Feb 15 2019, 15:54:10 Skraeckoedlan - Eorþe (2019)


*Artist: Skraeckoedlan
*Album: Eorþe
*Year: 2019
*Genre: Psychedelic Stoner Metal/Rock
*Country: Sweden
*Format: mp3@CBR320kbps
*Size: 120MB

Tracklist:
1. Guldåldern
2. Kung Mammut
3. Creature of Doggerland
4. Angelica
5. Mammutkungens barn
6. Elfenbenssalarna
7. Tentakler och betar
8. Angra Mainyu
******************************
Total playing time: 50:24




[more=Extended info]Line - up:

Tim Ångström - Bass
Martin Larsson - Drums
Robert Lamu - Guitars, Vocals
Henrik Grüttner - Guitars

[/more]

[more=Technical info]
Input File: 07. Tentakler Och Betar.mp3
Channels : 2
Sample Rate : 44100
Precision : 16-bit
Duration : 00:03:55.77 = 10397501 samples = 17682.8 CDDA sectors
File Size : 9.43M
Bit Rate : 320k
Sample Encoding: MPEG audio (layer I, II or III)
Comments :
Title=Tentakler Och Betar
Artist=Skraeckoedlan
Album=Eorpe
Tracknumber=7
Year=2019
Genre=Psychedelic Stoner Metal / Rock

[/more]

Register
(9) artscald, Immolator, Leshiy666, marilin, Olethros, Rosen, stub888, Tular, VALERY,
Feb 14 2019, 18:22:45 Atversus - Puerta De Tierra (2018)


*Artist: Atversus
*Album: Puerta De Tierra
*Year: 2018
*Genre: Melodic Power Metal
*Country: Mexico
*Format: mp3@CBR320kbps
*Size: 118MB

Tracklist:
1. Destino errante 01:15 instrumental
2. Dogmas 05:22
3. Eterna Luz 06:11
4. La furia en mi 05:19
5. Fuga 06:09
6. Omen in tenebris 01:08 instrumental
7. Entre el cielo y la luna 05:09
8. Instantes 04:56
9. Delirio fugaz 05:20
10. Mi Fuerza eras tu 04:51
11. Memorias de eternidad 06:12
12. En un mar de estrellas 02:15 instrumental
******************************
Total playing time: 54:07



[more=Extended info]Line - up:

Pablo Arjona - Bass (ex-Versus)
Eduardo Pérez - Drums (ex-Überhate, ex-Versus)
Germán Encalada - Guitars (ex-Versus)
Adderly Torres - Guitars (ex-Versus)
Roger Contreras - Keyboards (ex-Versus)
David Arjona - Vocals (ex-Versus)

[/more]

[more=Technical info]
Input File: 02 - Dogmas.mp3
Channels : 2
Sample Rate : 44100
Precision : 16-bit
Duration : 00:05:22.53 = 14223485 samples = 24189.6 CDDA sectors
File Size : 12.9M
Bit Rate : 320k
Sample Encoding: MPEG audio (layer I, II or III)
Comments :
Title=Dogmas
Artist=Atversus
Album=Puerta de Tierra
Tracknumber=02
Year=2018
Genre=Melodic Power Metal

[/more]

Register
(6) artscald, Herrant, Olethros, Rosen, Rover, varlam4,
Feb 14 2019, 17:47:33 Misotheist - Gone [single] (2019)


*Artist: Misotheist
*Album: Gone [single]
*Year: 2019
*Genre: Melodic Death/Black Metal
*Country: United States
*Format: flac
*Size: 81MB

Tracklist:
1. gone 14:11
******************************
Total playing time: 14:11



[more=Extended info]Line - up:

James Moore - All instruments, Vocals (Ass, Dethtruck, ex-Blood Magistrate)

[/more]

Register
(2) vasiljev_sergej, Vidder242,
Feb 14 2019, 17:32:54 Snorlax & Drugoth - The Spirit Of Darkness [split] (2019)


*Artist: Snorlax & Drugoth
*Album: The Spirit Of Darkness [split]
*Year: 2019
*Genre: Blackened Death Metal | Black Metal/Crust
*Country: Australia | Australia
*Format: flac
*Size: 58MB

Tracklist:
Snorlax:
1. Malignant Force ov Darkness 03:05
Drugoth:
2. Plashnak 00:32
3. Sharohom 00:48
4. Nar Agon Ar Shara 01:03
******************************
Total playing time: 5:28



Register
(2) vasiljev_sergej, Герб,
Feb 13 2019, 17:44:06 Dustborn - MMXVIII [ep] (2019)


*Artist: Dustborn
*Album: MMXVIII [ep]
*Year: 2019
*Genre: Symphonic Death Metal
*Country: Czech Republic
*Format: flac
*Size: 124MB

Tracklist:
1. Depths 04:46
2. In The Mountains 04:23
3. Mind Astray 04:06
4. Catching Fire 02:35
******************************
Total playing time: 15:50



[more=Extended info]Line - up:

Vlajda - Bass (Desire for Sorrow)
Bimbo - Drums (Desire for Sorrow)
Dan Kališ - Guitars (Arthemion)
Johny - Keyboards, Vocals (Desire for Sorrow)
Venca - Vocals [/more]

Register
(3) Ice Gnoll, mirotvorets, zhol,
Feb 10 2019, 15:30:35 Malignitas - Versunken Im Morast [ep] (2019)


*Artist: Malignitas
*Album: Versunken Im Morast [ep]
*Year: 2019
*Genre: Raw Black Metal
*Country: Germany
*Format: mp3@CBR320kbps
*Size: 43MB

Tracklist:
1. Vom Gedanken... 04:38
2. Versunken im Morast 04:01
3. Licht! 05:27
4. Leid und Elend 04:02
******************************
Total playing time: 18:08



[more=Extended info]FLAC RIP[/more]

[more=Technical info]
Input File: 02. Versunken im Morast.mp3
Channels : 2
Sample Rate : 48000
Precision : 16-bit
Duration : 00:04:01.06 = 11570832 samples ~ 18079.4 CDDA sectors
File Size : 9.65M
Bit Rate : 320k
Sample Encoding: MPEG audio (layer I, II or III)
Comments :
Title=Versunken im Morast
Artist=Malignitas
Album=Versunken im Morast (EP)
Tracknumber=2
Year=2019
Genre=Raw Black Metal

[/more]

Register
(10) artscald, Olethros, Ostinato, Rosen, satanist666, SilentNidhogg, stub888, VALERY, varlam4, vasiljev_sergej,
Feb 9 2019, 20:09:55 Endless Floods - Circle The Gold (2019)


*Artist: Endless Floods
*Album: Circle The Gold
*Year: 2019
*Genre: Sludge/Drone/Doom Metal
*Country: France
*Format: mp3@CBR128kbps
*Size: 38MB

Tracklist:
1. Circle the Gold 18:26
2. Seeds 20:31
******************************
Total playing time: 38:57



[more=Extended info]Line - up:

Stéphane - Bass, Vocals (Monarch)
Benjamin - Drums (Monarch (live), Amarzakill, Futurons, Rip it After Me, ex-Marble Chariot, ex-Antifun Krieg)
Simon - Guitars
Jérôme Album - Guitars

[/more]

[more=Technical info]
Input File: 01 - Circle The Gold.mp3
Channels : 2
Sample Rate : 44100
Precision : 16-bit
Duration : 00:18:26.19 = 48782891 samples = 82964.1 CDDA sectors
File Size : 17.7M
Bit Rate : 128k
Sample Encoding: MPEG audio (layer I, II or III)
Comments :
Title=Circle The Gold
Artist=Endless Floods
Album=Circle The Gold
Tracknumber=1
Year=2019
Genre=Sludge / Drone / Doom Metal

[/more]

Register
(1) marilin,
Feb 9 2019, 17:56:40 Encoffinized - Chambers Of Deprivation (2019)


*Artist: Encoffinized
*Album: Chambers Of Deprivation
*Year: 2019
*Genre: Death Metal/Grindcore
*Country: United States
*Format: mp3@CBR128kbps
*Size: 22MB

Tracklist:
1. Rotting Away 04:20
2. Interdimensional Abominations of The Dark Abyss 03:03
3. Metamorphic Putrefaction 03:32
4. Crushed at the Left Hand 03:25
5. Funeral 03:32
6. Stillborn Embryonic Death 02:08
7. Chambers of Deprivation 02:39
******************************
Total playing time: 22:39



[more=Extended info]Line - up:

Max "Rutan" Baxter - Unknown
Chris "Father Mullet" Johnson - Unknown

[/more]

[more=Technical info]
Input File: 02 Interdimensional Abominations of The Dark Abyss.mp3
Channels : 2
Sample Rate : 44100
Precision : 16-bit
Duration : 00:03:03.67 = 8099627 samples = 13774.9 CDDA sectors
File Size : 2.94M
Bit Rate : 128k
Sample Encoding: MPEG audio (layer I, II or III)
Comments :
Title=Interdimensional Abominations Of The Dark Abyss
Artist=Encoffinized
Album=Chambers Of Deprivation
Tracknumber=2
Year=2019
Genre=Death Metal / Grindcore

[/more]

Register
(2) artscald, jollo,
Feb 9 2019, 17:35:24 Sepulchral Whore - Chamber Of Fear [single] (2019)


*Artist: Sepulchral Whore
*Album: Chamber Of Fear [single]
*Year: 2019
*Genre: Death Metal
*Country: Brazil
*Format: flac
*Size: 57MB

Tracklist:
1. Chamber of Fear 03:36
2. Wondering into Wounds * 03:30
******************************
Total playing time: 7:06



[more=Extended info]Line - up:

Necrospinal - Bass, Vocals (ex-Stormblood, ex-R.I.P. Soldier, ex-Ratos e Baratas)
C. Le Sorcier - Drums (ex-Beast Conjurator, ex-Bonebreaker, ex-Radiação Bestial, ex-Whipstriker (live), ex-Seven Candles)
Nyarlathotep IV - Guitars (ex-Beast Conjurator, ex-R.I.P. Soldier, ex-Alcoholocausto, ex-Bonebreaker, ex-MadDög (live))
Pestmeester - Guitars (Horror Face)

[/more]

Register
(1) Occultas,
Feb 8 2019, 19:28:07 Asphodelus - Stygian Dreams (2019)


*Artist: Asphodelus
*Album: Stygian Dreams
*Year: 2019
*Genre: Doom/Death Metal
*Country: Finland
*Format: mp3@CBR128kbps
*Size: 41MB

Tracklist:
1. Les Océanides (Intro) 02:37
2. Lamentation of the Lost Sou 04:43
3. Scent of Venus 04:33
4. The Hourglass Infernal 05:33
5. Delusions ad Astra 05:03
6. Stygian Dreaming 06:29
7. Sleep of Eternity 04:51
8. Where Freezing Spirits Fall 08:37
******************************
Total playing time: 42:26



[more=Extended info]Line - up:
J. Filppu - Bass, Guitars, Vocals (Repression, ex-Cemetery Fog)
V. Kettunen - Drums (ex-Cemetery Fog)
J. Väyrynen - Guitars (ex-Cemetery Fog)

Guest/Session:
Tomi Pekkola - Keyboards (Locust Year, Paganus)

[/more]

[more=Technical info]
Input File: 08. Where Freezing Spirits Fall.mp3
Channels : 2
Sample Rate : 44100
Precision : 16-bit
Duration : 00:08:36.63 = 22783251 samples = 38747 CDDA sectors
File Size : 8.27M
Bit Rate : 128k
Sample Encoding: MPEG audio (layer I, II or III)
Comments :
Title=Where Freezing Spirits Fall
Artist=Asphodelus
Album=Stygian Dreams
Tracknumber=8
Year=2019
Genre=Doom / Death Metal

[/more]

Register
(7) artscald, Candlejack, marilin, metala, sarcophagus, VALERY, Герб,
Feb 8 2019, 16:30:38 Raped By Pigs - Mental Diseases And Congenital Malformation (2019)


*Artist: Raped By Pigs
*Album: Mental Diseases And Congenital Malformation
*Year: 2019
*Genre: Brutal Death Metal/Deathcore
*Country: Peru
*Format: mp3@CBR320kbps
*Size: 69MB

Tracklist:
1. Shemale Dismemberment on 69 Pieces 03:08
2. Embalmed with Worms 02:56
3. 19 Pills to Die 03:26
4. Repulsive Desires Written with Your Shit (2018) 03:35
5. Dripping Bowels Caused by Horse Cock 03:49
6. Sadistic Post-Mortem Squirts 03:52
7. Ingestment of Nasty Rotten Innards 03:35
8. Inserting Baluts on Gonorrheal Anus 04:19
******************************
Total playing time: 28:40



[more=Extended info]Line - up:

Reek - Bass
Joe Hoyle - Drums (Anal Vomit, Crownless, Desvirginizagore, Lux Ex Tenebris, ex-Two Face Sinner)
Warpig - Guitars
Mitch Vomitus - Vocals (ex-Black Bodies)

[/more]

[more=Technical info]
Input File: 08 Inserting Baluts On Gonorrheal Anus.mp3
Channels : 2
Sample Rate : 44100
Precision : 16-bit
Duration : 00:04:19.99 = 11465471 samples = 19499.1 CDDA sectors
File Size : 10.4M
Bit Rate : 320k
Sample Encoding: MPEG audio (layer I, II or III)
Comments :
Title=Inserting Baluts On Gonorrheal Anus
Artist=Raped By Pigs
Album=Mental Diseases And Congenital Malformation
Tracknumber=8
Year=2019
Genre=Brutal Death Metal / Deathcore

[/more]

Register
(8) artscald, jollo, maochen, Olethros, Rosen, scrollbar, WX419, Герб,
Feb 8 2019, 16:15:20 Rosy Vista - Unbelievable (2019)


*Artist: Rosy Vista
*Album: Unbelievable
*Year: 2019
*Genre: Heavy Metal/Hard Rock
*Country: Germany
*Format: mp3@CBR320kbps
*Size: 119MB

Tracklist:
1. Crazy 03:25
2. Sadistic Lover 03:59
3. Master of Control 03:51
4. Too Much Feeling 05:11
5. Tables Are Turned 03:57
6. Until I'm Satisfied 04:37
7. Hopatina 05:33
8. Poor Rosy 03:17
9. Sound of Your Love 03:29
10. Rockin' Through the Night 03:44
11. Changin' My Mind 04:24
12. Born to Be Wild 04:07
******************************
Total playing time: 49:34



[more=Extended info]Line - up:

Marina Hlubek - Drums
Anca Graterol - Guitars (Yargos, Ignore the Sign)
Andrea Schwarz - Vocals
Angela Mann - Bass

[/more]

[more=Technical info]
Input File: 08. Poor Rosy.mp3
Channels : 2
Sample Rate : 44100
Precision : 16-bit
Duration : 00:03:20.32 = 8834156 samples = 15024.1 CDDA sectors
File Size : 8.09M
Bit Rate : 323k
Sample Encoding: MPEG audio (layer I, II or III)
Comments :
Title=Poor Rosy
Artist=Rosy Vista
Album=Unbelievable
Tracknumber=8
Year=2019
Genre=Heavy Metal / Hard Rock

[/more]

Register
(10) artscald, aviacademy, Fatalv, Mogozoz, MеtalHead, Olethros, Rosen, Rover, varlam4, WX419,
Feb 7 2019, 18:13:26 Moonlight Prophecy - Ep Trilogy [compilation] (2019)


*Artist: Moonlight Prophecy
*Album: Ep Trilogy [compilation]
*Year: 2019
*Genre: Progressive/Power Metal
*Country: United States
*Format: mp3@CBR320kbps
*Size: 91MB

Tracklist:
1. Spellbound 03:46 instrumental
2. Eternal Oblivion 03:48
3. Witch Hunt 03:38 instrumental
4. Slip of the Knife 03:45 instrumental
5. No More Control 04:49 instrumental
6. Breaking Down 03:23 instrumental
7. The Battling Illness Jam 03:16 instrumental
8. Wind Over the Atlantic 02:35 instrumental
9. Schindler's List 03:06 instrumental
10. The Dungeon 02:36
11. Autumn Ruins 03:28
******************************
Total playing time: 38:10



[more=Extended info]FLAC RIP

Line - up:

Raphael Gazal - Vocals (Bulletback, Leviathan, Tailgunners, Children of the Beast, ex-Pastore, ex-Blaze Bayley (live))
Lawrence Wallace - All instruments (ex-Evil Divine, ex-Shadows in the Crypt, ex-Lawrence's Creation, ex-Serpent ov Old)
Mika Mage - Bass (Nihilistinen Barbaarisuus, ex-Lawrence's Creation)

[/more]

[more=Technical info]
Input File: 07. The Battling Illness Jam (Instrumental).mp3
Channels : 2
Sample Rate : 48000
Precision : 16-bit
Duration : 00:03:16.56 = 9435024 samples ~ 14742.2 CDDA sectors
File Size : 7.87M
Bit Rate : 320k
Sample Encoding: MPEG audio (layer I, II or III)
Comments :
Title=The Battling Illness Jam (Instrumental)
Artist=Moonlight Prophecy
Album=EP Trilogy (Compilation)
Tracknumber=7
Year=2019
Genre=Progressive / Power Metal

[/more]

Register
(7) artscald, csgmnk, Foneg, metala, Niknne, Olethros, Rosen,
Feb 4 2019, 17:30:10 Aldious - All Brose [ep] (2018)


*Artist: Aldious
*Album: All Brose [ep]
*Year: 2018
*Genre: Power Metal
*Country: Japan
*Format: mp3@CBR320kbps
*Size: 44MB

Tracklist:
1. Monster 03:49
2. BLOWS 04:35
3. モノクローム 04:53
4. All of You 05:22
******************************
Total playing time: 18:39




[more=Extended info]Line - up:

Sawa - Bass (The Otome, ex-Galmet)
Yoshi - Guitars (ex-Naoto Project, ex-The Otome)
Toki - Guitars (ex-Chemicaloid No.000, ex-Layla)
Re:NO - Vocals (Re:NO, ex-推定少女)
Marina - Drums

[/more]

[more=Technical info]
Input File: 04. All of You.mp3
Channels : 2
Sample Rate : 44100
Precision : 16-bit
Duration : 00:05:22.16 = 14207388 samples = 24162.2 CDDA sectors
File Size : 12.9M
Bit Rate : 320k
Sample Encoding: MPEG audio (layer I, II or III)
Comments :
Title=All of You
Artist=Aldious
Album=All Brose (EP)
Tracknumber=4
Year=2018
Genre=Power Metal

[/more]

Register
(8) artscald, csgmnk, gwar, Mogozoz, Olethros, Rosen, Rover, varlam4,
Feb 3 2019, 18:52:37 A Hero For The World - Winter Is Here (A Holiday Rock Opera Pt. 2) (2018)


*Artist: A Hero For The World
*Album: Winter Is Here (A Holiday Rock Opera Pt. 2)
*Year: 2018
*Genre: Power Metal
*Country: Philippines
*Format: mp3@CBR320kbps
*Size: 221MB

Tracklist:
1. Sound of Life 04:56
2. Act I: The Kingdom, the Power and the Glory 02:12
3. Heaven in My Arms 05:22
4. Hosianna 05:08
5. Winter Is Here 05:30
6. The Lord's Prayer 04:17
7. Act II: We Wish You a Merry Christmas 01:11
8. Santa Claus Is Comin' to Town 03:23
9. Somewhere in My Memory (From "Home Alone") 04:08
10. Campanas de Belén 03:13
11. Mele Kalikimaka (Hawaiian Christmas Song) 03:45
12. Feliz Navidad 03:20
13. O Holy Night (Symphonic Power Version) 05:00
14. The Prayer 04:44
15. Christmas Epilogue * 04:35
16. Piano Canon Improvisus 04:41 instrumental
17. Winter Is Here (Acoustic Version) 06:00
18. Himlen i min famn 05:22
19. Hosianna / Ack värmeland, du sköna (Swedish Version) 05:03
20. Winter Is Here (Instrumental Version) 05:30 instrumental
21. O Holy Night (Acoustic Piano Version) 04:55
******************************
Total playing time: 1:32:15



[more=Extended info]Line - up:

Louie Ryan - Vocals
Jacob Kaasgaard - Vocals, Keyboards

[/more]

[more=Technical info]
Input File: 03 - Heaven In My Arms.mp3
Channels : 2
Sample Rate : 44100
Precision : 16-bit
Duration : 00:05:21.43 = 14175107 samples = 24107.3 CDDA sectors
File Size : 12.9M
Bit Rate : 322k
Sample Encoding: MPEG audio (layer I, II or III)
Comments :
Title=Heaven In My Arms
Artist=A Hero for the World
Album=Winter Is Here (A Holiday Rock Opera, Pt. 2)
Tracknumber=03
Year=2018
Genre=Power Metal

[/more]

Register
(9) ace73pq, artscald, aviacademy, gwar, Herrant, Olethros, Rosen, Rover, varlam4,
Feb 3 2019, 18:29:43 Mai Yajima - Vampiress (2018)


*Artist: Mai Yajima
*Album: Vampiress
*Year: 2018
*Genre: Symphonic Power Metal
*Country: Japan
*Format: mp3@CBR320kbps
*Size: 113MB

Tracklist:
1. 箱庭
2. Velvet Rose
3. Inferno
4. Second Dead
5. 鮮紅のOverlord
6. Stargazer
7. 血の饗宴
8. 蒼色真珠
9. Requiem of Silence
10. Lunatic Isolation
11. Twilight
******************************
Total playing time: 48:04



[more=Extended info]Line - up:

つよぽん大西 - Bass (ex-マグヴェリー)
シモベ KC - Drums
ShinyA - Guitars (ex-Signal)
Kazuma - Guitars
矢島舞依 - Vocals

[youtube]RAib_e4u0Kg[/youtube]

[/more]

[more=Technical info]
Input File: 03 - Inferno.mp3
Channels : 2
Sample Rate : 44100
Precision : 16-bit
Duration : 00:03:54.05 = 10321473 samples = 17553.5 CDDA sectors
File Size : 9.41M
Bit Rate : 322k
Sample Encoding: MPEG audio (layer I, II or III)
Comments :
Title=Inferno
Artist=矢島舞依
Album=Vampiress
Tracknumber=03
Year=2018
Genre=Symphonic Power Metal

[/more]

Register
(10) artscald, aviacademy, Cartman223, gwar, Olethros, Rosen, Rover, satanist666, spiritualdecay666, zhol,
Feb 3 2019, 17:38:40 Rokugen Alice - Virtue & Vice [ep] (2018)


*Artist: Rokugen Alice
*Album: Virtue & Vice [ep]
*Year: 2018
*Genre: Neoclassical/Symphonic Metal/Rock
*Country: Japan
*Format: mp3@CBR320kbps
*Size: 61MB

Tracklist:
1. リトル・プリンセス 04:25
2. 青い体験 03:58
3. レ・ミゼラブル 04:46
4. 悪徳の栄え 04:15
5. ベニスに死す 04:11
6. Joan of Arc 03:40
******************************
Total playing time: 25:15



[more=Extended info]Line - up:

Rokugen Asuke - Arrangment, Keyboards, Lyrics
Anna Sakurai - Lyrics, Vocals (lead)

[/more]

[more=Technical info]
Input File: 3. 六弦アリス - レ・ミゼラブル.mp3
Channels : 2
Sample Rate : 44100
Precision : 16-bit
Duration : 00:04:46.82 = 12648630 samples = 21511.3 CDDA sectors
File Size : 11.5M
Bit Rate : 320k
Sample Encoding: MPEG audio (layer I, II or III)
Comments :
Title=レ・ミゼラブル
Artist=六弦アリス
Album=Virtue & Vice (EP)
Tracknumber=3
Genre=Neoclassical / Symphonic Metal / Rock

[/more]

Register
(8) artscald, Cartman223, csgmnk, gwar, Olethros, Rosen, spiritualdecay666, zhol,

56 Pages V   1 2 3 > » 
- Lo-Fi Version Support form
Copyrights and abuse reports form
Time is now: 21st February 2019 - 08:24:16