Welcome Guest ( Log In | Register )

История благодарностей участнику Necrokilldozer ::: Спасибо сказали: 13318 раз(а)
Дата поста: В теме: За сообщение: Спасибо сказали:
Yesterday, 18:34:55 David Ellefson - Sleeping Giants [compilation] (2019)


*Artist: David Ellefson
*Album: Sleeping Giants [compilation]
*Year: 2019
*Genre: Thrash/Speed Metal
*Country: United States
*Format: mp3@CBR320kbps
*Size: 163MB

Tracklist:
1. Vultures 03:31
2. Sleeping Giants 03:40
3. Hammer (Comes Down) 03:20
4. Vultures (Kristian Nairn Remix) 07:27
5. If You Were God (1993 Demo) 03:32
6. Deadman Rise (Demo) 03:11
7. I Fall (F5 Demo) 03:41
8. Bleeding (F5 Demo) 05:01
9. Why Can't We Die? (F5 Demo) 03:00
10. Dying on the Vine (F5 Demo) 03:08
11. Faded (F5 Demo) 03:17
12. Undeniable (F5 Demo) 03:41
13. Feel Your Pain (F5 Demo) 03:21
14. Out in the Rain 04:16
15. Voices 04:08
16. Like Father, like Son * 03:30
17. Home * 03:40
18. After All (Said and Done) * 03:29
******************************
Total playing time: 1:08:53



[more=Extended info]Line - up:
Thom Hazaert - Vocals (lead) (tracks 1-4)
David Ellefson - Guitars, Bass (Altitudes & Attitude, Knight Fury, Megadeth, Metal Allegiance, The Alien Blakk, ex-Temple of Brutality, Hail!, ex-Angels of Babylon, ex-Killing Machine, ex-Soulfly (live), ex-Tim Ripper Owens (live), ex-F5, ex-Fallen Angels)

Guest/Session:
John Bush - Vocals (lead) (track 5) (Armored Saint, ex-Anthrax, ex-Stone Soldier)
Eric A.K. - Vocals (additional) (track 3) (Flotsam and Jetsam, The Human Condition, ex-Dogz, ex-Dredlox)
Mark Tremonti - Guitars (track 3) (Alter Bridge, Creed, Tremonti)
Chris Poland - Guitars (track 3) (Chris Poland, ex-Damn the Machine, Ohm, OHMphrey, ex-Megadeth, ex-Circle Jerks, ex-Mumbo's Brain, ex-The New Yorkers)
David Glen Eisley - Vocals (lead) (tracks 14-18) (David Glen Eisley, Eisley/Goldy)
MC Darryl "DMC" McDaniels - Vocals (additional) (track 2) (Run-DMC)
Ken Mary - Drums (Flotsam and Jetsam, Fifth Angel, ex-Accept, ex-Chastain, ex-David T. Chastain, ex-Impellitteri, ex-James Byrd, ex-TKO, ex-Strike, ex-Alice Cooper, ex-House of Lords, ex-Magdallan, ex-Randy Hansen, ex-Soul Shock Remedy)
Steve Conley - Guitars (Flotsam and Jetsam, Tragul, F5)
Dave McClain - Drums (Sacred Reich, ex-Catalepsy, ex-Ministers of Anger, ex-Murdercar, ex-Narita, ex-S.A. Slayer, ex-Juggernaut, ex-Machine Head, ex-Mark Reale Project, ex-Seance, ex-Turbin, ex-Tyrant)
Ron "Bumblefoot" Thal - Guitars (Sons of Apollo, Altitudes & Attitude (live), ex-Awol, Art of Anarchy, Asia, Bumblefoot, ex-Guns N' Roses, ex-Legend, ex-Leonard Nimoy [Cover band], ex-Lita Ford (live))
Ilias Papadakis - Guitars (Memorain)
Ethan Brosh - Guitars (Fifth Angel, Ethan Brosh, Burning Heat, ex-Angels of Babylon)
Dave Sharpe - Guitars (End-Time Illusion, ex-Lachrymator, Dead by Wednesday, ex-Blood Has Been Shed)
Opus Lawremce - Drums (Dead by Wednesday)
Andy Martongelli - Guitars (Arthemis, Andy Martongelli, Fear of Fours, Bad Faith, ex-Power Quest, ex-Altitudes & Attitude (live), ex-Kobra and the Lotus (live))

[/more]

[more=Technical info]
Input File: 04. Vultures (Kristian Nairn Remix) (feat. Thom Hazaert).mp3
Channels : 2
Sample Rate : 44100
Precision : 16-bit
Duration : 00:07:27.32 = 19726900 samples = 33549.1 CDDA sectors
File Size : 17.9M
Bit Rate : 320k
Sample Encoding: MPEG audio (layer I, II or III)
Comments :
Title=Vultures (Kristian Nairn Remix) (feat. Thom Hazaert)
Artist=David Ellefson
Album=Sleeping Giants (Compilation)
Tracknumber=4
Year=2019
Genre=Thrash/Speed Metal

[/more]

Register
(2) infiltrator, Thrashold,
Yesterday, 14:29:29 Flooded Tomb - Safehouse Session [demo] (2019)


*Artist: Flooded Tomb
*Album: Safehouse Session [demo]
*Year: 2019
*Genre: Sludge/Stoner Metal
*Country: United States
*Format: mp3@CBR320kbps
*Size: 74MB

Tracklist:
1. Sick & Tired 04:18
2. Buried in the Blacklands 04:50
3. Gaillardia Bloom 03:14
4. Polylith 04:00
5. Pay Attention 03:39
6. White Boar 05:18
7. Grandfather's Axe 05:42
******************************
Total playing time: 31:01



[more=Extended info]FLAC RIP

Line - up:

Rob Jenkins - Bass
Scott Brouillette - Drums, Vocals (ex-Slaughter Bought)
Chris Myers - Guitars, Vocals (ex-Slaughter Bought)
Nathan Jones - Vocals, Guitars

[/more]

[more=Technical info]
Input File: 01. Sick & Tired.mp3
Channels : 2
Sample Rate : 44100
Precision : 16-bit
Duration : 00:04:18.66 = 11406686 samples = 19399.1 CDDA sectors
File Size : 10.4M
Bit Rate : 322k
Sample Encoding: MPEG audio (layer I, II or III)
Comments :
Title=Sick & Tired
Artist=Flooded Tomb
Album=Safehouse Session (Demo)
Tracknumber=1
Year=2019
Genre=Sludge/Stoner Metal

[/more]

Register
(3) alikkon, stub888, VALERY,
Jul 20 2019, 17:31:19 Brache - Sprengverdichtung/Kahlschlag [ep] (2019)


*Artist: Brache
*Album: Sprengverdichtung/Kahlschlag [ep]
*Year: 2019
*Genre: Depressive/Post-Black Metal
*Country: Germany
*Format: flac
*Size: 136MB

Tracklist:
1. IV 01:53 instrumental
2. Sprengverdichtung 03:41
3. Kahlschlag 06:00
******************************
Total playing time: 11:34



[more=Extended info]Line - up:

A. - Bass
L. - Drums, Vocals
S. - Guitars

[/more]

Register
(4) craP_cillA, infiltrator, Olethros, vasiljev_sergej,
Jul 19 2019, 17:47:05 A Hero For The World - The Lion King Rock Opera (Deluxe Extended Edition) (2019)


*Artist: A Hero For The World
*Album: The Lion King Rock Opera (Deluxe Extended Edition)
*Year: 2019
*Genre: Power Metal
*Country: Philippines
*Format: mp3@CBR128kbps
*Size: 87MB

Tracklist:
1. Circle of Life (Power Metal Version) 04:09
2. I Just Can't Wait To Be King 03:08
3. Be Prepared 03:41
4. Hakuna Matata 02:57
5. Shadowland / King of Pride Rock 05:21
6. The Lion Sleeps Tonight 03:44
7. Endless Night 04:52
8. Can You Feel The Love Tonight (Power Metal Version) 04:36
9. We Are One 04:33
10. Spirit (Epic Piano Version) 06:05
11. Circle Of Life (Epic Acoustic Version) 04:10
12. Can You Feel The Love Tonight (Rock Ballad Version) 04:37
13. We Are One (Acoustic Version) 04:51
14. The Lion Sleeps Tonight (Acoustic Version) 04:31
15. Shadowland / King of Pride Rock (Acoustic Version) 06:33
16. Love Will Find A Way (Keyboard Solo Version) 03:00
17. This Land (Instrumental) 03:00
18. Circle Of Life (Piano Acoustic Version) 04:09
19. Under The Stars (Instrumental) 03:08
20. Shadowland / King of Pride Rock (Instrumental Version) 05:21
21. Circle of Life (Heavy Metal Version) 03:53
******************************
Total playing time: 1:30:19



[more=Extended info]Line - up:

Louie Ryan - Vocals
Jacob Kaasgaard - Vocals, Keyboards

[/more]

[more=Technical info]
Input File: 19 - Under The Stars (Instrumental).mp3
Channels : 2
Sample Rate : 44100
Precision : 16-bit
Duration : 00:03:08.89 = 8330049 samples = 14166.7 CDDA sectors
File Size : 3.11M
Bit Rate : 132k
Sample Encoding: MPEG audio (layer I, II or III)
Comments :
Title=Under The Stars (Instrumental)
Artist=A Hero for the World
Album=The Lion King Rock Opera (Deluxe Extended Edition)
Tracknumber=19
Year=2019
Genre=Power Metal

[/more]

Register
(5) infiltrator, kimkayoung, metalwoman, Olethros, sergsazan,
Jul 19 2019, 17:04:12 Buzzherd - Culling The Herd [ep] (2019)


*Artist: Buzzherd
*Album: Culling The Herd [ep]
*Year: 2019
*Genre: Stoner/Sludge/Doom Metal
*Country: United States
*Format: mp3@CBR320kbps
*Size: 50MB

Tracklist:
1. Judith Goat 03:21
2. Sick Sister 03:21
3. Rabbit in a Vise 04:28
4. Strokin' Out 02:55
5. Young Goose Skin 03:44
6. Plague-Eyes 02:54
******************************
Total playing time: 20:43



[more=Extended info]Line - up:

Terry Payne - Vocals (Amenema)
Justin Dottor - Bass, Vocals
Bryan Ferencz - Guitars
Brad Jones - Drums (Amenema, ex-Necromance)

[/more]

[more=Technical info]
Input File: 01 Judith Goat.mp3
Channels : 2
Sample Rate : 44100
Precision : 16-bit
Duration : 00:03:21.65 = 8892897 samples = 15124 CDDA sectors
File Size : 8.16M
Bit Rate : 324k
Sample Encoding: MPEG audio (layer I, II or III)
Comments :
Title=Judith Goat
Artist=Buzzherd
Album=Culling The Herd (EP)
Tracknumber=1
Year=2019
Genre=Stoner/Sludge/Doom Metal

[/more]

Register
(10) ahp, infiltrator, marilin, Olethros, robertho777, Sabbathian, stub888, stumpheavyrock, TAKATAEL, VALERY,
Jul 17 2019, 18:21:12 Arcanus - Omen [ep] (2018)


*Artist: Arcanus
*Album: Omen [ep]
*Year: 2018
*Genre: Groove Metal
*Country: Spain
*Format: mp3@CBR320kbps
*Size: 52MB

Tracklist:
1. Eros 04:42
2. Alive 04:14
3. Circles 04:14
4. Liquid Sun 04:44
5. Isolated 06:51
******************************
Total playing time: 24:45



[more=Extended info]В ЛОУ

Line - up:

Pau Bonet - Drums (Ravenblood)
Victor Vallespir - Guitars
Javier Muriel - Guitars
Oscar Gallardo - Vocals
Denis Fernández - Bass (Alianza, Innvoid)

[/more]

[more=Technical info]
Input File: 02 Alive.mp3
Channels : 2
Sample Rate : 44100
Precision : 16-bit
Duration : 00:04:14.82 = 11237342 samples = 19111.1 CDDA sectors
File Size : 10.2M
Bit Rate : 320k
Sample Encoding: MPEG audio (layer I, II or III)
Comments :
Title=Alive
Artist=Arcanus
Album=Omen (EP)
Tracknumber=02
Year=2018
Genre=Groove Metal

[/more]

Register
(4) boby9052, infiltrator, Olethros, RotAnus,
Jul 17 2019, 17:45:09 Ape To God - The Head Meets The Tail (2018)


*Artist: Ape To God
*Album: The Head Meets The Tail
*Year: 2018
*Genre: Groove/Death Metal
*Country: Poland
*Format: mp3@VBR204kbps
*Size: 44MB

Tracklist:
1. We the Swine 01:44
2. Eviscerate 03:37
3. Antigodspeed 02:56
4. Circling the Drain 03:11
5. Pseudocyesis 02:31
6. Cult 03:04
7. The Truth, the Way and the Lie 03:53
8. His Name Is War 03:18
9. The Head Meets the Tail 04:13
******************************
Total playing time: 28:27



[more=Extended info]Line - up:

Przemek - Bass (Straight Hate)
Maryjan - Guitars (Heresyer, Psychophobia)
Bart - Vocals
Mrówa - Drums

[/more]

[more=Technical info]
Input File: 08 - His Name Is War.mp3
Channels : 2
Sample Rate : 44100
Precision : 16-bit
Duration : 00:03:19.89 = 8815281 samples = 14992 CDDA sectors
File Size : 5.09M
Bit Rate : 204k
Sample Encoding: MPEG audio (layer I, II or III)
Comments :
Title=ApeToGod / His Name Is War
Artist=Ape To God
Album=The Head Meets The Tail
Tracknumber=8
Year=2018
Genre=Groove/Death Metal

[/more]

Register
(4) infiltrator, KVRT, Olethros, stumpheavyrock,
Jul 17 2019, 16:36:15 Angered Crowd - Morbid Signs (2019)


*Artist: Angered Crowd
*Album: Morbid Signs
*Year: 2019
*Genre: Groove/Death Metal
*Country: Ukraine
*Format: mp3@CBR320kbps
*Size: 93MB

Tracklist:
1. Your Feist 05:08
2. Universe 04:14
3. Mongrel Dogs 05:59
4. Unsteady 04:11
5. Hell 05:49
6. No One Is You 05:45
7. Universe (Ukrainian Version) * 05:59
8. Gallows Dance (feat. Mathieu Pascal) 01:46 instrumental
******************************
Total playing time: 38:51



[more=Extended info]Line - up:
Vitaly Dubel - Bass
Vitaly Kovalchuk - Drums
Ivan Herman - Guitars
Irina Vishnevska - Vocals

Guest/Session:
Mathieu Pascal - Solo (Gorod, ex-Gorgasm)

[/more]

[more=Technical info]
Input File: 08. Universe (Ukrainian Version).mp3
Channels : 2
Sample Rate : 44100
Precision : 16-bit
Duration : 00:04:14.61 = 11228125 samples = 19095.5 CDDA sectors
File Size : 10.2M
Bit Rate : 320k
Sample Encoding: MPEG audio (layer I, II or III)
Comments :
Title=Universe (Ukrainian Version)
Artist=Angered Crowd
Album=Morbid Signs
Tracknumber=8
Year=2019
Genre=Groove/Death Metal

[/more]

Register
(4) DimON, infiltrator, Olethros, terron,
Jul 16 2019, 18:44:26 Amillennial - Live At Sv2 11-30-18 [live] (2018)


*Artist: Amillennial
*Album: Live At Sv2 11-30-18 [live]
*Year: 2018
*Genre: Heavy/Groove Metal
*Country: United States
*Format: mp3@CBR320kbps
*Size: 77MB

Tracklist:
1. Aegis 06:09
2. Sanctuary 05:57
3. Death March 04:49
4. Crossfire 06:30
5. At the Gates of Hell 04:03
6. Decimation 04:49
******************************
Total playing time: 32:17



[more=Extended info]FLAC RIP

Line - up:

Mike Schaub - Vocals Black Frost, Court of Beasts, Goatfisted, Order of Unukalhai, ex-Mast, SKIF, Stone Crow, ex-Suffer in Black)
Tom Gehde - Bass
Mike Gualderama - Guitars (ex-Casket Robbery)

[/more]

[more=Technical info]
Input File: 04. Crossfire (live at SV2).mp3
Channels : 2
Sample Rate : 44100
Precision : 16-bit
Duration : 00:06:30.09 = 17202749 samples = 29256.4 CDDA sectors
File Size : 15.7M
Bit Rate : 321k
Sample Encoding: MPEG audio (layer I, II or III)
Comments :
Title=Crossfire (live at SV2)
Artist=Amillennial
Album=Live At SV2 11-30-18 (Live)
Tracknumber=4
Year=2018
Genre=Heavy/Groove Metal

[/more]

Register
(1) Olethros,
Jul 16 2019, 18:15:17 Ambivalentt - Ambivalentt [ep] (2018)


*Artist: Ambivalentt
*Album: Ambivalentt [ep]
*Year: 2018
*Genre: Groove/Thrash Metal
*Country: Brazil
*Format: flac
*Size: 140MB

Tracklist:
1. A Nightmare to Remember 03:40
2. Corruption 04:27
3. Fearless 04:41
4. The Both Sides of War 04:43
******************************
Total playing time: 17:31



[more=Extended info]Line - up:

Werllon Meira - Bass
Marcio Lelis - Drums
Fernando Cordeiro - Guitars
Tarcísio Carvalho - Guitars
Wiliam Moura - Vocals

[/more]

Register
(2) boby9052, stumpheavyrock,
Jul 16 2019, 17:38:10 All Kings Fall - Grip Control (2018)


*Artist: All Kings Fall
*Album: Grip Control
*Year: 2018
*Genre: Groove Metal
*Country: United States
*Format: mp3@CBR320kbps
*Size: 118MB

Tracklist:
1. Wander the Gray (Reprisal) 01:49
2. More 04:23
3. Alcatraz 04:53
4. Ripped in Half 03:29
5. Coming Down 03:16
6. The Blackest of Mold 04:27
7. Choke at the Gills 03:47
8. Pulse of Panic 04:22
9. Forlorn Reflection 05:07
10. Grip Control 04:47
11. Immortal 06:04
12. Wander the Gray (Remission) 03:06
******************************
Total playing time: 49:30



[more=Extended info]Line - up:

Ian Gray - Bass, Vocals (ex-Someday I Could Kill)
Jonathan Nicewander - Drums
Mitchel Fulcer - Guitars, Vocals

[/more]

[more=Technical info]
Input File: 04 - Ripped in Half.mp3
Channels : 2
Sample Rate : 44100
Precision : 16-bit
Duration : 00:03:25.10 = 9044954 samples = 15382.6 CDDA sectors
File Size : 8.21M
Bit Rate : 320k
Sample Encoding: MPEG audio (layer I, II or III)
Comments :
Title=Ripped in Half
Artist=All Kings Fall
Album=Grip Control
Tracknumber=04
Year=2018
Genre=Groove Metal

[/more]

Register
(3) boby9052, Olethros, stumpheavyrock,
Jul 16 2019, 17:26:09 All Hail The Yeti - Highway Crosses (2018)


*Artist: All Hail The Yeti
*Album: Highway Crosses
*Year: 2018
*Genre: Southern Metal/Metalcore
*Country: United States
*Format: mp3@CBR320kbps
*Size: 99MB

Tracklist:
1. Live Everyday 03:13
2. See You Never 03:07
3. Highway Crosses 02:58
4. Slow Season 03:45
5. Felo De Se 03:30
6. Withdrawal Delirium 03:30
7. World Is Cold 04:31
8. Seymour Avenue 05:07
9. Anti-Social Media 03:01
10. Necktie Party 03:46
11. Murder Frost (interlude) 01:07
12. The Nuclear Dust 03:47
******************************
Total playing time: 41:22



[more=Extended info]Line - up:

Nick Diltz - Bass
Brian Harrah - Guitars (ex-Spitkiss)
Craw NeQuent - Guitars
Connor Garritty - Vocals
Steve White - Drums

[/more]

[more=Technical info]
Input File: 04. Slow Season.mp3
Channels : 2
Sample Rate : 44100
Precision : 16-bit
Duration : 00:03:44.88 = 9917076 samples = 16865.8 CDDA sectors
File Size : 9.00M
Bit Rate : 320k
Sample Encoding: MPEG audio (layer I, II or III)
Comments :
Title=Slow Season
Artist=All Hail The Yeti
Album=Highway Crosses
Tracknumber=4
Year=2018
Genre=Southern Metal | Metalcore

[/more]

Register
(3) Olethros, Ostinato, SatanicPanzer,
Jul 16 2019, 16:58:12 Nebula - Holy Shit (2019)


*Artist: Nebula
*Album: Holy Shit
*Year: 2019
*Genre: Stoner Rock/Metal
*Country: United States
*Format: mp3@CBR320kbps
*Size: 101MB

Tracklist:
1. Man's Best Friend 04:56
2. Messiah 04:28
3. It's All Over 04:58
4. Witching Hour 04:12
5. Fistful of Pills 01:48
6. Tomorrow Never Comes 07:11
7. Gates of Eden 03:39
8. Let's Get Lost 04:40
9. The Cry of a Tortured World 07:12
******************************
Total playing time: 43:04



[more=Extended info]Line - up:

Eddie Glass - Vocals, Guitars, Drums (ex-Fu Manchu, ex-Olivelawn)
Tom Davies - Bass, Vocals
Michael Amster - Drums (ex-Abrams)

[/more]

[more=Technical info]
Input File: 07. Gates of Eden.mp3
Channels : 2
Sample Rate : 44100
Precision : 16-bit
Duration : 00:03:39.97 = 9700501 samples = 16497.5 CDDA sectors
File Size : 8.83M
Bit Rate : 321k
Sample Encoding: MPEG audio (layer I, II or III)
Comments :
Title=Gates of Eden
Artist=Nebula
Album=Holy Shit
Tracknumber=7
Year=2019
Genre=Stoner Rock/Metal

[/more]

Register
(15) ahp, avkruchinin, Bruce, canadaspaceman, dalek, gena, kauyumari, marilin, Olethros, Ostinato, peppuzzo, robertho777, SatanicPanzer, stub888, Tular,
Jul 16 2019, 16:36:39 Against - Nueva Cultura Pesada (2018)


*Artist: Against
*Album: Nueva Cultura Pesada
*Year: 2018
*Genre: Groove Metal/Metalcore
*Country: Argentina
*Format: mp3@CBR320kbps
*Size: 96MB

Tracklist:
1. El libertador 06:27
2. La sangre de los nuestros 04:14
3. Anestesiado 04:32
4. Mas allá de la luz y la oscuridad 06:17
5. El exilio de los heroes 02:30 instrumental
6. Antagonistas 06:31
7. El encierro 04:03
8. 649 01:34 instrumental
9. El guará 04:10
******************************
Total playing time: 40:18



[more=Extended info]Line - up:
Fede Gervan - Bass (ex-Svet Kant)
Gusti Radrizzani - Drums
Seba Radrizzani - Guitars, Vocals
Ivan Metal - Guitars, Vocals

Guest/Session:
Claudio Marciello - Guitar solo on track 4 (Claudio Marciello, ex-Tronador, ex-Val Dragon, ex-Almafuerte, Ricardo Iorio, ex-Blindado (live), ex-Levas (live), ex-El Reloj, ex-Iorio y Flavio)
Emiliano Obregón - Guitar solo on track 7 (Lörihen, Alas)

[/more]

[more=Technical info]
Input File: 07. El Encierro.mp3
Channels : 2
Sample Rate : 44100
Precision : 16-bit
Duration : 00:04:03.74 = 10748890 samples = 18280.4 CDDA sectors
File Size : 9.82M
Bit Rate : 322k
Sample Encoding: MPEG audio (layer I, II or III)
Comments :
Title=El Encierro
Artist=Against
Album=Nueva Cultura Pesada
Tracknumber=7
Year=2018
Genre=Groove Metal/Metalcore

[/more]

Register
(3) Foneg, infiltrator, Olethros,
Jul 16 2019, 16:17:37 Adesa - Shades Of Memory [ep] (2018)


*Artist: Adesa
*Album: Shades Of Memory [ep]
*Year: 2018
*Genre: Groove Metal
*Country: Canada
*Format: mp3@CBR320kbps
*Size: 71MB

Tracklist:
1. Ghosts in the Shade 06:53
2. Fire, Ice, Oil, Salt 06:28
3. Mountain Man 04:47
4. By Sword...or by Water 04:55
5. Blood upon the Baltimore 07:15
******************************
Total playing time: 30:18



[more=Extended info]Line - up:
Arroll Kelly - All instruments, Songwriting (ex-3rd Born Sun, ex-Rötschreck, ex-Victorius, ex-Saorsa)
Graham Harris - Vocals, Lyrics (Hammerdrone, ex-Rötschreck, ex-Reverend Kill, ex-Genepool)

Guest/Session:
Ryan Shepherd - Drums (track 5) (Victorius, ex-Excellent Cadaver, ex-Achren, ex-Darkened Place, ex-Pariah)
Ally Kelly - Bass (track 5)[/more]

[more=Technical info]
Input File: 01. Ghosts In The Shade.mp3
Channels : 2
Sample Rate : 44100
Precision : 16-bit
Duration : 00:06:53.49 = 18234997 samples = 31011.9 CDDA sectors
File Size : 16.6M
Bit Rate : 321k
Sample Encoding: MPEG audio (layer I, II or III)
Comments :
Title=Ghosts In The Shade
Artist=Adesa
Album=Shades of Memory (EP)
Tracknumber=1
Year=2018
Genre=Groove Metal

[/more]

Register
(3) boby9052, Olethros, zhol,
Jul 15 2019, 16:52:06 Mournful Cries - Hallowed Tomb [single] (2019)


*Artist: Mournful Cries
*Album: Hallowed Tomb [single]
*Year: 2019
*Genre: Doom/Heavy Metal
*Country: United States
*Format: flac
*Size: 37MB

Tracklist:
1. Hallowed Tomb 05:22
******************************
Total playing time: 5:22



[more=Extended info]Line - up:

Matt Lasserre - Bass (Scrape the Earth)
Alex Hernandez - Drums
Luis Olguin - Guitars, Vocals (Sepulchre)

[/more]

Register
(3) infiltrator, Olethros, SAPOGi,
Jul 13 2019, 17:39:29 Faith Ov Gestalgt - Japanese Jinjya [ep] (2019)


*Artist: Faith Ov Gestalgt
*Album: Japanese Jinjya [ep]
*Year: 2019
*Genre: Raw Black Metal/Noise
*Country: Japan
*Format: mp3@CBR320kbps
*Size: 46MB

Tracklist:
1. 神社
2. 大きな木
******************************
Total playing time: 19:25



[more=Extended info]Line - up:

Uroboros - Everything (冥無幻妖、「忌み双児」, ex-Bloodsport Fairy Tale, 市姫, 幻妖雛)

[/more]

[more=Technical info]
Input File: 01. 神社.mp3
Channels : 2
Sample Rate : 44100
Precision : 16-bit
Duration : 00:08:48.10 = 23289078 samples = 39607.3 CDDA sectors
File Size : 21.1M
Bit Rate : 320k
Sample Encoding: MPEG audio (layer I, II or III)
Comments :
Title=??
Artist=Faith ov Gestalgt
Album=Japanese JINJYA (EP)
Tracknumber=1
Year=2019
Genre=Raw Black Metal/Noise

[/more]

Register
(3) Olethros, SilentNidhogg, vasiljev_sergej,
Jul 13 2019, 16:47:26 Demon Goat - Scathe (2019)


*Artist: Demon Goat
*Album: Scathe
*Year: 2019
*Genre: Black/Doom Metal
*Country: United States
*Format: mp3@CBR320kbps
*Size: 113MB

Tracklist:
1. Circadian Decay 07:16
2. Lucifer's Den 08:11
3. Shapeless Entities 08:07
4. Vacant 06:14
5. Lord of Slog 10:03
6. Pointless Ritual, Worthless Soul 07:12
******************************
Total playing time: 47:03



[more=Technical info]
Input File: 01. Circadian Decay.mp3
Channels : 2
Sample Rate : 44100
Precision : 16-bit
Duration : 00:07:17.00 = 19271832 samples = 32775.2 CDDA sectors
File Size : 17.5M
Bit Rate : 320k
Sample Encoding: MPEG audio (layer I, II or III)
Comments :
Title=Circadian Decay
Artist=Demon Goat
Album=Scathe
Tracknumber=1
Year=2019
Genre=Black/Doom Metal

[/more]

Register
(16) alikkon, EvilPiet, fuoco, judaz, marilin, metala, Olethros, robertho777, sergsazan, Shadechaser, SilentNidhogg, stub888, stumpheavyrock, tOmV, VALERY, vasiljev_sergej,
Jul 13 2019, 16:25:21 Pitchblack - All Black (2019)


*Artist: Pitchblack
*Album: All Black
*Year: 2019
*Genre: Melodic Death Metal/Metalcore
*Country: Russian Federation
*Format: mp3@CBR320kbps
*Size: 165MB

Tracklist:
1. Broken Oath (My Eagle Flying High) 02:48
2. I Spit Blood 05:41
3. Sorry, Little Bitch! 08:17
4. OK, Go Away! 03:33
5. Bloodred Venom Cut the Skies 04:44
6. Let's Ask the Knife? 04:41
7. This World Is Mine 05:25
8. Лучше одному, чем с долбоёбами 03:59
9. Welcome to My Graveyard! 04:47
10. Suffer! 03:22
11. Цвет настроения синий 04:46
12. Ihateu 07:54
13. The Last Cigarette 08:58
******************************
Total playing time: 1:08:55



[more=Extended info]В ЛОУ

Line - up:

MyVenom - Drums, Vocals (additional) (track 9), Vocals (clean) (track 10) (ex-Pokerface)
Katrin Child - Guitars, Vocals (Atonismen, ex-The Rinn)
Mechanix - Bass (Дивул, Химера)

[/more]

[more=Technical info]
Input File: 13. The Last Cigarette.mp3
Channels : 2
Sample Rate : 44100
Precision : 16-bit
Duration : 00:08:58.78 = 23760286 samples = 40408.6 CDDA sectors
File Size : 21.6M
Bit Rate : 320k
Sample Encoding: MPEG audio (layer I, II or III)
Comments :
Title=The Last Cigarette
Artist=PitchBlack
Album=All Black
Tracknumber=13/13
Year=2019
Genre=Melodic Death Metal / Metalcore

[/more]

Register
(3) avkruchinin, kimkayoung, Olethros,
Jul 13 2019, 06:33:13 Torche - Admission (2019)


*Artist: Torche
*Album: Admission
*Year: 2019
*Genre: Stoner Metal/Sludge/Rock
*Country: United States
*Format: mp3@CBR320kbps
*Size: 86MB

Tracklist:
1. From Here 01:38
2. Submission 02:59
3. Slide 02:52
4. What Was 01:29
5. Times Missing 05:04
6. Admission 04:00
7. Reminder 02:58
8. Extremes of Consciousness 02:58
9. On the Wire 03:18
10. Infierno 03:31
11. Changes Come 05:13
******************************
Total playing time: 36:00



[more=Extended info]Line - up:

Jon Nunez - Guitars (Shitstorm, ex-Adore Miridia, ex-Tyranny of Shaw)
Rick Smith - Drums (Caveman Cult, Cavity, Field, House of Lightning, Shitstorm, ex-Mehkago N.T., ex-Tunes for Bears to Dance to, ex-Tyranny of Shaw)
Steve Brooks - Guitars, Vocals (Floor, ex-Cavity)
Andres Ascanio - Bass

[/more]

[more=Technical info]
Input File: 02 Submission.mp3
Channels : 2
Sample Rate : 48000
Precision : 16-bit
Duration : 00:02:58.85 = 8584848 samples ~ 13413.8 CDDA sectors
File Size : 7.19M
Bit Rate : 322k
Sample Encoding: MPEG audio (layer I, II or III)
Comments :
Title=Submission
Artist=Torche
Album=Admission
Tracknumber=2
Year=2019
Genre=Stoner/Sludge Metal/Rock

[/more]

Register
(14) 666days, avkruchinin, fishish, FUDEDOR, gena, infiltrator, Leshiy666, marilin, Olethros, robertho777, SatanicPanzer, stub888, Tular, Tyrone,
Jul 13 2019, 05:47:37 Mind Key - Mkiii - Aliens In Wonderland (2019)


*Artist: Mind Key
*Album: Mkiii - Aliens In Wonderland
*Year: 2019
*Genre: Progressive Metal
*Country: Italy
*Format: mp3@CBR320kbps
*Size: 136MB

Tracklist:
1. Alien in Wonderland
2. Hank (The Blazing Eyes)
3. Hate at First Sight
4. Angry Men
5. Hands Off Cain
6. Be-Polar
7. Oblivion
8. Psycho World
9. Vertigo (Where the Cold Wind Blows)
10. Pure He/Art
11. Non-Existence
******************************
Total playing time: 57:42



[more=Extended info]FLAC RIP

Line - up:

Lucio Grilli - Bass (ex-Soul Secret)
Mirkko DeMaio - Drums
Emanuele Colella - Guitars
Dario De Cicco - Keyboards (ex-Silent Field)
Aurelio Fierro Jr. - Vocals



[youtube]bxHBmpnmUcY[/youtube][/more]

[more=Technical info]
Input File: 02. Hank (The Blazing Eyes).mp3
Channels : 2
Sample Rate : 44100
Precision : 16-bit
Duration : 00:04:41.46 = 12412474 samples = 21109.6 CDDA sectors
File Size : 11.3M
Bit Rate : 320k
Sample Encoding: MPEG audio (layer I, II or III)
Comments :
Title=Hank (The Blazing Eyes)
Artist=Mind Key
Album=MK III - Aliens in Wonderland
Tracknumber=2
Year=2019
Genre=Progressive Metal

[/more]

Register
(7) ace73pq, andgrek28, Corpuscul, csgmnk, infiltrator, metala, Olethros,
Jul 12 2019, 14:58:43 Theatre Of Tragedy - Remixed [compilation] (2019)


*Artist: Theatre Of Tragedy
*Album: Remixed [compilation]
*Year: 2019
*Genre: Industrial/Electronica, Gothic Metal/Rock
*Country: Norway
*Format: mp3@CBR320kbps
*Size: 175MB

Tracklist:
1. And When He Falleth (Das Ich Remix)
2. Black as the Devil Painteth (Das Ich Remix)
3. Lorelei (Icon of Coil Remix)
4. Reverie (Current Remix)
5. Machine (VNV Nation Remix)
6. Envision (Conetik Remix)
7. Let You Down (Rico Darum & Superdead Remix)
8. Motion (Funker Vogt Remix)
9. Storm (Zeromancer Remix)
10. Fade (Pride and Fall Remix)
11. Frozen (Ambrosius Remix)
12. Deadland (Tommy Olsson Remix)
13. Forever Is the World (Siva Six Remix)
******************************
Total playing time: 1:13:17

[more=Extended info][youtube]HZF3xIqCQ2Q[/youtube]
[youtube]oZVHTgtD2BU[/youtube][/more]

[more=Technical info]
Input File: 12. Deadland (Tommy Olsson Remix).mp3
Channels : 2
Sample Rate : 44100
Precision : 16-bit
Duration : 00:04:47.55 = 12680911 samples = 21566.2 CDDA sectors
File Size : 11.5M
Bit Rate : 320k
Sample Encoding: MPEG audio (layer I, II or III)
Comments :
Title=Deadland (Tommy Olsson Remix)
Artist=Theatre Of Tragedy
Album=Remixed (Compilation)
Tracknumber=12
Year=2019
Genre=Industrial/Electronica, Gothic Metal/Rock

[/more]

Register
(20) 6666666, A.L.Rapsod, Alpha_Prime, buttholesurfer, cancer1974, Cartman223, csgmnk, dafya328, Evjenne, gwar, infiltrator, kimkayoung, metalfaze, metalwoman, nadin85, Olethros, recber, robertho777, sayfut, thenecromancer,
Jul 7 2019, 19:09:47 A.N.I.M.A.L. - Una Razón Para Seguir (2018)


*Artist: A.N.I.M.A.L.
*Album: Una Razón Para Seguir
*Year: 2018
*Genre: Groove/Nu-Metal
*Country: Argentina
*Format: mp3@CBR320kbps
*Size: 85MB

Tracklist:
1. Una razón para seguir 03:48
2. Nuestro estilo 03:50
3. Todos somos parte 05:07
4. Naturaleza audaz 04:15
5. Elección 04:18
6. Criminales de la libertad 04:38
7. Fieles 03:47
8. Realidad 04:05
9. Por siempre 04:52
******************************
Total playing time: 38:40



[more=Extended info]Line - up:

Andrés Giménez - Vocals, Guitars (De la Tierra, ex-Dia de los Muertos, ex-Beso Negro, ex-D-Mente)
Cristian "Titi" Lapolla - Bass (ex-Raptor, ex-Simbiosis)
Marcelo Castro - Drums (ex-Buffalo, ex-JesusMartyr, ex-Ritual, ex-Wizard)



[youtube]55lbx9eu8oM[/youtube][/more]

[more=Technical info]
Input File: 07 - Fieles.mp3
Channels : 2
Sample Rate : 44100
Precision : 16-bit
Duration : 00:03:46.31 = 9980447 samples = 16973.5 CDDA sectors
File Size : 9.14M
Bit Rate : 323k
Sample Encoding: MPEG audio (layer I, II or III)
Comments :
Title=Fieles
Artist=A.N.I.M.A.L
Album=Una Razón para Seguir
Tracknumber=7
Genre=Groove/Nu-Metal

[/more]

Register
(4) gwar, Olethros, Rosen, wreak,
Jul 7 2019, 15:58:01 Striborg - An Existential Burden (2019)


*Artist: Striborg
*Album: An Existential Burden
*Year: 2019
*Genre: Coldwave/Electronic
*Country: Australia
*Format: mp3@CBR320kbps
*Size: 95MB

Tracklist:
1. As Life Fades Away (Album Version) 08:32
2. Empty Sorrow 09:58
3. In the Darkest Recesses of Your Mind 05:27 instrumental
4. The Burden of Existence 08:31
5. Seratonin Depletion 07:16
******************************
Total playing time: 39:44



[more=Extended info]Line - up:

Sin Nanna - All instruments, Vocals (ex-Azimuth, ex-Cromlech, ex-Pentemple, ex-Baalphegor, ex-Kathaaria, ex-Krucifior, Veil of Darkness, ex-M.S.I.)

[/more]

[more=Technical info]
Input File: 02. Empty Sorrow.mp3
Channels : 2
Sample Rate : 44100
Precision : 16-bit
Duration : 00:09:58.42 = 26390454 samples = 44881.7 CDDA sectors
File Size : 24.0M
Bit Rate : 321k
Sample Encoding: MPEG audio (layer I, II or III)
Comments :
Title=Empty Sorrow
Artist=Striborg
Album=An Existential Burden
Tracknumber=2
Year=2019
Genre=Blackened Coldwave/Electronic

[/more]

Register
(10) Boozer, gwar, Occultas, Olethros, recber, Reverend, the_cleanser, Torolv, vovan4ic, wtk.412,
Jul 6 2019, 17:04:46 Foray Between Ocean - As Serenity Drowned (2019)


*Artist: Foray Between Ocean
*Album: As Serenity Drowned
*Year: 2019
*Genre: Progressive Death Metal/Deathcore
*Country: Greece
*Format: mp3@CBR320kbps
*Size: 102MB

Tracklist:
1. The Prelude of Black
2. Exhumation of My Misery's Uncorrupted Remains
3. Visions of an Epileptic Eye
4. Under a Thousamd Scars
5. Glance of the Eyeless
6. Deep Inside the Void
7. Katavasis (The Fall of Man)
8. World of Flesh and Teeth
9. Where Forever Dies
10. Beyond the Sea of Absence
******************************
Total playing time: 46:16



[more=Extended info]Line - up:

Elias Boozeas - Bass (ex-Sorrowful Angels)
Kostas Milonas - Drums (A-I-E-A, Braveride, Major Denial, Sunburst, Night Shadows (live), ex-Outloud, ex-Paradox)
Themis "Fad" Ioannou - Guitars
Stefanos Kaisarhs - Guitars
John Toussas - Vocals

[/more]

[more=Technical info]
Input File: 06. Deep Inside the Void.mp3
Channels : 2
Sample Rate : 44100
Precision : 16-bit
Duration : 00:04:53.09 = 12925137 samples = 21981.5 CDDA sectors
File Size : 11.8M
Bit Rate : 322k
Sample Encoding: MPEG audio (layer I, II or III)
Comments :
Title=Deep Inside the Void
Artist=Foray Between Ocean
Album=As Serenity Drowned
Tracknumber=6
Year=2019
Genre=Progressive Death Metal/Deathcore

[/more]

Register
(8) GorAtheist, kimkayoung, Old Vyaine, Olethros, respect, Rosen, VALERY, wreak,

66 Pages V   1 2 3 > » 
- Lo-Fi Version Support form
Copyrights and abuse reports form
Time is now: 23rd July 2019 - 16:22:10