Welcome Guest ( Log In | Register )

История благодарностей участнику Necrokilldozer ::: Спасибо сказали: 26655 раз(а)
Дата поста: В теме: За сообщение: Спасибо сказали:
Sep 12 2020, 20:08:07 Monobrow - Dyatlov Station Viii [single] (2020)


*Artist: Monobrow
*Album: Dyatlov Station Viii [single]
*Year: 2020
*Genre: Instrumental Doom/Stoner Metal/Psychedelic Rock
*Country: Canada
*Format: flac
*Size: 66MB

Tracklist:
1. Dyatlov Station VIII 05:35
******************************
Total playing time: 5:35



[more=Extended info]Line - up:

Sam Beydoun - Bass
Brian Ahopelto - Drums
Paul Slater - Guitars (ex-Sir Hedgehog)

[/more]

Register
(4) infiltrator, Olethros, Rosen, Wail,
Sep 12 2020, 19:29:19 Intolerance - Laments From The Dripstone Cave (2020)


*Artist: Intolerance
*Album: Laments From The Dripstone Cave
*Year: 2020
*Genre: Death Metal
*Country: Spain
*Format: flac
*Size: 139MB

Tracklist:
1. Intro 00:50 instrumental
2. Morbid Creations 02:53
3. Ashes in the Shadows 03:05
4. Astral Grave 02:26
5. Lamentations 04:00
6. Crypt of Sorrow 03:41
7. Eternal Void 03:35
******************************
Total playing time: 20:30



[more=Extended info]Line - up:

J. - Bass
D. - Drums (ex-Hellräisers, ex-Liver Destroyer)
W. - Guitars (Chagrin, Duumviratus)
C. - Vocals (Duumviratus)

[/more]

Register
(7) infiltrator, jollo, Olethros, Rosen, Wail, wanderer73, wn129aa,
Sep 11 2020, 19:02:42 Mastodon - Medium Rarities [compilation] (2020)


*Artist: Mastodon
*Album: Medium Rarities [compilation]
*Year: 2020
*Genre: Sludge/Progressive Metal/Rock
*Country: United States
*Format: mp3@CBR320kbps
*Size: 167MB

Tracklist:
1. Fallen Torches 04:22
2. A Commotion (Feist cover) 04:14
3. Asleep in the Deep 06:12 instrumental
4. Capillarian Crest (Live) 04:20
5. A Spoonful Weighs a Ton (The Flaming Lips cover) 03:27
6. Toe to Toes 04:28 instrumental
7. Circle of Cysquatch (Live) 03:15
8. Atlanta (Butthole Surfers cover) 03:25
9. Jaguar God 07:55 instrumental
10. Cut You Up with a Linoleum Knife 01:50
11. Blood & Thunder (Live) 03:52
12. White Walker 04:20
13. Halloween 04:38 instrumental
14. Crystal Skull (Live) 03:25
15. Orion (Metallica cover) 08:15 instrumental
16. Iron Tusk (Live) 02:48
******************************
Total playing time: 1:10:46



[more=Extended info]Collection of rarities and b-sides. Track 1 is a previously unreleased "new" song.

Line - up:
Troy Sanders - Bass, Keyboards, Vocals (Killer Be Killed, Thin Lizzy (live), ex-Social Infestation, Gone Is Gone, ex-Four Hour Fogger, ex-Knuckle, ex-Puaka Balava)
Brann Dailor - Drums, Vocals (ex-Evisceration, ex-Lethargy, Arcadea, Fiend Without a Face, ex-Gaylord, ex-Today Is the Day)
Brent Hinds - Guitars, Vocals (Fiend Without a Face, Giraffe Tongue Orchestra, Legend of the Seagullmen, The Blood Vessels, West End Motel, ex-Four Hour Fogger)
Bill Kelliher - Guitars, Vocals (backing) (ex-Lethargy, Primate, ex-Butterslax, ex-Girdle, ex-Today Is the Day)

Guest/Session:
Scott Kelly - Unknown (track 1) (Neurosis, Corrections House, Scott Kelly, Mastodon (live), Blood & Time, Shrinebuilder, Tribes of Neurot, Absent in Body, Hayward, Mirrors for Psychic Warfare, Razors in the Night, The Road Home, ex-Scott Kelly and The Road Home, ex-Violent Coercion)
Gibby Haynes - Unknown (track 8) (Butthole Surfers, Gibby Haynes and His Problem)

[youtube]Mqh_9g_UgI0[/youtube]
[youtube]HrFN0htHxnw[/youtube]
[youtube]W0zGcFwMrkk[/youtube]

[/more]

[more=Technical info]
Input File: 11. Blood & Thunder (Live).mp3
Channels : 2
Sample Rate : 44100
Precision : 16-bit
Duration : 00:03:52.61 = 10258101 samples = 17445.8 CDDA sectors
File Size : 9.31M
Bit Rate : 320k
Sample Encoding: MPEG audio (layer I, II or III)
Comments :
Title=Blood & Thunder (Live)
Artist=Mastodon
Album=Medium Rarities (Compilation)
Tracknumber=11
Year=2020
Genre=Sludge/Progressive Metal/Rock

[/more]

Register
(16) Aresson, boby9052, caro, dunkelvarg, gena, Hovnoliaty, infiltrator, Mares, Olethros, ripper33, Rosen, sludge666, stumpheavyrock, VALERY, Vintersorg, Yanek,
Sep 11 2020, 18:13:53 Slit Your Gods - Dogmatic Convictions Of Human Decrepitude [ep] (2020)


*Artist: Slit Your Gods
*Album: Dogmatic Convictions Of Human Decrepitude [ep]
*Year: 2020
*Genre: Brutal Death Metal
*Country: International
*Format: flac
*Size: 131MB

Tracklist:
1. Cult of Supreme Blasphemy 04:32
2. Dragged by the Cross 03:42
3. Scapulars of Human Decay 05:36
******************************
Total playing time: 13:50



[more=Extended info]Line - up:

Oscar M. - Bass (Arthropodal Humanicide, Scrumptious Putrescence, ex-Funeral Bitch, Foetidus, Obesus Sperpentus, ex-Imbrue)
Roman Tyutin - Drums (Esophageal, Infibulated, Scatology Secretion, Symbiothic, ByoNoiseGenerator, Skii, ex-Cranial Osteotomy, ex-Psychopathic, ex-Lethality, ex-Coherent Souls Orchestra)
Santi Gzlez - Guitars (Rex Devs, Sad Eyes, ex-Virginal Desire)
Rod M. - Guitars (Arthropodal Humanicide, Laceratory, Putreseminal Viscosity, Scrumptious Putrescence, ex-Funeral Bitch, Obesus Sperpentus, Slashing the Slammers, ex-Imbrue, ex-Cadaverized Ferocity)
Jordi Mora - Vocals (Avgrunn, Fall of Mankind)

[/more]

Register
(3) infiltrator, Olethros, Rosen,
Sep 9 2020, 16:41:31 Flesh Of Enslavement - 2020 Demo [demo] (2020)


*Artist: Flesh Of Enslavement
*Album: 2020 Demo [demo]
*Year: 2020
*Genre: Progressive Death Metal
*Country: United States
*Format: flac
*Size: 54MB

Tracklist:
1. Detrimental Delirium 03:48
2. Praise the Obscene 03:15
******************************
Total playing time: 7:03



[more=Extended info]Line - up:

Anders - Drums
Ryan - Guitar
Patrick - Saxophone
Isaac - Vocals[/more]

Register
(6) Borya_Tvorogov, infiltrator, Mares, Olethros, Rosen, stumpheavyrock,
Sep 6 2020, 18:46:13 Fractured Planet - Event Horizon (2020)


*Artist: Fractured Planet
*Album: Event Horizon
*Year: 2020
*Genre: Instrumental Progressive Metal
*Country: United Kingdom
*Format: mp3@CBR320kbps
*Size: 123MB

Tracklist:
1. State of Emergency 05:04
2. We Are One 06:10
3. Devastator 06:00
4. Panic Attack 05:26
5. Vault of Glass 05:40
6. Endless Waves 06:21
7. New Beginning 05:40
8. Sigma 05:29
9. Event Horizon 05:46
******************************
Total playing time: 51:36



[more=Technical info]
Input File: 6 - Endless Waves.mp3
Channels : 2
Sample Rate : 44100
Precision : 16-bit
Duration : 00:06:21.59 = 16828295 samples = 28619.5 CDDA sectors
File Size : 15.3M
Bit Rate : 320k
Sample Encoding: MPEG audio (layer I, II or III)
Comments :
Title=Endless Waves
Artist=Fractured Planet
Album=Event Horizon
Tracknumber=6
Year=2020
Genre=Instrumental Progressive Metal

[/more]

Register
(8) chipsgott, csgmnk, infiltrator, metala, Niknne, Olethros, Rosen, thecyclops,
Sep 6 2020, 17:41:00 Grium - Smrti Vánok [demo] (2020)


*Artist: Grium
*Album: Smrti Vánok [demo]
*Year: 2020
*Genre: Black Metal
*Country: Slovakia
*Format: flac
*Size: 89MB

Tracklist:
1. Smrť zvíťazí 04:42
2. S večnosťou hmoty navek 03:16
3. Sprievod umrlcov 03:21
******************************
Total playing time: 11:19



Register
(6) infiltrator, kim666, Olethros, Rosen, vasiljev_sergej, Wail,
Sep 6 2020, 17:33:57 Forest Of The Renounced - Психастения [ep] (2020)


*Artist: Forest Of The Renounced
*Album: Психастения [ep]
*Year: 2020
*Genre: Depressive Black Metal
*Country: Russian Federation
*Format: mp3@CBR320kbps
*Size: 35MB

Tracklist:
1. Intro 01:29
2. Дефензивность 04:38
3. Деперсонализация 03:11
4. Комплекс неполноценности 03:53
5. Outro 01:46
******************************
Total playing time: 14:57



[more=Extended info]FLAC RIP[/more]

[more=Technical info]
Input File: 02. Дефензивность.mp3
Channels : 2
Sample Rate : 44100
Precision : 16-bit
Duration : 00:04:38.12 = 12265004 samples = 20858.9 CDDA sectors
File Size : 11.1M
Bit Rate : 320k
Sample Encoding: MPEG audio (layer I, II or III)
Comments :
Title=Äåôåíçèâíîñòü
Artist=Forest of the Renounced
Album=Ïñèõàñòåíèÿ (EP)
Tracknumber=2
Year=2020
Genre=Depressive Black Metal

[/more]

Register
(10) 1968_janeart, infiltrator, kim666, Olethros, randumbum, robertho777, Rosen, SilentNidhogg, VALERY, vasiljev_sergej,
Sep 6 2020, 17:09:58 Amoxet - The Unfathomable Abstract [ep] (2020)


*Artist: Amoxet
*Album: The Unfathomable Abstract [ep]
*Year: 2020
*Genre: Black Metal
*Country: United States
*Format: flac
*Size: 52MB

Tracklist:
1. The Unfathomable Abstract 03:51
2. Away from Towards 02:21
******************************
Total playing time: 6:12



Register
(4) infiltrator, Olethros, Rosen, vasiljev_sergej,
Sep 5 2020, 18:42:26 Toxic Carnage - Nuclear Addiction [single] (2020)


*Artist: Toxic Carnage
*Album: Nuclear Addiction [single]
*Year: 2020
*Genre: Thrash Metal
*Country: Brazil
*Format: flac
*Size: 150MB

Tracklist:
1. Nuclear Addiction 02:04
2. Nuclear Strike 2020 04:45
3. Nuclear Winter 05:43
******************************
Total playing time: 12:32



[more=Extended info]Line - up:

Bruna Ferreira - Bass
Robson Dionisio - Vocals, Guitars (rhythm) (Meatkutter)
Bruno Tarzan - Drums (Afoite)
Roberlei - Guitars (lead) (Fly Hi)

[youtube]Cmrm7cTGGKs[/youtube]

[/more]

Register
(4) boby9052, infiltrator, Olethros, Rosen,
Sep 4 2020, 09:16:52 Sumokem - Prajnaparadha (2020)


*Artist: Sumokem
*Album: Prajnaparadha
*Year: 2020
*Genre: Stoner/Doom Metal
*Country: United States
*Format: mp3@CBR320kbps
*Size: 128MB

Tracklist:
1. Prologue 03:13
2. Nihang 09:31
3. Parak-Dar 11:06
4. Sadhu 12:11
5. Fakir 08:07
6. Khizer 09:05
******************************
Total playing time: 53:13



[more=Extended info]Line - up:

Drew Skarda - Drums (Construction of Light)
Jacob Sawrie - Guitars (rhythm), Vocals (Nightspake (live))
Dustin Weddle - Bass (Ash of Cedars, Snakedriver, Sun Descends Black, Nightspake (live), ex-Seahag)
Tyler Weaver - Guitars (lead)

[/more]

[more=Technical info]
Input File: 04 - Sadhu.mp3
Channels : 2
Sample Rate : 44100
Precision : 16-bit
Duration : 00:12:11.00 = 32237100 samples = 54825 CDDA sectors
File Size : 29.3M
Bit Rate : 320k
Sample Encoding: MPEG audio (layer I, II or III)
Comments :
Title=Sadhu
Artist=Sumokem
Album=Prajnaparadha
Tracknumber=4
Year=2020-04-09
Genre=Stoner/Doom Metal

[/more]

Register
(9) HMHamster, infiltrator, marilin, Olethros, Rosen, stub888, stumpheavyrock, TAKATAEL, VALERY,
Sep 4 2020, 08:34:17 Serpent Omega - Ii (2020)


*Artist: Serpent Omega
*Album: Ii
*Year: 2020
*Genre: Sludge/Doom Metal
*Country: Sweden
*Format: mp3@CBR320kbps
*Size: 92MB

Tracklist:
1. Orog Nuur 06:17
2. Land of Darkness 04:24
3. Rivers of Riversed 08:10
4. Through the Gates 03:53
5. Chthonic 07:12
6. At the Mountain Edge 05:08
7. Av Aska 03:23
******************************
Total playing time: 38:27



[more=Extended info]Line - up:

Tomas - Bass (ex-Burnher)
Andreas "Jonsson" Westholm - Guitars (Blackest, Edin Na Zu, Seid)
Urskogr - Vocals
Peter Stjärnvind - Drums (Merciless, Pest, VOJD, ex-Born of Fire, ex-Damnation, ex-Murder Squad, ex-Krux, ex-Black Trip, ex-Entombed, ex-Nifelheim, ex-Unanimated, ex-Candlemass (live), ex-Face Down, ex-Regurgitate, ex-Loud Pipes, ex-Mörbit)

[/more]

[more=Technical info]
Input File: 04 - Through the Gates.mp3
Channels : 2
Sample Rate : 44100
Precision : 16-bit
Duration : 00:03:53.00 = 10275300 samples = 17475 CDDA sectors
File Size : 9.34M
Bit Rate : 321k
Sample Encoding: MPEG audio (layer I, II or III)
Comments :
Title=Through the Gates
Artist=Serpent Omega
Album=II
Tracknumber=4
Year=2020-04-09
Genre=Sludge/Doom Metal

[/more]

Register
(17) 555, BandR75, garmonbozia, HMHamster, infiltrator, kauyumari, Leshiy666, marilin, Morgoth, older68, Olethros, robertho777, Rosen, smes, stub888, stumpheavyrock, VALERY,
Sep 4 2020, 07:40:52 Hell In The Club - Hell Of Fame (2020)


*Artist: Hell In The Club
*Album: Hell Of Fame
*Year: 2020
*Genre: Heavy Metal/Hard Rock
*Country: Italy
*Format: mp3@CBR320kbps
*Size: 104MB

Tracklist:
1. We’ll Never Leave the Castle 05:11
2. Worst Case Scenario 03:32
3. Here Today, Gone Tomorrow 03:49
4. Joker 03:43
5. Last of an Undying Kind 03:36
6. Nostalgia 03:57
7. Lullaby for an Angel 04:30
8. Mr. Grouch 03:42
9. No Room in Hell 03:51
10. Tokyo Lights 03:36
11. Lucifer's Magic 04:46
******************************
Total playing time: 44:13

[more=Extended info]Line - up:

Andrea "Andy" Buratto - Bass (Eternal Idol, Secret Sphere, Ace of Hearts)
Andrea "Picco" Piccardi - Guitars (lead) (ex-Seventhrone, ex-Wrathchild)
Davide "Dave" Moras - Vocals (Elvenking, ex-Leprechaun)
Marco Lazzarini - Drums (Archon Angel, Odd Dimension, Secret Sphere, Svart Vold, ex-Denial (live), ex-Overtures (live))

[youtube]CY-fiyFQ9NY[/youtube]
[youtube]jkmJfKrkV-Y[/youtube]

[/more]

[more=Technical info]
Input File: 04. Joker.mp3
Channels : 2
Sample Rate : 44100
Precision : 16-bit
Duration : 00:03:43.99 = 9877915 samples = 16799.2 CDDA sectors
File Size : 8.96M
Bit Rate : 320k
Sample Encoding: MPEG audio (layer I, II or III)
Comments :
Title=Joker
Artist=Hell in the Club
Album=Hell of Fame
Tracknumber=4
Year=2020
Genre=Heavy Metal/Hard Rock

[/more]

Register
(15) ace73pq, after21allD, aviacademy, Darkness, infiltrator, infozahist, Lamby90, Lukittaz, metala, Morgoth, Olethros, postal67, Rosen, Rover, vir2al,
Sep 4 2020, 07:29:59 South Of No North - Phagocity (2020)


*Artist: South Of No North
*Album: Phagocity
*Year: 2020
*Genre: Groove Metal
*Country: Italy
*Format: mp3@CBR320kbps
*Size: 110MB

Tracklist:
1. D15F16UR3D
2. Inimical
3. Heil Seitan
4. Nonceferatu
5. I.N.O.F.Y.C.M.
6. Cinder
7. Indie Ass
8. Decapitalism
9. Command
10. Black in Back
11. Klaatu Barada Nikto
12. (DISC OHM 4TH)
******************************
Total playing time: 45:32



[more=Extended info]Line - up:

Ciro Troisi - Drums (Turma)
Roberto Tarallo - Guitars, Bass (Scuorn (live))
Giulio Mirabella - Vocals, Lyrics (ex-Abyss of Decay)

[/more]

[more=Technical info]
Input File: 04 - Nonceferatu.mp3
Channels : 2
Sample Rate : 44100
Precision : 16-bit
Duration : 00:04:37.00 = 12215700 samples = 20775 CDDA sectors
File Size : 11.1M
Bit Rate : 321k
Sample Encoding: MPEG audio (layer I, II or III)
Comments :
Title=Nonceferatu
Artist=South Of No North
Album=Phagocity
Tracknumber=4
Year=2020-04-09
Genre=Groove Metal

[/more]

Register
(5) infiltrator, Lukittaz, Olethros, Rosen, stumpheavyrock,
Sep 4 2020, 06:14:41 Black Sun - Silent Enemy [ep] (2020)


*Artist: Black Sun
*Album: Silent Enemy [ep]
*Year: 2020
*Genre: Power Metal
*Country: Ecuador
*Format: mp3@CBR320kbps
*Size: 50MB

Tracklist:
1. Moebius 02:14
2. Resist 03:47
3. Terror Zone 03:48
4. Dark Mirror 04:29
5. No Return 00:31
6. Still Alive 04:16
7. Finale 01:33
******************************
Total playing time: 20:38

[more=Extended info]Line - up:
Santiago Salem - Bass
Nicolás Estrada - Drums
Christopher Gruenberg - Guitars

Guest/Session:
Tony Kakko - Vocals (Sonata Arctica, Raskasta Joulua, ex-Tricky Means, Northern Kings, ex-Apocalyptica (live), ex-Nightwish (live))
Mr. Lordi - Vocals (Lordi, ex-Tuska20, ex-Wanda Whips Wall Street)
Noora Louhimo - Vocals (female) (Battle Beast, ex-Tuska20, Mute Swans, ex-Kamelot (live))
Pasi Rantanen - Vocals (Thunderstone, Raskasta Joulua, Strike, ex-Tuska20, ex-Lordi (live), ex-King Company)
Elias Viljanen - Guitars (Sonata Arctica, Elias Viljanen, Klingenberg Syndrome, ex-Depravity, ex-The Enemy, ex-Mess, ex-Astral, ex-Sigillum Diaboli)
Jukka Pelkonen - Vocals (Omnium Gatherum, Elenium)
Asim Searah - Guitars (Damnation Plan, Cantilena, Selfblind, Wintersun (live), Killer Kachina, ex-Kiuas, ex-The Nibiruan)
Topias Kupiainen - Drums (In Victory, Arion, Tuomas Norjanen Project)
Henning Basse - Vocals (Henning Basse, Orpheus Blade, Mayan (live), ex-Errantry, ex-Metalium, ex-Karmaflow (live), ex-Hypnoside, ex-Bourbon Street, Skyline, ex-Brainstorm, ex-Firewind, ex-Gamma Ray (live), ex-Gus G. (live), ex-Sons of Seasons)
Petri Lindroos - Unknown (Ensiferum, ex-Norther)
JF Aguirre - Guitars

[youtube]MAxRlkkHOrw[/youtube]

[/more]

[more=Technical info]
Input File: 04 - Dark Mirror.mp3
Channels : 2
Sample Rate : 44100
Precision : 16-bit
Duration : 00:04:29.00 = 11862900 samples = 20175 CDDA sectors
File Size : 10.8M
Bit Rate : 321k
Sample Encoding: MPEG audio (layer I, II or III)
Comments :
Title=Dark Mirror
Artist=Black Sun
Album=Silent Enemy (EP)
Tracknumber=4
Year=2020-04-09
Genre=Power Metal

[/more]

Register
(11) after21allD, DTGB, HMHamster, infiltrator, Lukittaz, metalwoman, Olethros, Olrak, Rosen, Rover, terron,
Sep 2 2020, 08:57:38 Stryper - Even The Devil Believes (2020)


*Artist: Stryper
*Album: Even The Devil Believes
*Year: 2020
*Genre: Heavy Metal, Hard Rock
*Country: United States
*Format: mp3@CBR320kbps
*Size: 104MB

Tracklist:
1. Blood from Above 03:21
2. Make Love Great Again 05:53
3. Let Him In 03:52
4. Do unto Others 04:39
5. Even the Devil Believes 04:35
6. How to Fly 04:09
7. Divider 03:30
8. This I Pray 04:29
9. Invitation Only 03:32
10. For God & Rock 'n' Roll 04:06
11. Middle Finger Messiah 04:21
******************************
Total playing time: 46:27

[more=Extended info]Line - up:
Robert Sweet - Drums, Percussion (Dbeality, Menchen, Subdux, The Seventh Power, ex-Redeemer, ex-Rev Seven, ex-Roxx Regime, ex-Titanic, ex-Final Axe, ex-Blank, ex-blissed, ex-King James, ex-Lithium X, ex-Robert Sweet)
Oz Fox - Guitars, Vocals (Bloodgood, ex-Roxx Regime, DiMino, Let It Rawk, ex-Sin Dizzy)
Michael Sweet - Vocals (lead), Guitars (Michael Sweet, ex-Roxx Regime, Sweet & Lynch, ex-Boston)
Perry Richardson - Bass, Vocals (ex-Maxx Warrior, ex-Firehouse, ex-Nantucket, ex-Craig Morgan (live), ex-Trace Adkins (live))

Guest/Session:
Paul McNamara - Keyboards, Organ, Moog
Keith Pittman - Vocals (backing)

[youtube]1DkLHDWGkV0[/youtube]
[youtube]id28Zepqh2c[/youtube]

[/more]

[more=Technical info]
Input File: 02 Make Love Great Again.mp3
Channels : 2
Sample Rate : 44100
Precision : 16-bit
Duration : 00:05:53.80 = 15602492 samples = 26534.9 CDDA sectors
File Size : 14.2M
Bit Rate : 320k
Sample Encoding: MPEG audio (layer I, II or III)
Comments :
Title=Make Love Great Again
Artist=Stryper
Album=Even the Devil Believes
Tracknumber=2
Year=2020
Genre=Heavy Metal, Hard Rock

[/more]

Register
(27) ace73pq, after21allD, AHBAnep, Antkh, caro, Dark Sage, grimoir, gwar, Herrant, HMHamster, infiltrator, infozahist, Jorn777, JPV, Kasper969, lucifix, Lukittaz, Mares, metala, NappyRob, Olethros, Rosen, seinto, skinnyboo, smes, tschunioronbeer, varlam4,
Aug 31 2020, 18:59:02 Immortal Rotting - Decayed Demos 2020 [demo] (2020)


*Artist: Immortal Rotting
*Album: Decayed Demos 2020 [demo]
*Year: 2020
*Genre: Death/Doom Metal
*Country: United States
*Format: flac
*Size: 90MB

Tracklist:
1. Pieces on Earth 03:38
2. Realm of Mutated Cannibals 05:31
3. Crazed Elk 05:47
4. The Papal Kidnapping 06:08
******************************
Total playing time: 21:04



[more=Extended info]Line - up:

Keith Christhunter - Guitars (Glory in Decay)
John Corpse - Guitars, Vocals, Bass, Programming (Glory in Decay)

[/more]

Register
(7) infiltrator, Olethros, Rosen, sergsazan, stumpheavyrock, Wail, wanderer73,
Aug 31 2020, 18:40:23 Mortifère - Actus Fidei [ep] (2020)


*Artist: Mortifère
*Album: Actus Fidei [ep]
*Year: 2020
*Genre: Black Metal
*Country: France
*Format: mp3@CBR320kbps
*Size: 49MB

Tracklist:
1. I 04:05
2. II 08:21
3. III 08:03
******************************
Total playing time: 20:29



[more=Technical info]
Input File: 01. I.mp3
Channels : 2
Sample Rate : 44100
Precision : 16-bit
Duration : 00:04:05.72 = 10836428 samples = 18429.3 CDDA sectors
File Size : 9.85M
Bit Rate : 321k
Sample Encoding: MPEG audio (layer I, II or III)
Comments :
Title=I
Artist=Mortifere
Album=Actus Fidei (EP)
Tracknumber=1
Year=2020
Genre=138

[/more]

Register
(20) 1968_janeart, aleon, DarkHorde, garmonbozia, grimoir, Gylve, infiltrator, kim666, kranger, Moonshtook, Olethros, randumbum, robertho777, Rosen, SilentNidhogg, squall8fr, stub888, thenecromancer, VALERY, vasiljev_sergej,
Aug 31 2020, 07:39:03 Night Quill - Eastern Sun [ep] (2020)


*Artist: Night Quill
*Album: Eastern Sun [ep]
*Year: 2020
*Genre: Black Metal
*Country: United States
*Format: mp3@CBR320kbps
*Size: 59MB

Tracklist:
1. A Spell Below | Pain Mosaic 07:46
2. Suckling Sirens 03:27
3. Spiritual Beating 04:42
4. Daymare 04:48
5. Nicotine Meadows 04:18
******************************
Total playing time: 25:01



[more=Extended info]Line - up:

L - Bass, Vocals
C - Drums
J - Guitars, Vocals[/more]

[more=Technical info]
Input File: 01. A Spell Below Pain Mosaic.mp3
Channels : 2
Sample Rate : 44100
Precision : 16-bit
Duration : 00:07:46.73 = 20582881 samples = 35004.9 CDDA sectors
File Size : 18.7M
Bit Rate : 320k
Sample Encoding: MPEG audio (layer I, II or III)
Comments :
Title=A Spell Below | Pain Mosaic
Artist=Night Quill
Album=Eastern Sun (EP)
Tracknumber=1
Year=2020
Genre=138

[/more]

Register
(14) 1968_janeart, caro, El_Chibo, grimoir, infiltrator, kim666, randumbum, robertho777, Rosen, SilentNidhogg, stub888, VALERY, vasiljev_sergej, wreak,
Aug 31 2020, 07:34:24 Yarek Ovich - Introversion (2020)


*Artist: Yarek Ovich
*Album: Introversion
*Year: 2020
*Genre: Depressive Black Metal
*Country: Ukraine
*Format: mp3@CBR320kbps
*Size: 103MB

Tracklist:
1. Intro 01:16 instrumental
2. Gone with Autumn Leaves 05:39
3. See the Sun 06:00
4. Introversion 06:42
5. In Alienation You'll Find a Way 07:19
6. A Starless Sky 05:37
7. Shatters 06:25
8. Spirituelles Equilibrium (Totalselfhated cover) 04:52
******************************
Total playing time: 43:50



[more=Extended info]Line - up:

Yarek Ovich - Everything (Miellnir)

[/more]

[more=Technical info]
Input File: 07. Shatters.mp3
Channels : 2
Sample Rate : 44100
Precision : 16-bit
Duration : 00:06:25.33 = 16993053 samples = 28899.8 CDDA sectors
File Size : 15.4M
Bit Rate : 320k
Sample Encoding: MPEG audio (layer I, II or III)
Comments :
Title=Shatters
Artist=Yarek Ovich
Album=Introversion
Tracknumber=7
Year=2020
Genre=Depressive Black Metal

[/more]

Register
(21) 1968_janeart, atavist, autumnwood, Bregon, Clitoriduss, gav-gafi, infernallord, infiltrator, krotovich, metala, Morgoth, Olethros, randumbum, rimfrost, robertho777, Rosen, Shadechaser, SilentNidhogg, VALERY, vasiljev_sergej, wreak,
Aug 29 2020, 15:47:16 Heavy Temple & Wolf Blood - Split From The Black Hole [split] (2020)


*Artist: Heavy Temple & Wolf Blood
*Album: Split From The Black Hole [split]
*Year: 2020
*Genre: Psychedelic Doom Metal | Doom/Sludge/Stoner Metal
*Country: United States | United States
*Format: flac
*Size: 107MB

Tracklist:
Heavy Temple:
1. Hit It and Quit It 04:43
Wolf Blood:
2. I've Got a Thing, You've Got a Thing, Everybody's Got a Thing 05:38
******************************
Total playing time: 10:21



Register
(4) infiltrator, Rosen, vlad74, Wail,
Aug 29 2020, 15:14:13 Death Divine - Affliction (2020)


*Artist: Death Divine
*Album: Affliction
*Year: 2020
*Genre: Melodic Death Metal/Metalcore
*Country: United Kingdom
*Format: mp3@CBR320kbps
*Size: 100MB

Tracklist:
1. Breaking Out of Hell
2. Desire
3. The Calling
4. Without You
5. So Sick
6. No Hope
7. Loneliness
8. Affliction
******************************
Total playing time: 41:55



[more=Extended info]Line - up:
Daniel Peat - Vocals, Guitars

Guest/Session:
Elisha Martin - Vocals (additional) (track 4)

[/more]

[more=Technical info]
Input File: 05 - So Sick.mp3
Channels : 2
Sample Rate : 44100
Precision : 16-bit
Duration : 00:05:51.50 = 15501150 samples = 26362.5 CDDA sectors
File Size : 14.1M
Bit Rate : 320k
Sample Encoding: MPEG audio (layer I, II or III)
Comments :
Title=So Sick
Artist=Death Divine
Album=Affliction
Tracknumber=5
Year=2020
Genre=Melodic Death Metal/Metalcore

[/more]

Register
(10) DenisKov, infiltrator, Lukittaz, Mares, Olethros, Rosen, TeamatSE, VALERY, wreak, zhol,
Aug 27 2020, 18:10:38 Cavern - Powdered (2020)


*Artist: Cavern
*Album: Powdered
*Year: 2020
*Genre: Progressive Sludge/Thrash Metal
*Country: United States
*Format: mp3@CBR320kbps
*Size: 60MB

Tracklist:
1. River 03:36
2. Grey 05:24
3. Powdered 02:38
4. Red Moon 03:22
5. Dove 05:07
6. Face Before the Flood 04:45
******************************
Total playing time: 24:52



[more=Extended info]Line - up:

Stephen Schrock - Drums (ex-Highpriest)
Zach Harkins - Guitars, Synth
Rose Heater - Vocals, Bass

[/more]

[more=Technical info]
Input File: 03. Powdered.mp3
Channels : 2
Sample Rate : 44100
Precision : 16-bit
Duration : 00:02:38.26 = 6979310 samples = 11869.6 CDDA sectors
File Size : 6.33M
Bit Rate : 320k
Sample Encoding: MPEG audio (layer I, II or III)
Comments :
Title=Powdered
Artist=Cavern
Album=Powdered
Tracknumber=3
Year=2020
Genre=Progressive Sludge/Thrash Metal

[/more]

Register
(13) ahp, boby9052, caro, infiltrator, metala, Morgoth, Olethros, Ostinato, Rosen, sludge666, stumpheavyrock, wreak, yuratroll,
Aug 27 2020, 17:33:24 Panzerfaust - The Suns Of Perdition - Chapter II: Render Unto Eden (2020)


*Artist: Panzerfaust
*Album: The Suns Of Perdition - Chapter II: Render Unto Eden
*Year: 2020
*Genre: Black Metal
*Country: Canada
*Format: mp3@CBR320kbps
*Size: 105MB

Tracklist:
1. Promethean Fire 10:22
2. The Faustian Pact 08:10
3. Areopagitica 07:34
4. The Snare of the Fowler 09:54
5. Pascal's Wager 08:00
******************************
Total playing time: 44:00



[more=Extended info]Line - up:
Kaizer - Guitars
Goliath - Vocals
Thomas Gervais - Bass
Alexander Kartashov - Drums

Guest/Session:
Maria "Masha" Arkhipova - Vocals (track 1) (Аркона)

[/more]

[more=Technical info]
Input File: 02 - The Faustian Pact.mp3
Channels : 2
Sample Rate : 44100
Precision : 16-bit
Duration : 00:08:09.83 = 21601327 samples = 36737 CDDA sectors
File Size : 19.6M
Bit Rate : 320k
Sample Encoding: MPEG audio (layer I, II or III)
Comments :
Title=The Faustian Pact
Artist=Panzerfaust
Album=The Suns of Perdition - Chapter II: Render Unto Eden
Tracknumber=2
Year=2020
Genre=138

[/more]

Register
(62) 1968_janeart, ahp, alikkon, atavist, BERZERK, Bitchkiller, BladeOvDarkness, canadaspaceman, caro, cesar, El_Chibo, Fallen Soul, fateefffddd, garml2, gena, grimoir, hellbibber, INDARKNESS, infernallord, infiltrator, JD666Hellion, judaz, kim666, Lamby90, legion01, Mares, meggido1, metal73, Metalass, Morgoth, multizwilling, nadin85, nemx, nsk2008, Olethros, randumbum, Reverend, robertho777, Rosen, RUDACHUR, sabbracadabra, sabr, sacrut, SaintVitus, SAPOGi, Scorpi, SilentNidhogg, singrad, smes, StabWound, stub888, Surt, toly1917, VALERY, vasiljev_sergej, Vidyadharov, vov7609, wreak, xska, yuratroll, zotyo1975, Нигилист,
Aug 27 2020, 08:19:15 Venomous Concept - Politics Versus The Erection (2020)


*Artist: Venomous Concept
*Album: Politics Versus The Erection
*Year: 2020
*Genre: Hardcore Punk
*Country: United States
*Format: mp3@CBR320kbps
*Size: 80MB

Tracklist:
1. Simian Flu 03:20
2. Hole in the Ground 00:53
3. Eliminate 02:00
4. Lemonade 03:42
5. Colossal Failure 03:20
6. Promise 03:24
7. Septic Mind 03:15
8. Dementia Degeneration 02:24
9. Carrion 02:17
10. Broken Teeth 02:09
11. Shadows 02:46
12. Mantis Toboggan 01:36
13. Politics Versus the Erection 02:37
******************************
Total playing time: 33:43



[more=Extended info]Line - up:

Shane Embury - Bass (Absolute Power, Bent Sea, Born to Murder the World, Brujeria, Hicks Kinison, Insidious Disease, Lock Up, Menace, Napalm Death, Tronos, War of the Second Dragon, ex-Antichrist, ex-Azagthoth, ex-Intestinal Infestation, ex-Meathook Seed, ex-Unseen Terror, ex-Warhammer, Blood from the Soul, Dark Sky Burial, Mutation, ex-Liquid Graveyard, ex-Anaal Nathrakh (live), ex-Drop Dead, ex-Malformed Earthborn)
Danny Herrera - Drums (Napalm Death, ex-Anaal Nathrakh (live))
Kevin Sharp - Vocals (Lock Up, ex-Brutal Truth, Primate, ex-S.O.B (live), ex-Damaged)
John Cooke - Guitars (Corrupt Moral Altar, Out for Blood, Vicious Bastard, War of the Second Dragon, Anaal Nathrakh (live), Napalm Death (live), ex-The Atrocity Exhibit, ex-Malevolent Creation (live), ex-Iron Witch)

[/more]

[more=Technical info]
Input File: 01. Simian Flu.mp3
Channels : 2
Sample Rate : 44100
Precision : 16-bit
Duration : 00:03:19.59 = 8801875 samples = 14969.2 CDDA sectors
File Size : 7.99M
Bit Rate : 320k
Sample Encoding: MPEG audio (layer I, II or III)
Comments :
Title=Simian Flu
Artist=Venomous Concept
Album=Politics Versus the Erection
Tracknumber=01
Year=2020
Genre=Hardcore Punk

[/more]

Register
(18) 6666666, cesar, DarkHorde, gena, gwar, infiltrator, Joey_73, lucifix, Metalass, multizwilling, oldvarg, Olethros, popen13, spazm, tschunioronbeer, VALERY, wgs73, Zhelezjaka,

113 Pages V   1 2 3 > » 
- Lo-Fi Version Support form
Copyrights and abuse reports form
Time is now: 19th September 2020 - 22:45:34