Welcome Guest ( Log In | Register )

История благодарностей участнику Necrokilldozer ::: Спасибо сказали: 5618 раз(а)
Дата поста: В теме: За сообщение: Спасибо сказали:
Today, 17:23:11 Murder Pussy - Painful Screams Of My Deceased Whore (Promo 2017) [demo] (2017)


*Artist: Murder Pussy
*Album: Painful Screams Of My Deceased Whore (Promo 2017) [demo]
*Year: 2017
*Genre: Brutal Death Metal
*Country: Colombia
*Format: mp3@CBR128kbps
*Size: 12MB

Tracklist:
1. I will Rape you on the Hell 02:36
2. I will Spit on your Grave 02:28
3. Bloody Anal Discharge 03:06
4. Menstrual Addiction 01:42
5. Painful Screams of My Deceased Whore 02:45
******************************
Total playing time: 12:37




[more=Extended info]Line - up:

Sebastian Diaz - Bass
Nicolas Bahamon - Guitars, Vocals
Yohany - Guitars (Disoluto)

[/more]

[more=Technical info]
Input File: 5. Painful Screams Of My Deceased Whore.mp3
Channels : 2
Sample Rate : 44100
Precision : 16-bit
Duration : 00:02:46.43 = 7339607 samples = 12482.3 CDDA sectors
File Size : 2.75M
Bit Rate : 132k
Sample Encoding: MPEG audio (layer I, II or III)
Comments :
Title=Painful Screams Of My Deceased Whore
Artist=Murder Pussy
Album=Painful Screams of My Deceased Whore (Promo 2017) (Demo)
Tracknumber=5
Year=2017
Genre=Brutal Death Metal

[/more]

Register
(2) Fatalist77791, Styx,
Feb 18 2018, 20:10:57 XCIII - Press Repeat (2018)


*Artist: XCIII
*Album: Press Repeat
*Year: 2018
*Genre: Avant-garde
*Country: France
*Format: mp3@CBR320kbps
*Size: 109MB

Tracklist:
1. How Is Your Life Today (Porcupine Tree cover) 03:46
2. California Dreamin' (The Mamas and the Papas cover) 05:55
3. The Wolves of Timberline (Agalloch cover) 04:12
4. Mon amour, mon ami (Marie Laforêt cover) 03:58
5. Black Spell of Destruction (Burzum cover) 04:34
6. Teardrop (Massive Attack cover) 03:35
7. Song to Say Goodbye (Placebo cover) 06:09
8. Passive (A Perfect Circle cover) 03:29
9. Blue Orchid (The White Stripes cover) 03:39
10. Revocation (XCIII cover) 06:20
******************************
Total playing time: 45:37


Metal-archives

[more=Extended info]Line - up:

Guillaume Beringer - Everything (ex-Forlon Hope)

[/more]

[more=Technical info]
Input File: 08. Passive.mp3
Channels : 2
Sample Rate : 48000
Precision : 16-bit
Duration : 00:03:29.35 = 10049040 samples ~ 15701.6 CDDA sectors
File Size : 8.38M
Bit Rate : 320k
Sample Encoding: MPEG audio (layer I, II or III)
Comments :
Title=Passive
Artist=XCIII
Album=Press Repeat
Tracknumber=8
Year=2018
Genre=Avant-garde

[/more]

Register
(2) A.L.Rapsod, VALERY,
Feb 18 2018, 17:26:47 Holorem - Ad Dolorem Infinitum [demo] (2018)


*Artist: Holorem
*Album: Ad Dolorem Infinitum [demo]
*Year: 2018
*Genre: Death/Doom Metal
*Country: Slovakia
*Format: flac
*Size: 67MB

Tracklist:
1. Ad Dolorem Infinitum 05:20
******************************
Total playing time: 5:20



[more=Extended info]Line - up:

Lukáš "Holorem/Zeus" Trón - All instruments (Iria)[/more]

Register
(1) Sanc,
Feb 17 2018, 17:33:43 Tu Carne - Acumulación De Cadáveres (2018)


*Artist: Tu Carne
*Album: Acumulación De Cadáveres
*Year: 2018
*Genre: Goregrind
*Country: Spain
*Format: mp3@CBR320kbps
*Size: 68MB

Tracklist:
1. Las llagas de tu cuerpo
2. Acumulación de cadáveres
3. La belleza está en el interior
4. Aunque sea un cadáver
5. La muñeca
6. Lobisome
7. Mi sublime enfermedad
8. Mil diablos acechan
9. Dos dedos
10. Snuff
******************************
Total playing time: 28:20



[more=Extended info]Line - up:

Mr. Asencio 666 - Bass, Vocals (ex-Germen)
Rober - Drums, Vocals (Agony Terror System, Reuma Gaustrodenal)
Batman - Guitars
Cluni - Guitars
Kojo - Vocals
[/more]

[more=Technical info]
Input File: 07. Mi Sublime Enfermedad.mp3
Channels : 2
Sample Rate : 44100
Precision : 16-bit
Duration : 00:01:12.34 = 3190326 samples = 5425.72 CDDA sectors
File Size : 2.90M
Bit Rate : 320k
Sample Encoding: MPEG audio (layer I, II or III)
Comments :
Title=Mi Sublime Enfermedad
Artist=Tu Carne
Album=AcumulaciГіn De Cadaveres
Tracknumber=7
Year=2018
Genre=Goregrind

[/more]

Register
(18) andreikun, Anhra Mainyu, BERZERK, gerb, Haunting, insufferable, jollo, MeathookSeed, METALHUNTER, necromasochist, Paradayz, pichileon, ripper33, Rosen, satanist666, sperminator, Strangler, zotyo1975,
Feb 16 2018, 19:37:13 Duir - Obsidio [ep] (2018)


*Artist: Duir
*Album: Obsidio [ep]
*Year: 2018
*Genre: Celtic/Folk Metal
*Country: Italy
*Format: mp3@CBR320kbps
*Size: 68MB

Tracklist:
1. Inconscio 02:37
2. Destarsi 05:34
3. Rise Your Fear 05:23
4. Dies Alliensis 06:03
5. Insomnia Seed 05:46
6. Obsidio 05:30
******************************
Total playing time: 30:53



[more=Extended info]Line - up:

Thomas Zonato - Bagpipes
Pietro "Pdm" Devincenzi - Bass
Matteo Polinari - Drums (Ælegy)
Mirko Albanese - Guitars
Giovanni De Francesco - Vocals

[/more]

[more=Technical info]
Input File: 04-duir-dies_alliensis-6be5ad9d.mp3
Channels : 2
Sample Rate : 44100
Precision : 16-bit
Duration : 00:06:03.69 = 16038597 samples = 27276.5 CDDA sectors
File Size : 14.6M
Bit Rate : 320k
Sample Encoding: MPEG audio (layer I, II or III)
Comments :
Title=Dies alliensis
Artist=Duir
Album=Obsidio (EP)
Tracknumber=4
Year=2018
Genre=Celtic / Folk Metal

[/more]

Register
(8) aviacademy, Cartman223, csgmnk, djsema4, gwar, Rosen, Sanc, VALERY,
Feb 16 2018, 18:37:16 Lustre - The First Snow [single] (2018)


*Artist: Lustre
*Album: The First Snow [single]
*Year: 2018
*Genre: Atmospheric Black Metal/Ambient
*Country: Sweden
*Format: mp3@CBR320kbps
*Size: 24MB

Tracklist:
1. The First Snow
******************************
Total playing time: 10:58



[more=Extended info]Line - up:

Nachtzeit - Everything (Nachtzeit, Rafnatyr, Mortem Parto Humano, ex-Durthang, ex-Life Neglected, ex-The Burning, ex-Ered Wethrin, Ebon Lore, Messier, Starlit, Uruz, ex-Hypothermia, ex-Nihilum (Swe))

[/more]

[more=Technical info]
Input File: 01-lustre-the_first_snow-21678402.mp3
Channels : 2
Sample Rate : 44100
Precision : 16-bit
Duration : 00:10:58.93 = 29058593 samples = 49419.4 CDDA sectors
File Size : 26.4M
Bit Rate : 320k
Sample Encoding: MPEG audio (layer I, II or III)
Comments :
Title=The First Snow
Artist=Lustre
Album=The First Snow (Single)
Tracknumber=1
Year=2018
Genre=Atmospheric Black Metal / Ambient

[/more]

Register
(18) cancer1974, Coroner, Dark_Viking, Druidir, Nattfodd, princeshr, Reverend, ripper33, Rosen, SAPOGi, stub888, thenecromancer, varg-38ru, varlam4, vasiljev_sergej, Woosad, ZA670, ZambuL,
Feb 16 2018, 18:02:20 Eigenlicht - Self-Annihilating Consciousness (2018)


*Artist: Eigenlicht
*Album: Self-Annihilating Consciousness
*Year: 2018
*Genre: Black Metal
*Country: United States
*Format: mp3@CBR128kbps
*Size: 49MB

Tracklist:
1. There Lies Already the Shadow of Annihilation 01:55
2. Hagia Sophia 13:43
3. Labrys 11:51
4. Deifugal Force 13:25
5. Berserker 11:03
******************************
Total playing time: 51:57



[more=Extended info]Line - up:

Johnny Delacy - Drums (Fauna, Sadhaka, ex-Threnos, Ekstasis, Fearthainne)
Yianna Bekris - Guitars (Sadhaka, Vradiazei)
Mara Winter - Keyboards, Vocals, Flute (Ekstasis)
Ray Hawes - Vocals, Guitars (Skagos, ex-Kamlaniye, Ekstasis, ex-Fauna (live), ex-Iskra (live), ex-Apocalypta)[/more]

[more=Technical info]
Input File: 01 - There Lies Already The Shadow Of Annihilation.mp3
Channels : 2
Sample Rate : 44100
Precision : 16-bit
Duration : 00:01:55.41 = 5089493 samples = 8655.6 CDDA sectors
File Size : 1.91M
Bit Rate : 132k
Sample Encoding: MPEG audio (layer I, II or III)
Comments :
Title=There Lies Already The Shadow Of Annihilation
Artist=Eigenlicht
Album=Self-Annihilating Consciousness
Tracknumber=1
Year=2018
Genre=138

[/more]

Register
(3) craP_cillA, varg-38ru, vasiljev_sergej,
Feb 16 2018, 16:49:04 Valiant - A Timeworn Oath [ep] (2018)


*Artist: Valiant
*Album: A Timeworn Oath [ep]
*Year: 2018
*Genre: Epic Atmospheric Black Metal
*Country: United States
*Format: mp3@CBR320kbps
*Size: 74MB

Tracklist:
1. As Echoes of Dreams
2. Distant Lands
3. Oath to Destiny
4. Forlorn Shadow
5. In the Midst of Worlds
******************************
Total playing time: 31:29



[more=Extended info]Line - up:

Archon - All instruments, Vocals (Highborne)

[/more]

[more=Technical info]
Input File: 01. As Echoes of Dreams.mp3
Channels : 2
Sample Rate : 48000
Precision : 16-bit
Duration : 00:06:46.90 = 19531152 samples ~ 30517.4 CDDA sectors
File Size : 16.3M
Bit Rate : 320k
Sample Encoding: MPEG audio (layer I, II or III)
Comments :
Title=As Echoes of Dreams
Artist=Valiant
Album=A Timeworn Oath (EP)
Tracknumber=1
Year=2018
Genre=Epic Atmospheric Black Metal

[/more]

Register
(11) Dark_Viking, djsema4, kim666, OldbOlt, Rosen, Sanc, stub888, TeamatSE, VALERY, varg-38ru, vasiljev_sergej,
Feb 15 2018, 19:27:34 Patrick Unruh - Psycho Viking [ep] (2018)


*Artist: Patrick Unruh
*Album: Psycho Viking [ep]
*Year: 2018
*Genre: Heavy Metal
*Country: United States
*Format: mp3@CBR320kbps
*Size: 54MB

Tracklist:
1. In Defiance of Odin 01:55
2. Enduring the Chaos 06:02
3. Far Dorocha 04:01
4. The Seventh Star 06:19
5. The Berserker 05:38
******************************
Total playing time: 23:55


CDBaby

[more=Extended info]В ЛОУ

Line - up:

Patrick Unruh - Guitars

[/more]

[more=Technical info]
Input File: 04-patrick_unruh-the_seventh_star-c081a803.mp3
Channels : 2
Sample Rate : 44100
Precision : 16-bit
Duration : 00:06:19.55 = 16737935 samples = 28465.9 CDDA sectors
File Size : 15.2M
Bit Rate : 320k
Sample Encoding: MPEG audio (layer I, II or III)
Comments :
Title=The Seventh Star
Artist=Patrick Unruh
Album=Psycho Viking (EP)
Tracknumber=4
Year=2018
Genre=137

[/more]

Register
(2) postal67, Rosen,
Feb 15 2018, 18:27:36 Rotten On Gore & Visceral Decay & Sanguinary Execution & Gastrorrexis & Genetic Aberration - Sutured Bleeding Wounds [split] (2018)


*Artist: Rotten On Gore & Visceral Decay & Sanguinary Execution & Gastrorrexis & Genetic Aberration
*Album: Sutured Bleeding Wounds [split]
*Year: 2018
*Genre: Brutal Death Metal | Brutal/Technical Death Metal | Brutal Death Metal/Grindcore | Brutal Death Metal | Brutal Death Metal
*Country: Ecuador | Ecuador | Ecuador | Ecuador | Ecuador
*Format: mp3@CBR320kbps
*Size: 156MB

Tracklist:
Rotten on Gore:
1. My Frensy Is Your Suffering 02:40
2. Savered Whore 02:59
3. Deeds of Perversion 02:42
4. Stench of Dead Flesh 03:07
Visceral Decay:
5. Sinister Hymn 02:40
6. Consumed by an Abomination 03:17
7. Elemental Procedure of Annihilation 02:58
8. Bleeding by a Torture Genitals 03:37
Sanguinary Execution:
9. Effusive Extermination 03:35
10. Impaled for Eternity 03:45
11. Drowning Dying Process 03:41
12. Exposed Hanged and Burned 03:38
Gastrorrexis:
13. Extinction of Vitality 03:29
14. Descend to Putrescence 03:09
15. Beginning Infestation 03:39
16. Beyond to Purification 03:56
Genetic Aberration:
17. Insemination Experiment 03:13
18. Grotesque Abominations 03:39
19. Dripping Secretion 02:33
20. Spawn Maggots 02:23
******************************
Total playing time: 1:04:40



[more=Technical info]
Input File: 15. Gastrorrexis - Beginning Infestation.mp3
Channels : 2
Sample Rate : 44100
Precision : 16-bit
Duration : 00:03:39.56 = 9682420 samples = 16466.7 CDDA sectors
File Size : 8.79M
Bit Rate : 320k
Sample Encoding: MPEG audio (layer I, II or III)
Comments :
Title=Beginning Infestation
Artist=Gastrorrexis
Album=Sutured Bleeding Wounds [Split]
Tracknumber=15
Year=2018
Genre=Brutal Death Metal

[/more]

Register
(4) gerb, maochen, Rosen, Styx,
Feb 14 2018, 20:19:29 Anal Cockroach - Doomkeeper (2018)


*Artist: Anal Cockroach
*Album: Doomkeeper
*Year: 2018
*Genre: Death Metal
*Country: United States
*Format: mp3@CBR320kbps
*Size: 90MB

Tracklist:
1. Roachswarm 03:04
2. Failed Apostasy 04:18
3. Transcended Transformation 03:46
4. Terror Dominion 02:30
5. Labyrinthine Echoes 04:22
6. Procreation ov Infestation 04:05
7. Entropic Malice 02:30
8. Void Deliverance 01:17
9. Unraveling Reality's Veil 12:21
******************************
Total playing time: 38:13



[more=Technical info]
Input File: 05. Labyrinthine Echoes.mp3
Channels : 2
Sample Rate : 48000
Precision : 16-bit
Duration : 00:04:22.20 = 12585744 samples ~ 19665.2 CDDA sectors
File Size : 10.5M
Bit Rate : 320k
Sample Encoding: MPEG audio (layer I, II or III)
Comments :
Title=Labyrinthine Echoes
Artist=Anal Cockroach
Album=Doomkeeper
Tracknumber=5
Year=2018
Genre=22

[/more]

Register
(4) jollo, metala, Rosen, varlam4,
Feb 14 2018, 19:48:36 Nevrome - Perversion... (2018)


*Artist: Nevrome
*Album: Perversion...
*Year: 2018
*Genre: Black Metal
*Country: France
*Format: mp3@CBR320kbps
*Size: 70MB

Tracklist:
1. Trainée 04:03
2. (((M.o.0.n))) 04:03
3. Pluie Hivernale & Fleurs du Malin 02:16
4. (Chant Du Diable Pour Les Morts) La Strasbourgeoise En Pleurs 03:56
5. Ordure et Peste Noire 07:37
6. (F)outre (B)aise (I)nceste 07:36
******************************
Total playing time: 29:31



[more=Extended info]Line - up:

Morax - Bass, Vocals
Samael - Guitars

[/more]

[more=Technical info]
Input File: 02. (((M.o.0.n))).mp3
Channels : 2
Sample Rate : 48000
Precision : 16-bit
Duration : 00:04:03.82 = 11703312 samples ~ 18286.4 CDDA sectors
File Size : 9.76M
Bit Rate : 320k
Sample Encoding: MPEG audio (layer I, II or III)
Comments :
Title=(((M.o.0.n)))
Artist=Nevrome
Album=Perversion...
Tracknumber=2
Year=2018
Genre=138

[/more]

Register
(7) kim666, Rosen, SilentNidhogg, stub888, VALERY, varlam4, vasiljev_sergej,
Feb 14 2018, 19:08:31 Kill Athena - Ravaging All Within (2018)


*Artist: Kill Athena
*Album: Ravaging All Within
*Year: 2018
*Genre: Technical Death Metal
*Country: Indonesia
*Format: mp3@CBR128kbps
*Size: 34MB

Tracklist:
1. Glorious Begins 00:35 instrumental
2. Disaster 03:21
3. Concussion 03:08
4. Into Havoc 03:09
5. The (False) Salvation 03:58
6. Eradication Doom 04:54
7. Lecture Deceit 03:30
8. Sovereign 04:25
9. Artificial Perspectives 07:01
10. Ravaging All Within 01:57 instrumental
******************************
Total playing time: 35:58



[more=Extended info]Line - up:

Teguh - Guitars (ex-Baby Frog)
Nuris - Drums
Ridho - Guitars
Lingga - Bass
Yogga - Vocals (Anal Torture, Fetal Bleeding, Gelgamesh, Nithael, Injury Deepen (live))

[/more]

[more=Technical info]
Input File: 04. Into Havoc.mp3
Channels : 2
Sample Rate : 44100
Precision : 16-bit
Duration : 00:03:09.47 = 8355495 samples = 14210 CDDA sectors
File Size : 3.03M
Bit Rate : 128k
Sample Encoding: MPEG audio (layer I, II or III)
Comments :
Title=Into Havoc
Artist=Kill Athena
Album=Ravaging All Within
Tracknumber=4
Year=2018
Genre=Technical Death Metal

[/more]

Register
(4) BapeHuk, metala, Rosen, TeamatSE,
Feb 9 2018, 19:57:36 Cosmic Void Ritual - Vitriol Tablet Instructions: Rehearsing Speeches For When You Die [demo] (2018)


*Artist: Cosmic Void Ritual
*Album: Vitriol Tablet Instructions: Rehearsing Speeches For When You Die [demo]
*Year: 2018
*Genre: Death Metal
*Country: United States
*Format: mp3@CBR320kbps
*Size: 17MB

Tracklist:
1. Deprivation of Hydrogen Supplies (Asphyxiation: I) 03:17
2. The Veil of Space Prevails (Dead Stars: II) 04:02
******************************
Total playing time: 7:19



[more=Extended info]В ЛОУ

Line - up:

Unknown Entity - Vocals, Guitars[/more]

[more=Technical info]
Input File: 02. The Veil Of Space Prevails (Dead Stars II).mp3
Channels : 2
Sample Rate : 44100
Precision : 16-bit
Duration : 00:04:02.26 = 10683754 samples = 18169.6 CDDA sectors
File Size : 9.69M
Bit Rate : 320k
Sample Encoding: MPEG audio (layer I, II or III)
Comments :
Title=The Veil Of Space Prevails (Dead Stars II)
Artist=Cosmic Void Ritual
Album=Vitriol Tablet Instructions: Rehearsing Speeches For When You Die (Demo)
Tracknumber=2
Year=2018
Genre=22

[/more]

Register
(6) Evilded, marilin, necromasochist, Occultas, Rosen, RUSP73,
Feb 9 2018, 19:28:21 Krvvla - Ø [ep] (2018)


*Artist: Krvvla
*Album: Ø [ep]
*Year: 2018
*Genre: Post-Black Metal
*Country: Belarus
*Format: mp3@CBR320kbps
*Size: 41MB

Tracklist:
1. Animus 02:46 instrumental
2. Cassus 02:05 instrumental
3. Igneus 02:20 instrumental
4. Decus 05:03 instrumental
5. Interitus 01:58 instrumental
6. Malus 01:00 instrumental
7. Insanus 02:09 instrumental
******************************
Total playing time: 17:21



[more=Extended info]Line - up:

Take - Bass (Coat)
Alexandr Degtyarev - Drums (Crown for the Rat King, ex-Challenger Deep)
Dasha - Guitars (ex-Barrow)

[/more]

[more=Technical info]
Input File: 02. Cassus.mp3
Channels : 2
Sample Rate : 48000
Precision : 16-bit
Duration : 00:02:05.62 = 6029712 samples ~ 9421.43 CDDA sectors
File Size : 5.09M
Bit Rate : 324k
Sample Encoding: MPEG audio (layer I, II or III)
Comments :
Title=Cassus
Artist=krvvla
Album=O (EP)
Tracknumber=2
Year=2018
Genre=Post-Black Metal

[/more]

Register
(8) 1968_janeart, kim666, Rosen, Sanc, stone88, terron, varlam4, vasiljev_sergej,
Feb 9 2018, 18:17:22 Witches Of Doom - Love Will Tear Us Apart [single] (2018)


*Artist: Witches Of Doom
*Album: Love Will Tear Us Apart [single]
*Year: 2018
*Genre: Gothic/Stoner/Doom Metal
*Country: Italy
*Format: mp3@CBR320kbps
*Size: 12MB

Tracklist:
1. Love Will Tear Us Apart (Joy Division cover)
******************************
Total playing time: 5:13



[more=Extended info]Line - up:

Jacopo Cartelli - Bass
Andrea "Budi" Budicin - Drums
Federico "Fed" Venditti - Guitars (ex-Ossimoro)
Danilo "Groova" Piludu - Vocals
Graziano "Eric" Corrado - Keyboards

[/more]

[more=Technical info]
Input File: 01-witches_of_doom-love_will_tear_us_apart-6b708fcd.mp3
Channels : 2
Sample Rate : 44100
Precision : 16-bit
Duration : 00:05:13.24 = 13813884 samples = 23493 CDDA sectors
File Size : 12.5M
Bit Rate : 320k
Sample Encoding: MPEG audio (layer I, II or III)
Comments :
Title=Love Will Tear Us Apart
Artist=Witches of Doom
Album=Love Will Tear Us Apart (Single)
Tracknumber=1
Year=2018
Genre=Gothic / Stoner / Doom Metal

[/more]

Register
(6) Cartman223, csgmnk, Rosen, Sanc, VALERY, varlam4,
Feb 8 2018, 20:22:01 Most Rated Death Kills - Most Rated Death Kills (2017)


*Artist: Most Rated Death Kills
*Album: Most Rated Death Kills
*Year: 2017
*Genre: Groove/Death/Doom Metal
*Country: Ukraine
*Format: mp3@CBR320kbps
*Size: 99MB

Tracklist:
1. Intro 04:45 instrumental
2. Unexpected Acid 04:33
3. Crush 05:09
4. The Claim 03:49
5. 7th 06:26
6. The Last Step 06:35
7. Slow 10:39
******************************
Total playing time: 41:56



[more=Extended info]Line - up:

Slavik - Bass
Sergey - Drums (ex-Forever Wasted, ex-Bomg (live))
Murdock - Guitars, Vocals (ex-Шелест Запахов)

[/more]

[more=Technical info]
Input File: 01. Intro.mp3
Channels : 2
Sample Rate : 48000
Precision : 16-bit
Duration : 00:04:45.39 = 13698576 samples ~ 21404 CDDA sectors
File Size : 11.4M
Bit Rate : 320k
Sample Encoding: MPEG audio (layer I, II or III)
Comments :
Title=Intro
Artist=Most Rated Death Kills
Album=Most Rated Death Kills
Tracknumber=1
Year=2017
Genre=Groove / Death / Doom Metal

[/more]

Register
(4) Rosen, sanaan, terron, VALERY,
Feb 8 2018, 20:05:31 Jegulja - Darkest Light (2017)


*Artist: Jegulja
*Album: Darkest Light
*Year: 2017
*Genre: Instrumental Stoner/Doom Metal
*Country: Slovenia
*Format: mp3@CBR320kbps
*Size: 129MB

Tracklist:
1. Helmut's Brainwave 03:48
2. Hmm?! 05:20
3. Darkest Light 10:50
4. Foot in the Shit 03:38
5. Nord 05:58
6. I Want to Be Number Three 07:28
7. Trumpet in the Trench 08:35
8. Wig Pigs 09:04
******************************
Total playing time: 54:41



[more=Extended info]Line - up:

Kozu - Guitars
Jurc - Guitars (ex-Abattoir, Uroš)
Jan Prosen - Drums (Dawn Patrol, Dr.Evil, ex-Lene Kosti, ex-Afterburn, ex-Omar Naber)

[/more]

[more=Technical info]
Input File: 08. wig pigs.mp3
Channels : 2
Sample Rate : 48000
Precision : 16-bit
Duration : 00:09:04.06 = 26114832 samples ~ 40804.4 CDDA sectors
File Size : 21.8M
Bit Rate : 320k
Sample Encoding: MPEG audio (layer I, II or III)
Comments :
Title=wig pigs
Artist=Jegulja
Album=Darkest Light
Tracknumber=8
Year=2017
Genre=Instrumental Stoner / Doom Metal

[/more]

Register
(2) marilin, Rosen,
Feb 8 2018, 18:10:35 Mortal War - Gates Of Hell [demo] (2017)


*Artist: Mortal War
*Album: Gates Of Hell [demo]
*Year: 2017
*Genre: Death Metal/Crust Punk
*Country: United States
*Format: mp3@CBR192kbps
*Size: 28MB

Tracklist:
1. Intro
2. Slave to Darkness
3. The Battle's End
4. Final War
5. Winter (Amebix cover)
******************************
Total playing time: 19:51


Metal-archives

[more=Extended info][/more]

[more=Technical info]
Input File: 03 The Battle\'s End.mp3
Channels : 2
Sample Rate : 44100
Precision : 16-bit
Duration : 00:05:59.23 = 15841823 samples = 26941.9 CDDA sectors
File Size : 8.62M
Bit Rate : 192k
Sample Encoding: MPEG audio (layer I, II or III)
Comments :
Title=The Battle's End
Artist=Mortal War
Album=Gates Of Hell (Demo)
Tracknumber=3
Year=2017
Genre=Death Metal / Crust Punk

[/more]

Register
(3) marilin, necromasochist, Rosen,
Feb 5 2018, 18:17:58 Prevenge - Void Caller (2018)


*Artist: Prevenge
*Album: Void Caller
*Year: 2018
*Genre: Black Metal
*Country: United States
*Format: mp3@CBR320kbps
*Size: 191MB

Tracklist:
1. I: Hopeless All 04:16
2. II: Descend 01:40
3. III: Void Caller 07:57
4. IV: Endless Drift 04:16
5. V: Black 02:56
6. VI: A Faint Light 06:47
7. VII: A Return? 04:39
8. VIII: White 07:52
9. Void Caller (single track) 40:24
******************************
Total playing time: 1:20:47



[more=Extended info]Line - up:

Max Reff - Everything[/more]

[more=Technical info]
Input File: 05. V. Black.mp3
Channels : 2
Sample Rate : 48000
Precision : 16-bit
Duration : 00:02:56.07 = 8451216 samples ~ 13205 CDDA sectors
File Size : 7.05M
Bit Rate : 320k
Sample Encoding: MPEG audio (layer I, II or III)
Comments :
Title=V. Black
Artist=Prevenge
Album=Void Caller
Tracknumber=5
Year=2018
Genre=138

[/more]

Register
(9) 1968_janeart, kim666, Rosen, SilentNidhogg, stub888, VALERY, varg-38ru, varlam4, vasiljev_sergej,
Feb 5 2018, 18:06:01 Λ S T R Λ - А стены всё шепчут... [single] (2018)


*Artist: Λ S T R Λ
*Album: А стены всё шепчут... [single]
*Year: 2018
*Genre: Atmospheric/Avant-garde Black/Death Metal
*Country: Russian Federation
*Format: flac
*Size: 77MB

Tracklist:
1. А стены всё шепчут... 06:13
******************************
Total playing time: 6:13



[more=Extended info]Line - up:

Velatropa24 - Everything[/more]

Register
(4) Aresson, Fuckhead, kimkayoung, Sanc,
Feb 4 2018, 20:02:06 Mördrot - Immoral Blasphemies (2018)


*Artist: Mördrot
*Album: Immoral Blasphemies
*Year: 2018
*Genre: Death Metal
*Country: United States
*Format: mp3@CBR128kbps
*Size: 30MB

Tracklist:
1. Sacrificial Fires 02:30
2. Casket Reposession 01:58
3. Murderia 03:29
4. Wretched 03:38
5. For Survival 03:06
6. Unburied 02:27
7. Soul Expulsion 02:55
8. Skinned 02:42
9. Condemned Undead 03:19
10. Before the Rot 03:00
11. Immoral Blasphemies 02:27
******************************
Total playing time: 31:31



[more=Extended info]Line - up:

Nick Donner - Guitars, Vocals (tracks 1-6) (Despise, ex-Mördwolf)
Mitch Robbie - Drums (Despise, ex-Mördwolf)
Brian J. Huebner - Bass, Vocals (tracks 1-6), Guitars, Vocals (tracks 7-11) (Cold Colours, Vorpal Bunny, ex-Baal Therocles, ex-Mördwolf, ex-Seventh Calling, ex-Epicurean, ex-Inflict)
Vern Sav DeFoe - Bass (tracks 7-11) (War//Plague, ex-Wraithian, ex-Mördwolf)

[/more]

[more=Technical info]
Input File: 04. Wretched.mp3
Channels : 2
Sample Rate : 44100
Precision : 16-bit
Duration : 00:03:38.29 = 9626633 samples = 16371.8 CDDA sectors
File Size : 3.50M
Bit Rate : 128k
Sample Encoding: MPEG audio (layer I, II or III)
Comments :
Title=Wretched
Artist=Mördrot
Album=Immoral Blasphemies
Tracknumber=04
Year=2018
Genre=22

[/more]

Register
(3) jollo, necromasochist, Rosen,
Feb 3 2018, 18:36:37 Untervoid - Untervoid [ep] (2018)


*Artist: Untervoid
*Album: Untervoid [ep]
*Year: 2018
*Genre: Black Metal
*Country: Poland
*Format: mp3@CBR320kbps
*Size: 54MB

Tracklist:
1. Messer 05:52
2. Twilight 04:55
3. Radiant Divinity 05:18
4. Inner Shrine 08:24
******************************
Total playing time: 24:29



[more=Extended info]Line - up:

A. - Drums (Armagedon, Azarath (live), ex-Askalon, ex-Christ the Insane (live), ex-Lost Soul, ex-Behemoth (live), ex-Shemhamforash)
Destroyer - Guitars, Vocals (Kriegsmaschine, ex-Moloch, ex-Crionics (live), ex-Hate)

[/more]

[more=Technical info]
Input File: 03-untervoid-radiant_divinity-7124bd73.mp3
Channels : 2
Sample Rate : 44100
Precision : 16-bit
Duration : 00:05:18.99 = 14067371 samples = 23924.1 CDDA sectors
File Size : 12.8M
Bit Rate : 320k
Sample Encoding: MPEG audio (layer I, II or III)
Comments :
Title=Radiant Divinity
Artist=Untervoid
Album=Untervoid (EP)
Tracknumber=3
Year=2018
Genre=138

[/more]

Register
(15) 1968_janeart, kerosenj, kim666, Precaria, Rosen, RUSP73, SilentNidhogg, terron, Tino, VALERY, varg-38ru, varlam4, vasiljev_sergej, vov7609, yuratroll,
Feb 3 2018, 18:23:03 Crepitation & Splattered & Gorevent & Stillbirth - Worldwide Slamicide [split] (2018)


*Artist: Crepitation & Splattered & Gorevent & Stillbirth
*Album: Worldwide Slamicide [split]
*Year: 2018
*Genre: Brutal Death Metal | Brutal Death Metal | Brutal Death Metal | Brutal Death Metal, Deathcore
*Country: United Kingdom | United States | Japan | Germany
*Format: mp3@CBR192kbps
*Size: 54MB

Tracklist:
Crepitation:
1. Gelatinous Interdimensional Spunk Trumpet 02:53
2. Nifty Whiff Thrift Biftas 01:59
3. Placenta Dispenser 02:34
Splattered:
4. Antediluvian Horror 02:54
5. Gutted 02:18
6. Entrails Full of Vermin (Abominable Putridty cover) 02:45
Gorevent:
7. Kill 03:16
8. Human Garlic Baking 03:17
9. Sea of Black Oil 04:12
Stillbirth:
10. Hypnotized by Lies 03:22
11. Firststrike 04:08
12. Annihilation of Mankind 03:53
******************************
Total playing time: 37:31








[more=Technical info]
Input File: 03. Placenta Dispenser.mp3
Channels : 2
Sample Rate : 44100
Precision : 16-bit
Duration : 00:02:33.59 = 6773231 samples = 11519.1 CDDA sectors
File Size : 3.71M
Bit Rate : 193k
Sample Encoding: MPEG audio (layer I, II or III)
Comments :
Title=Placenta Dispenser
Artist=Crepitation
Album=Worldwide Slamicide (Split)
Tracknumber=3
Year=2018
Genre=Brutal Death Metal

[/more]

Register
(2) Lanceatum, Rosen,
Feb 2 2018, 17:04:25 Spite - Antimoshiach (2018)


*Artist: Spite
*Album: Antimoshiach
*Year: 2018
*Genre: Black Metal
*Country: United States
*Format: mp3@CBR128kbps
*Size: 41MB

Tracklist:
1. The Devil's Minyan 04:21
2. The Shield of Abraham 05:05
3. Vision of the Merkabah 03:35
4. False Magic 05:29
5. Second Death 05:36
6. Upon Funeral Stone 04:34
7. The Hope (Of Coming Armageddon) 02:42
8. Antimoshiach 08:08
9. (Bonus Track) * 03:11
******************************
Total playing time: 42:41



[more=Extended info]Line - up:

Salpsan - All instruments, Vocals (Horns & Hooves, ex-Negative Plane (live), ex-Occultation (live))[/more]

[more=Technical info]
Input File: 02. The Shield Of Abraham.MP3
Channels : 2
Sample Rate : 44100
Precision : 16-bit
Duration : 00:05:06.07 = 13497687 samples = 22955.2 CDDA sectors
File Size : 4.90M
Bit Rate : 128k
Sample Encoding: MPEG audio (layer I, II or III)
Comments :
Title=The Shield Of Abraham
Artist=Spite
Album=Antimoshiach
Tracknumber=2
Year=2018
Genre=138

[/more]

Register
(6) 1968_janeart, Boozer, judaz, Rosen, varg-38ru, vasiljev_sergej,

29 Pages V   1 2 3 > » 
- Lo-Fi Version Support form
Copyrights and abuse reports form
Time is now: 20th February 2018 - 22:31:49