Welcome Guest ( Log In | Register )

История благодарностей участнику Necrokilldozer ::: Спасибо сказали: 12863 раз(а)
Дата поста: В теме: За сообщение: Спасибо сказали:
Aug 4 2017, 17:19:57 Desecresy - The Mortal Horizon (2017)


*Artist: Desecresy
*Album: The Mortal Horizon
*Year: 2017
*Genre: Death Metal
*Country: Finland
*Format: mp3@CBR128kbps
*Size: 32MB

Tracklist:
1. Amidst 03:59
2. Horizon Blazing 02:17
3. Percussive Necromancy 04:21
4. Excavation 04:25
5. Concealed Depths 04:34
6. Atrophoid 02:41
7. Telekinetic Ignition 02:57
8. Perpetual Waves 03:34
9. Approaching Infinity 04:41
******************************
Total playing time: 33:29



[more=Extended info]Line - up:

Tommi Grönqvist - All instruments, Vocals (ex-Slugathor)

[/more]

Register
(6) aserius, Boozer, marilin, obscenity, Rosen, zhoporez,
Aug 4 2017, 15:43:55 Regressus Ad Infinitum - Regressus Ad Infinitum [best of/compilation] (2017)


*Artist: Regressus Ad Infinitum
*Album: Regressus Ad Infinitum [best of/compilation]
*Year: 2017
*Genre: Death/Doom Metal
*Country: Russian Federation
*Format: mp3@CBR320kbps
*Size: 259MB

Tracklist:
01. The Thunder Storm Before 03:20 instrumental
02. At Dawn 04:25
03. Feelings of Doom 06:14
04. The Lost Future 05:46
05. My Tears 06:35
06. Suffering 02:06
07. The Presage of Chaos 05:33
08. Your Last Desire 07:05
09. Terrorising 05:44
10. Cyanide 04:41
11. ... * 06:37
12. Hostile World 03:30 instrumental
13. ... * 05:22
14. Cyanide 04:42
15. Your Last Desire 06:42
16. Feeling of Doom 06:16
17. The Horrible Night 05:49
18. Your Last Desire 06:45
19. Feeling of Doom 07:42
20. Moral in the Sin 05:00
******************************
Total playing time: 1:49:54



[more=Extended info]My flac rip

Line - up:

Vlad Filippov - Bass
Max Archarov - Drums
Dmitriy Dubakin - Guitars
Alexey Orlov - Guitars (Fragile Nova, Tent, Concordia)
Roman Povarov - Keyboards (R.I.P. 2000) (ex-Mental Home)
Alexey Budanov - Vocals

[/more]

[more=Technical info]
Input File: 04. The Lost Future (Empty Illusions).mp3
Channels : 2
Sample Rate : 48000
Precision : 16-bit
Duration : 00:05:46.47 = 16630416 samples ~ 25985 CDDA sectors
File Size : 13.9M
Bit Rate : 321k
Sample Encoding: MPEG audio (layer I, II or III)
Comments :
Title=The Lost Future (Empty Illusions)
Artist=Regressus Ad Infinitum
Album=Regressus Ad Infinitum (Compilation)
Tracknumber=4
Year=2017
Genre=Death / Doom Metal

[/more]

Register
(9) AndreFrancis, Hell_Is_Here, metala, Mist13Signifier, Rosen, sperminator, Synthaeon, VALERY, wreak,
Aug 4 2017, 10:00:06 Wraith - Revelation (2017)


*Artist: Wraith
*Album: Revelation
*Year: 2017
*Genre: Melodic Heavy Metal/Hard Rock
*Country: United Kingdom
*Format: mp3@CBR320kbps
*Size: 94MB

Tracklist:
01. Lifeline
02. Dream Steeler
03. Into the Fire
04. Under the Hammer
05. Leaving Me Again
06. No Respect
07. Invasion
08. Revelation
09. Human Eater
10. Hunted *
******************************
Total playing time: 39:34




[more=Extended info]Line - up:

Kim Nielsen - Bass (Phantom Blue, Asia)
Jay Graham - Drums (Ravens Creed, Rift, ex-Revenant Host, ex-The Clan Destined, ex-Skyclad, ex-Undergroove, ex-Voss)
Dieter Schänzer - Guitars
Gregg Russell - Guitars (Concrete Sox, ex-Deuce, Tigertailz)
Ryan Coggin - Vocals

Guests:

Pete Way – Bass (UFO)
Steevi Jaimz – Backing Vocals (Tigertailz)
Tony Mills – Backing Vocals (SHY, T.N.T)

produced and mixed by Neil Kernon (Dokken, Qeensryche, Shy)
mastered by Andy Sneap (Accept, Kreator, Machine Head, Megadeth)

[/more]

[more=Technical info]
Input File: 04 - Under The Hammer.mp3
Channels : 2
Sample Rate : 44100
Precision : 16-bit
Duration : 00:04:26.58 = 11755958 samples = 19993.1 CDDA sectors
File Size : 10.7M
Bit Rate : 320k
Sample Encoding: MPEG audio (layer I, II or III)
Comments :
Title=Under The Hammer
Artist=Wraith
Album=Revelation
Tracknumber=04
Year=2017
Genre=Melodic Heavy Metal / Hard Rock

[/more]

Register
(12) DTGB, infozahist, metala, Mogozoz, Mplast, oldvarg, Olrak, postal67, Rosen, Rover, vir2al, wreak,
Aug 4 2017, 09:36:24 Circus Maximus - Havoc In Oslo [live] (2017)


*Artist: Circus Maximus
*Album: Havoc In Oslo [live]
*Year: 2017
*Genre: Power/Progressive Metal
*Country: Norway
*Format: mp3@CBR320kbps
*Size: 178MB

Tracklist:
Disc 1
1. Forging
2. Namaste
3. The One
4. The Weight
5. Highest Bitter
6. Architect of Fortune
7. Arrival of Love
8. Loved Ones

Disc 2
1. Sin
2. Havoc
3. Pages
4. Abyss
5. I Am
6. Chivalry
7. Game of Life
******************************
Total playing time: 1:25:24



[more=Extended info]Line - up:

Glenn Møllen - Bass
Truls Haugen - Drums (Zierler, ex-Carnivora, Insense, ex-Black Comedy)
Mats Haugen - Guitars
Michael Eriksen - Vocals (The Magnificent, ex-Kamelot (live), ex-Carnivora)
Lasse Finbråten - Keyboards (Tritonus, Åge Sten Nilsen's Ammunition, Footloose, Video Micro, ex-Gentle Groove (Led Zeppelin tribute), ex-Wig Wam (live)) [/more]

[more=Technical info]
Input File: 04. The Weight.mp3
Channels : 2
Sample Rate : 44100
Precision : 16-bit
Duration : 00:06:42.80 = 17763304 samples = 30209.7 CDDA sectors
File Size : 16.2M
Bit Rate : 321k
Sample Encoding: MPEG audio (layer I, II or III)
Comments :
Title=The Weight
Artist=Circus Maximus
Album=Havoc In Oslo (Live)
Tracknumber=4
Year=2017
Genre=Power / Progressive Metal

[/more]

Register
(6) BeerBear, Forest, kimkayoung, Rosen, Rover, wreak,
Aug 4 2017, 09:14:59 From The Hellmouth & Mutilatred - From The Hellmouth/Mutilatred [split] (2017)


*Artist: From The Hellmouth & Mutilatred
*Album: From The Hellmouth/Mutilatred [split]
*Year: 2017
*Genre: Death Metal | Brutal Death Metal
*Country: United States | United States
*Format: mp3@CBR320kbps
*Size: 65MB

Tracklist:
From the Hellmouth:
1. Cast into the Sea
2. The Wolves Must Be Fed
3. Campaign of Lies
Mutilatred:
4. Crippled by Prescription
5. Part of the Decay
6. Split from Inside
7. Prescribed Death
8. While It Floods
******************************
Total playing time: 29:22



[more=Extended info]В Лоу

From the Hellmouth:

Dave Vezdos - Bass (Solipsist, ex-By Their Blood)
Noah Buchanan - Bass, Guitars, Programming, Vocals (Reclaiming Elysium, Ron George, Solipsist, Nunslaughter (live), Arecibo)
Joe Lowrie - Drums (Reclaiming Elysium, Nunslaughter (live))
Alan Cassidy - Drums (The Black Dahlia Murder, Unbodied, ex-Cryptic Abuse, ex-Abigail Williams, ex-The Breathing Process, ex-Dead Ashore)
Nate Taddeo - Guitars
Allan Marcus - Guitars (lead) (Abysmal Dawn (live), Arecibo, ex-Dark Arena)



Mutilatred:

Nick Hale - Bass
Clay Lowe - Drums
Patrick Meyers - Guitars, Programming
Patrick McDonagh - Guitars, Vocals, Piano
[/more]

[more=Technical info]
Input File: 04-from_the_hellmouth_and_mutilatred-crippled_by_prescription-4994e2b5.mp3
Channels : 2
Sample Rate : 44100
Precision : 16-bit
Duration : 00:02:23.19 = 6314811 samples = 10739.5 CDDA sectors
File Size : 5.73M
Bit Rate : 320k
Sample Encoding: MPEG audio (layer I, II or III)
Comments :
Title=Crippled by Prescription
Artist=Mutilatred
Album=From the Hellmouth/Mutilatred (Split)
Tracknumber=4
Year=2017
Genre=Brutal Death Metal

[/more]

Register
(2) Rosen, THROWER666,
Aug 4 2017, 08:35:07 Deep Purple - Johnny's Band [single] (2017)


*Artist: Deep Purple
*Album: Johnny's Band [single]
*Year: 2017
*Genre: Heavy Metal/Hard Rock
*Country: United Kingdom
*Format: mp3@CBR320kbps
*Size: 58MB

Tracklist:
1. Johnny's Band
2. In and Out Jam
3. Strange Kind of Woman [Live]
4. The Mule [Live]
5. Hell to Pay [Live]
******************************
Total playing time: 24:04



[more=Extended info]Line - up:

Ian Paice - Drums, Percussion (ex-Gary Moore, ex-Green Bullfrog, ex-Paice, Ashton & Lord, ex-The Maze, ex-The MI 5, ex-The Shindigs, ex-Whitesnake)
Roger Glover - Bass, Vocals (Roger Glover, ex-Rainbow, ex-David Coverdale Band, ex-Episode Six, ex-Gillan & Glover, ex-Marlon)
Ian Gillan - Vocals (ex-WhoCares, Ian Gillan Band, ex-Black Sabbath, ex-Episode Six, ex-Garth Rockett and the Moonshiners, ex-Gillan, ex-Gillan & Glover, ex-The Javelins)
Steve Morse - Guitars, Vocals (Angelfire, Dixie Dregs, Flying Colors, Steve Morse Band, ex-Kansas, ex-Living Loud)
Don Airey - Keyboards, Organ (Don Airey, ex-Empire, ex-Ozzy Osbourne, ex-Rainbow, ex-The Cage, ex-Dario Mollo's Crossbones (live), ex-Divlje Jagode (live), ex-Air Pavilion, ex-Andrew Lloyd Webber, ex-Colosseum II, ex-Cozy Powell, ex-Gary Moore, ex-Hammer, ex-Jethro Tull, ex-Living Loud, ex-Michael Schenker Group, ex-Quatermass, ex-Ten, ex-The Company of Snakes, ex-Wishbone Ash, ex-Graham Bonnet (live), ex-Micky Moody (live), ex-The Snakes (live), ex-Uli Jon Roth (live))
[/more]

[more=Technical info]
Input File: 04. The Mule (Live in Gaevle).mp3
Channels : 2
Sample Rate : 44100
Precision : 16-bit
Duration : 00:05:48.01 = 15347329 samples = 26100.9 CDDA sectors
File Size : 14.0M
Bit Rate : 321k
Sample Encoding: MPEG audio (layer I, II or III)
Comments :
Title=The Mule (Live in Gaevle)
Artist=Deep Purple
Album=Johnny's Band (Sinnngle)
Tracknumber=4
Year=2017
Genre=Heavy Metal / Hard Rock

[/more]

Register
(7) AndreFrancis, Aresson, cesar, Lord Noctua, shial, thenecromancer, VALERY,
Aug 4 2017, 08:00:56 Daemon Rising - When The Light Fades [ep] (2017)


*Artist: Daemon Rising
*Album: When The Light Fades [ep]
*Year: 2017
*Genre: Black Metal
*Country: United States
*Format: mp3@CBR320kbps
*Size: 71MB

Tracklist:
1. Deathknell
2. No Hope
3. Whore
4. Humanity Lost
5. Funeral Pyre
******************************
Total playing time: 32:16



[more=Extended info]Line - up:

Joseph Wrobel - Vocals, All instruments (Morbid Progeny)

[/more]

[more=Technical info]
Input File: 04-daemon_rising-humanity_lost-26acacb0.mp3
Channels : 2
Sample Rate : 44100
Precision : 16-bit
Duration : 00:06:10.74 = 16349678 samples = 27805.6 CDDA sectors
File Size : 14.8M
Bit Rate : 320k
Sample Encoding: MPEG audio (layer I, II or III)
Comments :
Title=Humanity Lost
Artist=Daemon Rising
Album=When the Light Fades (EP)
Tracknumber=4
Year=2017
Genre=138

[/more]

Register
(8) 1968_janeart, Blut aus Nord, Buregon, Rita, Rosen, stub888, VALERY, vasiljev_sergej,
Aug 4 2017, 07:39:55 U.D.O. - Live – Back To The Roots – Accepted! [live] (2017)


*Artist: U.D.O.
*Album: Live – Back To The Roots – Accepted! [live]
*Year: 2017
*Genre: Heavy Metal
*Country: Germany
*Format: mp3@CBR320kbps
*Size: 338MB

Tracklist:
Disc 1 (CD)
01. Intro
02. Starlight (Accept cover)
03. Living for Tonite (Accept cover)
04. Flash Rockin' Man (Accept cover)
05. London Leatherboys (Accept cover)
06. Midnight Mover (Accept cover)
07. Breaker (Accept cover)
08. Head Over Heels (Accept cover)
09. Neon Night (Accept cover)
10. Princess of the Dawn (Accept cover)
11. Winter Dreams (Accept cover)
12. Restless and Wild (Accept cover)
13. Son of a Bitch (Accept cover)
14. Up to the Limit (Accept cover)
Disc 2 (CD)
01. Wrong Is Right (Accept cover)
02. Midnight Highway (Accept cover)
03. Screaming for a Love-Bite (Accept cover)
04. Monsterman (Accept cover)
05. T.V. War (Accept cover)
06. Losers and Winners (Accept cover)
07. Metal Heart (Accept cover)
08. I’m a Rebel (Accept cover)
09. Fast as a Shark (Accept cover)
10. Balls to the Wall (Accept cover)
11. Burning (Accept cover)
12. Outro (Accept cover)
13. My Way (Accept cover) *
******************************
Total playing time: 2:20:33


Metal-archives

[more=Extended info]Line - up:

Udo Dirkschneider - Vocals (Dirkschneider, Metal All Stars, ex-Accept, ex-Sabaton (live))
Fitty Wienhold - Bass (ex-Bullet, Dirkschneider (live))
Andrey Smirnov - Guitars (Everlost, Flash of Aggression, Андрей Смирнов, Галактика, Blaze Bayley (live), Земляне, Dirkschneider (live), ex-Shadow Host, ex-Д.И.В.А., ex-Мастер, ex-Эпидемия (live))
Sven Dirkschneider - Drums (.damaged, Dirkschneider (live), ex-Saxon (live))

Guest/Session:

Kasperi Heikkinen - Guitars (Conquest, Merging Flare, ex-Iconofear, Beast In Black, Guardians of Mankind, ex-Amberian Dawn, ex-Gamma Ray (live), ex-Elenium, ex-Disease, ex-Dirkschneider (live))

[/more]

[more=Technical info]
Input File: 04. Flash Rockin\' Man.mp3
Channels : 2
Sample Rate : 44100
Precision : 16-bit
Duration : 00:04:04.38 = 10776938 samples = 18328.1 CDDA sectors
File Size : 9.78M
Bit Rate : 320k
Sample Encoding: MPEG audio (layer I, II or III)
Comments :
Title=Flash Rockin' Man
Artist=U.D.O.
Album=Live – Back To The Roots – Accepted! (Live)
Tracknumber=4
Year=2017
Genre=137

[/more]

Register
(21) ace73pq, AHBAnep, Aresson, aserius, Branis, Brann, BRUTAL06, cancer1974, caro, cesar, daggy, fabriziomagno, LEGION69, LightWizard, mintare, Necroeire, Rosen, Rover, RUSP73, russ777, wreak,
Aug 3 2017, 14:50:40 M.O.D. - Busted, Broke & American (2017)


*Artist: M.O.D.
*Album: Busted, Broke & American
*Year: 2017
*Genre: Thrash Metal/Hardcore/Crossover
*Country: United States
*Format: mp3@CBR320kbps
*Size: 78MB

Tracklist:
01. Eisenhower Was Right 00:28
02. The Final Declaration 02:13
03. You're a Fucking Dick 02:38
04. Busted, Broke & American 03:02
05. Fight 02:30
06. Hooligan 03:24
07. Billy Be Damned 02:36
08. Shattered Dreams & Broken Glass 02:57
09. They 02:53
10. All Out of Bubblegum 00:53
11. Go Go Revolution 03:51
12. Kennedy Speaks 05:20
******************************
Total playing time: 32:45



[more=Extended info]В лоу

Line - up:

Billy "Mosh" Milano - Vocals (ex-Stormtroopers of Death, United Forces, ex-Mastery, ex-Anthem, ex-The Psychos)
Tim "Tank" Casterline - Bass (ex-Mastery)
Ben Drinkin - Guitars (Born to Lose)
Jason Kottwitz - Guitars

Guest/Session:

Michael Arellano - Drums (Indisgust, Flawless Victory, Will to Live, ex-The Monk)
Mike DeLeon - Guitars (rhythm) (Being Killed, Flesh Hoarder, Philip H. Anselmo & the Illegals, ex-Bloodsoaked (live), ex-Disfigured)

[/more]

[more=Technical info]
Input File: 12 Kennedy Speaks.mp3
Channels : 2
Sample Rate : 44100
Precision : 16-bit
Duration : 00:05:20.19 = 14120335 samples = 24014.2 CDDA sectors
File Size : 12.8M
Bit Rate : 320k
Sample Encoding: MPEG audio (layer I, II or III)
Comments :
Title=Kennedy Speaks
Artist=M.O.D. (Method Of Destruction)
Album=Busted, Broke & American
Tracknumber=12
Year=2017
Genre=Thrash Metal / Hardcore / Crossover

[/more]

Register
(12) boby9052, Boozer, desekrator, djsema4, Golfzilla, infozahist, killingod, LightWizard, metala, neoatheist, raattent, Rosen,
Aug 3 2017, 13:11:26 Eukaryst - Eukaryst [ep] (2017)


*Artist: Eukaryst
*Album: Eukaryst [ep]
*Year: 2017
*Genre: Progressive Death Metal
*Country: United States
*Format: mp3@CBR128kbps
*Size: 18MB

Tracklist:
1. Anthropophagy 05:40
2. Eucharist 05:28
3. Lost Tribe 07:18
******************************
Total playing time: 18:26



[more=Extended info]Line - up:

Gino Fontana - Bass
Chasemen Waggoner - Guitars
Belisario Dimuzio - Guitars (Cattle Decapitation (live))
Ben Marotta - Vocals (Darkale)
Dylan Marks - Drums (Fermentor, Raise the Guns)

[/more]

Register
(1) Hallelucination,
Aug 2 2017, 16:46:21 Erebor - Erebor Re-EP [ep] (2016)


*Artist: Erebor
*Album: Erebor Re-EP [ep]
*Year: 2016
*Genre: Technical Progressive Death Metal
*Country: United Kingdom
*Format: mp3@CBR320kbps
*Size: 32MB

Tracklist:
1. Malignant Tumour 04:21
2. Insurmountable Ascent 03:26
3. The Unevolved 02:31
4. Monolith To Inhumanity 03:20
******************************
Total playing time: 13:38



[more=Extended info]Line - up:

Will Unwin - Bass
Tom Unwin - Drums (ex-Eternal Ruler)
Matt Bennett - Guitars (ex-Eternal Ruler)
Jordan Giles - Guitars, Vocals (ex-Eternal Ruler)
Ryan Thirtle - Vocals (ex-Eternal Ruler, ex-Mancuerda, ex-Silence Fiction)

[/more]

[more=Technical info]
Input File: 02. Insurmountable Ascent.mp3
Channels : 2
Sample Rate : 48000
Precision : 16-bit
Duration : 00:03:26.16 = 9895824 samples ~ 15462.2 CDDA sectors
File Size : 8.25M
Bit Rate : 320k
Sample Encoding: MPEG audio (layer I, II or III)
Comments :
Title=Insurmountable Ascent
Artist=Erebor
Album=Erebor Re-EP (EP)
Tracknumber=2
Year=2016
Genre=Technical Progressive Death Metal

[/more]

Register
(3) Hell_Is_Here, Rosen, wreak,
Aug 2 2017, 05:32:11 Crossfaith - Freedom [ep] (2017)


*Artist: Crossfaith
*Album: Freedom [ep]
*Year: 2017
*Genre: Electronic Metalcore/Melodic Groove Metal
*Country: Japan
*Format: mp3@CBR320kbps
*Size: 25MB

Tracklist:
1. Freedom 03:21
2. Rockstar Steady 03:40
3. Diavolos 03:41
******************************
Total playing time: 10:42



[more=Extended info]Line - up:

Terufumi Tamano - Keyboards, Synthesizers, Programming, Vocals (backing)
Tatsuya Amano - Drums, Percussion
Kazuki Takemura - Guitars
Kenta Koie - Vocals (lead)
Hiroki Ikegawa - Bass

Guest/Session:

Rou Reynolds - Vocals (track 1)

[/more]

[more=Technical info]
Input File: 02 Rockstar.mp3
Channels : 2
Sample Rate : 44100
Precision : 16-bit
Duration : 00:03:40.53 = 9725461 samples = 16539.9 CDDA sectors
File Size : 8.82M
Bit Rate : 320k
Sample Encoding: MPEG audio (layer I, II or III)
Comments :
Title=Rockstar Steady (feat. Jesse)
Artist=Crossfaith
Album=Freedom (EP)
Tracknumber=2
Year=2017
Genre=Electronic Metalcore / Melodic Groove Metal

[/more]

Register
(5) Bloodn Lord, gwar, Reverend, Rosen, varlam4,
Aug 1 2017, 19:18:30 Engraved - Brainbasher [ep] (2016)


*Artist: Engraved
*Album: Brainbasher [ep]
*Year: 2016
*Genre: Death Metal
*Country: Netherlands
*Format: mp3@CBR320kbps
*Size: 50MB

Tracklist:
1. Violent Asphyxiation 03:59
2. Swallow Your Pride 03:42
3. Brainbasher 03:35
4. Arterectomy 03:53
5. Submerged in Blood 05:02
******************************
Total playing time: 20:11



[more=Extended info]My flac rip

Line- up:

Marcel Tjepkema - Vocals (ex-Deathrage, ex-Monism)
Rico Ludmann - Drums
Kerem Aksoy - Bass
Merijn Groeneveld - Guitars (lead)

[/more]

[more=Technical info]
Input File: 02. Swallow your Pride.mp3
Channels : 2
Sample Rate : 48000
Precision : 16-bit
Duration : 00:03:46.61 = 10877328 samples ~ 16995.8 CDDA sectors
File Size : 9.06M
Bit Rate : 320k
Sample Encoding: MPEG audio (layer I, II or III)
Comments :
Title=Swallow your Pride
Artist=Engraved
Album=Brainbasher (EP)
Tracknumber=2
Year=2016
Genre=Death Metal

[/more]

Register
(10) Buregon, dasreichss, METALHUNTER, Mist13Signifier, MMMMM, Razorbladeswaltz, Rosen, varlam4, vyacheslav, wreak,
Aug 1 2017, 18:32:13 Enemy Mind - No Safe Place (2017)


*Artist: Enemy Mind
*Album: No Safe Place
*Year: 2017
*Genre: Death Metal/Hardcore
*Country: United States
*Format: mp3@VBR220kbps
*Size: 52MB

Tracklist:
1. The Ending 02:49
2. Giving Up 03:41
3. It Just Gets Worse 03:36
4. Unlearn Purpose 04:08
5. Word to God 03:10
6. The Weight of Guilt 03:58
7. Dead Wrong 03:18
8. Cross the Line 02:44
9. The Time That Passed 03:03
******************************
Total playing time: 30:27



[more=Extended info]Line - up:

Marc - Bass
AJ - Drums
Andy Kichi - Guitars (No Reason to Live, Storm King)
Joe - Guitars
Mike Greenfield - Vocals

[/more]

Register
(6) Buregon, jollo, METALHUNTER, Rosen, varlam4, vyacheslav,
Aug 1 2017, 17:26:54 Endlight - Darker Than Dreams [ep] (2017)


*Artist: Endlight
*Album: Darker Than Dreams [ep]
*Year: 2017
*Genre: Folk/Melodic Death Metal
*Country: United States
*Format: mp3@CBR320kbps
*Size: 50MB

Tracklist:
1. Vethes Ariv 04:17 instrumental
2. Frost on the Wind 08:22
3. Worldreaver's Cry 08:38
******************************
Total playing time: 21:17



[more=Extended info]Line - up:

Farazael - Drums
Morríghan - Flute
Vykaztos - Guitars (lead)
Opteryx - Vocals, Bass
Skaal - Guitars (rhythm)
Azdaja - Vocals (female)

[/more]

[more=Technical info]
Input File: 01. Vethes Ariv.mp3
Channels : 2
Sample Rate : 48000
Precision : 16-bit
Duration : 00:04:17.79 = 12373776 samples ~ 19334 CDDA sectors
File Size : 10.4M
Bit Rate : 323k
Sample Encoding: MPEG audio (layer I, II or III)
Comments :
Title=Vethes Ariv
Artist=Endlight
Album=Darker Than Dreams (EP)
Tracknumber=1
Year=2017
Genre=Folk / Melodic Death Metal

[/more]

Register
(13) Buregon, Cartman223, djsema4, fabriziomagno, gwar, kimkayoung, Mogozoz, oldvarg, Olrak, Ratibor366, Rosen, varlam4, Visitor,
Aug 1 2017, 06:46:27 Endless Loss - Live Terror Transmission​!! [live] (2016)


*Artist: Endless Loss
*Album: Live Terror Transmission​!! [live]
*Year: 2016
*Genre: Black/Death Metal/Crust
*Country: Australia
*Format: mp3@CBR320kbps
*Size: 62MB

Tracklist:
1. Weeping World 06:17
2. Solitary Starless Beast 06:24
3. Stranger Than Kindness (Nick Cave and the Bad Seeds cover) 04:46
4. Trepanation 08:11
******************************
Total playing time: 25:38



[more=Technical info]
Input File: 01. Weeping World.mp3
Channels : 2
Sample Rate : 48000
Precision : 16-bit
Duration : 00:06:17.57 = 18123408 samples ~ 28317.8 CDDA sectors
File Size : 15.1M
Bit Rate : 320k
Sample Encoding: MPEG audio (layer I, II or III)
Comments :
Title=Weeping World
Artist=Endless Loss
Album=Live Terror Transmission!! (Live)
Tracknumber=1
Year=2016
Genre=Black / Death Metal / Crust

[/more]

Register
(3) kimkayoung, marilin, Rosen,
Jul 31 2017, 19:14:24 Encephalo Swarm - Elephants Dominate The World [ep] (2016)


*Artist: Encephalo Swarm
*Album: Elephants Dominate The World [ep]
*Year: 2016
*Genre: Brutal Death Metal/Grindcore
*Country: Brazil
*Format: mp3@VBR236kbps
*Size: 16MB

Tracklist:
1. Elephants Dominate the World 02:28
2. Fabulous Death 02:59
3. Eating Dog 03:06
******************************
Total playing time: 8:33



[more=Extended info]Line - up:

Érdos - Vocals (V/H/S)
Bell M. - Guitars, Drum programming (V/H/S)

[/more]

Register
(4) Hell_Is_Here, Rosen, vyacheslav, wreak,
Jul 31 2017, 18:39:43 Empyrean Throne - Ov Fire And The Void [single] (2016)


*Artist: Empyrean Throne
*Album: Ov Fire And The Void [single]
*Year: 2016
*Genre: Technical Black/Death Metal
*Country: United States
*Format: flac
*Size: 59MB

Tracklist:
1. Ov Fire and the Void (Behemoth cover) 07:01
******************************
Total playing time: 7:01



[more=Extended info]Line - up:

Mike Brennan - Guitars
Andrew Knudsen - Vocals
Leviathan - Drums (ex-Dawn of Ashes, ex-Urilia)
Spencer Strange - Guitars (Demise of Itylus)

[/more]

Register
(1) Sanc,
Jul 31 2017, 17:54:49 Empyreal - Psalms Of Forlorn Hope [ep] (2016)


*Artist: Empyreal
*Album: Psalms Of Forlorn Hope [ep]
*Year: 2016
*Genre: Blackened Death Metal
*Country: Germany
*Format: mp3@CBR320kbps
*Size: 51MB

Tracklist:
1. Psalms of Forlorn Hope 06:03
2. In Vain 05:18
3. Into the Void 05:48
4. Vengeance Is My God 05:51
******************************
Total playing time: 23:00



[more=Extended info]Line - up:

Dennis Schneider - Guitars (lead) (Backslash, Retaliation, Soul Demise, ex-Hateprison, Pandora, ex-Agony and Scream, ex-Candero, ex-Final Breath)
Heiko Heckner - Bass (Retaliation, Pandora)
Jonathan Keller - Drums (ex-Atopie, ex-Vehemenz)
Michael Bachmann - Vocals (Shattered)
Tobias Gold - Guitars (Infected Authoritah)

[/more]

[more=Technical info]
Input File: 03-empyreal-into_the_void-1bdead39.mp3
Channels : 2
Sample Rate : 44100
Precision : 16-bit
Duration : 00:05:48.33 = 15361177 samples = 26124.5 CDDA sectors
File Size : 13.9M
Bit Rate : 320k
Sample Encoding: MPEG audio (layer I, II or III)
Comments :
Title=Into the Void
Artist=Empyreal
Album=Psalms of Forlorn Hope (EP)
Tracknumber=3
Year=2016
Genre=Blackened Death Metal

[/more]

Register
(8) Buregon, GuldenDraak, Hell_Is_Here, marilin, Rosen, THROWER666, vyacheslav, wreak,
Jul 31 2017, 17:41:53 Empty Grave - Who Will Save Us Now? (2016)


*Artist: Empty Grave
*Album: Who Will Save Us Now?
*Year: 2016
*Genre: Death Metal/Grindcore
*Country: Germany
*Format: mp3@CBR320kbps
*Size: 62MB

Tracklist:
01. Intro 01:01
02. Slave to Sin 03:49
03. Buy, Consume, Die! 00:43
04. Truth 02:29
05. No Religion 01:07
06. Blind 01:02
07. False Unity 01:14
08. Children of Wrath 02:42
09. Refugees 01:04
10. Creatures of Habit and Fallacy 02:10
11. Masterpiece 01:45
12. The Death of the Prophets of Baal 03:31
13. Turn Back 02:47
******************************
Total playing time: 25:24



[more=Extended info]My flac rip

Line - up:

Christoph Sonntag - Vocals
Daniel Grzanna - Vocals, Guitars, Bass, Drum programming

Guest/Session:

Norman Rausch - Vocals

[/more]

[more=Technical info]
Input File: 10. Creatures Of Habit And Fallacy.mp3
Channels : 2
Sample Rate : 48000
Precision : 16-bit
Duration : 00:02:11.02 = 6288912 samples ~ 9826.43 CDDA sectors
File Size : 5.24M
Bit Rate : 320k
Sample Encoding: MPEG audio (layer I, II or III)
Comments :
Title=Creatures Of Habit And Fallacy
Artist=Empty Grave
Album=Who Will Save Us Now?
Tracknumber=10
Year=2016
Genre=Death Metal / Grindcore

[/more]

Register
(7) andreikun, Buregon, Hell_Is_Here, jollo, METALHUNTER, Rosen, vyacheslav,
Jul 31 2017, 16:40:20 Eminent Slaughter - Stench [ep] (2017)


*Artist: Eminent Slaughter
*Album: Stench [ep]
*Year: 2017
*Genre: Death Metal
*Country: United States
*Format: mp3@CBR128kbps
*Size: 19MB

Tracklist:
1. Endless 03:11
2. Stench 03:27
3. Human Prey 02:28
4. Hang the Rope 02:48
5. Forever Trapped 04:13
6. Your Death Eternal 03:43
******************************
Total playing time: 19:50



[more=Extended info]Line - up:

Andrew Russell - Drums
James Basham - Guitars (lead)
Chris Hanners - Vocals (backing), Guitars, Bass
Jason Harvard - Guitars, Bass
Adam Grubb - Vocals

[/more]

Register
(1) Rosen,
Jul 31 2017, 13:18:48 Embryopathia - Blastology 2011 - 2015 [best of/compilation] (2016)


*Artist: Embryopathia
*Album: Blastology 2011 - 2015 [best of/compilation]
*Year: 2016
*Genre: Brutal Death Metal
*Country: France
*Format: mp3@CBR128kbps
*Size: 24MB

Tracklist:
01. Lacerated Cunt Lips 02:11
02. Embalming the Dead 01:18
03. Forced Deglutition 01:05
04. Fetus Carved 00:38
05. Fluxing Flesh 01:00
06. Temporary Sexual Psychosis 00:38
07. Embryonic Execration 01:16
08. Umbillical Excoriation 02:27
09. Necromantic Spew 01:32
10. Constrastic Clonage 01:12
11. Bloody Embryonic Autopsy 00:47
12. Inconsistent Mass of Clottage Foetal Pulp 02:39
13. Embryorgasm 02:32
14. Embralternance 01:05
15. Embrugeria 01:10
16. 884 00:44
17. Bizarre 01:00
18. Infection Part 1 01:03
19. Infection Part 2 00:37
******************************
Total playing time: 24:54



[more=Extended info]Line - up:

Seb - Bass, Vocals
Guyome - Drums, Vocals (Baptized in Vaginal Liquid, Pulmonary Fibrosis, The Bottle Doom Lazy Band, ex-Gorified, Corporal Abuse, ex-Obtenebratum, ex-Mixomatosis)
Adrien - Guitars, Vocals (Baptized in Vaginal Liquid, Pulmonary Fibrosis)
Yanosh - Vocals (Baptized in Vaginal Liquid, Pulmonary Fibrosis)

[/more]

Register
(1) Rosen,
Jul 30 2017, 18:06:22 Tormental - Future Dead Beings (Live Session Pt. 1) [live] (2017)


*Artist: Tormental
*Album: Future Dead Beings (Live Session Pt. 1) [live]
*Year: 2017
*Genre: Death/Thrash Metal
*Country: Mexico
*Format: mp3@CBR320kbps
*Size: 54MB

Tracklist:
1. Tremors 04:50
2. Never Stop the Madness 05:45
3. Massive Endless Black 05:27
4. Bloodborne 06:41
******************************
Total playing time: 22:43



[more=Extended info]Line - up:

Rex Sanchez - Bass
Cesar Salazar - Drums
Eddy Ibarra - Guitars
Ro Montalvo - Guitars
Rzt Hernández - Vocals

[/more]

[more=Technical info]
Input File: 02. Never Stop The Madness.mp3
Channels : 2
Sample Rate : 48000
Precision : 16-bit
Duration : 00:05:45.56 = 16586640 samples ~ 25916.6 CDDA sectors
File Size : 13.8M
Bit Rate : 320k
Sample Encoding: MPEG audio (layer I, II or III)
Comments :
Title=Never Stop The Madness
Artist=Tormental
Album=Future Dead Beings (Live Session EP Pt. 1) (Live)
Tracknumber=2
Year=2017
Genre=Death / Thrash Metal

[/more]

Register
(4) Diflock, METALHUNTER, Rosen, wreak,
Jul 30 2017, 17:09:51 Wretched Abomination - American Insecurities [ep] (2017)


*Artist: Wretched Abomination
*Album: American Insecurities [ep]
*Year: 2017
*Genre: Death Metal
*Country: United States
*Format: mp3@CBR320kbps
*Size: 54MB

Tracklist:
1. 9/11 Is My Favorite Holiday 04:39
2. I Don't Give a Fuck About Carrie Fisher 06:08
3. I Didn't Want to Go to Iraq Anyway 04:17
4. My Church Can Beat Up Your Church 04:15
5. Big Brother's into Incest 02:33
******************************
Total playing time: 21:52



[more=Extended info]Line - up:

Josh Morris - Bass
Jeremy Linehan - Drums
Tyler Amell - Guitars
The Strawman - Vocals

[/more]

[more=Technical info]
Input File: 05. Big Brother\'s Into Incest.mp3
Channels : 2
Sample Rate : 48000
Precision : 16-bit
Duration : 00:02:33.46 = 7366032 samples ~ 11509.4 CDDA sectors
File Size : 6.14M
Bit Rate : 320k
Sample Encoding: MPEG audio (layer I, II or III)
Comments :
Title=Big Brother's Into Incest
Artist=Wretched Abomination
Album=American Insecurities (EP)
Tracknumber=5
Year=2017
Genre=22

[/more]

Register
(4) Hell_Is_Here, Rosen, vyacheslav, wreak,
Jul 29 2017, 20:47:30 Eldritch - Crafting A Portal To The Unspeakable Realm [ep] (2017)


*Artist: Eldritch
*Album: Crafting A Portal To The Unspeakable Realm [ep]
*Year: 2017
*Genre: Psychedelic Doom/Death Metal
*Country: United States
*Format: flac
*Size: 121MB

Tracklist:
1. Dimension Gate 03:47
2. Hymn of Demise 03:10
3. Serpents and Wyrms 03:32
4. Deepest Valley 06:58
******************************
Total playing time: 17:27



Register
(2) BERZERK, SatanicPanzer,

64 Pages V  « < 50 51 52 53 54 > » 
- Lo-Fi Version Support form
Copyrights and abuse reports form
Time is now: 16th June 2019 - 05:37:33