Welcome Guest ( Log In | Register )

История благодарностей участнику necroscum ::: Спасибо сказали: 357536 раз(а)
Дата поста: В теме: За сообщение: Спасибо сказали:
Yesterday, 11:32:04 Host - Host [best of/compilation] (2008)
320:

Register

(1) Ostinato,
Yesterday, 04:44:30 Scars Of Phoenix - The Empire Of Greed (2018)


*Artist: Scars Of Phoenix
*Album: The Empire Of Greed
*Year: 2018
*Genre: Modern Melodic Death Metal
*Country: Sweden
*Format: mp3@CBR320kbps
*Size: 69MB

Tracklist:
01. Welcome to Oblivion
02. Surveillance
03. Janus
04. Plague of the Mind
05. Enola
06. The Third Eye
07. The Desert of the Real
08. Lazarus
09. Fall of the Empire
******************************
Total playing time: 30:05

[more=Technical info]
Input File: 02. Surveillance.mp3
Channels : 2
Sample Rate : 44100
Precision : 16-bit
Duration : 00:02:48.19 = 7417091 samples = 12614.1 CDDA sectors
File Size : 6.73M
Bit Rate : 320k
Sample Encoding: MPEG audio (layer I, II or III)
Comments :
Title=Surveillance
Artist=Scars of Phoenix
Album=The Empire of Greed
Tracknumber=2/9
Year=2018

[/more]

Register
(3) Rosen, terron, VALERY,
Aug 15 2018, 04:31:20 The Mortal World - San Qian Da Qian Shi Jie (2017)


*Artist: The Mortal World
*Album: San Qian Da Qian Shi Jie
*Year: 2017
*Genre: Black Metal
*Country: China
*Format: mp3@CBR320kbps
*Size: 105MB

Tracklist:
01. Intro
02. Jing wu gen
03. Yi zhen fa jie
04. A bi ye
05. Wu xiang ying
06. Zhong yin shen
07. Wu sheng bu wu sheng
08. San qian da qian shi jie
09. Shi ming shi jie
******************************
Total playing time: 46:02

[more=Technical info]
Input File: 02. Jing wu gen.mp3
Channels : 2
Sample Rate : 44100
Precision : 16-bit
Duration : 00:05:48.13 = 15352533 samples = 26109.8 CDDA sectors
File Size : 13.9M
Bit Rate : 320k
Sample Encoding: MPEG audio (layer I, II or III)
Comments :
Title=Jing wu gen
Artist=The Mortal World
Album=San qian da qian shi jie
Tracknumber=2/9
Year=2018

[/more]

Register
(4) kim666, VALERY, vasiljev_sergej, volostakoeto,
Aug 14 2018, 12:51:30 Al Goregrind - Nerdgasm Sci-Fi Deathmetal [ep] (2017)


*Artist: Al Goregrind
*Album: Nerdgasm Sci-Fi Deathmetal [ep]
*Year: 2017
*Genre: Brutal Death Metal/Goregrind
*Country: Germany
*Format: mp3@CBR320kbps
*Size: 35MB

Tracklist:
01. Burnham Chose Well 03:46
02. I'll Be At The Angry Dome 03:25
03. Exterminate 04:46
04. The Force Is My Will 03:16
******************************
Total playing time: 15:13




[more=Technical info]
Input File: 02. I\'ll Be At The Angry Dome.mp3
Channels : 2
Sample Rate : 44100
Precision : 16-bit
Duration : 00:03:25.52 = 9063256 samples = 15413.7 CDDA sectors
File Size : 8.27M
Bit Rate : 322k
Sample Encoding: MPEG audio (layer I, II or III)
Comments :
Title=I'll Be At The Angry Dome
Artist=Al Goregrind
Album=Nerdgasm Sci-fi Deathmetal
Tracknumber=2
Year=2017

[/more]

Register
(4) Rosen, uk82, vyacheslav, zotyo1975,
Aug 14 2018, 12:17:27 Bend The Sky - Expanse (2018)


*Artist: Bend The Sky
*Album: Expanse
*Year: 2018
*Genre: Instrumental/Symphonic/Progressive Metal
*Country: Australia
*Format: mp3@CBR320kbps
*Size: 106MB

Tracklist:
01. Intro 02:04
02. Navigator 06:18
03. Disintegrate 07:31
04. Interstitial 03:32
05. Recreate 05:37
06. Harbinger 06:47
07. Pilgrimage 08:34
08. Home 05:25
******************************
Total playing time: 45:48





[more=Technical info]
Input File: 02. Navigator.mp3
Channels : 2
Sample Rate : 44100
Precision : 16-bit
Duration : 00:06:18.14 = 16676106 samples = 28360.7 CDDA sectors
File Size : 15.2M
Bit Rate : 321k
Sample Encoding: MPEG audio (layer I, II or III)
Comments :
Title=Navigator
Artist=Bend The Sky
Album=Expanse
Tracknumber=2
Year=2018

[/more]

Register
(2) libertine, MeatWolf,
Aug 13 2018, 13:06:45 Brutal Sphincter - Analhu Akbar (2018)


*Artist: Brutal Sphincter
*Album: Analhu Akbar
*Year: 2018
*Genre: Brutal Death Metal/Goregrind
*Country: Belgium
*Format: mp3@CBR320kbps
*Size: 80MB

Tracklist:
01. Sphinctroduction 00:39
02. Hijab Is Feminism 01:49
03. Autistic Meltdown 01:58
04. N-VA Nazi Vlaams Alliantie 01:39
05. Marc Dutroux National Hero 02:05
06. Kathoey Story 02:00
07. Big Mouth, Tiny Hands 02:00
08. Make Goregrind Great Again 01:40
09. Alex Jones The Reptiloid King 02:06
10. We're All Scum 02:10
11. Prohibit Anime 02:17
12. Infibulation Championship 01:54
13. Analhu Akbar 01:37
14. Anders Breivik Utoya Party 02:02
15. Raped By Elephants 03:57
16. Goregrind Number One 01:36
******************************
Total playing time: 31:29





[more=Technical info]
Input File: 02. Hijab is Feminism.mp3
Channels : 2
Sample Rate : 44100
Precision : 16-bit
Duration : 00:01:49.85 = 4844561 samples = 8239.05 CDDA sectors
File Size : 4.90M
Bit Rate : 357k
Sample Encoding: MPEG audio (layer I, II or III)
Comments :
Title=Hijab is Feminism
Artist=Brutal Sphincter
Album=Analhu Akbar
Tracknumber=2
Year=2018
Genre=Metal

[/more]

Register
(8) andreikun, Aphotic, jollo, Moonshtook, Rosen, RotAnus, vyacheslav, WX419,
Aug 13 2018, 12:08:35 Puppies N Kittens - The Robert Garcia Sessions Vol 1 [ep] (2018)


*Artist: Puppies N Kittens
*Album: The Robert Garcia Sessions Vol 1 [ep]
*Year: 2018
*Genre: Death Metal/Grindcore
*Country: United States
*Format: mp3@CBR320kbps
*Size: 57MB

Tracklist:
01. You Think Your're Better Than Me 02:36
02. Instrumental 1 04:36
03. Bud Nipper 01:47
04. Fuckin Test Me 01:55
05. Corn Hub 01:37
06. Fuckin Clown 02:28
07. Noise Check 00:10
08. Instrumental 2 05:04
09. Blissfully Inadequate 03:14
10. God Damn Sissy 01:10
******************************
Total playing time: 24:37



[more=Technical info]
Input File: 02. Instrumental 1.mp3
Channels : 2
Sample Rate : 44100
Precision : 16-bit
Duration : 00:04:36.73 = 12203793 samples = 20754.8 CDDA sectors
File Size : 11.2M
Bit Rate : 322k
Sample Encoding: MPEG audio (layer I, II or III)
Comments :
Title=Instrumental 1
Artist=Puppies N Kittens
Album=Puppies N Kittens The Robert Garcia Sessions vol 1
Tracknumber=2
Year=2018

[/more]

Register
(2) Rosen, vyacheslav,
Aug 13 2018, 11:50:15 Moe Secretion - Live In Akihabara (2018)


*Artist: Moe Secretion
*Album: Live In Akihabara
*Year: 2018
*Genre: Goregrind
*Country: Canada
*Format: mp3@CBR320kbps
*Size: 70MB

Tracklist:
01. Entrance Ceremony 01:40
02. Moshing Maid Cafe 01:38
03. Goth Neko 03:31
04. Kotatsu Trance 03:04
05. Erratic Twin Drills 00:56
06. The Moe The Merrier 02:07
07. Live In Akihabara 03:43
08. Gaijin Bastard 03:05
09. Manga Mincer 05:09
10. Hey Houkago Tea Time 01:10
11. The Melancholy Of Moe Secretion 04:29
******************************
Total playing time: 30:32




[more=Technical info]
Input File: 02. Moshing Maid Cafe.mp3
Channels : 2
Sample Rate : 44100
Precision : 16-bit
Duration : 00:01:38.15 = 4328283 samples = 7361.03 CDDA sectors
File Size : 4.00M
Bit Rate : 326k
Sample Encoding: MPEG audio (layer I, II or III)
Comments :
Title=Moshing Maid Cafe
Artist=Moe Secretion
Album=Live in Akihabara
Tracknumber=2
Year=2018

[/more]

Register
(3) andreikun, jollo, vyacheslav,
Aug 13 2018, 11:21:56 Nott - The Wretched Sounds (2018)


*Artist: Nott
*Album: The Wretched Sounds
*Year: 2018
*Genre: Death Metal/Deathcore
*Country: United States
*Format: mp3@CBR320kbps
*Size: 81MB

Tracklist:
01. Conference of the Arcane 00:45
02. The Wretched Sounds (feat. Tyler Shelton) 04:03
03. Luminous 04:37
04. The Carbon Lens 06:17
05. Devoid 01:42
06. Ablation 05:22
07. Terminus I: Barren (feat. CJ McMahon) 05:31
08. Terminus II: Ashen 06:56
******************************
Total playing time: 35:13





[more=Technical info]
Input File: 02. The Wretched Sounds (feat. Tyler Shelton).mp3
Channels : 2
Sample Rate : 44100
Precision : 16-bit
Duration : 00:04:02.98 = 10715462 samples = 18223.6 CDDA sectors
File Size : 9.72M
Bit Rate : 320k
Sample Encoding: MPEG audio (layer I, II or III)
Comments :
Title=The Wretched Sounds (feat. Tyler Shelton)
Artist=Nott
Album=The Wretched Sounds
Tracknumber=2/8
Year=2018

[/more]

Register
(4) infozahist, maochen, Rosen, terron,
Aug 10 2018, 12:12:34 Pus Drinkers & Gangrene Discharge - Pus Drinkers/Gangrene Discharge [split] (2018)


*Artist: Pus Drinkers & Gangrene Discharge
*Album: Pus Drinkers/Gangrene Discharge [split]
*Year: 2018
*Genre: Goregrind | Goregrind
*Country: United States | United States
*Format: mp3@CBR320kbps
*Size: 54MB

Tracklist:
Pus Drinkers:
01. Boiling Down Bodies 01:07
02. Unconscious Disembowelment 01:02
03. Drooling In Cut Open Bodys Stomach 01:07
04. Gouging Out Ear Drums For Sexual Gratifaction 01:03
05. Sucking Out The Rectum Spillage 01:23
06. Car Accidents And Laughing Gas 01:16
07. Drinking Piss 01:37
08. Choking On Your Kids Bones 00:52
09. Old School Tooth Removal 01:01
10. Facial Disfiguring Fetish 00:54
Gangrene Discharge:
11. Larynx Impalement 00:38
12. Smut Box 01:17
13. Defecative Demise (Writhe In Shit) 00:33
14. Projectile Bowel Movement 01:05
15. Cervix Removal 00:36
16. Fungating Festered Limb Burst 00:58
17. Lacerated Aorta Expungence 01:25
18. Gaping Anatomical Treasures 01:07
19. Muddy After-Amputation Putrilege 00:52
20. Liquified Mess Of Putrefactive Fluids 00:47
21. Hacked Human Entrails Beneath My Bed 00:56
22. Carnal Corpse Palor 00:40
******************************
Total playing time: 22:16



[more=Technical info]
Input File: 02. Unconscious Disembowelment.mp3
Channels : 2
Sample Rate : 44100
Precision : 16-bit
Duration : 00:01:02.20 = 2743020 samples = 4665 CDDA sectors
File Size : 2.64M
Bit Rate : 339k
Sample Encoding: MPEG audio (layer I, II or III)
Comments :
Title=Unconscious Disembowelment
Artist=Pus Drinkers
Album=Pus Drinkers/Gangrene Discharge
Tracknumber=2
Year=2018

[/more]

Register
(1) RotAnus,
Aug 9 2018, 12:20:45 Disinterested Handjob - Matrons And The Rectal Dilators [ep] (2018)


*Artist: Disinterested Handjob
*Album: Matrons And The Rectal Dilators [ep]
*Year: 2018
*Genre: Grindcore
*Country: Australia
*Format: mp3@CBR320kbps
*Size: 20MB

Tracklist:
01. Faecal Gravity 00:23
02. Internal Decapitation 00:45
03. At Least It's Not Human Urine 00:28
04. Screw 00:47
05. The Enrichment Of All Things Through Use Of Profanity 00:27
06. Guns For Show Knives For Go 00:29
07. Partial Birth Abortion 00:31
08. Brutal Deaf Metal 00:17
09. Cruelty Based Imagineering 00:37
10. Relocation Of The Beast 00:21
11. Matrons And The Rectal Dilators 01:02
******************************
Total playing time: 6:07




[more=Technical info]
Input File: 02. Internal Decapitation.mp3
Channels : 2
Sample Rate : 44100
Precision : 16-bit
Duration : 00:00:45.51 = 2006859 samples = 3413.03 CDDA sectors
File Size : 1.94M
Bit Rate : 341k
Sample Encoding: MPEG audio (layer I, II or III)
Comments :
Title=Internal Decapitation
Artist=Disinterested Handjob
Album=Matrons And The Rectal Dilators EP
Tracknumber=2
Year=2018

[/more]

Register
(1) terron,
Aug 8 2018, 20:32:16 Tiffany For Breakfast - Welcome The Scum (2018)


*Artist: Tiffany For Breakfast
*Album: Welcome The Scum
*Year: 2018
*Genre: Technical Death Metal/Deathcore
*Country: Germany
*Format: mp3@CBR320kbps
*Size: 126MB

Tracklist:
01. Fantasies of a Madman 05:45
02. Your World 02:41
03. Fall of Mankind 05:08
04. The Dishonoring 04:23
05. New Age 04:01
06. Breakfast 04:12
07. Rapist Punishment 03:28
08. Auric 04:43
09. Funeral of Parasites 04:57
10. Origin 07:34
11. Infernal Descent 03:43
12. Sunglasses at Night (Corey Hart Cover) 04:32
******************************
Total playing time: 55:07



[more=Technical info]
Input File: 02. Your World.mp3
Channels : 2
Sample Rate : 44100
Precision : 16-bit
Duration : 00:02:41.40 = 7117564 samples = 12104.7 CDDA sectors
File Size : 6.46M
Bit Rate : 320k
Sample Encoding: MPEG audio (layer I, II or III)
Comments :
Title=Your World
Artist=Tiffany For Breakfast
Album=Welcome the Scum
Tracknumber=2/12
Year=2018

[/more]

Register
(3) metala, Rosen, VALERY,
Aug 7 2018, 13:18:25 Embedded Flesh & Sebum Excess Production - Embedded Flesh/Sebum Excess Production [split] (2018)


*Artist: Embedded Flesh & Sebum Excess Production
*Album: Embedded Flesh/Sebum Excess Production [split]
*Year: 2018
*Genre: Goregrind | Goregrind
*Country: United States | Brazil
*Format: mp3@CBR320kbps
*Size: 35MB

Tracklist:
Embedded Flesh:
01. Exploding Heart 00:43
02. Melting 01:04
03. Cruel Ways Of Teaching 01:04
04. Congenital Burns And Deformations 01:05
05. Cycles Of Pulsating Epilepticus 00:50
06. Thymus Readings 01:08
07. Mentally Disordered And Thrown Out 00:54
08. Tumours 00:55
09. Get Brutally Sodomized 01:34
Sebum Excess Production:
10. Acne Cyst 01:16
11. Arachnoid Cyst 01:00
12. Baker's Cyst Or Popliteal Cyst 01:10
13. Bartholin's Cyst (Near The Vagina) 01:06
14. Breast Cyst 01:15
******************************
Total playing time: 15:04





[more=Technical info]
Input File: 11. Arachnoid cyst.mp3
Channels : 2
Sample Rate : 44100
Precision : 16-bit
Duration : 00:01:00.19 = 2654335 samples = 4514.18 CDDA sectors
File Size : 2.55M
Bit Rate : 339k
Sample Encoding: MPEG audio (layer I, II or III)
Comments :
Title=Arachnoid cyst
Artist=Sebum Excess Production
Album=Embedded Flesh/Sebum Excess Production
Tracknumber=11
Year=2018

[/more]

Register
(1) FUDEDOR,
Aug 7 2018, 12:55:59 Bxsxwxbx - Putrid Sex Dismemberment [ep] (2018)


*Artist: Bxsxwxbx
*Album: Putrid Sex Dismemberment [ep]
*Year: 2018
*Genre: Porno Goregrind
*Country: United States
*Format: mp3@CBR320kbps
*Size: 16MB

Tracklist:
01. Petrified Cum Sock 01:40
02. Scabbed Anal Tract Infection 01:19
03. Dead Prostitute Fisting 01:53
04. Drowned In Cunt Juice 01:16
05. Stench Of Coprophagia 00:26
06. Anal Miscarriage (Abosranie Bogom Cover) 00:46
******************************
Total playing time: 7:20



[more=Technical info]
Input File: 02. Scabbed Anal Tract Infection.mp3
Channels : 2
Sample Rate : 44100
Precision : 16-bit
Duration : 00:01:19.99 = 3527603 samples = 5999.32 CDDA sectors
File Size : 3.29M
Bit Rate : 329k
Sample Encoding: MPEG audio (layer I, II or III)
Comments :
Title=Scabbed Anal Tract Infection
Artist=BxSxWxBx
Album=Putrid Sex Dismemberment
Tracknumber=2
Year=2018

[/more]

Register
(1) uk82,
Aug 7 2018, 12:38:50 Botched Anastomosis J-Pouch - Sewer Clogged With Human Mush (2018)


*Artist: Botched Anastomosis J-Pouch
*Album: Sewer Clogged With Human Mush
*Year: 2018
*Genre: Goregrind
*Country: United States
*Format: mp3@CBR320kbps
*Size: 31MB

Tracklist:
01. Clogged Up Drain In Basement Of Serial Cannibal 00:50
02. Flesh Boiled From The Bone 00:40
03. Strips Of Peeled Epidermis Used As Window Curtains 00:43
04. Stalking The Lesser Dead 00:44
05. Toilet Evidence 00:37
06. Basic Human Hygiene Neglected From Overwhelming Urges Of Serial Murder 00:53
07. Pile Of Mangled Victims In My Bathroom 00:35
08. Intestinal Soup 00:38
09. This Sewer, My Domain 00:59
10. Raw Meat Subsistence 01:09
11. Luring Children Into Storm Drains For Diabolical Pseudo-Surgical Purposes 00:41
12. Festering Stomach Worms From Human Flesh Salmonella 00:40
13. Necrotizing Fever Dreams 00:43
14. Homeless Schizophrenic 00:43
15. Sculpting A Still Living Human Head Part I,II,III 01:53
******************************
Total playing time: 12:28




[more=Technical info]
Input File: 02. Flesh Boiled From the Bone.mp3
Channels : 2
Sample Rate : 44100
Precision : 16-bit
Duration : 00:00:40.26 = 1775290 samples = 3019.2 CDDA sectors
File Size : 1.84M
Bit Rate : 366k
Sample Encoding: MPEG audio (layer I, II or III)
Comments :
Title=Flesh Boiled From the Bone
Artist=Botched Anastomosis J-Pouch
Album=Sewer Clogged With Human Mush
Tracknumber=2
Year=2018

[/more]

Register
(1) FUDEDOR,
Aug 7 2018, 12:24:32 Botched Anastomosis J-Pouch - Dismantling The Abdominal Trunk For Crude Exploration Of Necrotizing Enterocolitis (2018)


*Artist: Botched Anastomosis J-Pouch
*Album: Dismantling The Abdominal Trunk For Crude Exploration Of Necrotizing Enterocolitis
*Year: 2018
*Genre: Goregrind
*Country: United States
*Format: mp3@CBR320kbps
*Size: 44MB

Tracklist:
01. Hung Corpses Used For Medical Advances 00:53
02. Bleached Skeleton 00:46
03. Ole Timey Leg Amputation 01:47
04. Bled Out In The Basement Drain 00:56
05. Filthy Bandages 01:09
06. Rotten Parasites Within My Digestive Tract 00:19
07. Churning Gut Pain (Intestinal Inflammation) 00:59
08. Bleeding Hemorrhoids Induced By Horrible Diet 00:55
09. Strenuous Rectal Hernia 00:40
10. Hallways Of The Obese Dead 00:44
11. Studious Death Research In 49 Year Old Subject 00:52
12. Sagging Gut Split By Precision (And The Scalpel) 00:53
13. To The Lab With The Colon Tissue Samples 00:34
14. Hosing Down The Slab 00:47
15. Graveyard Rendezvous 00:37
16. Secretions Of The Gastrointestinal Type 00:49
17. Concussion Induced Family Murder 00:50
18. Sinister Flying Headbutt 00:35
19. Strangled Wife (Left To Rot Upstairs) 00:50
20. Xanax To My Young Son (Murdered In His Sleep) 00:37
21. Weight Bench Suicide 00:41
22. Legacy Tarnished By Gruesome Impulsive Killings 00:46
******************************
Total playing time: 17:59




[more=Technical info]
Input File: 02. Bleached Skeleton.mp3
Channels : 2
Sample Rate : 44100
Precision : 16-bit
Duration : 00:00:46.21 = 2037993 samples = 3465.97 CDDA sectors
File Size : 2.00M
Bit Rate : 346k
Sample Encoding: MPEG audio (layer I, II or III)
Comments :
Title=Bleached Skeleton
Artist=Botched Anastomosis J-Pouch
Album=Dismantling The Abdominal Trunk For Crude Exploration of Necrotizing Enterocolitis
Tracknumber=2
Year=2018

[/more]

Register
(1) FUDEDOR,
Aug 7 2018, 11:44:52 Aryan Gangbang - Being A Nazi Is Gay [ep] (2018)


*Artist: Aryan Gangbang
*Album: Being A Nazi Is Gay [ep]
*Year: 2018
*Genre: Grindcore/Comedy
*Country: United States
*Format: mp3@CBR320kbps
*Size: 18MB

Tracklist:
01. You're In It For The Gimmick 00:29
02. Being A Nazi Is Gay 00:47
03. Eat My Shit! 01:05
04. Get Cucked! 00:23
05. Harsh Noise Wall Is Stupid 01:40
06. Hitler Was Gay 00:08
07. I Hate Nazis 00:06
08. I'm Sorry We Made This... 00:30
09. Jews Run The Media 00:09
10. Klan Gangbang 00:38
11. Maggot Race 00:13
12. Nazi Black Metal Sucks! 00:25
13. Shave Your Head Somewhere Else 00:06
14. Ska Is Kinda Fun 00:12
15. The Aryan Race Sucks 00:08
16. You're A Pussy! 00:13
******************************
Total playing time: 7:12



[more=Technical info]
Input File: 03. Eat My Shit!.mp3
Channels : 2
Sample Rate : 44100
Precision : 16-bit
Duration : 00:01:05.47 = 2887051 samples = 4909.95 CDDA sectors
File Size : 2.69M
Bit Rate : 329k
Sample Encoding: MPEG audio (layer I, II or III)
Comments :
Title=Eat My Shit!
Artist=Grotesque Discoveries
Album=Aryan Gangbang - Being A Nazi Is Gay
Tracknumber=3
Year=2018

[/more]

Register
(1) wendigo,
Aug 6 2018, 12:52:56 Masterdong - Welcome To The Dong Show [ep] (2018)


*Artist: Masterdong
*Album: Welcome To The Dong Show [ep]
*Year: 2018
*Genre: Grindcore/Crust
*Country: United States
*Format: mp3@CBR320kbps
*Size: 24MB

Tracklist:
01. Scraping Mold Off The Ceiling 01:32
02. Butthurt Remover 01:41
03. Suck On A 9 Volt 01:05
04. Long Story Short 01:25
05. Cocksmoker 02:26
06. Chewing On Tinfoil 00:33
07. Tribute Band Rock Star 01:45
******************************
Total playing time: 10:27



[more=Technical info]
Input File: 02. Butthurt Remover.mp3
Channels : 2
Sample Rate : 44100
Precision : 16-bit
Duration : 00:01:41.23 = 4464243 samples = 7592.25 CDDA sectors
File Size : 4.13M
Bit Rate : 326k
Sample Encoding: MPEG audio (layer I, II or III)
Comments :
Title=Butthurt Remover
Artist=Masterdong
Album=Welcome to the Dong Show
Tracknumber=2
Year=2018

[/more]

Register
(1) wgs73,
Aug 6 2018, 11:26:32 Slavehouse - Taste In Pain (2018)


*Artist: Slavehouse
*Album: Taste In Pain
*Year: 2018
*Genre: Black Metal/Punk
*Country: United States
*Format: mp3@CBR320kbps
*Size: 50MB

Tracklist:
01. Self Punishment 02:27
02. Fresh Meat 01:54
03. Spent 02:07
04. Höllenloch 02:34
05. Hands Of Death 01:56
06. Scorpion Whip 02:52
07. Savage Breed 02:46
08. Sacred Flesh 01:32
09. Putrefaction 03:29
******************************
Total playing time: 21:37




[more=Technical info]
Input File: 03. SPENT.mp3
Channels : 2
Sample Rate : 44100
Precision : 16-bit
Duration : 00:02:07.30 = 5613974 samples = 9547.57 CDDA sectors
File Size : 5.17M
Bit Rate : 325k
Sample Encoding: MPEG audio (layer I, II or III)
Comments :
Title=SPENT
Artist=SLAVEHOUSE
Album="Taste in Pain"
Tracknumber=3
Year=2018

[/more]

Register
(8) Ludwig Hagen, neoatheist, stub888, Tyrone, VALERY, varg-38ru, wgs73, Yanek,
Aug 6 2018, 11:06:15 Sainte Marie Des Loups - Sainte Marie Des Loups [ep] (2018)


*Artist: Sainte Marie Des Loups
*Album: Sainte Marie Des Loups [ep]
*Year: 2018
*Genre: Raw Black Metal
*Country: France
*Format: mp3@CBR320kbps
*Size: 66MB

Tracklist:
01. La Fin De L'hiver 06:20
02. Progéniture 05:47
03. Sermons Sanglants 05:51
04. Sainte Marie Des Loups 04:26
05. Insolence 04:46
06. Absurdités Et Blasphémes 01:42
******************************
Total playing time: 28:52



[more=Technical info]
Input File: 05. Insolence.mp3
Channels : 2
Sample Rate : 44100
Precision : 16-bit
Duration : 00:04:46.58 = 12638134 samples = 21493.4 CDDA sectors
File Size : 11.5M
Bit Rate : 321k
Sample Encoding: MPEG audio (layer I, II or III)
Comments :
Title=Insolence
Artist=Sainte Marie des Loups
Album=Sainte Marie des Loups
Tracknumber=5
Year=2018

[/more]

Register
(13) 1968_janeart, Boozer, kim666, marilin, morve, murian, nemx, Ostinato, Rosen, stub888, udt4050, varg-38ru, vasiljev_sergej,
Aug 3 2018, 12:16:33 Ancient Obscurity - Single 2018 [single] (2018)


*Artist: Ancient Obscurity
*Album: Single 2018 [single]
*Year: 2018
*Genre: Black/Doom Metal
*Country: Finland
*Format: mp3@CBR320kbps
*Size: 31MB

Tracklist:
01. Omniscient Dweller 06:13
02. Viimeiset Valheesi 04:28
03. Lopun Laulu 02:49
******************************
Total playing time: 13:30




[more=Technical info]
Input File: 02. Viimeiset Valheesi.mp3
Channels : 2
Sample Rate : 44100
Precision : 16-bit
Duration : 00:04:28.58 = 11844334 samples = 20143.4 CDDA sectors
File Size : 10.8M
Bit Rate : 323k
Sample Encoding: MPEG audio (layer I, II or III)
Comments :
Title=Viimeiset Valheesi
Artist=Ancient Obscurity
Album=Single 2018
Tracknumber=2
Year=2018

[/more]

Register
(9) 1968_janeart, Rosen, RUSP73, stub888, thenecromancer, VALERY, varg-38ru, varlam4, vasiljev_sergej,
Aug 2 2018, 12:20:54 Brake Fluid Injection - In My Groovy Feelings [ep] (2018)


*Artist: Brake Fluid Injection
*Album: In My Groovy Feelings [ep]
*Year: 2018
*Genre: Brutal Death Metal
*Country: United States
*Format: mp3@CBR320kbps
*Size: 21MB

Tracklist:
01. Painful Heartbreak (Intro) 01:19
02. Nonsensical Pseudohypermasculine Aphenphosmphobia 02:08
03. Through The Ashes Of Feelings (Rest In Peace) 01:43
04. My Gout Is Acting Up 02:07
05. Smooth Jazz 01:36
******************************
Total playing time: 8:53




[more=Technical info]
Input File: 02. Nonsensical Pseudohypermasculine Aphenphosmphobia.mp3
Channels : 2
Sample Rate : 44100
Precision : 16-bit
Duration : 00:02:08.82 = 5680786 samples = 9661.2 CDDA sectors
File Size : 5.32M
Bit Rate : 331k
Sample Encoding: MPEG audio (layer I, II or III)
Comments :
Title=Nonsensical Pseudohypermasculine Aphenphosmphobia
Artist=Brake Fluid Injection
Album=[2018] In My Groovy Feelings [EP]
Tracknumber=2
Year=2018

[/more]

Register
(3) cesar, Rosen, vyacheslav,
Aug 1 2018, 13:15:39 Perky Macabre - Spectral Connection [ep] (2018)


*Artist: Perky Macabre
*Album: Spectral Connection [ep]
*Year: 2018
*Genre: Grindcore
*Country: United States
*Format: mp3@VBR292kbps
*Size: 9MB

Tracklist:
01. Static Glance 00:19
02. Black Bag 00:21
03. Dissolve 00:13
04. The Fear 00:23
05. Beam Death 00:48
06. Reality Split 00:25
07. Die In The Light 00:10
08. Removed From Context 00:18
09. Erratic Dissociation 00:54
10. Spectral Connection 00:05
******************************
Total playing time: 3:56



[more=Technical info]
Input File: 02. Black Bag.mp3
Channels : 2
Sample Rate : 44100
Precision : 16-bit
Duration : 00:00:21.21 = 935405 samples = 1590.82 CDDA sectors
File Size : 901k
Bit Rate : 340k
Sample Encoding: MPEG audio (layer I, II or III)
Comments :
Title=Black Bag
Artist=Perky Macabre
Album=Spectral Connection
Tracknumber=2
Year=2018

[/more]

Register
(1) infiltrator,
Aug 1 2018, 12:51:32 Toxocara Canis & Lymphocytic & Shitwater Healing & Epidemic Pain - 4 Way Split [split] (2018)


*Artist: Toxocara Canis & Lymphocytic & Shitwater Healing & Epidemic Pain
*Album: 4 Way Split [split]
*Year: 2018
*Genre: Goregrind | Goregrind/Noisegrind | Goregrind | Goregrind/Noisegrind
*Country: United States | United Kingdom | United States | United States
*Format: mp3@CBR320kbps
*Size: 44MB

Tracklist:
Toxocara Canis:
01. Single Nucleotide Polymorphisms 01:00
02. Transmissible Spongiform Encephalopathy 01:21
03. Ischemic Cerebrovascular Bleeding 01:43
04. Methicillin-Resistant Staphylococcus Aureus 01:21
Lymphocytic:
05. Dead And Buried 00:34
06. Plague Of The Zombies 00:25
07. The Bottlebank Bummer 00:22
08. Double Barrel Face Removal 01:03
Shitwater Healing:
09. Vivid Toilet Dreams 00:48
10. Lobotomy Flush 00:37
11. Choked By Entrails 01:14
12. Wendy Overflow 01:07
Epidemic Pain:
13. Gnawing Through Rancid Tissues 02:26
14. Fun-Sized Coffins 01:40
15. Dancing Cadavers 01:32
******************************
Total playing time: 17:13




[more=Technical info]
Input File: 02. Transmissible Spongiform Encephalopathy.mp3
Channels : 2
Sample Rate : 44100
Precision : 16-bit
Duration : 00:01:21.56 = 3596708 samples = 6116.85 CDDA sectors
File Size : 3.54M
Bit Rate : 348k
Sample Encoding: MPEG audio (layer I, II or III)
Comments :
Title=Transmissible Spongiform Encephalopathy
Artist=Toxocara Canis
Album=4 Way Split CDr
Tracknumber=2
Year=2018

[/more]

Register
(2) infiltrator, Lanceatum,
Aug 1 2018, 06:04:22 Acts Of Swine - Sadistically Speaking (2018)


*Artist: Acts Of Swine
*Album: Sadistically Speaking
*Year: 2018
*Genre: Old School Death Metal
*Country: United States
*Format: mp3@CBR320kbps
*Size: 101MB

Tracklist:
01. Into Misery
02. Bludgeoned
03. Crib Cage
04. Implements of Hell
05. The Holy See Nothing
06. Conceal and Kill
07. Images of Tragedy
08. Phantom Mutilation
09. The Final Epoch
10. Lord of the Flies
******************************
Total playing time: 44:10




[more=Technical info]
Input File: 02. Bludgeoned.mp3
Channels : 2
Sample Rate : 44100
Precision : 16-bit
Duration : 00:04:51.42 = 12851402 samples = 21856.1 CDDA sectors
File Size : 11.7M
Bit Rate : 320k
Sample Encoding: MPEG audio (layer I, II or III)
Comments :
Title=Bludgeoned
Artist=Acts of Swine
Album=Sadistically Speaking
Tracknumber=2/10
Year=2018

[/more]

Register
(6) andreikun, cesar, judaz, metala, Rosen, VALERY,

1254 Pages V   1 2 3 > » 
- Lo-Fi Version Support form
Copyrights and abuse reports form
Time is now: 17th August 2018 - 00:14:55