Welcome Guest ( Log In | Register )

История благодарностей участнику necroscum ::: Спасибо сказали: 407301 раз(а)
Дата поста: В теме: За сообщение: Спасибо сказали:
Today, 14:50:28 Anakrosis - Perpetual Nightmare (2019)


*Artist: Anakrosis
*Album: Perpetual Nightmare
*Year: 2019
*Genre: Grindcore
*Country: Spain
*Format: mp3@CBR320kbps
*Size: 78MB

Tracklist:
01. Massacred Earth 03:56
02. Black Worms 04:04
03. Hilobi Bat 03:03
04. Atzera egite genetikoa 03:41
05. Garun marraskatuak 02:11
06. Apoptosia 04:13
07. Azkenengo adan 03:02
08. Azala zatika eroritzen 02:47
09. Zazpigarren zigilua 02:21
10. Nizkagarria 03:28
******************************
Total playing time: 32:46





[more=Technical info]
Input File: 02. Black Worms.mp3
Channels : 2
Sample Rate : 44100
Precision : 16-bit
Duration : 00:04:04.99 = 10804015 samples = 18374.2 CDDA sectors
File Size : 9.86M
Bit Rate : 322k
Sample Encoding: MPEG audio (layer I, II or III)
Comments :
Title=Black Worms
Artist=Anakrosis
Album=Perpetual Nightmare
Tracknumber=2
Year=2019
Discnumber=1

[/more]

Register
(1) A.L.Rapsod,
Yesterday, 16:05:23 Putrid Stu & Ocular Leech Infestation - Putrid Stu/Ocular Leech Infestation [split] (2019)


*Artist: Putrid Stu & Ocular Leech Infestation
*Album: Putrid Stu/Ocular Leech Infestation [split]
*Year: 2019
*Genre: Grindcore/Goregrind | Goregrind
*Country: United States | United States
*Format: mp3@CBR320kbps
*Size: 26MB

Tracklist:
Putrid Stu:
01. Sternly Stanky 01:16
02. Jon Ghouls 00:36
03. No-Shirt Mike 00:52
04. Rectal Erection 02:08
Ocular Leech Infestation:
05. Monster Fart Ventilation 01:01
06. Nippy Outdoor Swing Set 00:44
07. Mindset Beyond Repair 00:47
08. Plunging Off A Cliff Into The Sea Of The Hungry Orca Whales 00:18
09. Diarrhea Right Now! 00:36
10. Head Honcho Of Gore Heaven 00:35
11. Double Duty Dong 00:42
12. Burgers For Breakfast, Lunch, And Dinner (Followed By Cardiac Arrest) 00:25
******************************
Total playing time: 10:00




[more=Technical info]
Input File: 06. Nippy Outdoor Swing Set.mp3
Channels : 2
Sample Rate : 44100
Precision : 16-bit
Duration : 00:00:44.62 = 1967698 samples = 3346.43 CDDA sectors
File Size : 2.01M
Bit Rate : 360k
Sample Encoding: MPEG audio (layer I, II or III)
Comments :
Title=Nippy Outdoor Swing Set
Artist=Ocular Leech Infestation
Album=[2019] Split w/ Putrid Stu
Tracknumber=6
Year=2019

[/more]

Register
(3) morbidangelo, Rosen, satanist666,
Yesterday, 15:38:01 Fecality - It's Only Smellz... (2019)


*Artist: Fecality
*Album: It's Only Smellz...
*Year: 2019
*Genre: Porno Goregrind
*Country: Ukraine
*Format: mp3@CBR320kbps
*Size: 74MB

Tracklist:
01. Keep Calm! It's Only Smells 02:36
02. Wrong Hole Accident 01:46
03. Scars On Cunt 02:41
04. Don't Touch My Guitar With Your Fatty Fingers 01:57
05. To Be Peace Dove 02:46
06. Tea Bag 02:16
07. Peniscope 02:42
08. When The Nipples Bigger Than Titts 03:25
09. Anal Carnaval 01:42
10. Pray For Defecation 01:54
11. Clitcommander 01:41
12. Go Fuck Yourself 04:08
******************************
Total playing time: 29:34


Preview 2



[more=Technical info]
Input File: 02. Wrong Hole Accident.mp3
Channels : 2
Sample Rate : 44100
Precision : 16-bit
Duration : 00:01:46.25 = 4685581 samples = 7968.68 CDDA sectors
File Size : 4.74M
Bit Rate : 357k
Sample Encoding: MPEG audio (layer I, II or III)
Comments :
Title=Wrong Hole Accident
Artist=Fecality
Album=It's Only Smellz... (320)
Tracknumber=02
Year=2019
Genre=Metal

[/more]

Register
(8) andreikun, jollo, morbidangelo, Olethros, Rosen, RotAnus, satanist666, uk82,
Yesterday, 15:15:49 Arschloch, Der Das - Bad Trip (2019)


*Artist: Arschloch, Der Das
*Album: Bad Trip
*Year: 2019
*Genre: Goregrind
*Country: Mexico
*Format: mp3@CBR320kbps
*Size: 69MB

Tracklist:
01. Marihuana 03:16
02. 1000/36 (No Love For Cops, Only For Weed) 01:42
03. They Only Want Gore... But I Want Weed 02:12
04. Sickitisick 01:41
05. Illuminated (By Drugs) 02:08
06. Saca El Toque 01:29
07. Bad Trip 02:14
08. Si(Am)Igos 01:41
09. 666 Weed 02:44
10. Get High! 01:26
11. Potpride 01:53
12. Pure Evil, Bro 02:07
13. Der Kiffer 02:45
14. Oingoingkui (Desgarre Anal Cover) 01:40
15. Living/Suffering (2 Minuta Dreka Cover) 00:17
******************************
Total playing time: 29:15





[more=Technical info]
Input File: 02. 1000-36.mp3
Channels : 2
Sample Rate : 44100
Precision : 16-bit
Duration : 00:01:42.33 = 4512753 samples = 7674.75 CDDA sectors
File Size : 4.09M
Bit Rate : 320k
Sample Encoding: MPEG audio (layer I, II or III)
Comments :
Title=1000-36
Artist=Arschloch, Der Das
Album=Bad Trip
Tracknumber=2
Year=2019
Genre=Goregrind

[/more]

Register
(8) A.L.Rapsod, andreikun, jollo, morbidangelo, Olethros, popen13, Rosen, satanist666,
Dec 7 2019, 14:35:17 Teratocarcinomas - Subterranean Existence [ep] (2019)


*Artist: Teratocarcinomas
*Album: Subterranean Existence [ep]
*Year: 2019
*Genre: Brutal Death Metal/Goregrind
*Country: United States
*Format: mp3@CBR320kbps
*Size: 31MB

Tracklist:
01. The Virgin Split Wide Open 02:35
02. Subterranean Existence 02:49
03. Pavement Facial 02:53
04. Even Surgery Can't Fix You 02:25
05. Menstrual Digest 02:30
******************************
Total playing time: 13:12




[more=Technical info]
Input File: 03. Pavement Facial.mp3
Channels : 2
Sample Rate : 44100
Precision : 16-bit
Duration : 00:02:53.07 = 7632387 samples = 12980.2 CDDA sectors
File Size : 7.16M
Bit Rate : 331k
Sample Encoding: MPEG audio (layer I, II or III)
Comments :
Title=Pavement Facial
Artist=Teratocarcinomas
Album=Subterranean Existence EP
Tracknumber=3
Year=2019

[/more]

Register
(3) Olethros, Rosen, satanist666,
Dec 7 2019, 14:24:22 Teratocarcinomas - Long Rehearsal​ [demo] (2019)


*Artist: Teratocarcinomas
*Album: Long Rehearsal​ [demo]
*Year: 2019
*Genre: Brutal Death Metal/Goregrind
*Country: United States
*Format: mp3@CBR320kbps
*Size: 52MB

Tracklist:
01. Tearing Of Cartilage 03:31
02. Amputated Plaything 04:20
03. Live Dissection 04:41
04. Stillborns Are Just As Fresh... 05:14
05. Infinite Depravity 04:46
******************************
Total playing time: 22:32




[more=Technical info]
Input File: 02. Amputated Plaything.mp3
Channels : 2
Sample Rate : 44100
Precision : 16-bit
Duration : 00:04:20.19 = 11474511 samples = 19514.5 CDDA sectors
File Size : 10.6M
Bit Rate : 326k
Sample Encoding: MPEG audio (layer I, II or III)
Comments :
Title=Amputated Plaything
Artist=Teratocarcinomas
Album=Long Rehearsal(2019)
Tracknumber=2
Year=2019

[/more]

Register
(3) Olethros, Rosen, satanist666,
Dec 7 2019, 14:10:10 Blue Holocaust - Flesh For The Cannibal God (2018)


*Artist: Blue Holocaust
*Album: Flesh For The Cannibal God
*Year: 2018
*Genre: Goregrind
*Country: France
*Format: mp3@CBR320kbps
*Size: 72MB

Tracklist:
01. Frenzied Machete Ravages 01:05
02. Left to Fester 00:46
03. Eaten Raw 01:06
04. Sinews of Carnage 01:14
05. Human Sacrifices 01:19
06. Feeding Fury (of the Piranhas) 00:59
07. Open Cranium Delicacies 01:25
08. Ritual Disembowelment 01:17
09. Totem Pole of Skeletonized Corpses 01:19
10. Harmony of Overwhelming and Collective Murder 01:29
11. Excruciating Invasion of the Candiru Vampire 00:53
12. Cannibal World 01:21
13. As the Dipterous Larvae Hatches 00:56
14. Night of the Sorcerers 00:53
15. Naked Prey 01:33
16. Impaled 00:50
17. Burned to Death 00:56
18. Abominio 01:02
19. Last Survivor Left 00:46
20. Green Inferno 01:15
21. O-Kee-Pa Ferox 01:08
22. Driven to Anthropophagia 02:04
23. Flesh for the Cannibal God 01:11
******************************
Total playing time: 26:47






[more=Technical info]
Input File: 14. Night of the Sorcerers.mp3
Channels : 2
Sample Rate : 44100
Precision : 16-bit
Duration : 00:00:53.43 = 2356087 samples = 4006.95 CDDA sectors
File Size : 2.50M
Bit Rate : 374k
Sample Encoding: MPEG audio (layer I, II or III)
Comments :
Title=Night of the Sorcerers
Artist=Blue Holocaust
Album=Flesh for the Cannibal God
Tracknumber=14
Year=2019
Genre=Goregrind

[/more]

Register
(7) Anhra Mainyu, FUDEDOR, jollo, Olethros, Rosen, SadistikSlayer, satanist666,
Dec 6 2019, 15:50:27 Mutilation Of Mind - Mutilation Of Mind [ep] (2019)


*Artist: Mutilation Of Mind
*Album: Mutilation Of Mind [ep]
*Year: 2019
*Genre: Thrash/Death Metal/Grindcore
*Country: France
*Format: mp3@CBR320kbps
*Size: 37MB

Tracklist:
01. Pedophile 02:49
02. Let's Fuck To Spread The Love 01:24
03. Doomsday's Coming 01:52
04. Handcraft By Sick Brains 01:54
05. Bird In A Black Hole 02:22
06. Dystopian Society 03:20
07. Drain My Brain (Bonus Track) 02:29
******************************
Total playing time: 16:10



[more=Technical info]
Input File: 02. Let\'s fuck to spread the love.mp3
Channels : 2
Sample Rate : 44100
Precision : 16-bit
Duration : 00:01:24.82 = 3740738 samples = 6361.8 CDDA sectors
File Size : 3.48M
Bit Rate : 328k
Sample Encoding: MPEG audio (layer I, II or III)
Comments :
Title=Let's fuck to spread the love
Artist=MUTILATION OF MIND
Album=EP Mutilation Of Mind
Tracknumber=2
Year=2019

[/more]

Register
(2) Olethros, Rosen,
Dec 6 2019, 15:37:41 State Of Deceit - Retribution [ep] (2019)


*Artist: State Of Deceit
*Album: Retribution [ep]
*Year: 2019
*Genre: Groove/Thrash Metal
*Country: United States
*Format: mp3@CBR320kbps
*Size: 50MB

Tracklist:
01. Tattered Life 03:56
02. Vengeance 03:44
03. When Words Fail 03:51
04. No Solace 04:08
05. The Black 03:54
06. Vipers 04:11
******************************
Total playing time: 23:44




[more=Technical info]
Input File: 02. Vengeance.mp3
Channels : 2
Sample Rate : 44100
Precision : 16-bit
Duration : 00:03:44.20 = 9887132 samples = 16814.9 CDDA sectors
File Size : 9.07M
Bit Rate : 324k
Sample Encoding: MPEG audio (layer I, II or III)
Comments :
Title=Vengeance
Artist=State of Deceit
Album=Retribution (EP)
Tracknumber=2
Year=2019
Genre=9

[/more]

Register
(4) boby9052, Olethros, Rosen, TeamatSE,
Dec 5 2019, 16:52:06 Drowned By God - Bring Back The Violence [ep] (2019)


*Artist: Drowned By God
*Album: Bring Back The Violence [ep]
*Year: 2019
*Genre: Black/Death Metal
*Country: United States
*Format: mp3@CBR320kbps
*Size: 27MB

Tracklist:
01. No Trigger Warning 03:34
02. Enemy Of Man 02:40
03. Bring Back The Violence 02:42
04. Kill Your Heroes 02:51
******************************
Total playing time: 11:47



[more=Technical info]
Input File: 02. ENEMY OF MAN.mp3
Channels : 2
Sample Rate : 44100
Precision : 16-bit
Duration : 00:02:40.27 = 7067907 samples = 12020.2 CDDA sectors
File Size : 6.52M
Bit Rate : 325k
Sample Encoding: MPEG audio (layer I, II or III)
Comments :
Title=ENEMY OF MAN
Artist=DROWNED BY GOD
Album=BRING BACK THE VIOLENCE
Tracknumber=2
Year=2019

[/more]

Register
(9) kim666, Legacy100, Olethros, Rosen, Sanctus, scorpionmk, SilentNidhogg, VALERY, vasiljev_sergej,
Dec 5 2019, 16:44:40 Irreparable - Transfixion [ep] (2019)


*Artist: Irreparable
*Album: Transfixion [ep]
*Year: 2019
*Genre: Black/Death Metal
*Country: Australia
*Format: mp3@CBR320kbps
*Size: 75MB

Tracklist:
01. Ambiguous Loss 08:10
02. Delirium 06:45
03. Incredulity Ascends 06:47
04. Near-Life Experience 09:42
******************************
Total playing time: 31:24





[more=Technical info]
Input File: 02. Delirium.mp3
Channels : 2
Sample Rate : 44100
Precision : 16-bit
Duration : 00:06:46.02 = 17905350 samples = 30451.3 CDDA sectors
File Size : 16.3M
Bit Rate : 321k
Sample Encoding: MPEG audio (layer I, II or III)
Comments :
Title=Delirium
Artist=IRREPARABLE
Album=Transfixion EP
Tracknumber=2
Year=2019

[/more]

Register
(10) Beazth, kim666, marilin, Olethros, Rosen, Sanctus, scorpionmk, SilentNidhogg, VALERY, vasiljev_sergej,
Dec 5 2019, 16:36:59 Der Pessimismus - Ungluckliche Bewusstsein [ep] (2019)


*Artist: Der Pessimismus
*Album: Ungluckliche Bewusstsein [ep]
*Year: 2019
*Genre: Black Metal
*Country: Russian Federation
*Format: mp3@CBR320kbps
*Size: 38MB

Tracklist:
01. Persona non grata 04:11
02. Negative Dialektik 03:42
03. Der Widerspruch 03:57
04. Ungluckliche Bewusstsein 04:21
******************************
Total playing time: 16:11



[more=Technical info]
Input File: 02. Negative Dialektik.mp3
Channels : 2
Sample Rate : 44100
Precision : 16-bit
Duration : 00:03:42.60 = 9816704 samples = 16695.1 CDDA sectors
File Size : 9.13M
Bit Rate : 328k
Sample Encoding: MPEG audio (layer I, II or III)
Comments :
Title=Negative Dialektik
Artist=Der Pessimismus
Album=Ungluckliche Bewusstsein
Tracknumber=2
Year=2019

[/more]

Register
(9) 1968_janeart, kim666, Olethros, Rosen, Sanctus, scorpionmk, SilentNidhogg, VALERY, vasiljev_sergej,
Dec 5 2019, 16:29:43 The Old Dead Tree - The End [ep] (2019)


*Artist: The Old Dead Tree
*Album: The End [ep]
*Year: 2019
*Genre: Gothic Metal
*Country: France
*Format: mp3@CBR320kbps
*Size: 48MB

Tracklist:
01. Sorry 05:08
02. Someone Should Know (The Truth) 04:18
03. Kids 04:03
04. Raise 04:27
05. The End... Again 04:57
******************************
Total playing time: 22:53







[more=Technical info]
Input File: 02. Someone Should Know (The Truth).mp3
Channels : 2
Sample Rate : 44100
Precision : 16-bit
Duration : 00:04:17.90 = 11373302 samples = 19342.4 CDDA sectors
File Size : 10.4M
Bit Rate : 324k
Sample Encoding: MPEG audio (layer I, II or III)
Comments :
Title=Someone Should Know (The Truth)
Artist=The Old Dead Tree
Album=The End (EP)
Tracknumber=2
Year=2019
Genre=9

[/more]

Register
(24) Alacc17, Alpha_Prime, Astralgeist, aviacademy, BandR75, BERZERK, Disillusion, gwar, gwynnbleid, kluval, metalwoman, Misanthrofeel, Olethros, paganheart, Reverend, Rosen, Sanctus, satanist666, senecazm, sergsazan, Shadowman, squall8fr, VALERY, Zenial,
Dec 5 2019, 16:22:58 Darkest End - Winter's Blood [ep] (2019)


*Artist: Darkest End
*Album: Winter's Blood [ep]
*Year: 2019
*Genre: Melodic Death Metal
*Country: United States
*Format: mp3@CBR320kbps
*Size: 58MB

Tracklist:
01. Lost _ Astray
02. Raven Cry
03. Cybele
04. Live Again
05. Downfall
******************************
Total playing time: 25:02




[more=Technical info]
Input File: 02. Raven Cry.mp3
Channels : 2
Sample Rate : 44100
Precision : 16-bit
Duration : 00:05:19.76 = 14101372 samples = 23981.9 CDDA sectors
File Size : 12.9M
Bit Rate : 322k
Sample Encoding: MPEG audio (layer I, II or III)
Comments :
Title=Raven Cry
Artist=Darkest End
Album=Winter's Blood
Tracknumber=2/5
Year=2019
Genre=17
Discnumber=1/1

[/more]

Register
(13) avather, BugEyes, chipsgott, Hefir, metalwoman, Olethros, Rosen, satanist666, scorpionmk, sergsazan, VALERY, zhol, Сварог Барг,
Dec 5 2019, 16:15:47 Astaroth Incarnate - Ascendance [ep] (2019)


*Artist: Astaroth Incarnate
*Album: Ascendance [ep]
*Year: 2019
*Genre: Melodic Black/Death Metal
*Country: Canada
*Format: mp3@CBR320kbps
*Size: 37MB

Tracklist:
01. I am Fire I am Death (Alpha) 05:40
02. I am Fire I am Death (Omega) 05:20
03. Her Ghost in the Fog (Cradle of Filth cover) 06:28
******************************
Total playing time: 17:28





[more=Technical info]
Input File: 02. I Am Fire - I Am Death (Omega).mp3
Channels : 2
Sample Rate : 44100
Precision : 16-bit
Duration : 00:05:19.92 = 14108296 samples = 23993.7 CDDA sectors
File Size : 13.0M
Bit Rate : 326k
Sample Encoding: MPEG audio (layer I, II or III)
Comments :
Title=I Am Fire / I Am Death (Omega)
Artist=Astaroth Incarnate
Album=Ascendance (EP)
Tracknumber=2
Year=2019
Genre=9

[/more]

Register
(15) AHBAnep, kim666, Olethros, Ostinato, Rosen, SABRAX, Sanctus, satanist666, scorpionmk, sergsazan, Shadechaser, VALERY, vasiljev_sergej, zhol, Сварог Барг,
Dec 5 2019, 16:08:19 Seaspan - Seaspan (2019)


*Artist: Seaspan
*Album: Seaspan
*Year: 2019
*Genre: Extreme Progressive Metal
*Country: United States
*Format: mp3@CBR320kbps
*Size: 165MB

Tracklist:
01. Dream Junkie 04:05
02. Boo! 04:54
03. Succubus 04:20
04. Inheritance 04:36
05. Aeëtes' Forces 09:40
06. Moments of Levity Pt. 1 06:23
07. Moments of Levity Pt. 2 05:20
08. Condemnation 09:37
09. Satan's Scherzo 05:48
10. When Will Dawn Come... 07:20
******************************
Total playing time: 1:02:03



[more=Technical info]
Input File: 02. Boo!.mp3
Channels : 2
Sample Rate : 44100
Precision : 16-bit
Duration : 00:04:54.18 = 12973514 samples = 22063.8 CDDA sectors
File Size : 11.9M
Bit Rate : 324k
Sample Encoding: MPEG audio (layer I, II or III)
Comments :
Title=Boo!
Artist=Seaspan
Album=Seaspan
Tracknumber=2/10
Year=2019
Genre=9
Discnumber=1/1

[/more]

Register
(7) avkruchinin, Foneg, metala, Olethros, Rosen, Witchmaster, Сварог Барг,
Dec 5 2019, 16:02:15 Deathless - The Prophecy (2019)


*Artist: Deathless
*Album: The Prophecy
*Year: 2019
*Genre: Melodic Death Metal
*Country: United States
*Format: mp3@CBR320kbps
*Size: 81MB

Tracklist:
01. I
02. Predation
03. The Prophecy
04. Absence of Truth
05. Departure
06. II
07. Into Depravity
08. The Adversary
09. In Aeternum
10. Imprisoned
******************************
Total playing time: 34:51





[more=Technical info]
Input File: 02. Predation.mp3
Channels : 2
Sample Rate : 44100
Precision : 16-bit
Duration : 00:05:07.30 = 13551842 samples = 23047.4 CDDA sectors
File Size : 12.4M
Bit Rate : 324k
Sample Encoding: MPEG audio (layer I, II or III)
Comments :
Title=Predation
Artist=Deathless
Album=The Prophecy
Tracknumber=2/10
Year=2019
Genre=9
Discnumber=1/1

[/more]

Register
(10) BugEyes, Olethros, Ostinato, Rosen, satanist666, sergsazan, stumpheavyrock, talismanFS, VALERY, zhol,
Dec 5 2019, 15:56:35 Agarwaen - Dottore I (2019)


*Artist: Agarwaen
*Album: Dottore I
*Year: 2019
*Genre: Black Metal
*Country: Finland
*Format: mp3@CBR320kbps
*Size: 112MB

Tracklist:
01. The Path Beyond Existence
02. Misantrophy
03. Witch Hunt
04. Beautiful Flesh
05. Amuku Be
06. Restless Souls
07. Butchers Day
08. The Legend of the Old Slaughterhouse
******************************
Total playing time: 48:43





[more=Technical info]
Input File: 02 - Misantrophy.mp3
Channels : 2
Sample Rate : 44100
Precision : 16-bit
Duration : 00:04:38.09 = 12263681 samples = 20856.6 CDDA sectors
File Size : 11.2M
Bit Rate : 321k
Sample Encoding: MPEG audio (layer I, II or III)
Comments :
Title=Misantrophy
Artist=Agarwaen
Album=Dottore I
Tracknumber=2
Year=2019
Genre=Metal
Discnumber=1

[/more]

Register
(23) 1968_janeart, atavist, kim666, kimkayoung, Morgoth, multizwilling, nsk2008, Oath19, Olethros, Ostinato, robertho777, Rosen, RUDACHUR, Sanctus, sandr666, satanist666, scorpionmk, SilentNidhogg, stub888, suseka, tim47, VALERY, vasiljev_sergej,
Dec 5 2019, 15:46:35 At Night I Fly - Mirror Maze (2019)


*Artist: At Night I Fly
*Album: Mirror Maze
*Year: 2019
*Genre: Progressive Metal
*Country: Hungary
*Format: mp3@CBR320kbps
*Size: 125MB

Tracklist:
01. Silent… 00:58
02. Gethsemane 06:35
03. The Pit 05:47
04. Afterlife 04:42
05. Shattered Mirror Bay 06:41
06. Uriel 06:53
07. Towards the Black Light 09:01
08. …Prayer 02:41
09. Wanted to Be 11:19
******************************
Total playing time: 54:37






[more=Technical info]
Input File: 02 Gethsemane.mp3
Channels : 2
Sample Rate : 44100
Precision : 16-bit
Duration : 00:06:35.28 = 17431848 samples = 29646 CDDA sectors
File Size : 15.8M
Bit Rate : 320k
Sample Encoding: MPEG audio (layer I, II or III)
Comments :
Title=Gethsemane
Artist=At Night I Fly
Album=Mirror Maze
Tracknumber=02/09
Year=2019-19-20
Discnumber=1/1

[/more]

Register
(16) ace73pq, aviacademy, Foneg, Forest, gwynnbleid, kryuger, metala, MetalW, Morgoth, multizwilling, Olethros, postal67, Rosen, Rover, SaintVitus, stone88,
Dec 5 2019, 15:39:06 Thunder And Lightning - Demonicorn (2019)


*Artist: Thunder And Lightning
*Album: Demonicorn
*Year: 2019
*Genre: Melodic Power Metal
*Country: Germany
*Format: mp3@CBR320kbps
*Size: 92MB

Tracklist:
01. All Your Lies 06:01
02. Demonicorn 03:27
03. Demmin 05:39
04. The Temple of Death 06:53
05. God for a Day 07:06
06. Heaven's Gate 04:16
07. Salt to the Wounds 03:45
08. Telltale Signs 05:51
******************************
Total playing time: 42:58






[more=Technical info]
Input File: 02. Demonicorn.mp3
Channels : 2
Sample Rate : 44100
Precision : 16-bit
Duration : 00:03:28.02 = 9173858 samples = 15601.8 CDDA sectors
File Size : 8.53M
Bit Rate : 328k
Sample Encoding: MPEG audio (layer I, II or III)
Comments :
Title=Demonicorn
Artist=Thunder And Lightning
Album=Demonicorn
Tracknumber=2/8
Year=2019
Genre=Heavy Metal

[/more]

Register
(16) ace73pq, avkruchinin, Brann, Foneg, gwynnbleid, Herrant, metalwoman, Olethros, Rosen, Rover, SAPOGi, satanist666, senecazm, stumpheavyrock, zhol, Сварог Барг,
Dec 5 2019, 15:30:52 Pénitence Onirique - Vestige (2019)


*Artist: Pénitence Onirique
*Album: Vestige
*Year: 2019
*Genre: Black Metal
*Country: France
*Format: mp3@CBR320kbps
*Size: 98MB

Tracklist:
01. Le corps gelé de Lyse 07:12
02. La cité des larmes 07:29
03. Les sirènes misérables 08:58
04. Hespéros 02:54
05. Extase exquise 06:15
06. Souveraineté suprême 06:40
07. Vestige 06:47
******************************
Total playing time: 46:15





[more=Technical info]
Input File: 02. La cité des Larmes.mp3
Channels : 2
Sample Rate : 44100
Precision : 16-bit
Duration : 00:07:29.94 = 19842134 samples = 33745.1 CDDA sectors
File Size : 18.1M
Bit Rate : 321k
Sample Encoding: MPEG audio (layer I, II or III)
Comments :
Title=La cité des Larmes
Artist=Pénitence Onirique
Album=Vestige
Tracknumber=2/7
Year=2019
Genre=9
Discnumber=1/1

[/more]

Register
(30) 1968_janeart, Alexis The Best, atavist, Brann, demonosz, Frozenkult, Irimias, kim666, Kwaad, LEGION69, MetalW, Moonlover, Morgoth, Olethros, Ostinato, robertho777, Rosen, Sanctus, sandr666, satanist666, scorpionmk, SilentNidhogg, skepticist, stub888, suseka, VALERY, vasiljev_sergej, volostakoeto, vovenom, Авел,
Dec 5 2019, 15:16:18 Infinitas - Infernum (2019)


*Artist: Infinitas
*Album: Infernum
*Year: 2019
*Genre: Folk/Heavy Metal
*Country: Switzerland
*Format: mp3@CBR320kbps
*Size: 122MB

Tracklist:
01. Afanc 08:08
02. A Manifested Nightmare 00:35
03. Antahkarana In Flames (Avnas Prelude) 00:52
04. Avnas 04:08
05. Utukki 05:53
06. Infernum Overture (Lilith Prelude) 00:46
07. Lilith 09:21
08. Rahu 04:25
09. A Starless Universe (Tiamat Prelude) 01:30
10. Tiamat 06:37
11. Vadatajs 06:40
12. The Seeker of Truth 00:51
13. Consultus (Memoria I) 02:45
******************************
Total playing time: 52:31






[more=Technical info]
Input File: 2 - A Manifested Nightmare.mp3
Channels : 2
Sample Rate : 44100
Precision : 16-bit
Duration : 00:00:35.32 = 1557568 samples = 2648.93 CDDA sectors
File Size : 1.49M
Bit Rate : 337k
Sample Encoding: MPEG audio (layer I, II or III)
Comments :
Title=A Manifested Nightmare
Artist=Infinitas
Album=Infernum
Tracknumber=2
Year=2019
Discnumber=1

[/more]

Register
(13) aviacademy, chipsgott, gwar, gwynnbleid, metalwoman, Olethros, Rosen, Rover, senecazm, sergsazan, talismanFS, zhol, Сварог Барг,
Dec 5 2019, 15:06:15 Sardonic Wrath - The Sole Soul To See The Dusk Descend (2019)


*Artist: Sardonic Wrath
*Album: The Sole Soul To See The Dusk Descend
*Year: 2019
*Genre: Black/Death/Doom Metal/Ambient
*Country: United States
*Format: mp3@CBR320kbps
*Size: 89MB

Tracklist:
01. Hermitage 09:55
02. A Cabin 06:47
03. Interlude—Umbrage of the Cicada 00:50
04. As Clouds Cloak and Dethrone the Once Mighty Sun 10:34
05. ...and the Sun Descends (Mortem Igni) 01:40
06. Song of Lamentation of the Last Man Standing on the Mountains 08:46
******************************
Total playing time: 38:32





[more=Technical info]
Input File: 02. A Cabin.mp3
Channels : 2
Sample Rate : 44100
Precision : 16-bit
Duration : 00:06:47.19 = 17957211 samples = 30539.5 CDDA sectors
File Size : 16.4M
Bit Rate : 321k
Sample Encoding: MPEG audio (layer I, II or III)
Comments :
Title=A Cabin
Artist=Sardonic Wrath
Album=The Sole Soul to See the Dusk Descend
Tracknumber=2
Year=2019

[/more]

Register
(7) Olethros, Rosen, Sanctus, sergsazan, VALERY, vasiljev_sergej, zotyo1975,
Dec 5 2019, 14:58:07 Sardonic Wrath - In The Rural Outskirts Of Novosibirsk/В Сельской Окраине Новосибирска (2019)


*Artist: Sardonic Wrath
*Album: In The Rural Outskirts Of Novosibirsk/В Сельской Окраине Новосибирска
*Year: 2019
*Genre: Black/Death/Doom Metal/Ambient
*Country: United States
*Format: mp3@CBR320kbps
*Size: 79MB

Tracklist:
01. In the Rural Outskirts of Novosibirsk 18:28
02. Carrying the Burdening Grief of the World on Thy Shoulders like Atlas 14:36
03. Outro: Memento Adagio 01:40
******************************
Total playing time: 34:44





[more=Technical info]
Input File: 02. Carrying the Burdening Grief of the World on Thy Shoulders Like Atlas.mp3
Channels : 2
Sample Rate : 44100
Precision : 16-bit
Duration : 00:14:36.72 = 38663220 samples = 65753.8 CDDA sectors
File Size : 35.2M
Bit Rate : 321k
Sample Encoding: MPEG audio (layer I, II or III)
Comments :
Title=Carrying the Burdening Grief of the World on Thy Shoulders Like Atlas
Artist=Sardonic Wrath
Album=In the Rural Outskirts of Novosibirsk/В сельской окраине Новосибирска
Tracknumber=2
Year=2019

[/more]

Register
(6) Olethros, Rosen, Sanctus, sergsazan, VALERY, vasiljev_sergej,
Dec 5 2019, 14:50:03 Sardonic Wrath - The Land The Light Will Never Know (2019)


*Artist: Sardonic Wrath
*Album: The Land The Light Will Never Know
*Year: 2019
*Genre: Black/Death/Doom Metal/Ambient
*Country: United States
*Format: mp3@CBR320kbps
*Size: 79MB

Tracklist:
01. I 00:09
02. Eyes 15:49
03. Transience 00:07
04. The Tyranny of the Mountains 16:04
05. My Throne, My Throe 01:23
******************************
Total playing time: 33:32





[more=Technical info]
Input File: 02. Eyes.mp3
Channels : 2
Sample Rate : 44100
Precision : 16-bit
Duration : 00:15:49.86 = 41889002 samples = 71239.8 CDDA sectors
File Size : 38.2M
Bit Rate : 321k
Sample Encoding: MPEG audio (layer I, II or III)
Comments :
Title=Eyes
Artist=Sardonic Wrath
Album=The Land The Light Will Never Know
Tracknumber=2
Year=2019

[/more]

Register
(5) Olethros, Rosen, sergsazan, VALERY, vasiljev_sergej,

1397 Pages V   1 2 3 > » 
- Lo-Fi Version Support form
Copyrights and abuse reports form
Time is now: 10th December 2019 - 20:11:23