Welcome Guest ( Log In | Register )

История благодарностей участнику necroscum ::: Спасибо сказали: 453705 раз(а)
Дата поста: В теме: За сообщение: Спасибо сказали:
Yesterday, 12:40:54 Unidentified Disease - Infected [ep] (2022)


*Artist: Unidentified Disease
*Album: Infected [ep]
*Year: 2022
*Genre: Goregrind
*Country: Indonesia
*Format: mp3@CBR320kbps
*Size: 25MB

Tracklist:
1. Cetak Biru Kehancuran 00:20
2. Disaster 00:22
3. Holocaust 00:31
4. Massive Outbreak 00:43
5. Kegilaan Massa 00:25
6. Parade Mayat Hidup 00:42
7. Untitled 00:31
8. How To Survive I (Die) 00:19
9. How To Survive II (Just Die) 00:19
10. How To Survive III (You Can't) 00:18
11. Genetic Mutation 00:43
12. Mankind No More 00:15
13. War Criminal うぺ (Tribute To Usada Pekora) 00:37
14. Fatal Accident I (Weaponized) 00:27
15. Fatal Accident II (Venomous) 00:27
16. Fatal Accident II (Death Machine) 00:34
17. Skinless 00:36
18. Deadliest Place To Live 00:39
19. The Unknown Mythological Creatures 00:32
20. Insanity 00:37
******************************
Total playing time: 9:57



[more=Technical info]
Input File: 02. Disaster.mp3
Channels : 2
Sample Rate : 44100
Precision : 16-bit
Duration : 00:00:22.86 = 1008038 samples = 1714.35 CDDA sectors
File Size : 1.11M
Bit Rate : 389k
Sample Encoding: MPEG audio (layer I, II or III)
Comments :
Title=Disaster
Artist=Unidentified Disease
Album=Infected
Tracknumber=2
Year=2022

[/more]

Register
(1) artscald,
Yesterday, 12:17:26 Parasitic Infection - Disintegration In Vacuum (2022)


*Artist: Parasitic Infection
*Album: Disintegration In Vacuum
*Year: 2022
*Genre: Brutal Death Metal/Goregrind
*Country: Pakistan
*Format: mp3@CBR320kbps
*Size: 76MB

Tracklist:
1. Hallucinosis 01:45
2. Cosmic Champions 02:26
3. Kissed On The Cranium With An Aluminum Baseball Bat 02:35
4. Vetigo 03:01
5. Breach 03:03
6. Beyond Perception 02:01
7. Vomit Aspirations 03:12
8. Disintegration In Vacuum 02:03
9. Brainrot 02:13
10. Return To Dust 03:23
11. Soliloquy Of The Damned 02:54
12. Adrift 03:18
******************************
Total playing time: 31:54


Preview 2




[more=Technical info]
Input File: 02. Cosmic Champions ft. Larry Wang of Gorepot and Louis of Vault.mp3
Channels : 2
Sample Rate : 44100
Precision : 16-bit
Duration : 00:02:25.93 = 6435425 samples = 10944.6 CDDA sectors
File Size : 6.03M
Bit Rate : 330k
Sample Encoding: MPEG audio (layer I, II or III)
Comments :
Title=Cosmic Champions ft. Larry Wang of Gorepot and Louis of Vault
Artist=Parasitic Infection
Album=Disintegration in Vacuum
Tracknumber=2
Year=2022

[/more]

Register
(1) artscald,
May 27 2022, 15:06:29 Neorite - Banner Of Defeat (2022)


*Artist: Neorite
*Album: Banner Of Defeat
*Year: 2022
*Genre: Stoner/Doom Metal
*Country: Germany
*Format: mp3@CBR320kbps
*Size: 120MB

Tracklist:
01. Never Return Nowhere 05:15
02. Under The Banner Of Cataclysmic Defeat 10:05
03. Kassandra 06:32
04. Vanishing Years 06:10
05. Meteorite 04:37
06. Draw Black Swords 03:57
07. Settle In Madness 05:53
08. Shapes of Void (Bonus Track) 09:26
******************************
Total playing time: 51:55


Preview 2


[more=Technical info]
Input File: 02. Under The Banner of Cataclysmic Defeat.mp3
Channels : 2
Sample Rate : 44100
Precision : 16-bit
Duration : 00:10:04.00 = 26636400 samples = 45300 CDDA sectors
File Size : 24.4M
Bit Rate : 323k
Sample Encoding: MPEG audio (layer I, II or III)
Comments :
Title=Under The Banner of Cataclysmic Defeat
Artist=Neorite
Album=Banner of Defeat
Tracknumber=02
Year=2022
Genre=Death/Progressive/Heavy Metal
Discnumber=1

[/more]

Register
(6) artscald, HMHamster, Sabbathian, stumpheavyrock, suseka, VALERY,
May 27 2022, 14:54:04 Spiritual Perversity - Season Of The Witch [ep] (2022)


*Artist: Spiritual Perversity
*Album: Season Of The Witch [ep]
*Year: 2022
*Genre: Experimental Black Metal
*Country: Brazil
*Format: mp3@CBR320kbps
*Size: 75MB

Tracklist:
01. Prelude 01:35
02. Cursed Nocturnal Blood 07:30
03. Lycanthrope Hunting 04:15
04. Season of the Witch 07:48
05. Unknown Truths 06:30
******************************
Total playing time: 27:38




[more=Technical info]
Input File: 02. Cursed Nocturnal Blood.mp3
Channels : 2
Sample Rate : 44100
Precision : 16-bit
Duration : 00:07:30.09 = 19848881 samples = 33756.6 CDDA sectors
File Size : 18.1M
Bit Rate : 323k
Sample Encoding: MPEG audio (layer I, II or III)
Comments :
Title=Cursed Nocturnal Blood
Artist=Spiritual Perversity
Album=Season Of The Witch
Tracknumber=2
Year=2022

[/more]

Register
(13) Altkiller, artscald, Dante_D, dermarsoran, kimkayoung, Mencae77, metala, nemx, robertho777, SilentNidhogg, stormhatt, VALERY, varlam4,
May 27 2022, 14:44:19 Bekmørk - The Path Nocturnal [ep] (2022)


*Artist: Bekmørk
*Album: The Path Nocturnal [ep]
*Year: 2022
*Genre: Black Metal
*Country: Norway
*Format: mp3@CBR320kbps
*Size: 44MB

Tracklist:
01. Hail to the Moths 02:39
02. Huldra 04:53
03. Black Waltz 03:12
04. Red Snow (The Saga of Haakon Haraldsson) 02:48
05. Empress of Charn 05:30
******************************
Total playing time: 19:02




[more=Technical info]
Input File: 02. Huldra.mp3
Channels : 2
Sample Rate : 44100
Precision : 16-bit
Duration : 00:04:53.21 = 12930737 samples = 21991 CDDA sectors
File Size : 11.8M
Bit Rate : 322k
Sample Encoding: MPEG audio (layer I, II or III)
Comments :
Title=Huldra
Artist=Bekmork
Album=The Path Nocturnal
Tracknumber=1
Year=2022

[/more]

Register
(12) artscald, cancer1974, dermarsoran, kim666, Marek, Mencae77, nemx, SilentNidhogg, stormhatt, stub888, VALERY, varlam4,
May 27 2022, 14:34:13 Homeskin - Fixated On An Image [ep] (2022)


*Artist: Homeskin
*Album: Fixated On An Image [ep]
*Year: 2022
*Genre: Avant-Garde Black Metal/Grindcore
*Country: United States
*Format: mp3@CBR320kbps
*Size: 32MB

Tracklist:
01. Fixated On An Image 13:41
******************************
Total playing time: 13:41




[more=Technical info]
Input File: 01. Fixated On An Image.mp3
Channels : 2
Sample Rate : 44100
Precision : 16-bit
Duration : 00:13:41.88 = 36245040 samples = 61641.2 CDDA sectors
File Size : 33.0M
Bit Rate : 321k
Sample Encoding: MPEG audio (layer I, II or III)
Comments :
Title=Fixated On An Image
Artist=Homeskin
Album=Fixated On An Image
Tracknumber=1
Year=2022

[/more]

Register
(8) artscald, Dante_D, dermarsoran, Ignativs, kefka, kimkayoung, nemx, stormhatt,
May 27 2022, 14:24:43 Nullingroots - Renditions Of Past And Present [ep] (2022)


*Artist: Nullingroots
*Album: Renditions Of Past And Present [ep]
*Year: 2022
*Genre: Post-Black Metal/Shoegaze
*Country: United States
*Format: mp3@CBR320kbps
*Size: 49MB

Tracklist:
1. Shrouds of Celeste 14:12
2. The Changes That Ensue 06:34
******************************
Total playing time: 20:46


Preview 2



[more=Technical info]
Input File: 01. Shrouds of Celeste.mp3
Channels : 2
Sample Rate : 44100
Precision : 16-bit
Duration : 00:14:12.37 = 37589517 samples = 63927.8 CDDA sectors
File Size : 34.2M
Bit Rate : 321k
Sample Encoding: MPEG audio (layer I, II or III)
Comments :
Title=Shrouds of Celeste
Artist=Nullingroots
Album=Renditions of Past and Present
Tracknumber=1
Year=2022

[/more]

Register
(10) aleon, artscald, Dante_D, dermarsoran, fang, kim666, Mencae77, nemx, stormhatt, varlam4,
May 26 2022, 16:25:20 Urkraft - The True Protagonist (2022)


*Artist: Urkraft
*Album: The True Protagonist
*Year: 2022
*Genre: Melodic Death Metal
*Country: Denmark
*Format: mp3@CBR320kbps
*Size: 100MB

Tracklist:
01. Uforskyldte Sår 04:03
02. The True Protagonist 04:04
03. I Got Blood 03:23
04. I Bring Nothing To The Table (feat. Kim Song Sternkopf) 05:50
05. The Human Resignation 02:43
06. The Burden Without A Name 03:32
07. Well Intentioned Sons 05:10
08. Go, Get Your Bones 03:51
09. Changing Manscape 04:04
10. Prepare The Flesh 03:45
11. We Can't Recognize 02:51
******************************
Total playing time: 43:16



Preview 3


[more=Technical info]
Input File: 03 - I Got Blood.mp3
Channels : 2
Sample Rate : 44100
Precision : 16-bit
Duration : 00:03:23.00 = 8952300 samples = 15225 CDDA sectors
File Size : 8.28M
Bit Rate : 326k
Sample Encoding: MPEG audio (layer I, II or III)
Comments :
Title=I Got Blood
Artist=Urkraft
Album=The True Protagonist
Tracknumber=3
Year=2022-05-27
Genre=Rock
Discnumber=1

[/more]

Register
(14) artscald, Baiunthecat, chipsgott, HMHamster, Hollenthorn, Marek, older68, Reverend, sergsazan, stumpheavyrock, tschunioronbeer, VALERY, yuratroll, zhol,
May 26 2022, 15:39:22 Caravellus - Inter Mundos (2022)


*Artist: Caravellus
*Album: Inter Mundos
*Year: 2022
*Genre: Progressive/Power Metal
*Country: Brazil
*Format: mp3@CBR320kbps
*Size: 146MB

Tracklist:
1. Visagem 02:48
2. Knight of the Sun 06:55
3. Panis et Circenses 05:02
4. Triumvirate 06:02
5. While I'm Still Here 02:52
6. The Ambush 01:39
7. Memento Mori 07:42
8. Incantation 06:25
9. Elegia 02:29
10. Insurrection 08:07
11. Inter Mundos 06:55
12. Ouroboros 07:44
13. So Near, So Far 06:06
14. Vynno D'agua 02:42
******************************
Total playing time: 1:13:28





[more=Technical info]
Input File: Caravellus-Inter Mundos-02-Knight Of The Sun.mp3
Channels : 2
Sample Rate : 44100
Precision : 16-bit
Duration : 00:06:57.00 = 18389700 samples = 31275 CDDA sectors
File Size : 16.7M
Bit Rate : 320k
Sample Encoding: MPEG audio (layer I, II or III)
Comments :
Title=Knight Of The Sun
Artist=Caravellus
Album=Inter Mundos
Tracknumber=2
Year=2022

[/more]

Register
(15) after21allD, artscald, boby9052, Herrant, infozahist, Marek, metala, older68, postal67, Reverend, Rover, Spork, stumpheavyrock, varlam4, Сварог Барг,
May 26 2022, 15:16:33 Fireproven - Epilogue (2022)


*Artist: Fireproven
*Album: Epilogue
*Year: 2022
*Genre: Progressive Metal
*Country: Finland
*Format: mp3@CBR320kbps
*Size: 117MB

Tracklist:
01. The Maze 04:29
02. The Addict 05:20
03. King 04:12
04. Haunted 05:08
05. Time to Heal 05:08
06. Dream Catcher 04:55
07. Grace 05:40
08. Waves of Extinction 06:30
09. Unity 09:02
******************************
Total playing time: 50:24



[more=Technical info]
Input File: 02 - The Addict.mp3
Channels : 2
Sample Rate : 44100
Precision : 16-bit
Duration : 00:05:19.00 = 14067900 samples = 23925 CDDA sectors
File Size : 13.0M
Bit Rate : 325k
Sample Encoding: MPEG audio (layer I, II or III)
Comments :
Title=The Addict
Artist=Fireproven
Album=Epilogue
Tracknumber=2
Year=2022-05-27
Discnumber=1

[/more]

Register
(10) ace73pq, after21allD, artscald, madcags, Marek, metala, postal67, Rover, stumpheavyrock, yuratroll,
May 26 2022, 15:10:41 Cadaveria - Emptiness (2022)


*Artist: Cadaveria
*Album: Emptiness
*Year: 2022
*Genre: Black/Gothic Metal
*Country: Italy
*Format: mp3@CBR320kbps
*Size: 124MB

Tracklist:
01. The Great Journey 04:55
02. Shamanic Path 05:10
03. Emptiness 05:00
04. The Woman Who Fell to Earth 05:52
05. Divination 03:07
06. Matryoshcada 05:09
07. Silver Rain 04:24
08. The Cure 04:52
09. Live After 04:35
10. La casa dell'anima 04:55
11. The Sky That Screams Above Us 05:33
******************************
Total playing time: 53:32







[more=Technical info]
Input File: 02 - Shamanic Path (Album Version).mp3
Channels : 2
Sample Rate : 44100
Precision : 16-bit
Duration : 00:05:10.00 = 13671000 samples = 23250 CDDA sectors
File Size : 12.6M
Bit Rate : 324k
Sample Encoding: MPEG audio (layer I, II or III)
Comments :
Title=Shamanic Path (Album Version)
Artist=Cadaveria
Album=Emptiness
Tracknumber=2
Year=2022-05-27
Genre=Metal
Discnumber=1

[/more]

Register
(47) A.L.Rapsod, aleon, alex-82, AlexSmith, alikkon, Alpha_Prime, Altkiller, artscald, autumnwood, Bardo, Bzth, cancer1974, cesar, chipsgott, dermarsoran, Emm Human, Femto, GorAtheist, kluval, Maestrovs, metaljosue, multizwilling, nadin85, older68, Phlebotomized, popen13, postal67, rammstein888, Reverend, robertho777, rominow, Rover, sadmannn, SaintVitus, sergsazan, Shadechaser, ShadMAD, smes, stormhatt, suseka, tOmV, VALERY, varlam4, vasilisk, Vitald, yuratroll, Zer0,
May 26 2022, 14:48:47 Sensory Amusia - Breed Death (2022)


*Artist: Sensory Amusia
*Album: Breed Death
*Year: 2022
*Genre: Technical Deathcore
*Country: Australia
*Format: mp3@CBR320kbps
*Size: 75MB

Tracklist:
01. Birth Through Violence 01:00
02. Yersinia Pestis 04:31
03. Vermin 04:32
04. Parasitic Alteration 03:52
05. Vulgar Thoughts of Violence 03:57
06. Bind, Torture, Kill 03:57
07. A Blank Canvas of Flesh 04:38
08. Breed Death 05:04
******************************
Total playing time: 31:31


Preview 2



[more=Technical info]
Input File: 02. Yersinia Pestis.mp3
Channels : 2
Sample Rate : 44100
Precision : 16-bit
Duration : 00:04:31.53 = 11974649 samples = 20365 CDDA sectors
File Size : 11.2M
Bit Rate : 330k
Sample Encoding: MPEG audio (layer I, II or III)
Comments :
Title=Yersinia Pestis
Artist=Sensory Amusia
Album=Breed Death
Tracknumber=2/8
Year=2022
Genre=Deathcore
Discnumber=1/1

[/more]

Register
(7) artscald, cacicandriera, chipsgott, jared_wanted, Marek, metala, sludge666,
May 26 2022, 14:42:37 Homicyde - The Sickening Tales (2022)


*Artist: Homicyde
*Album: The Sickening Tales
*Year: 2022
*Genre: Melodic Deathcore
*Country: United States
*Format: mp3@CBR320kbps
*Size: 83MB

Tracklist:
01. Hell Awaits For Thee 04:23
02. Trapped In A Cage 04:41
03. Nothingness 05:06
04. Murder Sets Me Free 04:56
05. The One 03:52
06. Shattered 05:02
07. Kidnapped 04:04
08. The Sickening Tales 03:30
******************************
Total playing time: 35:34

Preview 1



[more=Technical info]
Input File: 02. Trapped in a Cage.mp3
Channels : 2
Sample Rate : 44100
Precision : 16-bit
Duration : 00:04:40.00 = 12348000 samples = 21000 CDDA sectors
File Size : 11.4M
Bit Rate : 326k
Sample Encoding: MPEG audio (layer I, II or III)
Comments :
Title=Trapped in a Cage
Artist=Homicyde
Album=The Sickening Tales
Tracknumber=02
Year=2022
Genre=Melodic Deathcore
Discnumber=1

[/more]

Register
(5) artscald, chipsgott, Marek, VALERY, zhol,
May 26 2022, 14:15:52 Deos - Furor Belli (2022)


*Artist: Deos
*Album: Furor Belli
*Year: 2022
*Genre: Black/Death Metal
*Country: France
*Format: mp3@CBR320kbps
*Size: 121MB

Tracklist:
01. Dichotomia Mediterranea 01:40
02. Decimatio 04:19
03. Cerberus 04:24
04. Primus Pilus 05:09
05. Cinis Ad Cinerem 03:46
06. Morituri Te Salutant 04:47
07. Cocles 06:16
08. Scaevola 04:56
09. Germanicus 04:51
10. Vallum Hadriani 01:44
11. Virgo Vestalis 05:20
12. Venenum Rex 04:27
******************************
Total playing time: 51:39


Preview 2


[more=Technical info]
Input File: 02. Decimatio.mp3
Channels : 2
Sample Rate : 44100
Precision : 16-bit
Duration : 00:04:19.00 = 11421900 samples = 19425 CDDA sectors
File Size : 10.6M
Bit Rate : 327k
Sample Encoding: MPEG audio (layer I, II or III)
Comments :
Title=Decimatio
Artist=Deos
Album=Furor Belli
Tracknumber=02
Year=2022
Genre=Death, Black
Discnumber=1

[/more]

Register
(11) AlexSmith, artscald, dermarsoran, Marek, Mencae77, metala, Shadechaser, SilentNidhogg, suseka, VALERY, Xardass384,
May 26 2022, 13:59:41 Haserot - Throne Of Malice [ep] (2022)


*Artist: Haserot
*Album: Throne Of Malice [ep]
*Year: 2022
*Genre: Death Metal
*Country: United States
*Format: mp3@CBR320kbps
*Size: 51MB

Tracklist:
01. Forging the Ossuary 02:50
02. Incantations at Dusk 05:48
03. Mark of Sedition 05:12
04. Throne of Malice 03:24
05. Through Pain to Conquest 04:16
******************************
Total playing time: 21:30


Preview 2



[more=Technical info]
Input File: 02. Incantations at Dusk.mp3
Channels : 2
Sample Rate : 44100
Precision : 16-bit
Duration : 00:05:47.00 = 15302700 samples = 26025 CDDA sectors
File Size : 14.2M
Bit Rate : 326k
Sample Encoding: MPEG audio (layer I, II or III)
Comments :
Title=Incantations at Dusk
Artist=Haserot
Album=Throne of Malice
Tracknumber=2
Year=2022
Genre=Death, Black
Discnumber=1

[/more]

Register
(10) artscald, chipsgott, GorAtheist, hell_armageddon, madera, Marek, VALERY, vyacheslav, wrath082, yinchanghanhuang,
May 26 2022, 13:51:46 Nethergate - Necroasis [ep] (2022)


*Artist: Nethergate
*Album: Necroasis [ep]
*Year: 2022
*Genre: Technical Death Metal
*Country: United States
*Format: mp3@CBR320kbps
*Size: 52MB

Tracklist:
01. Carnal Quintessence 4:57
02. Untamed 3:51
03. Necroasis 4:28
04. The Third Oath 4:11
05. The End Permeates 5:02
******************************
Total playing time: 22:29


Preview 2



[more=Technical info]
Input File: 02. Untamed.mp3
Channels : 2
Sample Rate : 44100
Precision : 16-bit
Duration : 00:03:50.86 = 10180926 samples = 17314.5 CDDA sectors
File Size : 9.36M
Bit Rate : 324k
Sample Encoding: MPEG audio (layer I, II or III)
Comments :
Title=Untamed
Artist=Nethergate
Album=Necroasis
Tracknumber=2
Year=2022
Genre=Death
Discnumber=1/1

[/more]

Register
(10) artscald, cesar, chipsgott, karut, kimkayoung, Marek, metala, scorpionmk, VALERY, vyacheslav,
May 26 2022, 12:31:48 Lord Belial - Rapture (2022)


*Artist: Lord Belial
*Album: Rapture
*Year: 2022
*Genre: Black Metal
*Country: Sweden
*Format: mp3@CBR320kbps
*Size: 117MB

Tracklist:
01. Legion 03:30
02. On a Throne of Souls 05:21
03. Rapture of Belial 06:23
04. Destruction 03:49
05. Belie All Gods 05:05
06. Evil Incarnate 04:45
07. Lux Luciferi 05:27
08. Infinite Darkness and Death 06:40
09. Alpha and Omega 04:27
10. Lamentations 04:26
******************************
Total playing time: 49:53









[more=Technical info]
Input File: 02 - On a Throne of Souls.mp3
Channels : 2
Sample Rate : 44100
Precision : 16-bit
Duration : 00:05:21.00 = 14156100 samples = 24075 CDDA sectors
File Size : 13.1M
Bit Rate : 326k
Sample Encoding: MPEG audio (layer I, II or III)
Comments :
Title=On a Throne of Souls
Artist=Lord Belial
Album=Rapture
Tracknumber=2
Year=2022-05-27
Genre=Metal
Discnumber=1

[/more]

Register
(91) A.L.Rapsod, aleon, alex-82, AlexSmith, alikkon, Altkiller, Aresson, artscald, Ballisargon, boby9052, Brann, Bzth, Carcharoth, cesar, chipsgott, CTPEMLEHIE, Cyrci, DarkHorde, Demuirg, dermarsoran, DMIYUR, Emm Human, Femto, ForzaMinardi1977, gobblin, GorAtheist, gwar, hellbibber, HMHamster, infernallord, Infidel, judaz, kauyumari, kim666, kimkayoung, Korpse, LEGION69, Lord Noctua, lucifix, Luminous, MadCarrot, Mannard, Marek, metaljosue, metalwoman, MikkeFFF, milosdjor, Moonshtook, NachtWulf, nadin85, Narasimha, nemx, Nerevar, nsk2008, nsmetalhead, older68, Paradayz, Penetralia, Pentium.Disel, plfan93, recber, respect, Reverend, robertho777, Rover, russ777, sabr, SadistikSlayer, satanath, SilentNidhogg, smes, SS2998, stormhatt, Strygaldwir, stub888, Surt, suseka, TDM, thenecromancer, the_cleanser, tim47, tschunioronbeer, VALERY, varlam4, vasilisk, Xor, yarrsuaa, yuratroll, Козлотролль, Луч, Сварог Барг,
May 26 2022, 11:39:31 Crematory - Inglorious Darkness (2022)


*Artist: Crematory
*Album: Inglorious Darkness
*Year: 2022
*Genre: Industrial/Gothic Metal
*Country: Germany
*Format: mp3@CBR3230kbps
*Size: 112MB

Tracklist:
1. Inglorious Darkness 03:55
2. Break Down the Walls 05:19
3. Trümmerwelten 03:50
4. Rest in Peace 03:52
5. The Sound of My Life 03:52
6. Tränen der Zeit 05:00
7. Until We Meet Again 04:51
8. Zur Hölle 04:03
9. Not for the Innocent 04:41
10. Forsaken 05:17
11. Das Ende 03:48
******************************
Total playing time: 48:28



Preview 3



[more=Technical info]
Input File: 02 - Break Down the Walls.mp3
Channels : 2
Sample Rate : 44100
Precision : 16-bit
Duration : 00:05:19.00 = 14067900 samples = 23925 CDDA sectors
File Size : 12.9M
Bit Rate : 323k
Sample Encoding: MPEG audio (layer I, II or III)
Comments :
Title=Break Down the Walls
Artist=Crematory
Album=Inglorious Darkness
Tracknumber=2
Year=2022-05-27
Genre=Metal
Discnumber=1

[/more]

Register
(58) 6666666, A.L.Rapsod, aleon, AlexSmith, alikkon, Aresson, artscald, avather, Brann, Bzth, cancer1974, cesar, chipsgott, CTPEMLEHIE, Deada, Demonologist, Emm Human, Femto, GorAtheist, gwar, HMHamster, Hovnoliaty, jollo, kimkayoung, KLOP, kostja, LEGION69, leks, madera, Maestrovs, Melusinara, metala, Mihalik, morrom, nadin85, obscenity, pabedit, Phlebotomized, randyhermit, recber, respect, Reverend, robertho777, Rover, sadmannn, sepultura39, sergsazan, Shadechaser, skinnyboo, smes, Surt, v.v.m, VALERY, varlam4, Victim of fate, Xor, yuratroll, Сварог Барг,
May 26 2022, 11:34:08 Trollfest - Flamingo Overlord (2022)


*Artist: Trollfest
*Album: Flamingo Overlord
*Year: 2022
*Genre: Folk Metal
*Country: Norway
*Format: mp3@CBR3230kbps
*Size: 100MB

Tracklist:
1. Dance like a Pink Flamingo 03:24
2. All Drinks on Me 03:24
3. Flamongous 03:59
4. Twenty Miles an Hour 03:21
5. The Flamingorilla 03:22
6. Flamingo Libre 03:11
7. Piña Colada 03:30
8. Rule the Country 04:18
9. The Way You Earn Your Drinks 03:11
10. Overlords Have Feelings 03:30
11. Bob Venke 06:48
******************************
Total playing time: 41:58







[more=Technical info]
Input File: 02 - All Drinks on Me (feat. Jonne Järvelä).mp3
Channels : 2
Sample Rate : 44100
Precision : 16-bit
Duration : 00:03:24.00 = 8996400 samples = 15300 CDDA sectors
File Size : 8.46M
Bit Rate : 332k
Sample Encoding: MPEG audio (layer I, II or III)
Comments :
Title=All Drinks on Me (feat. Jonne Järvelä)
Artist=䨀漀渀渀攀 䨀爀瘀攀氀
Album=Flamingo Overlord
Tracknumber=2
Year=2022-05-27
Genre=Metal
Discnumber=1

[/more]

Register
(37) A.L.Rapsod, AlexSmith, artscald, Carcharoth, cesar, chipsgott, DarkHorde, Deada, Femto, GorAtheist, gwar, HMHamster, homelike, Isaz, judaz, kimkayoung, LightWizard, MadCarrot, Mannard, mardak666, obituarydark, older68, postal67, Reverend, RotAnus, Rover, sergsazan, smes, talismanFS, tt2008, VALERY, varlam4, yarrsuaa, yuratroll, zhol, Луч, скептик,
May 23 2022, 15:43:45 Organ Trail - Those Slimy Bastards [ep] (2015)


*Artist: Organ Trail
*Album: Those Slimy Bastards [ep]
*Year: 2015
*Genre: Death Metal/Grindcore
*Country: United States
*Format: mp3@CBR320kbps
*Size: 37MB

Tracklist:
1. Those Slimy Bastards 04:23
2. That's My Mother You're Pissing On 02:50
3. Master Blaster 01:36
4. A Terrifying Tale Of Sluts And Bolts 02:21
5. The Serum Has Been Rejected 01:32
6. Rebirthed In Trioxin 03:24
7. We're Going To Eat You 00:41
******************************
Total playing time: 16:47


Preview 2


[more=Technical info]
Input File: 07. We\'re Going to Eat You.mp3
Channels : 2
Sample Rate : 44100
Precision : 16-bit
Duration : 00:00:41.31 = 1821551 samples = 3097.88 CDDA sectors
File Size : 1.65M
Bit Rate : 320k
Sample Encoding: MPEG audio (layer I, II or III)
Comments :
Title=We're going to eat you
Artist=Organ Trail
Album=Those Slimy Bastards
Tracknumber=07
Year=2015

[/more]

Register
(1) Mannard,
May 23 2022, 15:28:09 Harmony Fault - Savage Horror Dementia (2014)


*Artist: Harmony Fault
*Album: Savage Horror Dementia
*Year: 2014
*Genre: Goregrind
*Country: Brazil
*Format: mp3@CBR320kbps
*Size: 70MB

Tracklist:
1. Dead Flesh Pleasure 02:38
2. Savage Horror Dementia 01:02
3. Blood Fucking Sicks 00:35
4. Zombie Cave 01:23
5. Alucarda 00:40
6. Puke Fetish 01:01
7. Cadaverina Putrescina 01:33
8. Rain Of Guts 01:42
9. La Maschera Del Demonio 02:06
10. Decomposition Process 01:43
11. P Is For Pleasure 01:55
12. M.I.L.F. 00:17
13. Bleeding Peptic Ulcer (RGTE Cover) 00:47
14. A Noite Do Chupacabras 02:05
15. Taxi Driver 01:42
16. Sangue E Vísceras 01:28
17. Comendo Lixo 00:53
18. Morte Macabra 04:01
******************************
Total playing time: 27:31



Preview 3



[more=Technical info]
Input File: 07. Cadaverina Putrescina.mp3
Channels : 2
Sample Rate : 44100
Precision : 16-bit
Duration : 00:01:33.00 = 4101300 samples = 6975 CDDA sectors
File Size : 4.19M
Bit Rate : 360k
Sample Encoding: MPEG audio (layer I, II or III)
Comments :
Title=Cadaverina Putrescina
Artist=Harmony Fault
Album=Savage Horror Dementia (320)
Tracknumber=07
Year=2014
Genre=Metal

[/more]

Register
(5) andreikun, artscald, caro, jollo, vyacheslav,
May 20 2022, 14:55:53 Organ Trail - Appetite For Dissection (2022)


*Artist: Organ Trail
*Album: Appetite For Dissection
*Year: 2022
*Genre: Death Metal/Grindcore
*Country: United States
*Format: mp3@CBR320kbps
*Size: 64MB

Tracklist:
01. The Trachea Stomp 01:25
02. Apathetic Dormancy 01:59
03. Torrential Meat Shower 01:55
04. Drinking Babies Blood With George Soros 01:22
05. Get of My Fucking Lawn 02:04
06. Weaponizing Misery 02:00
07. Desecrated Habitation 02:34
08. Appetite for Dissection 00:52
09. Imprint 02:12
10. I Need Your Cum 00:12
11. The Don't Wipe Type 01:12
12. Let Me Sleep 01:52
13. Gutter Serpents 03:00
14. 'Bout Had It (Flesh Parade cover) 01:55
******************************
Total playing time: 24:34


Preview 2



[more=Technical info]
Input File: 02-organ_trail-apathetic_dormancy-c21865a0.mp3
Channels : 2
Sample Rate : 44100
Precision : 16-bit
Duration : 00:01:59.08 = 5251208 samples = 8930.63 CDDA sectors
File Size : 5.37M
Bit Rate : 360k
Sample Encoding: MPEG audio (layer I, II or III)
Comments :
Title=Apathetic Dormancy
Artist=Organ Trail
Album=Appetite for Dissection
Tracknumber=2/14
Year=2022
Genre=Death Metal

[/more]

Register
(7) andreikun, artscald, caro, Hell_Is_Here, infozahist, jollo, Mannard,
May 20 2022, 14:42:43 Ophe - Somnium Nocte Mendaciis (2022)


*Artist: Ophe
*Album: Somnium Nocte Mendaciis
*Year: 2022
*Genre: Avant-Garde Black Metal
*Country: France
*Format: mp3@CBR320kbps
*Size: 93MB

Tracklist:
01. Tarde 00:51
02. Odalisk Incursio Sub Methaqualone 12:03
03. Squirting Cadaveribus 05:12
04. Partum Chimerae 04:11
05. Decem Vicibus II 10:12
06. Noctis Ames 01:08
07. Flores Vere A Peccatis 07:12
******************************
Total playing time: 40:49





[more=Technical info]
Input File: 03. Squirting Cadaveribus.mp3
Channels : 2
Sample Rate : 44100
Precision : 16-bit
Duration : 00:05:12.52 = 13782132 samples = 23439 CDDA sectors
File Size : 12.5M
Bit Rate : 321k
Sample Encoding: MPEG audio (layer I, II or III)
Comments :
Title=Squirting Cadaveribus
Artist=Ophe
Album=Somnium Nocte Mendaciis
Tracknumber=1
Year=2022

[/more]

Register
(24) AlexSmith, artscald, as71, Ash_1980, caro, Dante_D, dermarsoran, gena, Hell_Is_Here, judaz, kimkayoung, maochen, metala, nemx, nsk2008, rammstein888, robertho777, SilentNidhogg, skidnik, stormhatt, suseka, VALERY, varlam4, yuratroll,
May 19 2022, 16:22:12 Vaamatar - Medievalgeist (2022)


*Artist: Vaamatar
*Album: Medievalgeist
*Year: 2022
*Genre: Black Metal
*Country: United States
*Format: mp3@CBR320kbps
*Size: 94MB

Tracklist:
01. Medievalgeist 08:10
02. Plundering Claws 06:37
03. Hallowed Flesh 05:45
04. Spit & Gravel 08:04
05. Axe of Dolor 04:45
06. Midnight Montpelier 07:27
******************************
Total playing time: 40:48


Preview 2



[more=Technical info]
Input File: 02 - Plundering Claws.mp3
Channels : 2
Sample Rate : 44100
Precision : 16-bit
Duration : 00:06:37.00 = 17507700 samples = 29775 CDDA sectors
File Size : 16.1M
Bit Rate : 324k
Sample Encoding: MPEG audio (layer I, II or III)
Comments :
Title=Plundering Claws
Artist=Vaamatar
Album=Medievalgeist
Tracknumber=2
Year=2022-05-20
Genre=Metal
Discnumber=1

[/more]

Register
(17) AlexSmith, artscald, Bzth, Carcharoth, caro, gobblin, Hell_Is_Here, kim666, Korpse, rimfrost, robertho777, SilentNidhogg, stub888, suseka, VALERY, varlam4, WOLAND,
May 19 2022, 16:07:05 Awakening Sun - Heaven Is Whatever (2022)


*Artist: Awakening Sun
*Album: Heaven Is Whatever
*Year: 2022
*Genre: Melodic Death/Thrash/Groove Metal/Metalcore
*Country: Lithuania
*Format: mp3@CBR320kbps
*Size: 99MB

Tracklist:
01. Metropolis 04:13
02. 444 04:44
03. No Time To Suffer 03:55
04. Societal Malady 03:48
05. Letting Go 04:21
06. Revival 05:01
07. Empty 04:21
08. This Is Who We Are 03:19
09. Perception 04:00
10. Ode To Mayhem 04:44
******************************
Total playing time: 42:26



Preview 3



[more=Technical info]
Input File: 02 - 444.mp3
Channels : 2
Sample Rate : 44100
Precision : 16-bit
Duration : 00:04:44.00 = 12524400 samples = 21300 CDDA sectors
File Size : 11.5M
Bit Rate : 324k
Sample Encoding: MPEG audio (layer I, II or III)
Comments :
Title=444
Artist=AWAKENING SUN
Album=HEAVEN IS WHATEVER
Tracknumber=2
Year=2022-05-20
Genre=Metal
Discnumber=1

[/more]

Register
(5) artscald, boby9052, caro, metala, VALERY,

1472 Pages V   1 2 3 > » 
- Lo-Fi Version Support form
Copyrights and abuse reports form
Time is now: 29th May 2022 - 09:51:21