Welcome Guest ( Log In | Register )

История благодарностей участнику necroscum ::: Спасибо сказали: 401656 раз(а)
Дата поста: В теме: За сообщение: Спасибо сказали:
Oct 18 2019, 14:40:39 Kudoharuka 工藤晴香 - Kudo Haruka [demo] (2019)


*Artist: Kudoharuka 工藤晴香
*Album: Kudo Haruka [demo]
*Year: 2019
*Genre: Goregrind
*Country: Chile
*Format: mp3@CBR320kbps
*Size: 14MB

Tracklist:
01. Kudoharu Is A Cutie 01:03
02. Inferiority Complex 00:48
03. だめ がみ 01:10
04. Love Live Saved My Life, But Also Ruined It 01:32
05. 177013 00:54
06. Bのチカラを信じる 00:07
******************************
Total playing time: 5:34




[more=Technical info]
Input File: 02. Inferiority Complex.mp3
Channels : 2
Sample Rate : 44100
Precision : 16-bit
Duration : 00:00:48.07 = 2119755 samples = 3605.03 CDDA sectors
File Size : 2.10M
Bit Rate : 349k
Sample Encoding: MPEG audio (layer I, II or III)
Comments :
Title=Inferiority Complex
Artist=KudoHaruka 工藤晴香
Album=Kudo Haruka
Tracknumber=2
Year=2019

[/more]

Register
(2) artscald, Olethros,
Oct 18 2019, 14:26:35 Kvasir's Blood - W​.​o​.​t​.​a​.​n. (2017)


*Artist: Kvasir's Blood
*Album: W​.​o​.​t​.​a​.​n.
*Year: 2017
*Genre: Black Metal
*Country: United States
*Format: mp3@CBR320kbps
*Size: 91MB

Tracklist:
01. Selbstmord 09:03
02. Sehnsucht 08:58
03. Waldensamkeit 04:12
04. Der Ruf zu den Waffen 01:26
05. Königreich der Asche 06:26
06. Vinlandic Heathen Madness (Satanic Warmaster cover) 06:57
******************************
Total playing time: 37:02

[more=Technical info]
Input File: Kvasir\'s Blood - W.O.T.A.N. - 02 Sehnsucht.mp3
Channels : 2
Sample Rate : 44100
Precision : 16-bit
Duration : 00:08:58.81 = 23761301 samples = 40410.4 CDDA sectors
File Size : 21.7M
Bit Rate : 322k
Sample Encoding: MPEG audio (layer I, II or III)
Comments :
Title=Sehnsucht
Artist=Kvasir's Blood
Album=W.O.T.A.N.
Tracknumber=2
Year=2017

[/more]

Register
(8) 1968_janeart, artscald, kim666, Olethros, Rover, stone88, stub888, vasiljev_sergej,
Oct 18 2019, 14:17:36 Kvasir's Blood - Blutfahne [ep] (2018)


*Artist: Kvasir's Blood
*Album: Blutfahne [ep]
*Year: 2018
*Genre: Black Metal
*Country: United States
*Format: mp3@CBR320kbps
*Size: 50MB

Tracklist:
01. [Untitled] 11:21
02. [Untitled] 10:38
******************************
Total playing time: 21:59

[more=Technical info]
Input File: 02 -untitled-.mp3
Channels : 2
Sample Rate : 44100
Precision : 16-bit
Duration : 00:10:38.97 = 28178445 samples = 47922.5 CDDA sectors
File Size : 25.6M
Bit Rate : 321k
Sample Encoding: MPEG audio (layer I, II or III)
Comments :
Title=[untitled]
Artist=Kvasir's Blood
Album=Blutfahne
Tracknumber=2
Year=2018
Genre=Black Metal

[/more]

Register
(6) 1968_janeart, artscald, kim666, Olethros, stub888, vasiljev_sergej,
Oct 18 2019, 14:10:32 Kvasir's Blood - Aloft On Winds Of The Ancients [ep] (2016)


*Artist: Kvasir's Blood
*Album: Aloft On Winds Of The Ancients [ep]
*Year: 2016
*Genre: Black Metal
*Country: United States
*Format: mp3@CBR320kbps
*Size: 49MB

Tracklist:
01. The Mead of Poetry 01:16
02. Heavens Ablaze 04:45
03. Dreams of Gold 05:09
04. Wolf & War 04:36
05. Maiden of the Purest Blood 05:25
******************************
Total playing time: 21:11



[more=Technical info]
Input File: 02. Heavens Ablaze.mp3
Channels : 2
Sample Rate : 44100
Precision : 16-bit
Duration : 00:04:45.74 = 12601266 samples = 21430.7 CDDA sectors
File Size : 11.6M
Bit Rate : 324k
Sample Encoding: MPEG audio (layer I, II or III)
Comments :
Title=Heavens Ablaze
Artist=Kvasir's Blood
Album=Aloft on Winds of the Ancients
Tracknumber=02
Year=2016

[/more]

Register
(6) 1968_janeart, artscald, kim666, Olethros, stub888, vasiljev_sergej,
Oct 18 2019, 14:02:37 Ceremonial Incantations - Ceremonial Incantations [ep] (2019)


*Artist: Ceremonial Incantations
*Album: Ceremonial Incantations [ep]
*Year: 2019
*Genre: Black Metal
*Country: United States
*Format: mp3@CBR320kbps
*Size: 38MB

Tracklist:
01. Intro 01:16
02. Poder Del Daemonio 03:58
03. Ceremonial Incantations 03:56
04. Satan My Master (Bathory Cover) 02:28
05. Hail the Black Reign of Sathanas 04:35
******************************
Total playing time: 16:13



[more=Technical info]
Input File: 02. Poder Del Daemonio.mp3
Channels : 2
Sample Rate : 44100
Precision : 16-bit
Duration : 00:03:58.82 = 10532138 samples = 17911.8 CDDA sectors
File Size : 9.73M
Bit Rate : 326k
Sample Encoding: MPEG audio (layer I, II or III)
Comments :
Title=Poder Del Daemonio
Artist=Ceremonial Incantations
Album=Ceremonial Incantations
Tracknumber=2
Year=2019

[/more]

Register
(7) 1968_janeart, artscald, kim666, Olethros, stub888, vasiljev_sergej, Wail,
Oct 18 2019, 13:51:48 Svarteld - Nederlag För Korset [demo] (2019)


*Artist: Svarteld
*Album: Nederlag För Korset [demo]
*Year: 2019
*Genre: Melodic Black Metal
*Country: Sweden
*Format: mp3@CBR320kbps
*Size: 44MB

Tracklist:
01. Preludium 01:28
02. Galder Över Sejden 04:02
03. En Tjärn Av Mörker 05:24
04. En Svart Eld 03:51
05. Färd Mot Hemman 03:25
06. Postludium 01:00
******************************
Total playing time: 19:10




[more=Technical info]
Input File: 02. Galder över sejden.mp3
Channels : 2
Sample Rate : 44100
Precision : 16-bit
Duration : 00:04:04.08 = 10763708 samples = 18305.6 CDDA sectors
File Size : 9.85M
Bit Rate : 323k
Sample Encoding: MPEG audio (layer I, II or III)
Comments :
Title=Galder över sejden
Artist=Svarteld
Album=Nederlag för korset
Tracknumber=2
Year=2019

[/more]

Register
(7) 1968_janeart, artscald, kim666, Olethros, Sjelekval, vasiljev_sergej, Сварог Барг,
Oct 17 2019, 15:56:04 I Declare War - Downcast [ep] (2019)


*Artist: I Declare War
*Album: Downcast [ep]
*Year: 2019
*Genre: Deathcore
*Country: United States
*Format: mp3@CBR320kbps
*Size: 37MB

Tracklist:
01. Grieve for No One
02. Hypothermic
03. Desperate Times
04. Hopeless
05. Dark Blur
******************************
Total playing time: 16:04





[more=Technical info]
Input File: 02 Hypothermic.mp3
Channels : 2
Sample Rate : 44100
Precision : 16-bit
Duration : 00:02:58.09 = 7853593 samples = 13356.5 CDDA sectors
File Size : 7.12M
Bit Rate : 320k
Sample Encoding: MPEG audio (layer I, II or III)
Comments :
Title=Hypothermic
Artist=I Declare War
Album=Downcast
Tracknumber=02/05
Year=2019-19-20
Discnumber=1/1

[/more]

Register
(5) artscald, infiltrator, Olethros, Rosen, Герб,
Oct 17 2019, 15:50:10 Secret Chapter - Chapter One (2019)


*Artist: Secret Chapter
*Album: Chapter One
*Year: 2019
*Genre: Melodic Power Metal
*Country: Norway
*Format: mp3@CBR320kbps
*Size: 92MB

Tracklist:
01. Baptized in Ecstasy 04:10
02. Show Me the Road 04:33
03. Human Centipede 03:12
04. One Night Aint Enough 04:13
05. Heavy Metal Love Affair 05:33
06. The Great Escape 03:54
07. Sin City 02:40
08. Introspection 04:04
09. Enemy Inside 03:39
10. Blaze 04:04
******************************
Total playing time: 40:02




[more=Technical info]
Input File: 2 - Show Me the Road.mp3
Channels : 2
Sample Rate : 44100
Precision : 16-bit
Duration : 00:04:33.36 = 12055176 samples = 20502 CDDA sectors
File Size : 11.0M
Bit Rate : 321k
Sample Encoding: MPEG audio (layer I, II or III)
Comments :
Title=Show Me the Road
Artist=Secret Chapter
Album=Chapter One
Tracknumber=2
Year=2019
Genre=Alternative/Indie Rock/Metal
Discnumber=1

[/more]

Register
(13) ace73pq, artscald, cancer1974, Druidir, gwar, infiltrator, MetalW, Olethros, postal67, Rosen, satanist666, zhol, Сварог Барг,
Oct 17 2019, 15:42:35 Orodruin - Ruins Of Eternity (2019)


*Artist: Orodruin
*Album: Ruins Of Eternity
*Year: 2019
*Genre: Doom Metal
*Country: United States
*Format: mp3@CBR320kbps
*Size: 109MB

Tracklist:
01. Forsaken 04:36
02. Man of Peace 04:53
03. Grave Illusion 05:44
04. Letter of Life's Regret 05:14
05. War on the World 04:25
06. Into the Light of the Sun 05:28
07. Voice in the Dark 05:35
08. Hell Frozen Over 05:03
09. Ruins of Eternity 06:14
******************************
Total playing time: 47:12






[more=Technical info]
Input File: 02. Man of Peace.mp3
Channels : 2
Sample Rate : 44100
Precision : 16-bit
Duration : 00:04:53.14 = 12927430 samples = 21985.4 CDDA sectors
File Size : 11.8M
Bit Rate : 323k
Sample Encoding: MPEG audio (layer I, II or III)
Comments :
Title=Man of Peace
Artist=Orodruin
Album=Ruins of Eternity
Tracknumber=2/9
Year=2019
Genre=9
Discnumber=1/1

[/more]

Register
(20) ahp, artscald, autumnwood, doomTemplar, Dooomerrr, DowntownGsus, EpicDoomLord, infiltrator, kauyumari, marilin, older68, Olethros, Ostinato, Ozik, pothead, Rosen, sergsazan, Surt, TAKATAEL, Wolfera,
Oct 17 2019, 15:33:57 Living Monstrosity - Bitter Wisdom (2019)


*Artist: Living Monstrosity
*Album: Bitter Wisdom
*Year: 2019
*Genre: Melodic Black Metal/Grindcore
*Country: United Kingdom
*Format: mp3@CBR320kbps
*Size: 146MB

Tracklist:
01. Every Worthless Second 04:49
02. L'appel Du Vide 05:03
03. As Her Cancer Blackens The Earth 08:13
04. An Awakening... 01:16
05. ...To Seek The Burning Sun 03:25
06. Shifting Seasons 04:51
07. In The Guise Of Winter 05:14
08. Annihilation 05:06
09. You Failed Me 08:08
10. Bitter Wisdom 12:27
******************************
Total playing time: 58:32





[more=Technical info]
Input File: 02 L\'appel Du Vide.mp3
Channels : 2
Sample Rate : 44100
Precision : 16-bit
Duration : 00:00:00.30 = 13362 samples = 22.7245 CDDA sectors
File Size : 13.3M
Bit Rate : 351M
Sample Encoding: MPEG audio (layer I, II or III)
Comments :
Title=L'appel Du Vide
Artist=Living Monstrosity
Album=Bitter Wisdom
Tracknumber=2/10
Year=2019
Genre=Metal
Discnumber=1/1

[/more]

Register
(10) artscald, infiltrator, Korpse, metalwoman, Olethros, Rosen, Rover, satanist666, yuratroll, zhol,
Oct 17 2019, 15:23:19 Vinsta - Drei Deita (2019)


*Artist: Vinsta
*Album: Drei Deita
*Year: 2019
*Genre: Progressive Death Metal
*Country: Austria
*Format: mp3@CBR320kbps
*Size: 113MB

Tracklist:
01. Ausklong 00:32
02. Weisse Deckn 09:25
03. Oafocha Loda 05:29
04. Raunocht 06:43
05. Fiachtn 07:36
06. Drei Deita 06:07
07. Tiafn 09:42
08. Einklong 03:41
******************************
Total playing time: 49:15




[more=Technical info]
Input File: 02 - Weisse Deckn.mp3
Channels : 2
Sample Rate : 44100
Precision : 16-bit
Duration : 00:09:25.50 = 24938682 samples = 42412.7 CDDA sectors
File Size : 22.7M
Bit Rate : 321k
Sample Encoding: MPEG audio (layer I, II or III)
Comments :
Title=Weisse Deckn
Artist=Vinsta
Album=Drei Deita
Tracknumber=2
Year=2019
Genre=Rock/Hard Rock/Metal
Discnumber=1

[/more]

Register
(15) Abrob, ahp, alikkon, artscald, chipsgott, Druidir, infiltrator, lary_veel, Morgoth, older68, Olethros, Rosen, wanderer73, yuratroll, Луч,
Oct 17 2019, 15:09:13 Xoth - Interdimensional Invocations (2019)


*Artist: Xoth
*Album: Interdimensional Invocations
*Year: 2019
*Genre: Death/Black Metal
*Country: United States
*Format: mp3@CBR320kbps
*Size: 90MB

Tracklist:
01. Casting the Sigil 04:52
02. Mountain Machines 03:53
03. Back to the Jungle 05:06
04. Unseen Abductor 04:58
05. Haruspex 04:24
06. Plague Revival 20XX 05:27
07. The Ghost Hand of God 03:47
08. Melted Face of the Soul 06:43
******************************
Total playing time: 39:10





[more=Technical info]
Input File: 2 - Mountain Machines.mp3
Channels : 2
Sample Rate : 44100
Precision : 16-bit
Duration : 00:03:53.23 = 10285619 samples = 17492.5 CDDA sectors
File Size : 9.43M
Bit Rate : 323k
Sample Encoding: MPEG audio (layer I, II or III)
Comments :
Title=Mountain Machines
Artist=Xoth
Album=Interdimensional Invocations
Tracknumber=2
Year=2019
Genre=Metal
Discnumber=1

[/more]

Register
(24) AHBAnep, ahp, alikkon, artscald, BandR75, DarkHorde, Evilded, fuoco, infiltrator, JohnnyBravo, Metalass, Morgoth, Olethros, Rosen, Rover, satanist666, SatanMy_Master, Shadechaser, SilentNidhogg, stub888, vasiljev_sergej, vyacheslav, yuratroll, Сварог Барг,
Oct 17 2019, 15:01:10 Induction - Induction (2019)


*Artist: Induction
*Album: Induction
*Year: 2019
*Genre: Symphonic Power Metal
*Country: Czech Republic
*Format: mp3@CBR320kbps
*Size: 131MB

Tracklist:
01. A Message in Sand 02:29
02. By the Time 04:37
03. Pay the Price 03:50
04. The Outwitted Consecration 05:29
05. Hiraeth 06:37
06. Mirror Make Believe (My Enemy) 06:15
07. At the Bottom 05:59
08. The Riddle 05:19
09. A Nightmares Dream 05:03
10. My Verdict 04:25
11. Sorrows Lullaby 06:47
******************************
Total playing time: 56:50


Preview 2



[more=Technical info]
Input File: 2 - By the Time.mp3
Channels : 2
Sample Rate : 44100
Precision : 16-bit
Duration : 00:04:37.80 = 12251024 samples = 20835.1 CDDA sectors
File Size : 11.2M
Bit Rate : 322k
Sample Encoding: MPEG audio (layer I, II or III)
Comments :
Title=By the Time
Artist=Induction
Album=Induction
Tracknumber=2
Year=2019
Genre=Metal
Discnumber=1

[/more]

Register
(8) ace73pq, artscald, Cartman223, gwar, Olethros, Rosen, satanist666, talismanFS,
Oct 17 2019, 14:28:59 Wasted - Electrified (2019)


*Artist: Wasted
*Album: Electrified
*Year: 2019
*Genre: Heavy Metal
*Country: Denmark
*Format: mp3@CBR320kbps
*Size: 88MB

Tracklist:
01. Halloween
02. Electrified
03. Chained
04. Demons Re-calling
05. Age of Power
06. Forces of Evil
07. Evil
08. Your Own Private Pain
09. Ought to Be Bad
10. Toys in the Attic
******************************
Total playing time: 38:14





[more=Technical info]
Input File: 2 - Electrified.mp3
Channels : 2
Sample Rate : 44100
Precision : 16-bit
Duration : 00:03:43.59 = 9860495 samples = 16769.5 CDDA sectors
File Size : 8.99M
Bit Rate : 322k
Sample Encoding: MPEG audio (layer I, II or III)
Comments :
Title=Electrified
Artist=Wasted
Album=Electrified
Tracknumber=2
Year=2019
Genre=Rock/Hard Rock/Metal
Discnumber=1

[/more]

Register
(12) artscald, aviacademy, avkruchinin, fuoco, infiltrator, Olethros, postal67, Rosen, Rover, sergsazan, Wail, Сварог Барг,
Oct 17 2019, 14:07:56 Rexoria - Ice Breaker (2019)


*Artist: Rexoria
*Album: Ice Breaker
*Year: 2019
*Genre: Melodic Heavy Metal
*Country: Sweden
*Format: mp3@CBR320kbps
*Size: 114MB

Tracklist:
01. Velvet Heroes 03:28
02. Fight the Demons 04:07
03. Endless Nights 04:38
04. Into the Wild 03:52
05. Reach for the Heavens in Time 05:08
06. Ice Breaker 05:38
07. Wind and Rain 01:26
08. The Rise of the Phoenix 05:04
09. Brothers of Asgaard 03:45
10. The Raging Thunder 04:12
11. Roaring 03:47
12. Var verklinget 04:31
******************************
Total playing time: 49:36




[more=Technical info]
Input File: 2 - Fight the Demons.mp3
Channels : 2
Sample Rate : 44100
Precision : 16-bit
Duration : 00:04:07.45 = 10912325 samples = 18558.4 CDDA sectors
File Size : 9.98M
Bit Rate : 323k
Sample Encoding: MPEG audio (layer I, II or III)
Comments :
Title=Fight The Demons
Artist=Rexoria
Album=Ice Breaker
Tracknumber=2
Year=2019
Genre=Heavy Metal
Discnumber=1

[/more]

Register
(11) artscald, aviacademy, BugEyes, djsema4, gwar, Olethros, Rosen, Rover, vir2al, zhol, Сварог Барг,
Oct 17 2019, 14:00:04 Chaos Motion - Psychological Spasms Cacophony (2019)


*Artist: Chaos Motion
*Album: Psychological Spasms Cacophony
*Year: 2019
*Genre: Experimental/Avant-Garde Death Metal
*Country: France
*Format: mp3@CBR320kbps
*Size: 103MB

Tracklist:
01. Intro 02:38
02. The Sound of Specter 04:52
03. Perturbation of a Spin 04:48
04. Unscrupulousness Resolution 04:01
05. Vital Vision Void 05:06
06. Inner Chaos 03:45
07. Psychotic Spasm 04:53
08. Absorption Disastrous 04:48
09. Sempiternal Self-Dissolution 04:51
10. Outro 03:15
******************************
Total playing time: 42:57






[more=Technical info]
Input File: 02. The Sound of Specter.mp3
Channels : 2
Sample Rate : 44100
Precision : 16-bit
Duration : 00:04:51.93 = 12874289 samples = 21895 CDDA sectors
File Size : 11.8M
Bit Rate : 324k
Sample Encoding: MPEG audio (layer I, II or III)
Comments :
Title=The Sound of Specter
Artist=Chaos Motion
Album=Psychological Spasms Cacophony
Tracknumber=2
Year=2019
Genre=Progressive Death
Discnumber=1

[/more]

Register
(10) AHBAnep, artscald, fuoco, infiltrator, mirotvorets, Olethros, Rosen, suseka, yuratroll, Герб,
Oct 17 2019, 13:44:07 Rimfrost - Expedition: Darkness (2019)


*Artist: Rimfrost
*Album: Expedition: Darkness
*Year: 2019
*Genre: Black Metal
*Country: Sweden
*Format: mp3@CBR320kbps
*Size: 108MB

Tracklist:
01. Rising of a Black Dawn 00:49
02. Damned Jaws 04:08
03 Sam-Hain 05:11
04 Dawnbreaker 06:03
05 Expedition: Darkness 07:06
06 Voorhees 05:51
07 Bloodnight 04:36
08 Natten 05:38
09 At the Blessing of the Damned 07:37
******************************
Total playing time: 46:59







[more=Technical info]
Input File: 02 - Damned Jaws.mp3
Channels : 2
Sample Rate : 44100
Precision : 16-bit
Duration : 00:04:08.10 = 10941122 samples = 18607.4 CDDA sectors
File Size : 9.98M
Bit Rate : 322k
Sample Encoding: MPEG audio (layer I, II or III)
Comments :
Title=Damned Jaws
Artist=Rimfrost
Album=Expedition: Darkness
Tracknumber=2
Year=2019
Genre=Alternative/Indie Rock/Metal
Discnumber=1

[/more]

Register
(28) alikkon, artscald, berserkr, cist, DarkHorde, Fess, hellbibber, Infidel, infiltrator, kim666, Korpse, Morgoth, nemx, Olethros, recber, Reverend, Rosen, Rover, sabbracadabra, satanist666, SilentNidhogg, Sjelekval, stub888, suseka, toly1917, wrath082, xska, yuratroll,
Oct 17 2019, 13:04:48 Assassin's Blade - Gather Darkness (2019)


*Artist: Assassin's Blade
*Album: Gather Darkness
*Year: 2019
*Genre: Heavy/Speed Metal
*Country: Canada
*Format: mp3@CBR320kbps
*Size: 104MB

Tracklist:
01. Tempt Not (The Blade of the Assassin) 04:06
02. Call of the Watch 03:26
03. Gather, Darkness! 04:14
04. The City That Waits 04:47
05. Dream Savant 05:44
06. Gods 04:00
07. The Ghost of Orion 04:17
08. The Thaumaturge 04:30
09. I, of the Storm 04:14
10. Soil of the Dead 06:10
******************************
Total playing time: 45:28




[more=Technical info]
Input File: 02 - Call of the Watch.mp3
Channels : 2
Sample Rate : 44100
Precision : 16-bit
Duration : 00:03:26.09 = 9088613 samples = 15456.8 CDDA sectors
File Size : 8.32M
Bit Rate : 323k
Sample Encoding: MPEG audio (layer I, II or III)
Comments :
Title=Call of the Watch
Artist=Assassin's Blade
Album=Gather Darkness
Tracknumber=2
Year=2019
Genre=Rock/Hard Rock/Metal
Discnumber=1

[/more]

Register
(13) artscald, aviacademy, BugEyes, Darkness, gwar, metalwoman, Olethros, pedrohell, Rosen, Rover, sergsazan, Wail, Сварог Барг,
Oct 17 2019, 12:45:56 Holy Serpent - Endless (2019)


*Artist: Holy Serpent
*Album: Endless
*Year: 2019
*Genre: Stoner/Doom Metal
*Country: Australia
*Format: mp3@CBR320kbps
*Size: 93MB

Tracklist:
01. Lord Deceptor 06:47
02. Into the Fire 06:46
03. Daughter of the Light 07:18
04. Hourglass 05:26
05. For No One 07:44
06. Marijuana Trench 06:06
******************************
Total playing time: 40:07






[more=Technical info]
Input File: 02. Into the Fire.mp3
Channels : 2
Sample Rate : 44100
Precision : 16-bit
Duration : 00:06:46.88 = 17943364 samples = 30515.9 CDDA sectors
File Size : 16.5M
Bit Rate : 324k
Sample Encoding: MPEG audio (layer I, II or III)
Comments :
Title=Into the Fire
Artist=Holy Serpent
Album=Endless
Tracknumber=2
Year=2019-10-18
Genre=Metal
Discnumber=1

[/more]

Register
(13) ahp, artscald, autumnwood, gena, LEGION69, marilin, Olethros, Rosen, SatanicPanzer, scrollbar, stub888, vosmidesijatye, yuratroll,
Oct 17 2019, 12:29:23 Teitanblood - The Baneful Choir (2019)


*Artist: Teitanblood
*Album: The Baneful Choir
*Year: 2019
*Genre: Death/Black Metal
*Country: Spain
*Format: mp3@CBR320kbps
*Size: 119MB

Tracklist:
01. Rapture Below 03:34
02. Black Vertebrae 04:38
03. Leprous Fire 04:40
04. Ungodly Others 04:49
05. Inhuman Utterings 06:20
06. Insight 01:44
07. ...of the Mad Men 01:11
08. The Baneful Choir 08:49
09. Sunken Stars 06:13
10. Verdict of the Dead 05:05
11. Charnel Above 04:37
******************************
Total playing time: 51:40




[more=Technical info]
Input File: 1 - Rapture Below.mp3
Channels : 2
Sample Rate : 44100
Precision : 16-bit
Duration : 00:03:33.67 = 9422715 samples = 16025 CDDA sectors
File Size : 8.62M
Bit Rate : 323k
Sample Encoding: MPEG audio (layer I, II or III)
Comments :
Title=Rapture Below
Artist=Teitanblood
Album=The Baneful Choir
Tracknumber=1
Year=2019
Genre=Rock
Discnumber=1

[/more]

Register
(88) abob, ahp, alikkon, andivi, andreikun, Aresson, babanguida, BERZERK, biroutios, Black Cat, cenzored, cesar, CRUNCH, Cruor, DarkHorde, Darkwood, dermarsoran, doomTemplar, DrStan, El_Chibo, Evilded, Femto, fishish, Fryz, FUDEDOR, garmonbozia, gena, HA7tur, Henmik, HviteGuden, Infidel, infiltrator, je5uck, judaz, karaczun, kauyumari, Kazoth, kim666, Korpse, kvetak, lordbathor, maochen, marilin, Metalass, Morgoth, nada88pe, nadin85, Narasimha, nikolay81, NOMIDIMON, Olethros, Orgasmik, Premature_Devotion, Reverend, ripper33, Rosen, RUSP73, sacredserenity, sacrut, samokot, Sanctus, sandr666, SAPOGi, satanist666, Scorpi, Sheogorath, SilentNidhogg, smes, soulskinner681, stub888, supremo, Surt, suseka, svartalf, Thunderbird, Tino, toly1917, Trelledorn, troll_swamp, Tyrone, vosmidesijatye, Vraithee, Wail, wolverine, xska, yuratroll, Варяг, Фо,
Oct 17 2019, 12:00:54 Djevel - Ormer Til Armer, Maane Til Hode (2019)


*Artist: Djevel
*Album: Ormer Til Armer, Maane Til Hode
*Year: 2019
*Genre: Black Metal
*Country: Norway
*Format: mp3@CBR320kbps
*Size: 128MB

Tracklist:
01. Ormer Til Armer, Maane Til Hode
02. Et Menniskes Hele Korpus Og Legeme
03. Den Gang Jeg Banket Paa Helvedes Tunge Doer
04. Dreb Dem Alle, Herren Vil Gjenkjenne Sine
05. Ved Hildr's Haand For Hel
06. Det Eders Herre Lover Er Mer Enn Hva Mennisket Taaler
07. Over Svarte Skriigende Skoger
08. Illoyegd Foedt Som Satans Barn, Paa Ferd Uden Spor Af Menneskeverd
******************************
Total playing time: 55:42





[more=Technical info]
Input File: 02. Et Menniskes Hele Korpus Og Legeme.mp3
Channels : 2
Sample Rate : 44100
Precision : 16-bit
Duration : 00:05:54.71 = 15642711 samples = 26603.2 CDDA sectors
File Size : 14.3M
Bit Rate : 323k
Sample Encoding: MPEG audio (layer I, II or III)
Comments :
Title=Et Menniskes Hele Korpus Og Legeme
Artist=Djevel
Album=Ormer Til Armer, Maane Til Hode
Tracknumber=2
Year=2019-10-18
Genre=Metal
Discnumber=1

[/more]

Register
(60) 1968_janeart, ahp, andivi, artscald, Beazth, BERZERK, Black Cat, Brann, cancer1974, DarkHorde, Dooomerrr, Fess, Fryz, gena, Golodomor, hellbibber, helvetesrike, helvetestoner, Henmik, igore2911, Infidel, infiltrator, IzverGOD, kauyumari, Kazoth, kim666, Metalass, Moonshtook, Mortis, nadin85, Namnlos, NappyRob, Olethros, peppuzzo, Radek, recber, rimfrost, ripper33, Rosen, Rover, RUSP73, sandr666, satanist666, Scuns, Shadechaser, Shagarth21, SilentNidhogg, Sjelekval, smes, SortVokter, stub888, Surt, suseka, Taragorm, thenecromancer, toly1917, wolverine, wtk.412, xska, ZA670,
Oct 17 2019, 11:47:17 Uneven Structure - Paragon (2019)


*Artist: Uneven Structure
*Album: Paragon
*Year: 2019
*Genre: Progressive Metal/Djent
*Country: France
*Format: mp3@CBR320kbps
*Size: 118MB

Tracklist:
01. Magician 03:38
02. Hero 04:42
03. Innocent 05:39
04. Caregiver 01:52
05. Outlaw 06:15
06. Explorer 01:55
07. Creator 05:43
08. Ruler 05:19
09. Jester 04:49
10. Sage 01:01
11. Lover 05:11
12. Everyman 05:16
******************************
Total playing time: 51:20





[more=Technical info]
Input File: 02 Hero.mp3
Channels : 2
Sample Rate : 44100
Precision : 16-bit
Duration : 00:04:42.58 = 12461866 samples = 21193.6 CDDA sectors
File Size : 11.3M
Bit Rate : 320k
Sample Encoding: MPEG audio (layer I, II or III)
Comments :
Title=Hero
Artist=Uneven Structure
Album=Paragon
Tracknumber=02/12
Year=2019-19-20
Discnumber=1/1

[/more]

Register
(6) artscald, dalek, maochen, Olethros, Rivalen, Rosen,
Oct 17 2019, 11:29:35 Negator - Vnitas Pvritas Existentia (2019)


*Artist: Negator
*Album: Vnitas Pvritas Existentia
*Year: 2019
*Genre: Black Metal
*Country: Germany
*Format: mp3@CBR320kbps
*Size: 129MB

Tracklist:
01. Temple of Light 05:37
02. Sangvis Serpentis 04:50
03. Χαῖρε φῶς (Khaire Phos) 03:40
04. Pyroleophis 05:29
05. Prophets of Fire 07:31
06. Ritvs Sex 05:09
07. Regnvm Spiritvs Immvndi 05:21
08. Et Verbvm Caro Factvm Est 03:32
09. Rite of the Trident 07:28
10. Der Ruf der See (Bonus Track) 06:21
******************************
Total playing time: 54:58







[more=Technical info]
Input File: 02. Sangvis Serpentis.mp3
Channels : 2
Sample Rate : 44100
Precision : 16-bit
Duration : 00:04:50.37 = 12805185 samples = 21777.5 CDDA sectors
File Size : 12.0M
Bit Rate : 330k
Sample Encoding: MPEG audio (layer I, II or III)
Comments :
Title=Sangvis Serpentis
Artist=Negator
Album=VNITAS PVRITAS EXISTENTIA
Tracknumber=2
Year=2019-10-18
Genre=Rock
Discnumber=1

[/more]

Register
(33) 1968_janeart, artscald, DarkHorde, dermarsoran, Farung, Femto, Fryz, infiltrator, kim666, Korpse, LEGION69, Morgoth, murian, nemx, obituarydark, Olethros, peppuzzo, ripper33, Rosen, Rover, Sanctus, sandr666, satanist666, sethurius, Shadechaser, SilentNidhogg, stub888, TeamatSE, uranium235, vasiljev_sergej, Victim of fate, vov7609, yuratroll,
Oct 17 2019, 11:20:53 1349 - The Infernal Pathway (2019)


*Artist: 1349
*Album: The Infernal Pathway
*Year: 2019
*Genre: Black Metal
*Country: Norway
*Format: mp3@CBR320kbps
*Size: 100MB

Tracklist:
01. Abyssos Antithesis 05:30
02. Through Eyes of Stone 03:24
03. Tunnel of Set VIII 00:47
04. Enter Cold Void Dreaming 03:58
05. Towers upon Towers 04:50
06. Tunnel of Set IX 01:06
07. Deeper Still 04:13
08. Striding the Chasm 06:11
09. Dødskamp 05:01
10. Tunnel of Set X 00:53
11. Stand Tall in Fire 08:09
******************************
Total playing time: 44:02






[more=Technical info]
Input File: 02 Through Eyes of Stone.mp3
Channels : 2
Sample Rate : 44100
Precision : 16-bit
Duration : 00:03:24.45 = 9016025 samples = 15333.4 CDDA sectors
File Size : 8.18M
Bit Rate : 320k
Sample Encoding: MPEG audio (layer I, II or III)
Comments :
Title=Through Eyes of Stone
Artist=1349
Album=The Infernal Pathway
Tracknumber=02/11
Year=2019-19-20
Discnumber=1/1

[/more]

Register
(87) 1968_janeart, 666days, A.L.Rapsod, AHAB99, ahp, Alexis The Best, alikkon, Antichrist696, Aresson, artscald, as71, autumnwood, babanguida, Beazth, berserkr, biroutios, Black Cat, BlackMirror, bowelled, Brann, cancer1974, caro, cenzored, cesar, djsema4, Dmitry1977, Femto, Froze, gena, gwar, hellbibber, Henmik, Infidel, infiltrator, JD666Hellion, judaz, Kasper969, kim666, Korpse, LEGION69, mardak666, metala, Metalass, MMMMM, Moonshtook, Morgoth, nadin85, NappyRob, nemx, Nerevar, obscenity, Orgasmik, rabiasocial, rabindranad, Radek, recber, Reverend, RichardAmadeyGere, ripper33, Rosen, Rover, RUSP73, SadistikSlayer, Samogon, sandr666, SatanicPanzer, satanist666, Scuns, SilentNidhogg, Sjelekval, smes, stub888, supremo, suseka, SyncestrA, TeamatSE, thenecromancer, thyrane, Tino, toly1917, trabantfan, Valdmaar, vov7609, wolverine, xska, yuratroll, Сварог Барг,
Oct 17 2019, 11:15:10 Bloody Sadism - Eloquent Atrocity (2019)


*Artist: Bloody Sadism
*Album: Eloquent Atrocity
*Year: 2019
*Genre: Brutal Death Metal
*Country: Iran
*Format: mp3@CBR320kbps
*Size: 75MB

Tracklist:
01. Intro 01:20
02. Eloquent atrocity 03:36
03. Ecstasy 03:18
04. Ravenous whore 02:30
05. Pregnant cunt 02:23
06. Sadomasochism 03:19
07. Withered vaginal 04:14
08. Bipolar disorder 03:43
09. Lucid dream 03:28
10. Outro (Dead in mind) 03:42
******************************
Total playing time: 31:33




[more=Technical info]
Input File: 02. Eloquent Atrocity.mp3
Channels : 2
Sample Rate : 44100
Precision : 16-bit
Duration : 00:03:36.18 = 9533450 samples = 16213.4 CDDA sectors
File Size : 8.80M
Bit Rate : 326k
Sample Encoding: MPEG audio (layer I, II or III)
Comments :
Title=02-Eloquent Atrocity
Artist=Bloody Sadism
Album=Eloquent Atrocity
Tracknumber=02
Year=2019

[/more]

Register
(7) artscald, jollo, Olethros, Rosen, satanist666, vyacheslav, Герб,

1386 Pages V   1 2 3 > » 
- Lo-Fi Version Support form
Copyrights and abuse reports form
Time is now: 22nd October 2019 - 09:58:54