Welcome Guest ( Log In | Register )

История благодарностей участнику necroscum ::: Спасибо сказали: 419430 раз(а)
Дата поста: В теме: За сообщение: Спасибо сказали:
May 28 2020, 13:13:14 Acârash - Descend To Purity (2020)


*Artist: Acârash
*Album: Descend To Purity
*Year: 2020
*Genre: Black/Doom Metal
*Country: Norway
*Format: mp3@CBR320kbps
*Size: 88MB

Tracklist:
01. Descend to Purity 05:01
02. Satanic Obsession 04:34
03. Desecrate. Liberate 05:29
04. Goat, Skull, Ritual Circle 05:03
05. Below Ceremonial 04:29
06. Three Knives Cold 05:50
07. Steel Hunter 03:41
08. Red Stone Betrayal 04:09
******************************
Total playing time: 38:16






[more=Technical info]
Input File: 02 Satanic Obsession.mp3
Channels : 2
Sample Rate : 44100
Precision : 16-bit
Duration : 00:04:34.17 = 12090897 samples = 20562.8 CDDA sectors
File Size : 11.2M
Bit Rate : 326k
Sample Encoding: MPEG audio (layer I, II or III)
Comments :
Title=Satanic Obsession
Artist=Acârash
Album=Descend to Purity
Tracknumber=2/8
Year=2020

[/more]

Register
(25) 1968_janeart, AlexSmith, Black Cat, cancer1974, craP_cillA, infiltrator, judaz, Korpse, metala, multizwilling, Olethros, Ostinato, randumbum, robertho777, satanist666, sergsazan, Shadechaser, SilentNidhogg, stub888, stumpheavyrock, VALERY, vasiljev_sergej, vov7609, yuratroll, ZA670,
May 28 2020, 13:05:29 Mourning Ashes - Chapter Iv: Once Remembered (2020)


*Artist: Mourning Ashes
*Album: Chapter Iv: Once Remembered
*Year: 2020
*Genre: Progressive/Death Metal
*Country: United States
*Format: mp3@CBR320kbps
*Size: 114MB

Tracklist:
01. Once Remembered 05:38
02. Deliver Us 04:19
03. Under His Eye 02:54
04. Beyond the Void 04:00
05. Dead or Dreaming 03:54
06. Blasphemy 03:48
07. Strangers 04:23
08. Broken 04:35
09. The Collector 02:56
10. Life After Death 04:44
******************************
Total playing time: 41:11





[more=Technical info]
Input File: 02 Deliver Us.mp3
Channels : 2
Sample Rate : 44100
Precision : 16-bit
Duration : 00:04:19.28 = 11434204 samples = 19445.9 CDDA sectors
File Size : 12.4M
Bit Rate : 383k
Sample Encoding: MPEG audio (layer I, II or III)
Comments :
Title=Deliver Us
Artist=Mourning Ashes
Album=Chapter IV: Once Remembered
Tracknumber=2/10
Year=2020

[/more]

Register
(16) atavist, chipsgott, Hell_Is_Here, infiltrator, metala, MMMMM, multizwilling, Olethros, Orgasmik, Ostinato, Paradayz, samokot, stumpheavyrock, terron, VALERY, Сварог Барг,
May 28 2020, 12:55:40 Wayward - Wayward (2020)


*Artist: Wayward
*Album: Wayward
*Year: 2020
*Genre: Heavy Metal
*Country: Germany
*Format: mp3@CBR320kbps
*Size: 85MB

Tracklist:
01. Midnight Blood 05:05
02. Hellride 02:48
03. Call of the Mistress 05:07
04. She IS the Devil 05:23
05. Forever Dammned 04:13
06. The Ripper 02:40
07. Alchemy of Poison 03:39
08. Dead End Road 04:46
09. Bad Vibe Boogie 03:37
******************************
Total playing time: 37:18




[more=Technical info]
Input File: 2 - Hellride.mp3
Channels : 2
Sample Rate : 44100
Precision : 16-bit
Duration : 00:02:48.92 = 7449372 samples = 12669 CDDA sectors
File Size : 6.76M
Bit Rate : 320k
Sample Encoding: MPEG audio (layer I, II or III)
Comments :
Title=Hellride
Artist=Wayward
Album=Wayward
Tracknumber=2
Year=2020

[/more]

Register
(15) Asketto, aviacademy, infiltrator, Lukittaz, Mares, metala, multizwilling, Olethros, postal67, senecazm, sergsazan, stumpheavyrock, vir2al, Wail, wgs73,
May 28 2020, 12:46:55 Ancillotti - Hell On Earth (2020)


*Artist: Ancillotti
*Album: Hell On Earth
*Year: 2020
*Genre: Heavy Metal
*Country: Italy
*Format: mp3@CBR320kbps
*Size: 101MB

Tracklist:
01. Fighting Man 05:04
02. Revolution 04:46
03. Firewind 05:19
04. We Are Coming 03:50
05. Blessed by Fire 04:47
06. Broken Arrow 05:26
07. Another World 05:09
08. Frankenstein 05:34
09. Till the End 04:03
******************************
Total playing time: 43:58






[more=Technical info]
Input File: 2 - Revolution.mp3
Channels : 2
Sample Rate : 44100
Precision : 16-bit
Duration : 00:04:45.93 = 12609469 samples = 21444.7 CDDA sectors
File Size : 11.5M
Bit Rate : 322k
Sample Encoding: MPEG audio (layer I, II or III)
Comments :
Title=Revolution
Artist=Ancillotti
Album=Hell on Earth
Tracknumber=2
Year=2020
Genre=Rock / Hard Rock / Metal
Discnumber=1

[/more]

Register
(14) aviacademy, Darkness, infiltrator, Lukittaz, Mares, metala, Olethros, satanist666, senecazm, Shadowman, stumpheavyrock, suseka, vir2al, wgs73,
May 28 2020, 12:39:16 Atavistia - The Winter Way (2020)


*Artist: Atavistia
*Album: The Winter Way
*Year: 2020
*Genre: Melodic/Symphonic Death Metal
*Country: Canada
*Format: mp3@CBR320kbps
*Size: 140MB

Tracklist:
01. From the Ancient Stones 03:16
02. The Atavistic Forest 08:49
03. Through the Hollow Raven's Eyes 09:20
04. Eternal Oceans 10:07
05. Dawn of the Frozen Age 09:59
06. The Forbidden One 10:05
07. The Winter Way 09:35
******************************
Total playing time: 1:01:11





[more=Technical info]
Input File: 2 - The Atavistic Forest.mp3
Channels : 2
Sample Rate : 44100
Precision : 16-bit
Duration : 00:08:49.67 = 23358227 samples = 39724.9 CDDA sectors
File Size : 21.2M
Bit Rate : 321k
Sample Encoding: MPEG audio (layer I, II or III)
Comments :
Title=The Atavistic Forest
Artist=Atavistia
Album=The Winter Way
Tracknumber=2
Year=2020
Genre=Metal
Discnumber=1

[/more]

Register

Register
(22) 0x13, alikkon, DenisKov, djsema4, Druidir, infiltrator, Lukittaz, Luminous, MeatWolf, MMMMM, multizwilling, Olethros, Ostinato, PainMiseryDeath, sabbracadabra, satanist666, senecazm, sergsazan, talismanFS, VALERY, zhol, Сварог Барг,
May 28 2020, 11:59:38 Stargazery - Constellation (2020)


*Artist: Stargazery
*Album: Constellation
*Year: 2020
*Genre: Heavy Metal
*Country: Finland
*Format: mp3@CBR320kbps
*Size: 103MB

Tracklist:
01. Sinners in Shadows 03:47
02. War Torn 04:17
03. Self-Proclaimed King 04:37
04. Ripple the Water 04:10
05. I Found Angels 04:46
06. Constellation 05:59
07. Caught in the Crossfire 04:17
08. Dark Side of the Moon 03:34
09. In My Blood 03:49
10. Raise the Flag 05:26
******************************
Total playing time: 44:42





[more=Technical info]
Input File: 02 - War Torn.mp3
Channels : 2
Sample Rate : 44100
Precision : 16-bit
Duration : 00:04:16.96 = 11331804 samples = 19271.8 CDDA sectors
File Size : 10.3M
Bit Rate : 322k
Sample Encoding: MPEG audio (layer I, II or III)
Comments :
Title=War Torn
Artist=Stargazery
Album=Constellation
Tracknumber=2
Year=2020
Genre=Rock / Hard Rock / Metal
Discnumber=1

[/more]

Register
(14) andgrek28, andreikun, Darkness, DenisKov, Herrant, infiltrator, Jorn777, Lukittaz, Morda_Morda, Olethros, satanist666, terron, vir2al, Сварог Барг,
May 28 2020, 11:53:50 Tokyo Blade - Dark Revolution (2020)


*Artist: Tokyo Blade
*Album: Dark Revolution
*Year: 2020
*Genre: Heavy Metal
*Country: United Kingdom
*Format: mp3@CBR320kbps
*Size: 128MB

Tracklist:
01. Story of a Nobody
02. Burning Rain
03. Dark Revolution
04. The Fastest Gun in Town
05. Truth Is a Hunter
06. Crack in the Glass
07. Perfect Enemy
08. See You Down in Hell
09. The Lights of Soho
10. Not Lay Down and Die
11. Voices of the Damned
******************************
Total playing time: 55:41






[more=Technical info]
Input File: 2 - Burning Rain.mp3
Channels : 2
Sample Rate : 44100
Precision : 16-bit
Duration : 00:05:56.36 = 15715432 samples = 26726.9 CDDA sectors
File Size : 14.3M
Bit Rate : 321k
Sample Encoding: MPEG audio (layer I, II or III)
Comments :
Title=Burning Rain
Artist=Tokyo Blade
Album=Dark Revolution
Tracknumber=2
Year=2020
Genre=Metal
Discnumber=1

[/more]

Register
(20) andreikun, atavist, canadaspaceman, cesar, infiltrator, JD666Hellion, LightWizard, Lukittaz, Mares, metala, metaljosue, Morda_Morda, multizwilling, Olethros, SadistikSlayer, senecazm, skinnyboo, stumpheavyrock, terron, vir2al,
May 28 2020, 11:45:59 Ancient Curse - The New Prophecy (2020)


*Artist: Ancient Curse
*Album: The New Prophecy
*Year: 2020
*Genre: Progressive/Power Metal
*Country: Germany
*Format: mp3@CBR320kbps
*Size: 133MB

Tracklist:
01. We Follow the Signs
02. Fire and Ice
03. The Shadow
04. Man of the Storm
05. Hypnotize
06. One Moment of Fortune
07. Forever Young
08. Mind Chaos
09. Prophecy
******************************
Total playing time: 57:49




[more=Technical info]
Input File: 2 - Fire and Ice.mp3
Channels : 2
Sample Rate : 44100
Precision : 16-bit
Duration : 00:05:06.49 = 13516121 samples = 22986.6 CDDA sectors
File Size : 12.3M
Bit Rate : 322k
Sample Encoding: MPEG audio (layer I, II or III)
Comments :
Title=Fire and Ice
Artist=Ancient Curse
Album=The New Prophecy
Tracknumber=2
Year=2020
Genre=Metal
Discnumber=1

[/more]

Register
(21) ace73pq, andgrek28, boby9052, Cartman223, DenisKov, Herrant, infiltrator, Jorn777, Lukittaz, Mares, metala, multizwilling, Olethros, satanist666, senecazm, stumpheavyrock, terron, vir2al, wn129aa, zhol, Сварог Барг,
May 28 2020, 11:38:29 Sorcerer - Lamenting Of The Innocent (2020)


*Artist: Sorcerer
*Album: Lamenting Of The Innocent
*Year: 2020
*Genre: Epic Doom Metal
*Country: Sweden
*Format: mp3@CBR320kbps
*Size: 134MB

Tracklist:
01. Persecution 00:57
02. The Hammer of Witches 05:17
03. Lamenting of the Innocent 08:47
04. Institoris 04:53
05. Where Spirits Die 06:47
06. Deliverance 05:24
07. Age of the Damned 08:00
08. Condemned 07:12
09. Dance with the Devil 08:16
10. Path to Perdition 08:00
******************************
Total playing time: 1:03:33





[more=Technical info]
Input File: 02 - The Hammer of Witches.mp3
Channels : 2
Sample Rate : 44100
Precision : 16-bit
Duration : 00:05:17.70 = 14010350 samples = 23827.1 CDDA sectors
File Size : 12.8M
Bit Rate : 323k
Sample Encoding: MPEG audio (layer I, II or III)
Comments :
Title=The Hammer of Witches
Artist=Sorcerer
Album=Lamenting of the Innocent
Tracknumber=2
Year=2020
Genre=Metal
Discnumber=1

[/more]

Register
(27) 0x13, alikkon, Anatol, andgrek28, Black Cat, cesar, djsema4, EpicDoomLord, Forest, gongshow, JD666Hellion, leks, Mares, metala, multizwilling, Olethros, Reverend, ringworm revenant, SatanicPanzer, Shadechaser, stub888, stumpheavyrock, suseka, terron, VALERY, wrath082, zhol,
May 28 2020, 11:30:18 Behemoth - A Forest [ep] (2020)


*Artist: Behemoth
*Album: A Forest [ep]
*Year: 2020
*Genre: Black/Death Metal
*Country: Poland
*Format: mp3@CBR320kbps
*Size: 45MB

Tracklist:
01. A Forest (The Cure cover) 05:48
02. A Forest (The Cure cover) (live) 05:57
03. Shadows ov Ea Cast upon Golgotha 04:17
04. Evoe 03:13
******************************
Total playing time: 19:15





[more=Technical info]
Input File: 02. A Forest (feat. Niklas Kvarforth) (Live).mp3
Channels : 2
Sample Rate : 44100
Precision : 16-bit
Duration : 00:00:00.36 = 15700 samples = 26.7007 CDDA sectors
File Size : 14.4M
Bit Rate : 323M
Sample Encoding: MPEG audio (layer I, II or III)
Comments :
Title=A Forest (feat. Niklas Kvarforth) (Live)
Artist=Behemoth, Niklas Kvarforth
Album=A Forest
Tracknumber=2
Year=2020
Genre=Black Metal
Discnumber=1

[/more]

Register
(55) ALEXSATHANAS, Aresson, atavist, Black Cat, Bloodn Lord, Bzth, canadaspaceman, cancer1974, caro, cenzored, cesar, Daale, Dark Sage, Demonologist, DenisKov, djsema4, dvlz, Eudial, Femto, gena, Golodomor, gwar, Hell_Is_Here, infiltrator, Joey_73, Konst, lldma, Lord Noctua, Lukittaz, Lux, Mares, Metalass, Morbid, nadin85, Nerevar, Occultas, Olethros, randumbum, recber, satanist666, sergsazan, Sethan, SKuzmin, soulskinner681, stumpheavyrock, supremo, suseka, thenecromancer, toly1917, VALERY, vasiljev_sergej, vov7609, yuratroll, Луч, Нигилист,
May 28 2020, 11:23:33 Grave Digger - Fields Of Blood (2020)


*Artist: Grave Digger
*Album: Fields Of Blood
*Year: 2020
*Genre: Heavy/Power Metal
*Country: Germany
*Format: mp3@CBR320kbps
*Size: 124MB

Tracklist:
01. The Clansman's Journey 01:27
02. All for the Kingdom 04:10
03. Lions of the Sea 03:58
04. Freedom 04:53
05. The Heart of Scotland 05:19
06. Thousand Tears 04:57
07. Union of the Crown 03:58
08. My Final Fight 04:09
09. Gathering of the Clans 03:57
10. Barbarian 03:43
11. Fields of Blood 10:10
12. Requiem for the Fallen 03:00
******************************
Total playing time: 53:41






[more=Technical info]
Input File: 02 - All for the Kingdom.mp3
Channels : 2
Sample Rate : 44100
Precision : 16-bit
Duration : 00:04:10.92 = 11065704 samples = 18819.2 CDDA sectors
File Size : 10.1M
Bit Rate : 323k
Sample Encoding: MPEG audio (layer I, II or III)
Comments :
Title=All for the Kingdom
Artist=Grave Digger
Album=Fields of Blood
Tracknumber=2
Year=2020
Genre=Rock / Hard Rock / Metal
Discnumber=1

[/more]

Register
(61) 0x13, ace73pq, Alexis The Best, andy584, apostol_13, Aresson, atavist, BrutalHero, Bzth, cancer1974, caro, cesar, DenisKov, Dio001, djsema4, Druidir, DTGB, Faust2016, Femto, flamandez, gattometal, grobator, gwar, Herrant, infiltrator, JD666Hellion, jomaocro, leks, LightWizard, Lord Noctua, Lukittaz, Luminous, Mares, max_stalingradsky, metalboll, Mihalik, NappyRob, Old Vyaine, Olethros, Paradayz, Penetralia, Phlebotomized, rabindranad, randumbum, recber, ripper33, RotAnus, russ777, satanist666, stumpheavyrock, suseka, talismanFS, terron, THROWER666, tschunioronbeer, v.v.m, vir2al, wgs73, wn129aa, Z28517, Сварог Барг,
May 28 2020, 10:28:26 Goatreich - Godfetor (2020)


*Artist: Goatreich
*Album: Godfetor
*Year: 2020
*Genre: Black Metal
*Country: Ukraine
*Format: mp3@CBR320kbps
*Size: 75MB

Tracklist:
01. Hellhound's Rage 04:46
02. Tribute to Dark Mother 03:42
03. In the Name of the Risen 03:23
04. Triglow Lash 02:38
05. Solve et Coagula 03:06
06. Throne of Bloody Crown 02:42
07. Revel by Blood 03:46
08. Circle of the Whores 05:36
09. Goatmother 02:37
******************************
Total playing time: 32:16





[more=Technical info]
Input File: 02 - Tribute To Dark Mother.mp3
Channels : 2
Sample Rate : 44100
Precision : 16-bit
Duration : 00:03:42.06 = 9792670 samples = 16654.2 CDDA sectors
File Size : 9.00M
Bit Rate : 324k
Sample Encoding: MPEG audio (layer I, II or III)
Comments :
Title=Tribute To Dark Mother
Artist=Goatreich
Album=Godfetor
Tracknumber=2
Year=2020
Genre=Black Metal

[/more]

Register
(20) 1968_janeart, atavist, caro, Hell_Is_Here, infiltrator, kim666, multizwilling, nsk2008, Occultas, Olethros, randumbum, recber, robertho777, satanist666, SilentNidhogg, supremo, suseka, terron, VALERY, vasiljev_sergej,
Mar 12 2020, 15:39:05 Ockultist - Festering Wounds (2020)


*Artist: Ockultist
*Album: Festering Wounds
*Year: 2020
*Genre: Sludge/Doom Metal
*Country: Sweden
*Format: mp3@CBR320kbps
*Size: 91MB

Tracklist:
01. Vermin
02. Abysmal
03. Lividity
04. Ropes // Necks
05. Left for Ted
******************************
Total playing time: 39:34





[more=Technical info]
Input File: 02. Abysmal.mp3
Channels : 2
Sample Rate : 44100
Precision : 16-bit
Duration : 00:11:01.33 = 29164609 samples = 49599.7 CDDA sectors
File Size : 26.6M
Bit Rate : 321k
Sample Encoding: MPEG audio (layer I, II or III)
Comments :
Title=Abysmal
Artist=Ockultist
Album=Festering Wounds
Tracknumber=2/5
Year=2020
Genre=Metal
Discnumber=1/1

[/more]

Register
(7) fishish, infiltrator, marilin, Olethros, Sabbathian, stub888, VALERY,
Mar 12 2020, 15:27:07 Kasbeel - Rebellion And Opposition (2015)


*Artist: Kasbeel
*Album: Rebellion And Opposition
*Year: 2015
*Genre: Black Metal
*Country: Chile
*Format: mp3@CBR320kbps
*Size: 97MB

Tracklist:
01. Born from Satan's Blasphemy 04:29
02. The Art of Church Burning 04:31
03. El Inefable Rey del Infierno 03:22
04. Speaking the Ancient Language 03:54
05. The Army of Fire 04:35
06. Mutilate a Christ 04:15
07. I Invoke Your Name 06:42
08. To the Deepest Abyss 05:22
09. Eradicating the Christianity 05:09
******************************
Total playing time: 42:19





[more=Extended info]Exclusive for Metalarea.org[/more]

[more=Technical info]
Input File: 02 - The Art of Church Burning.mp3
Channels : 2
Sample Rate : 44100
Precision : 16-bit
Duration : 00:04:30.96 = 11949336 samples = 20322 CDDA sectors
File Size : 11.0M
Bit Rate : 324k
Sample Encoding: MPEG audio (layer I, II or III)
Comments :
Title=The Art of Church Burning
Artist=Kasbeel
Album=Rebellion and Opposition
Tracknumber=2
Year=2018-01-24
Genre=Alternative; Indie Rock; Metal
Discnumber=1

[/more]

Register
(11) atavist, Ildjarn, infiltrator, kim666, multizwilling, obituarydark, Ostinato, SilentNidhogg, toly1917, VALERY, vasiljev_sergej,
Mar 12 2020, 15:14:00 Oath Of Damnation - Fury And Malevolence (2020)


*Artist: Oath Of Damnation
*Album: Fury And Malevolence
*Year: 2020
*Genre: Death/Black Metal
*Country: Australia
*Format: mp3@CBR320kbps
*Size: 83MB

Tracklist:
01. Imhullu 04:54
02. The Abortuary 03:46
03. Ardenti Haereticus 07:58
04. With Fire and Malevolence 05:08
05. To Crack the Earth and Bring Down the Sky 03:34
06. In Death's Dominion 04:36
07. I Curse Thee, O' Lord! 06:00
******************************
Total playing time: 35:56






[more=Technical info]
Input File: 2 - The Abortuary.mp3
Channels : 2
Sample Rate : 44100
Precision : 16-bit
Duration : 00:03:46.47 = 9987371 samples = 16985.3 CDDA sectors
File Size : 9.17M
Bit Rate : 324k
Sample Encoding: MPEG audio (layer I, II or III)
Comments :
Title=The Abortuary
Artist=Oath of Damnation
Album=Fury and Malevolence
Tracknumber=2
Year=2020
Genre=Metal
Discnumber=1

[/more]

Register
(15) atavist, Gutter, Hell_Is_Here, infiltrator, lldma, Ludwig Hagen, MMMMM, musrenat, Ostinato, SatanicPanzer, SilentNidhogg, stub888, VALERY, vyacheslav, wreak,
Mar 12 2020, 14:17:09 Flammenaar - Nusitos (2020)


*Artist: Flammenaar
*Album: Nusitos
*Year: 2020
*Genre: Black Metal
*Country: Germany
*Format: mp3@CBR320kbps
*Size: 132MB

Tracklist:
01. Nusitos Schwur 07:47
02. Der Waffengang 07:09
03. F?gung des Schicksals 08:28
04. In Schmach gebeugt 06:00
05. Die Opferung 10:47
06. Abstieg ins Totenreich 09:41
07. Am Heldengrab des Nusitos 07:53
******************************
Total playing time: 57:45




[more=Technical info]
Input File: 2 - Der Waffengang.mp3
Channels : 2
Sample Rate : 44100
Precision : 16-bit
Duration : 00:07:09.92 = 18959648 samples = 32244.3 CDDA sectors
File Size : 17.3M
Bit Rate : 321k
Sample Encoding: MPEG audio (layer I, II or III)
Comments :
Title=Der Waffengang
Artist=Flammenaar
Album=Nusitos
Tracknumber=2
Year=2020
Genre=Metal
Discnumber=1

[/more]

Register
(22) AlexSmith, atavist, craP_cillA, Indamage, infiltrator, kim666, multizwilling, murian, nadin85, nsk2008, Ostinato, randumbum, robertho777, sandr666, satanist666, SilentNidhogg, SS2998, suseka, VALERY, vasiljev_sergej, Velmi, wreak,
Mar 12 2020, 14:09:56 Ghosts In Gold - Glorious Illumination [ep] (2020)


*Artist: Ghosts In Gold
*Album: Glorious Illumination [ep]
*Year: 2020
*Genre: Black Metal
*Country: United Kingdom
*Format: mp3@CBR320kbps
*Size: 58MB

Tracklist:
01. Those of Faith Shalt Die at Dawn 05:17
02. The True Messiah 04:33
03. March Onwards to the Grave 02:16
04. Baptised in the Light 03:13
05. Projections of Hell upon the Earth 03:09
06. Sex in the Void 03:30
******************************
Total playing time: 21:58



[more=Technical info]
Input File: 02. The True Messiah.mp3
Channels : 2
Sample Rate : 44100
Precision : 16-bit
Duration : 00:04:33.57 = 12064393 samples = 20517.7 CDDA sectors
File Size : 11.1M
Bit Rate : 325k
Sample Encoding: MPEG audio (layer I, II or III)
Comments :
Title=The True Messiah
Artist=Ghosts In Gold
Album=Glorious Illumination
Tracknumber=2
Year=2020

[/more]

Register
(11) infiltrator, kim666, Occultas, Ostinato, randumbum, robertho777, SilentNidhogg, stub888, VALERY, vasiljev_sergej, wreak,
Mar 12 2020, 13:58:31 Dirt Woman - The Glass Cliff (2020)


*Artist: Dirt Woman
*Album: The Glass Cliff
*Year: 2020
*Genre: Stoner/Doom Metal
*Country: United States
*Format: mp3@CBR320kbps
*Size: 128MB

Tracklist:
01. Lady of the Dunes 07:23
02. Creator 13:09
03. Fades to Greed 08:27
04. Demagogue 13:30
05. Starhawk 13:45
******************************
Total playing time: 56:14




[more=Technical info]
Input File: 02 Creator.mp3
Channels : 2
Sample Rate : 44100
Precision : 16-bit
Duration : 00:13:08.60 = 34777348 samples = 59145.1 CDDA sectors
File Size : 31.8M
Bit Rate : 323k
Sample Encoding: MPEG audio (layer I, II or III)
Comments :
Title=Creator
Artist=Dirt Woman
Album=The Glass Cliff
Tracknumber=2
Year=2020

[/more]

Register
(17) chipsgott, eddbuzz, fishish, gena, HMHamster, infiltrator, marilin, Mogozoz, Olethros, randumbum, robertho777, SatanicPanzer, stub888, stumpheavyrock, VALERY, wreak, WX419,
Mar 12 2020, 13:50:44 Serpent Cobra - Anatomy Of Abuses (2020)


*Artist: Serpent Cobra
*Album: Anatomy Of Abuses
*Year: 2020
*Genre: Stoner/Doom Metal
*Country: Argentina
*Format: mp3@CBR320kbps
*Size: 148MB

Tracklist:
01. Master of It All 03:50
02. General Discomfort 03:44
03. Rulers of Hell 03:45
04. Screams from the Coffin 05:16
05. Lord High Executioner 04:01
06. Dear Satan 04:33
07. Serpent Eyes 02:40
08. Anatomy of Abuses 06:03
******************************
Total playing time: 33:52





[more=Technical info]
Input File: 02 General Discomfort.mp3
Channels : 2
Sample Rate : 44100
Precision : 16-bit
Duration : 00:03:44.09 = 9882369 samples = 16806.8 CDDA sectors
File Size : 17.4M
Bit Rate : 621k
Sample Encoding: MPEG audio (layer I, II or III)
Comments :
Title=General Discomfort
Artist=Serpent Cobra
Album=Anatomy of Abuses
Tracknumber=2
Year=2020

[/more]

Register
(17) AHBAnep, autumnwood, Foneg, HMHamster, infiltrator, Leshiy666, marilin, Mogozoz, multizwilling, Olethros, Ostinato, SatanicPanzer, stumpheavyrock, uncolored, VALERY, wreak, WX419,
Mar 12 2020, 13:40:04 Fourth Circle - Worlds (2020)


*Artist: Fourth Circle
*Album: Worlds
*Year: 2020
*Genre: Symphonic Gothic Metal
*Country: France
*Format: mp3@CBR320kbps
*Size: 246MB

Tracklist:
01. Prologue
02. Awake and Lost
03. Worlds
04. A Weight?
05. Survive
06. Feeling
07. Underneath
08. The Truth
09. Who Am I?
10. Nothing
11. Revival
12. One, Together
13. Rising Tensions
14. Battle and Forgiveness
15. Worlds (English Audiobook)
16. Worlds (Livre audio en français)
******************************
Total playing time: 1:47:08






[more=Technical info]
Input File: 02 - Awake and Lost.mp3
Channels : 2
Sample Rate : 44100
Precision : 16-bit
Duration : 00:04:11.21 = 11078361 samples = 18840.8 CDDA sectors
File Size : 10.2M
Bit Rate : 325k
Sample Encoding: MPEG audio (layer I, II or III)
Comments :
Title=Awake and Lost
Artist=Fourth Circle
Album=Worlds
Tracknumber=2
Year=2020

[/more]

Register
(20) Alpha_Prime, aviacademy, Cartman223, chipsgott, GorAtheist, gwar, gwynnbleid, HMHamster, infiltrator, kimkayoung, legion01, Lukittaz, Mogozoz, Olethros, ragio_58, Rover, sadmannn, Sanctus, senecazm, wreak,
Mar 12 2020, 13:30:05 Huntsmen - Mandala Of Fear (2020)


*Artist: Huntsmen
*Album: Mandala Of Fear
*Year: 2020
*Genre: Sludge/Doom/Post-Metal
*Country: United States
*Format: mp3@CBR320kbps
*Size: 179MB

Tracklist:
01. Ride Out 04:54
02. Colossus 06:27
03. Atomic Storms 07:58
04. God Will Stop Trying 07:21
05. Pirates of the Waste 06:00
06. Hill People Drugs 03:39
07. Bone Cathedral 04:36
08. A Nameless Dread 06:14
09. Awake at Time's End 09:07
10. Loss 04:05
11. The Silver Lining 02:30
12. The Swallow 10:41
13. Clearing the Sand 04:49
******************************
Total playing time: 1:18:21





[more=Technical info]
Input File: 02 Colossus.mp3
Channels : 2
Sample Rate : 44100
Precision : 16-bit
Duration : 00:06:27.84 = 17103524 samples = 29087.6 CDDA sectors
File Size : 15.5M
Bit Rate : 320k
Sample Encoding: MPEG audio (layer I, II or III)
Comments :
Title=Colossus
Artist=Huntsmen
Album=Mandala of Fear
Tracknumber=02/13
Year=2020-20-20
Discnumber=1/1

[/more]

Register
(19) BandR75, Battaleon, bubba, fishish, fylopaloma, gena, infiltrator, J0k3r, kolar666, metaljosue, Olethros, Ostinato, robertho777, SatanicPanzer, skidnik, Unkle Jonny, VALERY, wreak, Yorker,
Mar 12 2020, 13:21:07 Mindtech - Omnipresence (2020)


*Artist: Mindtech
*Album: Omnipresence
*Year: 2020
*Genre: Progressive Metal
*Country: Norway
*Format: mp3@CBR320kbps
*Size: 97MB

Tracklist:
01. The Path of the Sages Part I: The Big Question 06:24
02. The Path of the Sages Part II: The Lotus Eyed 05:25
03. The Path of the Sages Part III: Unity 06:42
04. These Are the Days 05:01
05. The Journey 04:36
06. Standing Tall 03:48
07. Brahman 04:11
08. Through the Veil 06:03
******************************
Total playing time: 42:10






[more=Technical info]
Input File: 2 - The Lotus Eyed.mp3
Channels : 2
Sample Rate : 44100
Precision : 16-bit
Duration : 00:05:25.38 = 14349082 samples = 24403.2 CDDA sectors
File Size : 13.1M
Bit Rate : 322k
Sample Encoding: MPEG audio (layer I, II or III)
Comments :
Title=The Lotus Eyed
Artist=MindTech
Album=Omnipresence
Tracknumber=2
Year=2020
Genre=Metal
Discnumber=1

[/more]

Register
(23) ace73pq, andgrek28, aviacademy, cancer1974, chipsgott, DenisKov, Foneg, gwynnbleid, infiltrator, maochen, metala, MMMMM, Mogozoz, nospeedlimit, Olethros, Rover, russ777, sadmannn, StoneTemple, terron, VALERY, wreak, Yarri,
Mar 12 2020, 13:10:40 Imperial Child - Compass Of Evil (2020)


*Artist: Imperial Child
*Album: Compass Of Evil
*Year: 2020
*Genre: Progressive Power Metal
*Country: Norway
*Format: mp3@CBR320kbps
*Size: 97MB

Tracklist:
01. William Green
02. The Imperial Child
03. Darren Half-Eye
04. Stormbringer
05. Priscilla
06. The Devil and the Buccaneer
07. A Buccaneer's Hymn
08. Libertalia
09. Victim of Hate
10. The Quest for Jerusalem
******************************
Total playing time: 42:15





[more=Technical info]
Input File: 02. The Imperial Child.mp3
Channels : 2
Sample Rate : 44100
Precision : 16-bit
Duration : 00:05:11.90 = 13754614 samples = 23392.2 CDDA sectors
File Size : 12.6M
Bit Rate : 322k
Sample Encoding: MPEG audio (layer I, II or III)
Comments :
Title=The Imperial Child
Artist=Imperial Child
Album=Compass of Evil
Tracknumber=2/10
Year=2020
Genre=9
Discnumber=1/1

[/more]

Register
(25) ace73pq, andgrek28, boby9052, cancer1974, DenisKov, gwar, gwynnbleid, Herrant, infiltrator, infozahist, Lukittaz, metala, MetalW, multizwilling, nospeedlimit, Olethros, Rhoads, Rover, SAPOGi, senecazm, stumpheavyrock, wn129aa, wreak, zhol, Сварог Барг,
Mar 12 2020, 13:02:15 Feastem - Graveyard Earth (2020)


*Artist: Feastem
*Album: Graveyard Earth
*Year: 2020
*Genre: Grindcore
*Country: Finland
*Format: mp3@CBR320kbps
*Size: 49MB

Tracklist:
01. The Rope Calls Your Name 01:12
02. I Will Never Kill 01:05
03. Sick 01:15
04. Terror Balance 01:51
05. Sortovalta 01:32
06. Verta ja lihaa 01:31
07. Creeping Heat 01:07
08. In Isolation We Die 01:09
09. Pelon voima 01:36
10. Graveyard Earth 02:10
11. Spreading Darkness 01:27
12. Mouths of Others 00:51
13. Turha toivo 00:38
14. Kurjuuden kuningas 01:11
15. Outro 01:14
******************************
Total playing time: 19:49





[more=Technical info]
Input File: 04. Terror Balance.mp3
Channels : 2
Sample Rate : 44100
Precision : 16-bit
Duration : 00:01:50.06 = 4853778 samples = 8254.72 CDDA sectors
File Size : 4.51M
Bit Rate : 328k
Sample Encoding: MPEG audio (layer I, II or III)
Comments :
Title=Terror Balance
Artist=Feastem
Album=Graveyard Earth
Tracknumber=4
Year=2020
Genre=Grind
Discnumber=1

[/more]

Register
(12) BandR75, DarkHorde, FUDEDOR, infiltrator, lldma, Olethros, POMAHOB, satanist666, stabilizator, terron, wgs73, wreak,
Mar 12 2020, 12:52:23 The Unity - Pride (2020)


*Artist: The Unity
*Album: Pride
*Year: 2020
*Genre: Heavy/Power Metal
*Country: Germany
*Format: mp3@CBR320kbps
*Size: 122MB

Tracklist:
01. The New Pandora 01:17
02. Hands of Time 05:33
03. Line and Sinker 05:41
04. We Don't Need Them Here 03:56
05. Destination Unknown 05:06
06. Angel of Dawn 04:42
07. Damn Nation 04:50
08. Wave of Fear 05:39
09. Guess How I Hate This 04:18
10. Scenery of Hate 04:03
11. Rusty Cadillac 03:27
12. You Don't Walk Alone 04:23
******************************
Total playing time: 52:55





[more=Technical info]
Input File: 02 - Hands of Time.mp3
Channels : 2
Sample Rate : 44100
Precision : 16-bit
Duration : 00:05:33.47 = 14706203 samples = 25010.5 CDDA sectors
File Size : 13.4M
Bit Rate : 322k
Sample Encoding: MPEG audio (layer I, II or III)
Comments :
Title=Hands of Time
Artist=The Unity
Album=Pride
Tracknumber=2
Year=2020
Genre=Metal
Discnumber=1

[/more]

Register
(34) ace73pq, aviacademy, Blaubart, boby9052, Dark Sage, Darkness, djsema4, DTGB, gwar, gwynnbleid, Herrant, HMHamster, infiltrator, Lukittaz, MetalW, mikerx, Mogozoz, multizwilling, oldvarg, Olethros, Olrak, Rhoads, Rover, sadmannn, SAPOGi, satanist666, senecazm, smes, talismanFS, vir2al, wn129aa, wreak, zhol, Сварог Барг,

1418 Pages V   1 2 3 > » 
- Lo-Fi Version Support form
Copyrights and abuse reports form
Time is now: 2nd June 2020 - 18:47:13