Welcome Guest ( Log In | Register )

История благодарностей участнику necroscum ::: Спасибо сказали: 427853 раз(а)
Дата поста: В теме: За сообщение: Спасибо сказали:
Oct 15 2020, 14:59:05 Sadist - The Origin Of Pain [ep] (2020)


*Artist: Sadist
*Album: The Origin Of Pain [ep]
*Year: 2020
*Genre: Deathcore
*Country: United States
*Format: mp3@CBR320kbps
*Size: 37MB

Tracklist:
01. Path of the Six
02. The Red Room
03. 611 West 63rd
04. Street Sweeper
05. Black and Grey
******************************
Total playing time: 16:07


Preview 2


[more=Technical info]
Input File: 02. The Red Room.mp3
Channels : 2
Sample Rate : 44100
Precision : 16-bit
Duration : 00:00:00.21 = 9437 samples = 16.0493 CDDA sectors
File Size : 8.64M
Bit Rate : 323M
Sample Encoding: MPEG audio (layer I, II or III)
Comments :
Title=The Red Room
Artist=Sadist
Album=The Origin of Pain
Tracknumber=2
Year=2020
Genre=Deathcore
Discnumber=1

[/more]

Register
(14) BandR75, caro, chipsgott, infiltrator, Lukittaz, metaljosue, Olethros, Ostinato, Paradayz, randumbum, Reverend, Rosen, sludge666, terron,
Oct 15 2020, 14:48:49 Helldache - Pile Of Corpses (2020)


*Artist: Helldache
*Album: Pile Of Corpses
*Year: 2020
*Genre: Death Metal
*Country: Brazil
*Format: mp3@CBR320kbps
*Size: 51MB

Tracklist:
01. Wolf Path
02. Pile of Corpses
03. Unclassified: Wolf
04. Dead Fuel
05. Midtro Apolo
06. Cynic
07. Hiatus
08. Cold Embrace
******************************
Total playing time: 22:09


Preview 2


[more=Technical info]
Input File: 02. Pile of Corpses.mp3
Channels : 2
Sample Rate : 44100
Precision : 16-bit
Duration : 00:02:32.02 = 6703994 samples = 11401.4 CDDA sectors
File Size : 6.28M
Bit Rate : 331k
Sample Encoding: MPEG audio (layer I, II or III)
Comments :
Title=Pile of Corpses
Artist=Helldache
Album=Pile of Corpses
Tracknumber=2
Year=2020
Discnumber=1/1

[/more]

Register
(16) andreikun, caro, chipsgott, El_Chibo, infiltrator, jollo, multizwilling, Olethros, ondrazevsi, Ostinato, Phlebotomized, Rosen, scorpionmk, suseka, VALERY, vyacheslav,
Oct 15 2020, 14:39:50 Cranial Separation - Bound In Barbed Wire (2020)


*Artist: Cranial Separation
*Album: Bound In Barbed Wire
*Year: 2020
*Genre: Death Metal
*Country: United Kingdom
*Format: mp3@CBR320kbps
*Size: 78MB

Tracklist:
01. Intro
02. Bound in Barbed Wire
03. Miasma
04. Rancid Insertion
05. House of Incest
06. Eternal Decay
07. Separated from the Cadaver
08. Solitary Cannibal
09. Fucked With a Jackhammer
10. Extinction Level Event
11. Outro
******************************
Total playing time: 33:58





[more=Technical info]
Input File: 02. Bound in Barbed Wire.mp3
Channels : 2
Sample Rate : 44100
Precision : 16-bit
Duration : 00:02:54.62 = 7700522 samples = 13096.1 CDDA sectors
File Size : 7.13M
Bit Rate : 327k
Sample Encoding: MPEG audio (layer I, II or III)
Comments :
Title=Bound in Barbed Wire
Artist=Cranial Separation
Album=Bound in Barbed Wire
Tracknumber=2
Year=2020
Discnumber=1

[/more]

Register
(19) alikkon, andreikun, caro, chipsgott, Corpuscul, infiltrator, jollo, multizwilling, older68, Olethros, Ostinato, Rosen, SadistikSlayer, sagratan, scorpionmk, suseka, syntexid, VALERY, vyacheslav,
Oct 15 2020, 14:31:52 Lost Symphony - Chapter II (2020)


*Artist: Lost Symphony
*Album: Chapter II
*Year: 2020
*Genre: Progressive Metal/Shred
*Country: United States
*Format: mp3@CBR320kbps
*Size: 116MB

Tracklist:
01. The World is Over (feat. Marty Friedman & Jeff Loomis)
02. Leave Well Enough Alone (feat. Jason Costa & Conrad Simon)
03. Negation Delirium (feat. Oli Herbert, Matt LaPierre, Jimi Bell & Joey Concepcion)
04. No Exit (feat. David Ellefson, Jeff Loomis & Jimi Bell)
05. The Garden of Earthly Delights (feat. Oli Herbert, David Abbruzzese, Rusty Cooley, Jimi Bell, Joey Concepcion, Matt LaPierre & Conrad Simon)
06. Conflagration (feat. Oli Herbert, Matt LaPierre & Conrad Simon)
07. A Murder of Crows (feat. Jon Donias, Matt Bachand & Jimi Bell)
08. The Long Wait for the End (feat. Oli Herbert & Matt LaPierre)
******************************
Total playing time: 50:23




[more=Technical info]
Input File: 02 - Leave Well Enough Alone (feat. Jason Costa & Conrad Simon).mp3
Channels : 2
Sample Rate : 44100
Precision : 16-bit
Duration : 00:05:07.00 = 13538700 samples = 23025 CDDA sectors
File Size : 12.5M
Bit Rate : 326k
Sample Encoding: MPEG audio (layer I, II or III)
Comments :
Title=Leave Well Enough Alone (feat. Jason Costa & Conrad Simon)
Artist=Lost Symphony/Jason Costa/Conrad Simon
Album=Chapter II
Tracknumber=2
Year=2020-16-10
Discnumber=1

[/more]

Register
(12) chipsgott, Herrant, infiltrator, Olethros, Rhoads, Rosen, Rover, sadmannn, SAPOGi, suseka, valera2010, Witchmaster,
Oct 15 2020, 14:21:57 Artificial Eden - Artificial Eden (2020)


*Artist: Artificial Eden
*Album: Artificial Eden
*Year: 2020
*Genre: Progressive/Heavy Metal
*Country: United States
*Format: mp3@CBR320kbps
*Size: 104MB

Tracklist:
01. Artificial Eden 06:15
02. Thoughts 05:17
03. Poor Desire 04:55
04. Lies Between The Lines 07:14
05. Day Of Tears 07:02
06. Land Of Depression 12:25
******************************
Total playing time: 43:08




[more=Technical info]
Input File: 02 - Thoughts.mp3
Channels : 2
Sample Rate : 44100
Precision : 16-bit
Duration : 00:05:16.00 = 13935600 samples = 23700 CDDA sectors
File Size : 12.9M
Bit Rate : 327k
Sample Encoding: MPEG audio (layer I, II or III)
Comments :
Title=Thoughts
Artist=Artificial Eden
Album=Artificial Eden
Tracknumber=2
Year=2020-16-10
Discnumber=1

[/more]

Register
(13) ace73pq, andgrek28, chipsgott, Herrant, infiltrator, Lukittaz, metala, Olethros, Rosen, Rover, SAPOGi, stumpheavyrock, suseka,
Oct 15 2020, 14:09:18 Devoured By The Abyss - Omnipotence (2020)


*Artist: Devoured By The Abyss
*Album: Omnipotence
*Year: 2020
*Genre: Progressive Deathcore
*Country: Mexico
*Format: mp3@CBR320kbps
*Size: 115MB

Tracklist:
01. Invocation 02:11
02. Dark Knowledge 04:16
03. The Elder Things 04:01
04. Space Time 05:21
05. Cosmic Manipulation 05:00
06. The Ritual 02:11
07. The Rising 04:54
08. Fourth Dimension 05:26
09. The Yellow King 03:55
10. Omnipotence 11:26
******************************
Total playing time: 48:41





[more=Technical info]
Input File: 02 Dark Knowledge.mp3
Channels : 2
Sample Rate : 44100
Precision : 16-bit
Duration : 00:04:16.38 = 11306490 samples = 19228.7 CDDA sectors
File Size : 10.5M
Bit Rate : 326k
Sample Encoding: MPEG audio (layer I, II or III)
Comments :
Title=Dark Knowledge
Artist=Devoured By The Abyss
Album=Omnipotence
Tracknumber=2
Year=2020
Genre=Technical Deathcore
Discnumber=1/1

[/more]

Register
(6) chipsgott, infiltrator, Lukittaz, Olethros, Rosen, suseka,
Oct 15 2020, 14:01:19 The Myopia Condition - Event Horizon (2020)


*Artist: The Myopia Condition
*Album: Event Horizon
*Year: 2020
*Genre: Progressive Deathcore
*Country: Canada
*Format: mp3@CBR320kbps
*Size: 68MB

Tracklist:
01. Event Horizon 01:01
02. Separation from Classification 04:48
03. Brainwashed 03:08
04. Afterlife 02:57
05. Walk Me Home 02:45
06. Song 9000 03:28
07. Empty Room 02:50
08. Rotting Soul 03:05
09. Fighting Fables 04:26
******************************
Total playing time: 24:02





[more=Technical info]
Input File: 02. Separation from Classification.mp3
Channels : 2
Sample Rate : 44100
Precision : 16-bit
Duration : 00:04:49.00 = 12744900 samples = 21675 CDDA sectors
File Size : 11.7M
Bit Rate : 324k
Sample Encoding: MPEG audio (layer I, II or III)
Comments :
Title=Separation from Classification
Artist=The Myopia Condition
Album=Event Horizon
Tracknumber=2
Year=2020
Discnumber=1

[/more]

Register
(7) chipsgott, infiltrator, Lukittaz, Olethros, Rosen, serjred, sludge666,
Oct 15 2020, 13:39:01 Flood Of Mutiny - Declamation (2020)


*Artist: Flood Of Mutiny
*Album: Declamation
*Year: 2020
*Genre: Death/Groove Metal
*Country: India
*Format: mp3@CBR320kbps
*Size: 71MB

Tracklist:
01. Reason to Die 03:17
02. Perdition 03:17
03. Here They Lay 03:17
04. Invisible Apocalypse 02:49
05. Against Me 04:50
06. The Condemned Race 04:28
07. Darkness Spills 04:07
08. O! Raphael 05:05
******************************
Total playing time: 31:10


Preview 2




[more=Technical info]
Input File: 02 - Perdition.mp3
Channels : 2
Sample Rate : 44100
Precision : 16-bit
Duration : 00:03:17.94 = 8729154 samples = 14845.5 CDDA sectors
File Size : 8.00M
Bit Rate : 323k
Sample Encoding: MPEG audio (layer I, II or III)
Comments :
Title=Perdition
Artist=Flood of Mutiny
Album=Declamation
Tracknumber=2
Year=2020

[/more]

Register
(8) chipsgott, infiltrator, jollo, Olethros, Rosen, stumpheavyrock, VALERY, wanderer73,
Oct 15 2020, 13:30:47 Star Insight - Across The Galaxy (2020)


*Artist: Star Insight
*Album: Across The Galaxy
*Year: 2020
*Genre: Melodic/Symphonic Extreme/Power Metal
*Country: Finland
*Format: mp3@CBR320kbps
*Size: 106MB

Tracklist:
01. Escape as a Last Resort 03:37
02. Reaching for the Sky Above 03:02
03. I'm Not a Number 03:22
04. It's All Lies 03:42
05. Withing Horizon 03:50
06. Across the Galaxy 04:16
07. Death to the Stars 03:59
08. Past, Present & Future 05:25
09. Lost in the Starlight 05:00
10. Over the Edge 04:47
11. Shine on Me Once Again 04:53
******************************
Total playing time: 45:53




[more=Technical info]
Input File: 02 - Reaching for the Sky Above.mp3
Channels : 2
Sample Rate : 44100
Precision : 16-bit
Duration : 00:03:02.95 = 8067875 samples = 13720.9 CDDA sectors
File Size : 7.47M
Bit Rate : 326k
Sample Encoding: MPEG audio (layer I, II or III)
Comments :
Title=Reaching for the Sky Above
Artist=Star Insight
Album=Across the Galaxy
Tracknumber=2
Year=2020

[/more]

Register
(14) ace73pq, boby9052, caro, Cartman223, chipsgott, gwar, Herrant, infiltrator, Lukittaz, Olethros, Rosen, sergsazan, talismanFS, Сварог Барг,
Oct 15 2020, 13:15:18 Odax - The King Is Dead (2020)


*Artist: Odax
*Album: The King Is Dead
*Year: 2020
*Genre: Epic Heavy/Doom Metal
*Country: United States
*Format: mp3@CBR320kbps
*Size: 105MB

Tracklist:
01. Introduction 01:30
02. High Priestess 04:16
03. The Wraith 04:58
04. Nohsis (interlude) 01:30
05. Wizard Ciyus 04:26
06. Strange Bedfellows (interlude) 02:53
07. The King is Dead 05:12
08. Fear (interlude) 00:30
09. Night Riders 04:20
10. The Gaoler of Acronus 03:39
11. Wrath (interlude) 00:48
12. Storm Summoner 03:40
13. Conclusion 07:19
******************************
Total playing time: 45:01





[more=Technical info]
Input File: 02 - High Priestess.mp3
Channels : 2
Sample Rate : 44100
Precision : 16-bit
Duration : 00:04:16.90 = 11329378 samples = 19267.6 CDDA sectors
File Size : 10.4M
Bit Rate : 325k
Sample Encoding: MPEG audio (layer I, II or III)
Comments :
Title=High Priestess
Artist=ODAX
Album=The King Is Dead
Tracknumber=2
Year=2020

[/more]

Register
(17) after21allD, autumnwood, chipsgott, HMHamster, infiltrator, metala, multizwilling, Niknne, Olethros, poeira, Rosen, Rover, stumpheavyrock, suseka, uncolored, VALERY, Wail,
Oct 15 2020, 13:06:04 Autocatalytica - Powerclashing Maximalism (2020)


*Artist: Autocatalytica
*Album: Powerclashing Maximalism
*Year: 2020
*Genre: Avant-Garde/Progressive Metal
*Country: United States
*Format: mp3@CBR320kbps
*Size: 90MB

Tracklist:
01. Borndun 05:18
02. Zippler 03:33
03. Trash Serum 05:19
04. Cheggo 04:35
05. Dukka Dukka 06:00
06. Bananas Have Potassium 04:05
07. Crawboi 06:08
08. Graveo 02:32
******************************
Total playing time: 37:30






[more=Technical info]
Input File: 02. Zippler.mp3
Channels : 2
Sample Rate : 44100
Precision : 16-bit
Duration : 00:00:00.21 = 9393 samples = 15.9745 CDDA sectors
File Size : 8.65M
Bit Rate : 325M
Sample Encoding: MPEG audio (layer I, II or III)
Comments :
Title=Zippler
Artist=Autocatalytica
Album=Powerclashing Maximalism
Tracknumber=2
Year=2020
Genre=Avant-Garde Metal
Discnumber=1

[/more]

Register
(13) Cartman223, chipsgott, daemonarch, grimoir, infiltrator, JPV, judaz, metala, multizwilling, Olethros, Rosen, Rover, yuratroll,
Oct 15 2020, 12:55:28 Ashbürn - You Can Not Kill What Can Never Die (2020)


*Artist: Ashbürn
*Album: You Can Not Kill What Can Never Die
*Year: 2020
*Genre: Power Metal
*Country: Brazil
*Format: mp3@CBR320kbps
*Size: 96MB

Tracklist:
01. Doing Nothing is Not the Answer 04:38
02. Capitain Proudmore 04:50
03. Pyre of Gods 04:24
04. Forevermore 05:14
05. No More Memories 03:10
06. Asylum 04:05
07. XXI (I'm not a Dreamer) 03:34
08. As It Falls 04:19
09. Win and Die 03:39
10. Break the Silence 03:28
******************************
Total playing time: 37:53


Preview 2



[more=Technical info]
Input File: 02 - Capitain Proudmore.mp3
Channels : 2
Sample Rate : 44100
Precision : 16-bit
Duration : 00:04:50.97 = 12831645 samples = 21822.5 CDDA sectors
File Size : 11.8M
Bit Rate : 325k
Sample Encoding: MPEG audio (layer I, II or III)
Comments :
Title=Capitain Proudmore
Artist=Ashburn
Album=You Can Not Kill What Can Never Die
Tracknumber=2
Year=2020

[/more]

Register
(14) ace73pq, after21allD, boby9052, caro, csgmnk, gwar, Herrant, infiltrator, Lukittaz, metala, Olethros, Rosen, Rover, sergsazan,
Oct 15 2020, 12:41:02 Catatonic Profanation - Contaminated Omniscience (2020)


*Artist: Catatonic Profanation
*Album: Contaminated Omniscience
*Year: 2020
*Genre: Brutal Death Metal
*Country: United States
*Format: mp3@CBR320kbps
*Size: 67MB

Tracklist:
01. Hell Born
02. Abstract Creations
03. Veil of Mangled Flesh
04. Cynical Existence
05. Reign of the Plague
06. In Odium Fedei (ft. Bryon Johnson)
07. His Loathsome Will
08. Contaminated Omniscience
09. 10,000 Year Curse
10. Cycles of Death
******************************
Total playing time: 29:07





[more=Technical info]
Input File: 02. Abstract Creations.mp3
Channels : 2
Sample Rate : 44100
Precision : 16-bit
Duration : 00:02:30.01 = 6615265 samples = 11250.5 CDDA sectors
File Size : 6.27M
Bit Rate : 334k
Sample Encoding: MPEG audio (layer I, II or III)
Comments :
Title=Abstract Creations
Artist=Catatonic Profanation
Album=Contaminated Omniscience
Tracknumber=2
Year=2020

[/more]

Register
(11) andreikun, infiltrator, jollo, maochen, multizwilling, older68, Olethros, Rosen, sagratan, samokot, suseka,
Oct 15 2020, 12:28:31 Sviatibor - Secrets Of The Land (2020)


*Artist: Sviatibor
*Album: Secrets Of The Land
*Year: 2020
*Genre: Pagan Black Metal/Ambient
*Country: France
*Format: mp3@CBR320kbps
*Size: 91MB

Tracklist:
01. Armies of a Luminous Eye 05:28
02. Primitive Time Remembrances 08:03
03. In the Burial Mound (Interlude) 01:30
04. Yore Resonating 05:59
05. Heralds of the Sun 07:39
06. The Descendant's Revival 11:24
******************************
Total playing time: 40:03





[more=Technical info]
Input File: 02 - Primitive Time Remembrances.mp3
Channels : 2
Sample Rate : 44100
Precision : 16-bit
Duration : 00:08:03.27 = 21312339 samples = 36245.5 CDDA sectors
File Size : 19.3M
Bit Rate : 320k
Sample Encoding: MPEG audio (layer I, II or III)
Comments :
Title=Primitive Time Remembrances
Artist=Sviatibor
Album=Secrets of the Land
Tracknumber=2
Year=2020

[/more]

Register
(26) 1968_janeart, autumnwood, BlackPanda, Druidir, foreverisforgotten, Golodomor, infiltrator, isvili, kim666, Morgoth, multizwilling, nsk2008, Olethros, Olrak, Ostinato, randumbum, robertho777, Rosen, serjred, suseka, talismanFS, thenecromancer, Typhoid, vasiljev_sergej, Vitald, Сварог Барг,
Oct 15 2020, 12:21:26 Chaos Divine - Legacies (2020)


*Artist: Chaos Divine
*Album: Legacies
*Year: 2020
*Genre: Progressive Metal
*Country: Australia
*Format: mp3@CBR320kbps
*Size: 142MB

Tracklist:
01. Instincts 04:04
02. No Saviour (Rise & Fall) 04:19
03. Unspoken 04:57
04. Only Son 03:40
05. Guarding Gravity 05:09
06. Colours of War 04:35
07. Beacon 05:28
08. False Flags 05:42
09. Dead Rivers Flow 05:04
10. Behind the Seal 04:55
11. The Key 04:38
12. Legacies 01:47
13. Into the Now 08:00
******************************
Total playing time: 1:02:18








[more=Technical info]
Input File: 2. No Saviour (Rise & Fall).mp3
Channels : 2
Sample Rate : 44100
Precision : 16-bit
Duration : 00:04:19.12 = 11427280 samples = 19434.1 CDDA sectors
File Size : 10.4M
Bit Rate : 320k
Sample Encoding: MPEG audio (layer I, II or III)
Comments :
Title=No Saviour (Rise & Fall)
Artist=Chaos Divine
Album=Legacies
Tracknumber=02
Year=2020-20-20
Discnumber=1

[/more]

Register
(15) ace73pq, BandR75, Herrant, infiltrator, Jorn777, metala, multizwilling, Olethros, Rhoads, Rosen, Rover, sadmannn, Shadowman, stumpheavyrock, yuratroll,
Oct 15 2020, 12:11:03 Oblivion Myth - In Your Arms (2020)


*Artist: Oblivion Myth
*Album: In Your Arms
*Year: 2020
*Genre: Power/Progressive Metal
*Country: United States
*Format: mp3@CBR320kbps
*Size: 135MB

Tracklist:
01. Diadem
02. Thousand Years
03. The Veil
04. In Your Arms
05. Slow Burn
06. Love Child
07. Another Life
08. The Price
09. Awake in the Night
10. Second Skin
11. Heirs to the Throne
******************************
Total playing time: 58:45





[more=Technical info]
Input File: 02 - Thousand Years.mp3
Channels : 2
Sample Rate : 44100
Precision : 16-bit
Duration : 00:03:57.44 = 10471104 samples = 17808 CDDA sectors
File Size : 9.72M
Bit Rate : 328k
Sample Encoding: MPEG audio (layer I, II or III)
Comments :
Title=Thousand Years
Artist=Oblivion Myth
Album=In Your Arms
Tracknumber=2
Year=2020

[/more]

Register
(13) ace73pq, boby9052, caro, Herrant, infiltrator, Lukittaz, metala, multizwilling, Olethros, Rosen, Rover, stumpheavyrock, Сварог Барг,
Oct 15 2020, 12:02:10 Maladie - The Grand Aversion (2020)


*Artist: Maladie
*Album: The Grand Aversion
*Year: 2020
*Genre: Progressive/Avant-Garde Black Metal
*Country: Germany
*Format: mp3@CBR320kbps
*Size: 160MB

Tracklist:
01. Obtestatio
02. Distentio
03. Odium
04. Detractatio
05. Source Doloris
06. Fastidium
07. Lux et Umbra
08. Murmur
09. Seditio
10. Aequamentum
11. Corona
12. Non Omnis Moriar
13. Rex Vulnere
14. Anastasis
******************************
Total playing time: 1:09:37





[more=Technical info]
Input File: 02 - Distentio.mp3
Channels : 2
Sample Rate : 44100
Precision : 16-bit
Duration : 00:06:48.32 = 18006736 samples = 30623.7 CDDA sectors
File Size : 16.4M
Bit Rate : 322k
Sample Encoding: MPEG audio (layer I, II or III)
Comments :
Title=Distentio
Artist=Maladie
Album=The Grand Aversion
Tracknumber=2
Year=2020

[/more]

Register
(22) 1968_janeart, AdamCassard, caro, Cyrci, foreverisforgotten, gena, infiltrator, metala, multizwilling, Niknne, Olethros, Ostinato, Radek, randumbum, robertho777, Rosen, The Philosopher, VALERY, vasiljev_sergej, Wotanwatch, yuratroll, Луч,
Oct 15 2020, 11:48:48 Lord Almighty - Wither (2020)


*Artist: Lord Almighty
*Album: Wither
*Year: 2020
*Genre: Progressive Black Metal
*Country: United States
*Format: mp3@CBR320kbps
*Size: 89MB

Tracklist:
01. Cry of the Earth 03:51
02. Sundown 04:05
03. Mercy 02:31
04. Rise 04:20
05. V 00:51
06. Despite 03:43
07. Stifled 01:34
08. Adrift 03:55
09. Hour By Hour 03:57
10. Wither 04:49
11. Hooded Three 05:11
******************************
Total playing time: 38:47





[more=Technical info]
Input File: 02. Sun Down.mp3
Channels : 2
Sample Rate : 44100
Precision : 16-bit
Duration : 00:00:00.25 = 10805 samples = 18.3759 CDDA sectors
File Size : 9.88M
Bit Rate : 323M
Sample Encoding: MPEG audio (layer I, II or III)
Comments :
Title=Sun Down
Artist=Lord Almighty
Album=Wither
Tracknumber=2
Year=2020
Genre=Black Metal
Discnumber=1

[/more]

Register
(23) AlexSmith, alikkon, BandR75, caro, Courbet, foreverisforgotten, frituz3, grimoir, IncendiaryMight, infiltrator, metala, multizwilling, Olethros, Ostinato, randumbum, robertho777, Rosen, stumpheavyrock, VALERY, vasiljev_sergej, wrath082, Yorker, Луч,
Oct 15 2020, 11:42:06 Infera Bruo - Rites Of The Nameless (2020)


*Artist: Infera Bruo
*Album: Rites Of The Nameless
*Year: 2020
*Genre: Progressive Black Metal
*Country: United States
*Format: mp3@CBR320kbps
*Size: 91MB

Tracklist:
01. The Breath of Chaos 06:02
02. Latent Foe Arcane 06:59
03. Frayed 04:56
04. Cimmerian Shade 08:32
05. Mining Shadows for Unlight 04:24
06. Rites of the Nameless 08:42
******************************
Total playing time: 39:35


Preview 2



[more=Technical info]
Input File: 2. Latent Foe Arcane.mp3
Channels : 2
Sample Rate : 44100
Precision : 16-bit
Duration : 00:00:00.42 = 18478 samples = 31.4252 CDDA sectors
File Size : 16.8M
Bit Rate : 322M
Sample Encoding: MPEG audio (layer I, II or III)
Comments :
Title=Latent Foe Arcane
Artist=Infera Bruo
Album=Rites of the Nameless
Tracknumber=2
Year=2020
Genre=Progressive Black Metal
Discnumber=1

[/more]

Register
(19) AlexSmith, BandR75, daemonarch, foreverisforgotten, frituz3, grimoir, infiltrator, metala, multizwilling, Olethros, Ostinato, randumbum, robertho777, Rosen, VALERY, vasiljev_sergej, Vitald, yuratroll, Сварог Барг,
Oct 15 2020, 11:34:40 Wayfarer - A Romance With Violence (2020)


*Artist: Wayfarer
*Album: A Romance With Violence
*Year: 2020
*Genre: Atmospheric Black/Folk Metal
*Country: United States
*Format: mp3@CBR320kbps
*Size: 103MB

Tracklist:
01. The Curtain Pulls Back 01:12
02. The Crimson Rider (Gallows Frontier, Act I) 10:40
03. The Iron Horse (Gallows Frontier, Act II) 06:28
04. Fire & Gold 04:19
05. Masquerade of the Gunslingers 10:01
06. Intermission 02:01
07. Vaudeville 10:17
******************************
Total playing time: 44:58


Preview 2




[more=Technical info]
Input File: 2. The Crimson Rider (Gallows Frontier, Act I).mp3
Channels : 2
Sample Rate : 44100
Precision : 16-bit
Duration : 00:00:00.64 = 28224 samples = 48 CDDA sectors
File Size : 25.7M
Bit Rate : 321M
Sample Encoding: MPEG audio (layer I, II or III)
Comments :
Title=The Crimson Rider (Gallows Frontier, Act I)
Artist=Wayfarer
Album=A Romance with Violence
Tracknumber=2
Year=2020
Genre=Atmospheric Black Metal
Discnumber=1

[/more]

Register
(38) 1968_janeart, AlexSmith, Altkiller, BandR75, Black Cat, BladeOvDarkness, Cartman223, Courbet, daemonarch, Druidir, ErikGoth, foreverisforgotten, frituz3, fylopaloma, ghoulvis, grimoir, infiltrator, multizwilling, nemx, Old Vyaine, Olethros, Olrak, randumbum, robertho777, Rosen, SaintVitus, sergsazan, Shadechaser, sunkilmoon, suseka, talismanFS, thenecromancer, Tino, VALERY, vasiljev_sergej, Vitald, yuratroll, Сварог Барг,
Oct 15 2020, 11:28:52 Arkan - Lila H (2020)


*Artist: Arkan
*Album: Lila H
*Year: 2020
*Genre: Oriental/Melodic Death Metal
*Country: France
*Format: mp3@CBR320kbps
*Size: 115MB

Tracklist:
01. Dusk to Dawn
02. Shameless Lies
03. Black Decade
04. Broken Existencies
05. Crawl
06. Surrounded
07. Burning Marks
08. My Son
09. Remembrance
10. Seeds of War
11. Relapse
12. Resilience
******************************
Total playing time: 50:02






[more=Technical info]
Input File: 02 - Shameless Lies.mp3
Channels : 2
Sample Rate : 44100
Precision : 16-bit
Duration : 00:05:50.74 = 15467590 samples = 26305.4 CDDA sectors
File Size : 14.2M
Bit Rate : 325k
Sample Encoding: MPEG audio (layer I, II or III)
Comments :
Title=Shameless Lies
Artist=Arkan
Album=Lila H
Tracknumber=2
Year=2020

[/more]

Register
(29) BERZERK, Black Cat, CryptOn, daemonarch, Druidir, Forest, frituz3, grimoir, gwar, infiltrator, lary_veel, leks, Lukittaz, Niknne, Olethros, Rosen, sadmannn, Saldiac, satanath, SatanicPanzer, sergsazan, Shadechaser, StoneTemple, tOmV, VALERY, zaqxsw, Луч, Сварог Барг, скептик,
Oct 15 2020, 11:20:07 Paradise In Flames - Devil's Collection (2020)


*Artist: Paradise In Flames
*Album: Devil's Collection
*Year: 2020
*Genre: Symphonic Black Metal
*Country: Brazil
*Format: mp3@CBR320kbps
*Size: 92MB

Tracklist:
01. Nahemah's Possession
02. I'm Sure Your Gods Have Seen This Before
03. Satan's Laws
04. It's All Wrong
05. Have Never Seen a World Without Wars
06. The Tepes
07. Ripping Off False Masks
08. Hell's Now
09. Devil from the Sky
10. No Life on Earth
******************************
Total playing time: 40:03



Preview 3


[more=Technical info]
Input File: 02 - I\'m Sure Your Gods Have Seen This Before.mp3
Channels : 2
Sample Rate : 44100
Precision : 16-bit
Duration : 00:04:15.52 = 11268300 samples = 19163.8 CDDA sectors
File Size : 10.4M
Bit Rate : 326k
Sample Encoding: MPEG audio (layer I, II or III)
Comments :
Title=I'm Sure Your Gods Have Seen This Before
Artist=Paradise in Flames
Album=Devil's Collection
Tracknumber=2
Year=2020

[/more]

Register
(13) AlexSmith, foreverisforgotten, infiltrator, kim666, Lukittaz, metala, Olethros, randumbum, Rosen, sergsazan, VALERY, vasiljev_sergej, Сварог Барг,
Oct 13 2020, 12:16:07 Mäleficentt - Night Of Eternal Darkness (2020)


*Artist: Mäleficentt
*Album: Night Of Eternal Darkness
*Year: 2020
*Genre: Black Metal
*Country: United States
*Format: mp3@CBR320kbps
*Size: 72MB

Tracklist:
01. March of the Circle of Shadows 02:33
02. Before The Sun Dies 04:30
03. The Light's Last Gasp 04:28
04. Veiled In Gloom 05:07
05. The Cavern of False Hope 04:04
06. Severed By Your Own 04:45
07. Bones of Compatriots 03:36
******************************
Total playing time: 29:03




[more=Technical info]
Input File: Mäleficentt - Night of Eternal Darkness (NP-XIII) - 02 Before The Sun Dies.mp3
Channels : 2
Sample Rate : 44100
Precision : 16-bit
Duration : 00:04:30.07 = 11909999 samples = 20255.1 CDDA sectors
File Size : 10.9M
Bit Rate : 324k
Sample Encoding: MPEG audio (layer I, II or III)
Comments :
Title=Before The Sun Dies
Artist=Mäleficentt
Album=Night of Eternal Darkness (NP-XIII)
Tracknumber=2
Year=2020

[/more]

Register
(24) 1968_janeart, AlexSmith, alikkon, caro, foreverisforgotten, Ildjarn, infiltrator, kim666, Lamby90, lopuh21, multizwilling, Olethros, randumbum, rickzammuto, rimfrost, robertho777, Rosen, SadistikSlayer, stub888, suseka, system36, VALERY, vasiljev_sergej, Wail,
Oct 9 2020, 11:54:42 Fangsylvania - Blodtörstig (2019)


*Artist: Fangsylvania
*Album: Blodtörstig
*Year: 2019
*Genre: Symphonic Black Metal
*Country: Sweden
*Format: mp3@CBR320kbps
*Size: 72MB

Tracklist:
01. Sanguine Ritualis 00:55
02. Of Lamented Flesh and Eternity 04:24
03. Camarilia (In Throes We Waltz) 04:52
04. Bereft Reflection Of Existence 05:46
05. Corona of a Tragedian 00:55
06. Innocence in Lewd 04:50
07. A Dustfilled Slumber Succumbs 05:05
08. The Forbidden Tutelage of Immortality 05:04
******************************
Total playing time: 31:51





[more=Technical info]
Input File: 07. A Dustfilled Slumber Succumbs.mp3
Channels : 2
Sample Rate : 48000
Precision : 16-bit
Duration : 00:05:05.74 = 14675328 samples ~ 22930.2 CDDA sectors
File Size : 12.2M
Bit Rate : 320k
Sample Encoding: MPEG audio (layer I, II or III)
Comments :
Title=A Dustfilled Slumber Succumbs
Artist=Fangsylvania
Album=Blodtorstig
Tracknumber=7
Year=2019
Genre=Black Metal

[/more]

Register
(8) infiltrator, infozahist, metala, Occultas, Olethros, Rosen, vasiljev_sergej, zhol,
Oct 8 2020, 14:38:45 Fell Fyre - Devastation And The Dauntless (2020)


*Artist: Fell Fyre
*Album: Devastation And The Dauntless
*Year: 2020
*Genre: Epic Heavy Metal
*Country: United States
*Format: mp3@CBR320kbps
*Size: 92MB

Tracklist:
01. Return of the Horsemen 04:30
02. Blades in the Night 02:05
03. Rl'yeh's Cradle 03:24
04. Over the Side 03:25
05. Gallows on Fire 05:29
06. Lauded Giantslayer 05:58
07. Dauntless 04:06
08. Stormfire Rhapsody 04:36
09. Highlands Our Home 05:07
******************************
Total playing time: 38:40



[more=Technical info]
Input File: 02 - Blades in the Night.mp3
Channels : 2
Sample Rate : 44100
Precision : 16-bit
Duration : 00:02:05.11 = 5517351 samples = 9383.25 CDDA sectors
File Size : 5.12M
Bit Rate : 327k
Sample Encoding: MPEG audio (layer I, II or III)
Comments :
Title=Blades in the Night
Artist=Fell Fyre
Album=Devastation and the Dauntless
Tracknumber=2
Year=2020
Discnumber=1/1

[/more]

Register
(17) caro, chipsgott, Herrant, infiltrator, infozahist, Lukittaz, Morgoth, Olethros, randumbum, Reverend, Rosen, Rover, sergsazan, Thrashold, vir2al, wreak, Сварог Барг,

1432 Pages V   1 2 3 > » 
- Lo-Fi Version Support form
Copyrights and abuse reports form
Time is now: 21st October 2020 - 20:09:11