Welcome Guest ( Log In | Register )

История благодарностей участнику necroscum ::: Спасибо сказали: 355747 раз(а)
Дата поста: В теме: За сообщение: Спасибо сказали:
Yesterday, 13:36:39 Moe Secretion & Favorite 水 - Deep Censorship [split] (2018)


*Artist: Moe Secretion & Favorite 水
*Album: Deep Censorship [split]
*Year: 2018
*Genre: Goregrind | Experimental
*Country: Canada | Canada
*Format: mp3@CBR320kbps
*Size: 11MB

Tracklist:
Moe Secretion:
01. Single-Panel Hyper-Detail 01:02
02. Ridiculous Doujinshi 01:09
Favorite 水:
03. Tiny Nails 01:16
04. HaHa 01:36
******************************
Total playing time: 5:03






[more=Technical info]
Input File: 02. Ridiculous Doujinshi.mp3
Channels : 2
Sample Rate : 44100
Precision : 16-bit
Duration : 00:01:09.99 = 3086339 samples = 5248.88 CDDA sectors
File Size : 2.85M
Bit Rate : 326k
Sample Encoding: MPEG audio (layer I, II or III)
Comments :
Title=Moe Secretion - Ridiculous Doujinshi
Artist=Favorite 水 / Moe Secretion
Album=Deep Censorship
Tracknumber=2
Year=2018

[/more]

Register
(1) SameMan,
Yesterday, 13:02:06 Horrorgrind - Tribute To Horror (2017)


*Artist: Horrorgrind
*Album: Tribute To Horror
*Year: 2017
*Genre: Death Metal/Grindcore
*Country: United States
*Format: mp3@CBR320kbps
*Size: 82MB

Tracklist:
01. Living Nightmare 01:10
02. They Float 01:36
03. Play A Game 01:28
04. Crystal Lake 01:12
05. Tokyo Destruction 01:05
06. Here's Johnny 01:00
07. The Night He Came Home 01:36
08. Wearing Skin 01:07
09. Good Guy Dolls 01:06
10. The Cenobites 01:11
11. Trucker 01:16
12. Hand Me The Knife 01:19
13. Momma Gorgo 00:59
14. Make Your Wishes 01:17
15. Terminated 01:00
16. Beauty Who Killed The Beast 01:06
17. Giant Turtle Beast 01:12
18. Don't Steal Me Gold 00:53
19. Xenomorphs 01:29
20. Jungle Hunters 01:01
21. Universal Monsters 00:39
22. Orlock's Arrival 00:54
23. Swamp And A Hatchet 01:08
24. Killer Puppets 01:01
25. Twisty! 01:05
26. Say It 3 Times 00:53
27. Groovy 00:50
28. All Out Of Bubblegum 00:44
29. Alien Bastards 01:00
30. Viewers Beware! 00:44
31. Knee-Deep In Hell 00:42
32. You Play A Good Game Boy 00:56
******************************
Total playing time: 34:39





[more=Technical info]
Input File: 02. They Float.mp3
Channels : 2
Sample Rate : 44100
Precision : 16-bit
Duration : 00:01:36.27 = 4245331 samples = 7219.95 CDDA sectors
File Size : 3.93M
Bit Rate : 327k
Sample Encoding: MPEG audio (layer I, II or III)
Comments :
Title=They Float
Artist=Horrorgrind
Album=Tribute To Horror (Re-release)
Tracknumber=2
Year=2018

[/more]

Register
(2) A.L.Rapsod, jollo,
Yesterday, 10:43:13 Sulsa & Gangrene Discharge - Hasugu/Hypophosphatemial Aneurysmic Congestion [split] (2018)


*Artist: Sulsa & Gangrene Discharge
*Album: Hasugu/Hypophosphatemial Aneurysmic Congestion [split]
*Year: 2018
*Genre: Goregrind | Goregrind
*Country: South Korea | United States
*Format: mp3@CBR320kbps
*Size: 22MB

Tracklist:
Sulsa:
01. Hasugu 01:01
02. Puke, Vomit, Barf 00:55
03. Decomposed Body 00:36
04. Fuck GBN Toilet 00:43
05. Goinmul-Eun Sseogneunda 00:42
Gangrene Discharge:
06. Horrendous Bile Reek 00:44
07. Corpsefire Compost Heap 00:53
08. Infected Foetal Mush - Tumescentive Pharyngorrhoea 01:00
09. Festering Putrefaction 00:50
10. Crepitative Fecal Adoration And Stains 01:18
******************************
Total playing time: 8:42





[more=Technical info]
Input File: 03. Decomposed Body.mp3
Channels : 2
Sample Rate : 44100
Precision : 16-bit
Duration : 00:00:36.16 = 1594436 samples = 2711.63 CDDA sectors
File Size : 1.67M
Bit Rate : 370k
Sample Encoding: MPEG audio (layer I, II or III)
Comments :
Title=SULSA - Decomposed Body
Artist=SULSA & GANGRENE DISCHARGE
Album=SULSA & GANGRENE DISCHARGE - Split (Placenta Recordings #448 - 2018)
Tracknumber=3
Year=2018

[/more]

Register
(2) A.L.Rapsod, uk82,
Yesterday, 00:06:59 Cxfxcx - Assuma A Culpa (2018)


*Artist: Cxfxcx
*Album: Assuma A Culpa
*Year: 2018
*Genre: Crossover/Thrash Metal
*Country: Brazil
*Format: mp3@CBR320kbps
*Size: 86MB

Tracklist:
01. Assuma a Culpa
02. Ignorancia Artificial
03. Ninguem Vai Te Parar
04. Sempre Tente Lutar
05. Agora
06. Fazer por Merecer
07. O Mundo Assombrado Pelos Demonios
08. Defenda-se
09. O Lutador
10. Seja a Cena
11. Que Fim Levou
12. Inquebravel
13. O Que Voce Vai Deixar pra Tras
******************************
Total playing time: 37:26



[more=Technical info]
Input File: 02. Ignorancia Artificial.mp3
Channels : 2
Sample Rate : 44100
Precision : 16-bit
Duration : 00:03:29.49 = 9238509 samples = 15711.8 CDDA sectors
File Size : 8.38M
Bit Rate : 320k
Sample Encoding: MPEG audio (layer I, II or III)
Comments :
Title=Ignorancia Artificial
Artist=CxFxCx
Album=Assuma a Culpa
Tracknumber=2/13
Year=2018

[/more]

Register
(4) Diflock, gwar, MeathookSeed, wgs73,
Jun 21 2018, 23:56:32 Aexylium - Tales From This Land (2018)


*Artist: Aexylium
*Album: Tales From This Land
*Year: 2018
*Genre: Folk Metal
*Country: Italy
*Format: mp3@CBR320kbps
*Size: 94MB

Tracklist:
01. Prelude to a Journey
02. Black Flag
03. Into the Jaws of Fenrir
04. Aexylium
05. My Favourite Nightmare
06. Banshee
07. Tales from Nowhere
08. Revive the Village
09. The Blind Crow
10. Judas' Revenge
11. Radagast
******************************
Total playing time: 41:03



[more=Technical info]
Input File: 02. Black Flag.mp3
Channels : 2
Sample Rate : 44100
Precision : 16-bit
Duration : 00:03:28.00 = 9172844 samples = 15600.1 CDDA sectors
File Size : 8.32M
Bit Rate : 320k
Sample Encoding: MPEG audio (layer I, II or III)
Comments :
Title=Black Flag
Artist=Aexylium
Album=Tales from This Land
Tracknumber=2/11
Year=2018

[/more]

Register
(7) djsema4, Druidir, gwar, Lucifere, terron, VALERY, zhol,
Jun 21 2018, 23:23:26 Victorius - To The Death [ep] (2018)


*Artist: Victorius
*Album: To The Death [ep]
*Year: 2018
*Genre: Heavy Metal
*Country: United Kingdom
*Format: mp3@CBR320kbps
*Size: 79MB

Tracklist:
01. Breaking Down the Walls
02. Silver Bullet
03. Prepare to Rock
04. To the Death
05. Rise from the Flames
******************************
Total playing time: 34:28



[more=Technical info]
Input File: 02. Silver Bullet.mp3
Channels : 2
Sample Rate : 44100
Precision : 16-bit
Duration : 00:05:18.27 = 14035707 samples = 23870.2 CDDA sectors
File Size : 12.7M
Bit Rate : 320k
Sample Encoding: MPEG audio (layer I, II or III)
Comments :
Title=Silver Bullet
Artist=Victorius
Album=To the Death
Tracknumber=2/5
Year=2018

[/more]

Register
(4) metala, sergsazan, terron, vir2al,
Jun 21 2018, 22:42:37 Maggot Casket - Maggot Casket (2018)


*Artist: Maggot Casket
*Album: Maggot Casket
*Year: 2018
*Genre: Death/Black Metal/Grindcore
*Country: United States
*Format: mp3@CBR320kbps
*Size: 87MB

Tracklist:
01. Maggot Casket
02. Harvester Of Marrow
03. Zombie Eclipse
04. Mortuary Mistress
05. Bastard Son Of A Bastard Son
06. Mourning Wood
07. One Eyed God
08. The Creep
******************************
Total playing time: 38:11




[more=Technical info]
Input File: 02. Harvester of Marrow.mp3
Channels : 2
Sample Rate : 44100
Precision : 16-bit
Duration : 00:05:13.91 = 13843299 samples = 23543 CDDA sectors
File Size : 12.6M
Bit Rate : 320k
Sample Encoding: MPEG audio (layer I, II or III)
Comments :
Title=Harvester of Marrow
Artist=Maggot Casket
Album=Maggot Casket
Tracknumber=2/8
Year=2018

[/more]

Register
(4) A.L.Rapsod, Doooomed, metala, VALERY,
Jun 21 2018, 13:46:47 Goreified - The Stench Of Putrescent Flesh [ep] (2018)


*Artist: Goreified
*Album: The Stench Of Putrescent Flesh [ep]
*Year: 2018
*Genre: Brutal Death Metal/Goregrind
*Country: United States
*Format: mp3@CBR320kbps
*Size: 49MB

Tracklist:
01. Mental Murder 05:21
02. Leftover Carcass 03:31
03. Night Of Gore 03:48
04. Sexual Dismemberment 02:55
05. Das Kannibale 03:59
06. Living In Carnage (Feat. Chris From Apoplexy) 01:41
******************************
Total playing time: 21:15




[more=Technical info]
Input File: 02. Leftover Carcass.mp3
Channels : 2
Sample Rate : 44100
Precision : 16-bit
Duration : 00:03:31.76 = 9338616 samples = 15882 CDDA sectors
File Size : 8.72M
Bit Rate : 329k
Sample Encoding: MPEG audio (layer I, II or III)
Comments :
Title=Leftover Carcass
Artist=Goreified
Album=The Stench of Putrescent Flesh
Tracknumber=2
Year=2018

[/more]

Register
(4) gerb, metala, Rosen, terron,
Jun 21 2018, 03:37:35 The World Within - From The Ashes Of A Wasteland (2018)


*Artist: The World Within
*Album: From The Ashes Of A Wasteland
*Year: 2018
*Genre: Symphonic/Melodic Death Metal
*Country: Russian Federation
*Format: mp3@CBR320kbps
*Size: 123MB

Tracklist:
01. Fireborn
02. Point of No Return
03. Cult of Aberration
04. Depths of My Memory
05. Ghost of Yesterday
06. Under the Flag of Self-Destruction
07. Spring
08. Weakness Plague
09. Nothing to Save
10. Emberland
******************************
Total playing time: 53:49




[more=Technical info]
Input File: 02. Point of No Return.mp3
Channels : 2
Sample Rate : 44100
Precision : 16-bit
Duration : 00:04:21.92 = 11550716 samples = 19644.1 CDDA sectors
File Size : 10.5M
Bit Rate : 320k
Sample Encoding: MPEG audio (layer I, II or III)
Comments :
Title=Point of No Return
Artist=The World Within
Album=From the Ashes of a Wasteland
Tracknumber=2/10
Year=2018

[/more]

Register
(4) gwar, ironyserg, nirth, VALERY,
Jun 21 2018, 03:22:08 Ages Of Atrophy - The Great Ascendancy Fraud [ep] (2018)


*Artist: Ages Of Atrophy
*Album: The Great Ascendancy Fraud [ep]
*Year: 2018
*Genre: Deathcore
*Country: Israel
*Format: mp3@CBR320kbps
*Size: 63MB

Tracklist:
01. Mortal Elegies (Intro) 01:20
02. Desecrated Be Thy Name 04:25
03. Liberation Through Annihilation 03:45
04. Perfection's Subject 04:05
05. No Trace Of The Human Race 04:50
06. Dethrone 04:16
07. The Great Ascendancy Fraud 04:38
******************************
Total playing time: 27:19



[more=Technical info]
Input File: 02. Desecrated Be Thy Name.mp3
Channels : 2
Sample Rate : 44100
Precision : 16-bit
Duration : 00:04:25.29 = 11699333 samples = 19896.8 CDDA sectors
File Size : 10.6M
Bit Rate : 320k
Sample Encoding: MPEG audio (layer I, II or III)
Comments :
Title=Desecrated Be Thy Name
Artist=Ages of Atrophy
Album=The Great Ascendancy Fraud
Tracknumber=2/7
Year=2018

[/more]

Register
(2) infozahist, Rosen,
Jun 21 2018, 03:12:57 Skjaldar - Revision (2018)


*Artist: Skjaldar
*Album: Revision
*Year: 2018
*Genre: Pagan Black Metal
*Country: Germany
*Format: mp3@CBR320kbps
*Size: 100MB

Tracklist:
01. Niedergang
02. Karg
03. Monument des Schattens
04. Alter Wachter
05. Geistermoor
06. Skadi
07. Lass Leben flieen
08. Gjallar erklingt
09. Andacht
10. Totenruf
******************************
Total playing time: 43:41



[more=Technical info]
Input File: 02. Karg.mp3
Channels : 2
Sample Rate : 44100
Precision : 16-bit
Duration : 00:04:20.12 = 11471204 samples = 19508.9 CDDA sectors
File Size : 10.4M
Bit Rate : 320k
Sample Encoding: MPEG audio (layer I, II or III)
Comments :
Title=Karg
Artist=Skjaldar
Album=Revision
Tracknumber=2/10
Year=2018

[/more]

Register
(11) 1968_janeart, Bulldozzzzzzer, fabriziomagno, kim666, Moonshtook, Ostinato, Rosen, stub888, VALERY, vasiljev_sergej, zhol,
Jun 20 2018, 16:07:18 The Wreckage - Unleashed (2018)


*Artist: The Wreckage
*Album: Unleashed
*Year: 2018
*Genre: Deathcore
*Country: Singapore
*Format: mp3@CBR320kbps
*Size: 80MB

Tracklist:
01. Purity
02. Soaked in Blood
03. Void Decadence
04. Sacrilege
05. Hecatomb
06. Imperium Illuminatus
07. Unleashed
08. Destructive Intent
09. Skinned and Hung up to Dry
10. Draugar
11. Requiem for the Forgotten
******************************
Total playing time: 35:00




[more=Technical info]
Input File: 02. Soaked in Blood.mp3
Channels : 2
Sample Rate : 44100
Precision : 16-bit
Duration : 00:03:11.47 = 8443607 samples = 14359.9 CDDA sectors
File Size : 7.66M
Bit Rate : 320k
Sample Encoding: MPEG audio (layer I, II or III)
Comments :
Title=Soaked in Blood
Artist=The Wreckage
Album=Unleashed
Tracknumber=2/11
Year=2018

[/more]

Register
(2) Rosen, terron,
Jun 20 2018, 12:41:46 Haggus & Posthumous Regurgitation - Bizarre Fungating Ulceration [split] (2018)


*Artist: Haggus & Posthumous Regurgitation
*Album: Bizarre Fungating Ulceration [split]
*Year: 2018
*Genre: Grindcore/Goregrind | Goregrind
*Country: United States | United States
*Format: mp3@CBR320kbps
*Size: 22MB

Tracklist:
Haggus:
01. An Untimely Obituary 02:29
02. Succumb To Filth: Pt II 02:21
Posthumous Regurgitation:
01. Malnutrition Induced Delusions Resulting In Cannibalism And Autophagia 01:43
02. Seepage Of Malodorous Effluvium 03:04
******************************
Total playing time: 9:37






[more=Technical info]
Input File: 02. Succumb To Filth - Pt II.mp3
Channels : 2
Sample Rate : 44100
Precision : 16-bit
Duration : 00:02:21.02 = 6218806 samples = 10576.2 CDDA sectors
File Size : 5.73M
Bit Rate : 325k
Sample Encoding: MPEG audio (layer I, II or III)
Comments :
Title=Succumb To Filth : Pt II
Artist=HAGGUS
Album=Posthumous Regurgitation Split CS
Tracknumber=2
Year=2018

[/more]

Register
(3) FUDEDOR, gerb, Rosen,
Jun 20 2018, 12:10:17 Staphylococcic - Demo II [demo] (2018)


*Artist: Staphylococcic
*Album: Demo II [demo]
*Year: 2018
*Genre: Goregrind
*Country: United States
*Format: mp3@CBR320kbps
*Size: 17MB

Tracklist:
01. Introduction To Bacteriology Chaper I {Section A} 00:32
02. Introduction To Bacteriology Chaper I {Section B} 00:46
03. Introduction To Bacteriology Chaper I {Section C} 00:57
04. Introduction To Bacteriology Chaper I {Section D} 00:34
05. Introduction To Bacteriology Chaper I {Section E} 00:46
06. Introduction To Bacteriology Chaper II {Section A} 00:32
07. Introduction To Bacteriology Chaper II {Section B} 00:39
08. Introduction To Bacteriology Chaper II {Section C} 00:41
09. Introduction To Bacteriology Chaper II {Section D} 00:34
10. Introduction To Bacteriology Chaper II {Section E} 00:42
11. Introduction To Bacteriology Chaper II {Section F} 00:52
******************************
Total playing time: 7:35



[more=Technical info]
Input File: 02. Introduction to Bacteriology Chaper I {Section B}.mp3
Channels : 2
Sample Rate : 44100
Precision : 16-bit
Duration : 00:00:46.13 = 2034509 samples = 3460.05 CDDA sectors
File Size : 1.95M
Bit Rate : 337k
Sample Encoding: MPEG audio (layer I, II or III)
Comments :
Title=Introduction to Bacteriology Chaper I {Section B}
Artist=Staphylococcic
Album=Demo II
Tracknumber=2
Year=2018

[/more]

Register
(1) Rosen,
Jun 20 2018, 11:55:29 In Snakes I Bathe - I Am Glad That Abusing Scumbag Xxxtentacion Got Shot//chris Barnes Is Still A Pussy [single] (2018)


*Artist: In Snakes I Bathe
*Album: I Am Glad That Abusing Scumbag Xxxtentacion Got Shot//chris Barnes Is Still A Pussy [single]
*Year: 2018
*Genre: Grindcore
*Country: United Kingdom
*Format: mp3@CBR320kbps
*Size: 5MB

Tracklist:
01. I Am Glad That Abusing Scumbag Xxxtentacion Got Shot 00:58
02. Chris Barnes Is Still A Pussy 01:20
******************************
Total playing time: 2:18





[more=Technical info]
Input File: 02. Chris Barnes is Still a Pussy.mp3
Channels : 2
Sample Rate : 44100
Precision : 16-bit
Duration : 00:01:20.07 = 3531043 samples = 6005.18 CDDA sectors
File Size : 3.29M
Bit Rate : 329k
Sample Encoding: MPEG audio (layer I, II or III)
Comments :
Title=Chris Barnes is Still a Pussy
Artist=In Snakes I Bathe
Album=I Am Glad That Abusing Scumbag Xxxtentacion Got Shot // Chris Barnes is Still a Pussy
Tracknumber=2
Year=2018

[/more]

Register
(1) Rosen,
Jun 19 2018, 12:42:37 Mysarium - Mysarium (2015)


*Artist: Mysarium
*Album: Mysarium
*Year: 2015
*Genre: Instrumental/Progressive Metal/Djent
*Country: Germany
*Format: flac
*Size: 387MB

Tracklist:
01. Welcome To A New Age 03:25
02. Parallel 04:05
03. You Make This Decision Difficult 03:22
04. Thinking About You 04:05
05. What's In A Name 04:33
06. Machines Of The Mind 03:15
07. Pray For Plagues (BMTH) (Feat. Fredy Abrahante Of The Green Invaders) 04:15
08. Futile Retaliation 02:59
09. I Wish I Knew How To Dance 02:02
10. Disdain 04:45
11. Close Your Eyes 03:06
12. Hallowed Be Thy Name 04:01
13. Church 03:28
14. Make Me Scream 03:08
15. Dead Before Dawn 06:25
******************************
Total playing time: 56:54




Register
(1) infiltrator,
Jun 19 2018, 12:31:56 Mysarium - Changes: The Story (2015)


*Artist: Mysarium
*Album: Changes: The Story
*Year: 2015
*Genre: Instrumental/Progressive Metal/Djent
*Country: Germany
*Format: flac
*Size: 522MB

Tracklist:
01. Changes I 07:06
02. Changes II 06:32
03. Changes III 07:28
04. Changes IV 05:44
05. Changes V 06:07
06. Changes VI 06:15
07. Beginning Of The End 02:04
08. Changes VII 05:11
09. Changes VIII 05:04
10. Changes IX 05:54
11. The End 00:58
12. Changes X 05:39
13. Changes XI 07:31
14. Changes XII 07:05
******************************
Total playing time: 1:18:38




Register
(1) infiltrator,
Jun 19 2018, 11:56:59 Mysarium - Realism (2016)


*Artist: Mysarium
*Album: Realism
*Year: 2016
*Genre: Instrumental/Progressive Metal/Djent
*Country: Germany
*Format: flac
*Size: 284MB

Tracklist:
01. Prologue 02:34
02. A Night To Forget 04:59
03. The Strength Of 1,000 Suns 05:59
04. Wasting Away 05:19
05. Forecast 06:47
06. Justice 01:38
07. Men With Broken Hands 05:06
08. Realism 04:58
09. Sunbathe 07:01
10. You Will Never Break Me 03:47
11. NR:SS 21/22 04:29
******************************
Total playing time: 52:37




Register
(1) infiltrator,
Jun 19 2018, 11:48:16 Mysarium - With A Shattered Past Like Broken Glass (2016)


*Artist: Mysarium
*Album: With A Shattered Past Like Broken Glass
*Year: 2016
*Genre: Instrumental/Progressive Metal/Djent
*Country: Germany
*Format: flac
*Size: 284MB

Tracklist:
01. I: Pane 01:35
02. II: Shards 05:56
03. Mirror 03:27
04. Throwing Stones 07:41
05. With A Shattered Past Like Broken Glass 06:05
06. Comeback 06:22
07. Melted Sand 06:29
08. Blackened (Metallica Cover) (Bonus Track) 06:44
******************************
Total playing time: 44:19




Register
(1) infiltrator,
Jun 19 2018, 11:37:47 Phalloplasty & Slamophiliac - This Split Sucks [split] (2018)


*Artist: Phalloplasty & Slamophiliac
*Album: This Split Sucks [split]
*Year: 2018
*Genre: Brutal Death Metal/Goregrind | Brutal Death Metal
*Country: United States | United States
*Format: mp3@CBR320kbps
*Size: 55MB

Tracklist:
Phalloplasty:
01. A Glorious Symphony Of Grinding Teeth 02:56
02. Ball-Peen 217 03:02
03. Psychosomatic Putrification 03:04
04. The Architecture Of Suffering 02:24
Slamophiliac:
05. Imprisoned Within Reflective Glass 02:33
06. Cadaverous Flesh Revered 02:59
07. Immersed In Fecal Opulence 03:46
08. Mallet 02:42
******************************
Total playing time: 23:26







[more=Technical info]
Input File: 02. Ball-Peen 217.mp3
Channels : 2
Sample Rate : 44100
Precision : 16-bit
Duration : 00:03:02.68 = 8056364 samples = 13701.3 CDDA sectors
File Size : 7.49M
Bit Rate : 328k
Sample Encoding: MPEG audio (layer I, II or III)
Comments :
Title=Ball-Peen 217
Artist=Phalloplasty
Album=This Split Sucks
Tracknumber=2
Year=2018

[/more]

Register
(4) gerb, infiltrator, maochen, Rosen,
Jun 19 2018, 11:16:14 Pissectomy - Bullies [ep] (2018)


*Artist: Pissectomy
*Album: Bullies [ep]
*Year: 2018
*Genre: Goregrind
*Country: United States
*Format: mp3@CBR320kbps
*Size: 26MB

Tracklist:
01. Dyke Fight 02:06
02. Aids Monkey 00:32
03. Unholy Anal Brigade 01:45
04. Fucktrash 01:03
05. Bukakke Booger Beast (Feat. Ella Shitzgerald) 01:50
06. Muff Diver 01:22
07. Dead Pet Society 00:57
08. Pissectomy Covers "Wipeout" By The Surfaris 01:29
******************************
Total playing time: 11:04



[more=Technical info]
Input File: 03. Unholy Anal Brigade.mp3
Channels : 2
Sample Rate : 44100
Precision : 16-bit
Duration : 00:01:45.46 = 4650874 samples = 7909.65 CDDA sectors
File Size : 4.32M
Bit Rate : 328k
Sample Encoding: MPEG audio (layer I, II or III)
Comments :
Title=Unholy Anal Brigade
Artist=Pissectomy
Album=Bullies
Tracknumber=3
Year=2018

[/more]

Register
(2) infiltrator, Rosen,
Jun 18 2018, 14:09:31 Mysarium - Ghost Stories (2016)


*Artist: Mysarium
*Album: Ghost Stories
*Year: 2016
*Genre: Instrumental/Progressive Metal/Djent
*Country: Germany
*Format: flac
*Size: 294MB

Tracklist:
01. Better 03:42
02. Push You Away 05:31
03. War 05:42
04. Find A Way 05:58
05. For She 05:32
06. Walls 06:07
07. Ghost Stories 07:48
******************************
Total playing time: 40:20




Register
(2) infiltrator, vonleeb,
Jun 18 2018, 14:03:27 Mysarium - Colors (2016)


*Artist: Mysarium
*Album: Colors
*Year: 2016
*Genre: Instrumental/Progressive Metal/Djent
*Country: Germany
*Format: flac
*Size: 411MB

Tracklist:
01. White 02:02
02. Emerald 05:45
03. Violet 05:48
04. Silver 07:04
05. Turquoise 06:09
06. Chartreuse 02:28
07. Cinnabar 07:29
08. Sapphire 06:10
09. Amber 05:53
10. Ruby 05:21
11. Black 04:23
******************************
Total playing time: 58:32




Register
(1) infiltrator,
Jun 18 2018, 13:54:47 Mysarium - The Fire Within (2016)


*Artist: Mysarium
*Album: The Fire Within
*Year: 2016
*Genre: Instrumental/Progressive Metal/Djent
*Country: Germany
*Format: flac
*Size: 471MB

Tracklist:
01. Defiance 06:25
02. Depths 08:34
03. Fallen 06:54
04. Guilt Pt.1 04:54
05. Guilt Pt.2 05:38
06. Sober 05:20
07. Terror 06:38
08. Mortuary 04:05
09. Missing 03:22
10. Pieces 05:33
******************************
Total playing time: 57:23




Register
(1) infiltrator,
Jun 18 2018, 13:48:47 Mysarium - Distant Shores (2016)


*Artist: Mysarium
*Album: Distant Shores
*Year: 2016
*Genre: Instrumental/Progressive Metal/Djent
*Country: Germany
*Format: flac
*Size: 471MB

Tracklist:
01. Distant Shores 06:39
02. Badlands Mill 07:46
03. Currents 06:59
04. Threshold 05:55
05. Chosen 03:57
06. One 06:23
07. Albatross 06:34
08. Demolish 04:39
09. Earth 06:14
10. Eulogy 05:13
11. Drifts 06:00
******************************
Total playing time: 1:06:19




Register
(2) infiltrator, vonleeb,

1246 Pages V   1 2 3 > » 
- Lo-Fi Version Support form
Copyrights and abuse reports form
Time is now: 23rd June 2018 - 04:54:29