Welcome Guest ( Log In | Register )

История благодарностей участнику necroscum ::: Спасибо сказали: 371281 раз(а)
Дата поста: В теме: За сообщение: Спасибо сказали:
Today, 17:11:55 Chaotic Realm - Destination Chaos (2019)


*Artist: Chaotic Realm
*Album: Destination Chaos
*Year: 2019
*Genre: Death/Thrash Metal
*Country: United States
*Format: mp3@CBR320kbps
*Size: 92MB

Tracklist:
01. Cruisin 03:07
02. Escape 02:32
03. New Reality 03:20
04. Rednecks of Montana 02:11
05. Revelations 04:01
06. Sons of the Gestapo 05:21
07. Standing Rock 06:59
08. Unabomber 03:27
09. Us Fight Song 03:31
10. Waco's Revenge 05:29
******************************
Total playing time: 39:58





[more=Technical info]
Input File: 02. Escape.mp3
Channels : 2
Sample Rate : 44100
Precision : 16-bit
Duration : 00:02:32.04 = 6705140 samples = 11403.3 CDDA sectors
File Size : 6.15M
Bit Rate : 324k
Sample Encoding: MPEG audio (layer I, II or III)
Comments :
Title=Escape
Artist=Chaotic Realm
Album=Destination Chaos
Tracknumber=2
Year=2019
Discnumber=1

[/more]

Register
(4) METALHUNTER, older68, suseka, wgs73,
Today, 15:58:23 Krivionterloi - Saudade E Reencarnação (2019)


*Artist: Krivionterloi
*Album: Saudade E Reencarnação
*Year: 2019
*Genre: Post-Black Metal/Shoegaze
*Country: Brazil
*Format: mp3@CBR320kbps
*Size: 106MB

Tracklist:
01. Saindo do Limbo 01:23
02. Y.N.A.I.B.A.F 04:20
03. Despedida da Aurora 01:53
04. Lidando com Seus Próprios Medos 04:16
05. A Ordem dos Escravos 04:32
06. Jamais (Cold Night) 02:38
07. Experiência Quase Morte 04:47
08. Bela Desafinada 05:15
09. Da Escuridão ao Paraíso 04:14
10. Romance Traçado pelo Destino 06:57
11. Ainda Não é um Adeus 05:50
******************************
Total playing time: 46:05





[more=Technical info]
Input File: 02. Y.N.A.I.B.A.F.mp3
Channels : 2
Sample Rate : 44100
Precision : 16-bit
Duration : 00:04:20.93 = 11506793 samples = 19569.4 CDDA sectors
File Size : 10.5M
Bit Rate : 323k
Sample Encoding: MPEG audio (layer I, II or III)
Comments :
Title=Y.N.A.I.B.A.F
Artist=Krivionterloi
Album=Saudade e Reencarnação
Tracknumber=2
Year=2019

[/more]

Register
(3) artscald, kim666, Korpse,
Today, 15:43:56 Trübsal - Verfehlte Entsagung (2019)


*Artist: Trübsal
*Album: Verfehlte Entsagung
*Year: 2019
*Genre: Depressive Black Metal
*Country: Germany
*Format: mp3@CBR320kbps
*Size: 94MB

Tracklist:
01. Knechtschaft 08:44
02. Flucht 08:16
03. Schwebe 05:55
04. Anhöhe 05:38
05. Neue Zentren 04:37
06. Der Fall 07:24
******************************
Total playing time: 40:34




[more=Technical info]
Input File: 02. Flucht.mp3
Channels : 2
Sample Rate : 44100
Precision : 16-bit
Duration : 00:08:16.56 = 21898428 samples = 37242.2 CDDA sectors
File Size : 20.1M
Bit Rate : 323k
Sample Encoding: MPEG audio (layer I, II or III)
Comments :
Title=Flucht
Artist=Trübsal
Album=Verfehlte Entsagung
Tracknumber=2
Year=2019

[/more]

Register
(6) artscald, kim666, Korpse, metala, orgondnor, VALERY,
Today, 15:30:02 Stellarvorous Entity - Mictlan [demo] (2019)


*Artist: Stellarvorous Entity
*Album: Mictlan [demo]
*Year: 2019
*Genre: Death Metal
*Country: United States
*Format: mp3@CBR320kbps
*Size: 78MB

Tracklist:
01. Obsidian Dusk 00:40
02. Mictlan 03:50
03. Towers of Skulls 05:01
04. Becoming a God 07:04
05. Forsaken Temple of Mictlantecuhtli 05:33
06. Song of Shields 05:19
07. Xolotl 02:35
08. Jaguar Warrior 03:40
******************************
Total playing time: 33:42





[more=Technical info]
Input File: 08. Jaguar Warrior.mp3
Channels : 2
Sample Rate : 44100
Precision : 16-bit
Duration : 00:03:40.80 = 9737236 samples = 16559.9 CDDA sectors
File Size : 8.99M
Bit Rate : 326k
Sample Encoding: MPEG audio (layer I, II or III)
Comments :
Title=Jaguar Warrior
Artist=Stellarvorous Entity
Album=Mictlan
Tracknumber=8
Year=2019

[/more]

Register
(1) artscald,
Today, 15:11:37 Nälzer - Vocant Profundum (2019)


*Artist: Nälzer
*Album: Vocant Profundum
*Year: 2019
*Genre: Atmospheric Black Metal
*Country: Canada
*Format: mp3@CBR320kbps
*Size: 76MB

Tracklist:
01. Vocant Profundum 32:32
******************************
Total playing time: 32:32






[more=Technical info]
Input File: 01. Vocant Profundum.mp3
Channels : 2
Sample Rate : 44100
Precision : 16-bit
Duration : 00:32:32.34 = 86098326 samples = 146426 CDDA sectors
File Size : 78.2M
Bit Rate : 320k
Sample Encoding: MPEG audio (layer I, II or III)
Comments :
Title=Vocant Profundum
Artist=Nälzer
Album=Vocant Profundum
Tracknumber=1
Year=2019

[/more]

Register
(7) artscald, kim666, Korpse, Ostinato, suseka, VALERY, Волос,
Today, 14:58:02 Burden Of Ymir - Fimbulvinter [ep] (2019)


*Artist: Burden Of Ymir
*Album: Fimbulvinter [ep]
*Year: 2019
*Genre: Instrumental Black/Folk Metal
*Country: United States
*Format: mp3@CBR320kbps
*Size: 62MB

Tracklist:
01. Cattle Die, Kinsmen Die, You Yourself Will Also Die 01:19
02. Hidden by Hoddmímis Holt 05:34
03. Fimbulvinter (A Heathen Fire in the Night) 11:51
04. Until Ragnarök 05:35
05. One Thing That Never Dies, a Good Reputation 02:48
******************************
Total playing time: 27:07




[more=Technical info]
Input File: 05. One Thing That Never Dies, a Good Reputation.mp3
Channels : 2
Sample Rate : 44100
Precision : 16-bit
Duration : 00:02:48.08 = 7412372 samples = 12606.1 CDDA sectors
File Size : 6.90M
Bit Rate : 328k
Sample Encoding: MPEG audio (layer I, II or III)
Comments :
Title=One Thing That Never Dies, a Good Reputation
Artist=Burden of Ymir
Album=Fimbulvinter
Tracknumber=5
Year=2019

[/more]

Register
(2) artscald, kim666,
Today, 14:38:10 Phaceplant - Permanent Hell (2019)


*Artist: Phaceplant
*Album: Permanent Hell
*Year: 2019
*Genre: Grindcore/Crust
*Country: United States
*Format: mp3@CBR320kbps
*Size: 44MB

Tracklist:
01. Gun Culture 02:02
02. Blisters 01:33
03. Permanent Hell 01:48
04. They Won't Come For Me 02:20
05. Private Jet 01:38
06. Raise Yourself Up! 01:26
07. Turn It Off 02:07
08. Proud To Be An American 01:43
09. Through My Eyes (Health Hazard) 01:13
10. Don't Want To Understand 03:04
******************************
Total playing time: 18:54



[more=Technical info]
Input File: 02. Blisters.mp3
Channels : 2
Sample Rate : 44100
Precision : 16-bit
Duration : 00:01:33.08 = 4104916 samples = 6981.15 CDDA sectors
File Size : 3.87M
Bit Rate : 332k
Sample Encoding: MPEG audio (layer I, II or III)
Comments :
Title=Blisters
Artist=Phaceplant
Album=Permanent Hell
Tracknumber=2
Year=2019
Discnumber=1

[/more]

Register
(3) artscald, Ostinato, wgs73,
Today, 14:26:00 Sykelig Englen - To Walk Among Death And Pestilence (2019)


*Artist: Sykelig Englen
*Album: To Walk Among Death And Pestilence
*Year: 2019
*Genre: Depressive Black Metal
*Country: United Kingdom
*Format: mp3@CBR320kbps
*Size: 83MB

Tracklist:
01. Hymns of the Dead 03:26
02. Lurking Skeletal Remains 03:31
03. To Walk Among Death and Pestilence 03:06
04. Decompositional Stench 02:17
05. Crypt of Sarcophagi 03:22
06. Dividing the Spoil 03:13
07. To Judge the Afflicted 02:45
08. Revealing the Plague 03:03
09. Devouring the Sons of God 02:54
10. Mother Earth's Final Violation 02:11
11. Punish the Desecrator 03:06
12. Reaping the Souls of Humanity 02:48
******************************
Total playing time: 35:42





[more=Technical info]
Input File: 02. Lurking Skeletal Remains.mp3
Channels : 2
Sample Rate : 44100
Precision : 16-bit
Duration : 00:03:31.03 = 9306511 samples = 15827.4 CDDA sectors
File Size : 8.54M
Bit Rate : 324k
Sample Encoding: MPEG audio (layer I, II or III)
Comments :
Title=Lurking Skeletal Remains
Artist=Sykelig Englen
Album=To Walk Among Death and Pestilence
Tracknumber=2
Year=2019
Discnumber=1

[/more]

Register
(3) artscald, kim666, VALERY,
Today, 14:15:59 Fugatta - Tales Of A New Century (2019)


*Artist: Fugatta
*Album: Tales Of A New Century
*Year: 2019
*Genre: Symphonic Power Metal
*Country: United States
*Format: mp3@CBR320kbps
*Size: 104MB

Tracklist:
01. Awakening of the Inner Warrior 02:16
02. Rise Your Pride 04:12
03. Incubus 03:56
04. Owners of This World 03:02
05. Seas of Sirens 04:18
06. Far Away 03:58
07. The Autumn Was Long 04:34
08. Waiting for Tomorrow 04:49
09. My World Never Ends 05:04
10. Decadence 04:26
11. Seas of Sirens (Orchestral Bonus Track) 04:44
******************************
Total playing time: 45:19





[more=Technical info]
Input File: 02. Rise Your Pride.mp3
Channels : 2
Sample Rate : 44100
Precision : 16-bit
Duration : 00:04:12.57 = 11138293 samples = 18942.7 CDDA sectors
File Size : 10.2M
Bit Rate : 323k
Sample Encoding: MPEG audio (layer I, II or III)
Comments :
Title=Rise Your Pride
Artist=Fugatta
Album=Tales of a New Century
Tracknumber=2
Year=2019
Discnumber=1

[/more]

Register
(3) artscald, Rover, sadmannn,
Today, 14:00:44 Icarus - Icarus I: Descent (2019)


*Artist: Icarus
*Album: Icarus I: Descent
*Year: 2019
*Genre: Instrumental/Progressive Metal/Djent
*Country: United States
*Format: mp3@CBR320kbps
*Size: 138MB

Tracklist:
01. Baptism 04:00
02. Decadence 03:09
03. Heretic 09:04
04. Rupture 04:38
05. Abyssal 04:10
06. The Seal 04:04
07. Descension 04:28
08. The Void 04:53
09. Colossal 05:06
10. Ascension 05:36
11. Dementia 02:32
12. Limbo 06:25
******************************
Total playing time: 58:05




[more=Technical info]
Input File: 02. Decadence.mp3
Channels : 2
Sample Rate : 44100
Precision : 16-bit
Duration : 00:03:09.71 = 8366387 samples = 14228.5 CDDA sectors
File Size : 7.99M
Bit Rate : 337k
Sample Encoding: MPEG audio (layer I, II or III)
Comments :
Title=Decadence
Artist=Icarus
Album=Icarus I: Descent
Tracknumber=2/12
Year=2019

[/more]

Register
(1) artscald,
Yesterday, 17:55:50 Bloodbound - Rise Of The Dragon Empire (2019)


*Artist: Bloodbound
*Album: Rise Of The Dragon Empire
*Year: 2019
*Genre: Heavy/Power Metal
*Country: Sweden
*Format: mp3@CBR320kbps
*Size: 142MB

Tracklist:
01. Rise of the Dragon Empire 04:37
02. Slayer of Kings 05:03
03. Skyriders and Stormbringers 03:51
04. Magical Eye 03:51
05. Blackwater Bay 03:56
06. Giants of Heaven 04:05
07. The Warlock's Trail 03:56
08. A Blessing in Sorcery 03:51
09. Breaking the Beast 04:12
10. Balerion 04:41
11. Reign of Fire 03:49
12. Battle In The Sky (Live) (Japan Bonus Track) 04:20
13. In The Name Of Metal (Live) (Japan Bonus Track) 04:35
14. Moria (Live) (Japan Bonus Track) 05:49
******************************
Total playing time: 1:00:36





[more=Technical info]
Input File: 02. Slayer Of Kings.mp3
Channels : 2
Sample Rate : 44100
Precision : 16-bit
Duration : 00:05:03.93 = 13403225 samples = 22794.6 CDDA sectors
File Size : 12.4M
Bit Rate : 326k
Sample Encoding: MPEG audio (layer I, II or III)
Comments :
Title=Slayer Of Kings
Artist=Bloodbound
Album=Rise Of The Dragon Empire [Japan Edition]
Tracknumber=2/14
Year=2019
Discnumber=1/1

[/more]

Register
(14) ace73pq, artscald, DenisKov, Druidir, DTGB, Foneg, Forest, Herrant, Luminous, Olethros, sadmannn, SAPOGi, terron, vir2al,
Yesterday, 17:49:13 Frozen Crown - Crowned In Frost (2019)


*Artist: Frozen Crown
*Album: Crowned In Frost
*Year: 2019
*Genre: Power Metal
*Country: Italy
*Format: mp3@CBR320kbps
*Size: 121MB

Tracklist:
01. Arctic Gales 01:24
02. Neverending 05:07
03. In the Dark 04:43
04. Battles in the Night 04:18
05. Winterfall 07:30
06. Unspoken 04:03
07. Lost in Time 04:31
08. The Wolf and the Maiden 03:25
09. Forever 05:09
10. Enthroned 01:03
11. Crowned in Frost 06:33
12. The King's Rest (Japan Bonus Track) 03:54
******************************
Total playing time: 51:40



[more=Technical info]
Input File: 02. Neverending.mp3
Channels : 2
Sample Rate : 44100
Precision : 16-bit
Duration : 00:05:07.51 = 13561059 samples = 23063 CDDA sectors
File Size : 12.5M
Bit Rate : 324k
Sample Encoding: MPEG audio (layer I, II or III)
Comments :
Title=Neverending
Artist=Frozen Crown
Album=Crowned in Frost (Japan Edition)
Tracknumber=2/12
Year=2019
Discnumber=1/1

[/more]

Register
(9) ace73pq, Forest, Herrant, kostja, Luminous, metala, Olethros, SAPOGi, zhol,
Yesterday, 17:43:44 The Arbiter - Water From The River Of Life (2019)


*Artist: The Arbiter
*Album: Water From The River Of Life
*Year: 2019
*Genre: Melodic Doom/Death Metal
*Country: Hungary
*Format: mp3@CBR320kbps
*Size: 85MB

Tracklist:
01. Heavenly Lights 02:29
02. Double Mind 04:45
03. Inner Man 05:54
04. Here I Am 08:08
05. The Number of a Man 04:38
06. A New Heaven 05:48
07. Every Good Path 04:46
******************************
Total playing time: 36:28



[more=Technical info]
Input File: the Arbiter - Water From The River of Life - 02 Double Mind.mp3
Channels : 2
Sample Rate : 44100
Precision : 16-bit
Duration : 00:04:45.27 = 12580495 samples = 21395.4 CDDA sectors
File Size : 11.5M
Bit Rate : 324k
Sample Encoding: MPEG audio (layer I, II or III)
Comments :
Title=Double Mind
Artist=the Arbiter
Album=Water From The River of Life
Tracknumber=2
Year=2019

[/more]

Register
(7) artscald, Ice Gnoll, metala, Olethros, robertho777, VALERY, Герб,
Yesterday, 16:52:11 Urine Tumor - J'te Cale Une Petite Douille De Placo Dans Le Métro Avec Une Cuillère En Plastique Et Une Chaussette Volée À Un Clodo Mourant [ep] (2019)


*Artist: Urine Tumor
*Album: J'te Cale Une Petite Douille De Placo Dans Le Métro Avec Une Cuillère En Plastique Et Une Chaussette Volée À Un Clodo Mourant [ep]
*Year: 2019
*Genre: Porno Goregrind
*Country: France
*Format: mp3@CBR320kbps
*Size: 9MB

Tracklist:
01. J'ai Baisé Un Crapaud Une Fois Et Depuis J'ai Super Mal Aux Couilles, Genre Ça Brûle À En Crever, C'est Ça Je Crois La Chaude-Pisse 00:10
02. Je Crois Avoir Oublié Mon Sex-Toy Dans Le Micro-Ondes, Tu Sais, Celui Avec Les Perles Avec Le Visage De Jacques Chirac Dessus 00:33
03. Pépin II: La Vengeance Du Lutin Pédophile Acariâtre Contre Les Poireaux Hallucinogènes 00:47
04. XxxChansonxxxBrutalexxx 00:31
05. J'ai Enfoncé Mon Antenne Télé Dans Mon Cul, Résultat, Je Parle Philosophie Avec La Voix De La Meuf Cheloue Dans Tracks Là 00:58
06. La Musique Est Morte (Hommage À Anal Cunt) (Bonus Track) 00:21
******************************
Total playing time: 3:20




[more=Technical info]
Input File: 02. Je crois avoir oublié mon sex-toy dans le micro-ondes.mp3
Channels : 2
Sample Rate : 44100
Precision : 16-bit
Duration : 00:00:33.65 = 1483833 samples = 2523.53 CDDA sectors
File Size : 1.53M
Bit Rate : 364k
Sample Encoding: MPEG audio (layer I, II or III)
Comments :
Title=Je crois avoir oublié mon sex-toy dans le micro-ondes, tu sais, celui avec les perles avec le visage de Jacques Chirac dessus
Artist=Urine Tumor
Album=J'te cale une petite douille de placo dans le métro avec une cuillère en plastique et une chaussette volée à un clodo mourant
Tracknumber=2
Year=2019

[/more]

Register
(2) artscald, Olethros,
Yesterday, 16:41:50 Urine Tumor - Bonne Branle [single] (2019)


*Artist: Urine Tumor
*Album: Bonne Branle [single]
*Year: 2019
*Genre: Porno Goregrind
*Country: France
*Format: mp3@CBR320kbps
*Size: 1MB

Tracklist:
01. Bonne Branle 00:07
02. Dites-Donc, Ça Vous Dirait Pas De Se Mettre À Poil, Et On Se Fait Un Petit Bain De Canettes, Entre Couilles, À La Bonne Franquette? 00:17
******************************
Total playing time: 0:24




[more=Technical info]
Input File: 02. Dites-donc, ça vous dirait pas de se mettre.mp3
Channels : 2
Sample Rate : 44100
Precision : 16-bit
Duration : 00:00:17.71 = 781055 samples = 1328.32 CDDA sectors
File Size : 785k
Bit Rate : 355k
Sample Encoding: MPEG audio (layer I, II or III)
Comments :
Title=Dites-donc, ça vous dirait pas de se mettre à poil, et on se fait un petit bain de canettes, entre couilles, à la bonne franquette ?
Artist=Urine Tumor
Album=Bonne branle [single amical]
Tracknumber=2
Year=2019

[/more]

Register
(1) Olethros,
Yesterday, 16:32:57 Urine Tumor - Merdémo [demo] (2018)


*Artist: Urine Tumor
*Album: Merdémo [demo]
*Year: 2018
*Genre: Porno Goregrind
*Country: France
*Format: mp3@CBR320kbps
*Size: 4MB

Tracklist:
01. Tormentanus: The Throat Destroyer 00:59
02. Lacerated Neil Young's Butt-Hole 00:35
03. Acoustic Fistfucking Orgasm 00:15
******************************
Total playing time: 1:49




[more=Technical info]
Input File: 02. Lacerated Neil Young\'s Butt-Hole.mp3
Channels : 2
Sample Rate : 44100
Precision : 16-bit
Duration : 00:00:35.08 = 1547204 samples = 2631.3 CDDA sectors
File Size : 1.45M
Bit Rate : 331k
Sample Encoding: MPEG audio (layer I, II or III)
Comments :
Title=Lacerated Neil Young's Butt-Hole
Artist=Urine Tumor
Album=Merdémo
Tracknumber=2
Year=2018

[/more]

Register
(1) Olethros,
Yesterday, 16:25:34 Urine Tumor - Hot Dog Sexuel Fourré À La Merde [ep] (2018)


*Artist: Urine Tumor
*Album: Hot Dog Sexuel Fourré À La Merde [ep]
*Year: 2018
*Genre: Porno Goregrind
*Country: France
*Format: mp3@CBR320kbps
*Size: 10MB

Tracklist:
01. Proutfoutre 00:52
02. Gonorrhea Party In Your Filthy Stinky Funny Anus 01:17
03. Ragoût De Crème Du Sillon Interfessier Sur Son Coulis De Merde À La Béchamel 00:46
04. Soupe Au Jambon 00:19
05. Penispenispenispenispenispenis 00:50
06. Rot! (Plagiat De "You Suffer" Par Napalm Death) 00:01
******************************
Total playing time: 4:05





[more=Technical info]
Input File: 02. Jésus et ses potos les 12 soûlards.mp3
Channels : 2
Sample Rate : 44100
Precision : 16-bit
Duration : 00:01:00.42 = 2664698 samples = 4531.8 CDDA sectors
File Size : 2.58M
Bit Rate : 341k
Sample Encoding: MPEG audio (layer I, II or III)
Comments :
Title=Jésus et ses potos les 12 soûlards qui partagent de la Amsterdam que même Jéjé il est pété il sort des trucs du style "Buvez, ceci est mon sang les kheys" ce à quoi Judas répond "t'es pimpon mon cochon"
Artist=Urine Tumor
Album="Bon anniversaire, Jésus": Un conte magique par UxTx
Tracknumber=2
Year=2018

[/more]

Register
(2) artscald, Olethros,
Yesterday, 16:15:49 Urine Tumor - "Bon Anniversaire, Jésus": Un Conte Magique Par UxTx [ep] (2018)


*Artist: Urine Tumor
*Album: "Bon Anniversaire, Jésus": Un Conte Magique Par UxTx [ep]
*Year: 2018
*Genre: Porno Goregrind
*Country: France
*Format: mp3@CBR320kbps
*Size: 10MB

Tracklist:
01. Bon Anniversaire Mon Jésus ! 00:41
02. Jésus Et Ses Potos Les 12 Soûlards Qui Partagent De La Amsterdam Que Même Jéjé Il Est Pété Il Sort Des Trucs Du Style "Buvez, Ceci Est Mon Sang Les Kheys" Ce À Quoi Judas Répond "T'es Pimpon Mon Cochon" 01:00
03. Au Trou Les Lépreux (Hymne À La Tolérance) 00:26
04. L'histoire De Pépin, Le Lutin Pédophile Acariâtre 00:55
05. Avec La Magie De Noël L'antillais, Tout Peut Arriver (Outro) 00:21
06. L'amour Ça Coûte Rien, À Part Le Prix De L'avortement Maison, Parce Que Aller À L'hosto, La Honte Devant Les Copines Non Mais Oh, On Est Où Là? (Bonus Track) 00:35
******************************
Total playing time: 3:58




[more=Technical info]
Input File: 02. Jésus et ses potos les 12 soûlards.mp3
Channels : 2
Sample Rate : 44100
Precision : 16-bit
Duration : 00:01:00.42 = 2664698 samples = 4531.8 CDDA sectors
File Size : 2.58M
Bit Rate : 341k
Sample Encoding: MPEG audio (layer I, II or III)
Comments :
Title=Jésus et ses potos les 12 soûlards qui partagent de la Amsterdam que même Jéjé il est pété il sort des trucs du style "Buvez, ceci est mon sang les kheys" ce à quoi Judas répond "t'es pimpon mon cochon"
Artist=Urine Tumor
Album="Bon anniversaire, Jésus": Un conte magique par UxTx
Tracknumber=2
Year=2018

[/more]

Register
(1) Olethros,
Yesterday, 16:01:34 Amissa Anima - Anamnesa (2019)


*Artist: Amissa Anima
*Album: Anamnesa
*Year: 2019
*Genre: Depressive/Post-Black Metal
*Country: Czech Republic
*Format: mp3@CBR320kbps
*Size: 102MB

Tracklist:
01. Cancer In Mother's Womb 05:00
02. Paranoia 05:50
03. Selfdestruction 06:01
04. Kill The Light 05:09
05. No Cure 07:19
06. Fading To Death 04:40
07. Apocalypse 04:49
08. Ravine 05:41
******************************
Total playing time: 44:29




[more=Technical info]
Input File: 06 Fading To Death.mp3
Channels : 2
Sample Rate : 44100
Precision : 16-bit
Duration : 00:04:40.68 = 12377900 samples = 21050.9 CDDA sectors
File Size : 11.4M
Bit Rate : 324k
Sample Encoding: MPEG audio (layer I, II or III)
Comments :
Title=Fading To Death
Artist=Amissa Anima
Album=Anamnesa
Tracknumber=6
Year=2019
Genre=Black Metal

[/more]

Register
(9) 1968_janeart, artscald, craP_cillA, EvilPiet, Korpse, Olethros, robertho777, stone88, VALERY,
Yesterday, 15:50:48 Misplaced Cadaver - Rabid Dismemberment [ep] (2019)


*Artist: Misplaced Cadaver
*Album: Rabid Dismemberment [ep]
*Year: 2019
*Genre: Goregrind
*Country: United States
*Format: mp3@CBR320kbps
*Size: 16MB

Tracklist:
01. Lobectomy 01:05
02. Meat Vehicle 00:46
03. Liquified 01:36
04. Billing For Drains 00:39
05. Vomiting Exoskeletons 01:31
06. Osteoclastogenesis 00:41
07. Sublimating Organs 00:39
******************************
Total playing time: 6:57



[more=Technical info]
Input File: 02. MEAT VEHICLE.mp3
Channels : 1
Sample Rate : 44100
Precision : 16-bit
Duration : 00:00:46.37 = 2044873 samples = 3477.68 CDDA sectors
File Size : 1.92M
Bit Rate : 331k
Sample Encoding: MPEG audio (layer I, II or III)
Comments :
Title=MEAT VEHICLE
Artist=MISPLACED CADAVER
Album=RABID DISMEMBERMENT
Tracknumber=2
Year=2019

[/more]

Register
(1) Герб,
Yesterday, 15:33:57 Berkowitz - World Gone To Shit (2018)


*Artist: Berkowitz
*Album: World Gone To Shit
*Year: 2018
*Genre: Goregrind
*Country: United States
*Format: mp3@CBR320kbps
*Size: 31MB

Tracklist:
01. Pallor Mortis 01:24
02. Anesthesia Awareness 00:46
03. Ball-Cutter 00:35
04. 42 Pine 00:38
05. Body Integrity Identity Disorder 01:29
06. Munging 01:30
07. Propofol 01:44
08. Carrion Fleshlight 01:00
09. Ambulophobia 00:40
10. Adipocere 01:16
11. Bifurcation 00:49
12. Hyocine 00:58
******************************
Total playing time: 12:49





[more=Technical info]
Input File: 02. Anesthesia Awareness.mp3
Channels : 2
Sample Rate : 44100
Precision : 16-bit
Duration : 00:00:46.37 = 2044873 samples = 3477.68 CDDA sectors
File Size : 2.00M
Bit Rate : 344k
Sample Encoding: MPEG audio (layer I, II or III)
Comments :
Title=Anesthesia Awareness
Artist=Berkowitz
Album=World Gone to Shit
Tracknumber=2
Year=2018
Discnumber=1

[/more]

Register
(4) artscald, Olethros, zotyo1975, Герб,
Yesterday, 15:23:32 Crush The Altar - Abhorrent Oblation [ep] (2019)


*Artist: Crush The Altar
*Album: Abhorrent Oblation [ep]
*Year: 2019
*Genre: Death Metal
*Country: United States
*Format: mp3@CBR320kbps
*Size: 40MB

Tracklist:
01. See Mortality 04:37
02. Demonizing the Ancient Lore 06:32
03. Discastery Ruin 04:39
******************************
Total playing time: 15:48

[more=Technical info]
Input File: 02. Demonizing the Ancient Lore.mp3
Channels : 2
Sample Rate : 44100
Precision : 16-bit
Duration : 00:06:32.15 = 17293771 samples = 29411.2 CDDA sectors
File Size : 16.9M
Bit Rate : 344k
Sample Encoding: MPEG audio (layer I, II or III)
Comments :
Title=Demonizing the Ancient Lore
Artist=Crush the Altar
Album=Abhorrent Oblation
Tracknumber=2/3
Year=2019

[/more]

Register
(5) artscald, METALHUNTER, Olethros, VALERY, Герб,
Yesterday, 15:14:26 Crafting The Conspiracy - The Cosmic Key, Pt. 1 [ep] (2019)


*Artist: Crafting The Conspiracy
*Album: The Cosmic Key, Pt. 1 [ep]
*Year: 2019
*Genre: Deathcore
*Country: United States
*Format: mp3@CBR320kbps
*Size: 61MB

Tracklist:
01. Lament of a Forgotten Race 04:01
02. The Traveler 03:10
03. Dimension Door 04:01
04. Embodied Isolation 03:32
05. The Carrier 03:40
06. Within the Labyrinth 08:02
******************************
Total playing time: 26:26





[more=Technical info]
Input File: 02. The Traveler (feat. Ben Duerr).mp3
Channels : 2
Sample Rate : 44100
Precision : 16-bit
Duration : 00:03:10.42 = 8397522 samples = 14281.5 CDDA sectors
File Size : 7.69M
Bit Rate : 323k
Sample Encoding: MPEG audio (layer I, II or III)
Comments :
Title=The Traveler (feat. Ben Duerr)
Artist=Crafting the Conspiracy
Album=The Cosmic Key, Pt. 1
Tracknumber=2
Year=2019
Discnumber=1

[/more]

Register
(5) artscald, Olethros, Ostinato, respect, VALERY,
Yesterday, 15:05:37 MMune - Staring Down The Falls (2019)


*Artist: MMune
*Album: Staring Down The Falls
*Year: 2019
*Genre: Progressive Metal
*Country: United States
*Format: mp3@CBR320kbps
*Size: 68MB

Tracklist:
01. Listen 04:39
02. The Void 03:37
03. Bubbles (feat. Brett Fairchild) 02:46
04. F41.1 01:11
05. Dysfunction (feat. Jake Jones) 02:56
06. Questioning Fate 03:20
07. Caffeine 03:45
08. Time Will Tell 03:05
09. Nervous 04:07
******************************
Total playing time: 29:26



[more=Technical info]
Input File: 02. The Void.mp3
Channels : 2
Sample Rate : 44100
Precision : 16-bit
Duration : 00:03:37.43 = 9588751 samples = 16307.4 CDDA sectors
File Size : 8.78M
Bit Rate : 323k
Sample Encoding: MPEG audio (layer I, II or III)
Comments :
Title=The Void
Artist=Mmune
Album=Staring Down the Falls
Tracknumber=2
Year=2019
Discnumber=1

[/more]

Register
(4) ace73pq, artscald, metala, Rover,
Yesterday, 14:54:39 The Biscuit Merchant - Ongaku (2019)


*Artist: The Biscuit Merchant
*Album: Ongaku
*Year: 2019
*Genre: Progressive Death Metal
*Country: United States
*Format: mp3@CBR320kbps
*Size: 136MB

Tracklist:
01. Quiet 05:53
02. Illusions of Innocence 05:07
03. Guide My Soul 05:21
04. The Price of Freedom 07:08
05. Hyperloop 06:36
06. Unholy Agitator 07:09
07. Heat Death 09:11
08. The Answer 05:13
09. Reach for the Sky 07:49
******************************
Total playing time: 59:27




[more=Technical info]
Input File: 02. Illusions of Innocence.mp3
Channels : 2
Sample Rate : 44100
Precision : 16-bit
Duration : 00:05:07.59 = 13564499 samples = 23068.9 CDDA sectors
File Size : 12.3M
Bit Rate : 321k
Sample Encoding: MPEG audio (layer I, II or III)
Comments :
Title=Illusions of Innocence
Artist=The Biscuit Merchant
Album=Ongaku
Tracknumber=2
Year=2019
Discnumber=1

[/more]

Register
(4) artscald, Niknne, Olethros, VALERY,

1307 Pages V   1 2 3 > » 
- Lo-Fi Version Support form
Copyrights and abuse reports form
Time is now: 20th March 2019 - 22:37:44