Welcome Guest ( Log In | Register )

История благодарностей участнику necroscum ::: Спасибо сказали: 422709 раз(а)
Дата поста: В теме: За сообщение: Спасибо сказали:
Aug 6 2020, 14:31:46 Oneiric Celephaïs - The Obscure Sibyl [ep] (2020)


*Artist: Oneiric Celephaïs
*Album: The Obscure Sibyl [ep]
*Year: 2020
*Genre: Technical Death Metal
*Country: Italy
*Format: mp3@CBR320kbps
*Size: 54MB

Tracklist:
01. The Eldritch Dark 01:00
02. The Aeon of Death 07:31
03. From Beyond 04:25
04. Vǫluspá 12:16
******************************
Total playing time: 25:12





[more=Technical info]
Input File: 02. The Aeon of Death.mp3
Channels : 2
Sample Rate : 44100
Precision : 16-bit
Duration : 00:07:30.72 = 19876664 samples = 33803.9 CDDA sectors
File Size : 18.1M
Bit Rate : 322k
Sample Encoding: MPEG audio (layer I, II or III)
Comments :
Title=The Aeon of Death
Artist=Oneiric Celephaïs
Album=The Obscure Sibyl
Tracknumber=02
Year=2020
Genre=Metal
Discnumber=1/1

[/more]

Register
(10) after21allD, chipsgott, infiltrator, Mares, metala, Olethros, Rosen, VALERY, yuratroll, Нигилист,
Aug 6 2020, 14:17:17 Terminal Nation - Holocene Extinction (2020)


*Artist: Terminal Nation
*Album: Holocene Extinction
*Year: 2020
*Genre: Death Metal/Grindcore/Punk
*Country: United States
*Format: mp3@CBR320kbps
*Size: 79MB

Tracklist:
01. Cognitive Dissonance 02:58
02. Arsenic Earth 01:55
03. Holocene Extinction 02:43
04. Master Plan 01:51
05. Revenge 02:56
06. Thirst To Burn 00:30
07. Orange Bottle Prison 03:21
08. Leather Envy 01:18
09. Expired Utopia 04:22
10. Death For Profit 03:13
11. Caskets of the Poor 01:38
12. Disciple of Deceit 03:21
13. Age of Turmoil 04:22
******************************
Total playing time: 34:28




[more=Technical info]
Input File: 02. Arsenic Earth.mp3
Channels : 2
Sample Rate : 44100
Precision : 16-bit
Duration : 00:01:55.23 = 5081687 samples = 8642.32 CDDA sectors
File Size : 4.61M
Bit Rate : 320k
Sample Encoding: MPEG audio (layer I, II or III)
Comments :
Title=Arsenic Earth
Artist=Terminal Nation
Album=Holocene Extinction
Tracknumber=02/13
Year=2020
Discnumber=1/1

[/more]

Register
(18) alikkon, andreikun, atavist, BandR75, Bitchkiller, caro, DarkHorde, gongshow, infiltrator, jollo, lardmonger, Leshiy666, Oath19, Occultas, Olethros, Rosen, sludge666, Yorker,
Aug 6 2020, 14:06:36 Ovnev - Transpiration (2020)


*Artist: Ovnev
*Album: Transpiration
*Year: 2020
*Genre: Atmospheric Black Metal
*Country: United States
*Format: mp3@CBR320kbps
*Size: 104MB

Tracklist:
01. Eons of Origin
02. Elemental Ascension
03. Transpiration
04. Ridges of Dispersion
05. Oxygenation
******************************
Total playing time: 45:18





[more=Technical info]
Input File: 02 Elemental Ascension.mp3
Channels : 2
Sample Rate : 44100
Precision : 16-bit
Duration : 00:08:38.59 = 22869599 samples = 38893.9 CDDA sectors
File Size : 21.3M
Bit Rate : 328k
Sample Encoding: MPEG audio (layer I, II or III)
Comments :
Title=Elemental Ascension
Artist=Ovnev
Album=Transpiration
Tracknumber=2/5
Year=2020-20-20
Genre=Rock
Discnumber=1/1

[/more]

Register
(15) 1968_janeart, Druidir, grimoir, infiltrator, kim666, Maximvs, Olethros, Olrak, Ostinato, randumbum, sergsazan, SilentNidhogg, stub888, VALERY, vasiljev_sergej,
Aug 6 2020, 13:29:33 Sorcerer - Dire Prophecy (2020)


*Artist: Sorcerer
*Album: Dire Prophecy
*Year: 2020
*Genre: Power Metal
*Country: Argentina
*Format: mp3@CBR320kbps
*Size: 92MB

Tracklist:
01. Down into the Netherworld 01:06
02. Cosmic Ice 04:11
03. Theater of Delusion 05:29
04. One with the Universe 04:28
05. Within the Woods 05:01
06. Strange and Twisted Gods 03:54
07. Of Deities and Wrath 05:24
08. Of Deities and Wrath 04:53
09. Winged Savior 04:29
10. The Bleak Ebbs of Hell 04:00
******************************
Total playing time: 42:55




[more=Technical info]
Input File: 02. Cosmic Ice.mp3
Channels : 2
Sample Rate : 44100
Precision : 16-bit
Duration : 00:04:11.50 = 11091018 samples = 18862.3 CDDA sectors
File Size : 10.2M
Bit Rate : 325k
Sample Encoding: MPEG audio (layer I, II or III)
Comments :
Title=Cosmic Ice
Artist=Sorcerer
Album=Dire Prophecy
Tracknumber=2/10
Year=2020
Discnumber=1/1

[/more]

Register
(12) aviacademy, boby9052, Herrant, HMHamster, infiltrator, metala, Olethros, postal67, Rosen, sergsazan, stumpheavyrock, Сварог Барг,
Aug 6 2020, 13:19:19 Orbit Culture - Nija (2020)


*Artist: Orbit Culture
*Album: Nija
*Year: 2020
*Genre: Death/Groove Metal
*Country: Sweden
*Format: mp3@CBR320kbps
*Size: 104MB

Tracklist:
01. At the Front 03:08
02. North Star of Nija 05:14
03. Day of the Cloud 04:57
04. Behold 05:13
05. Open Eye 04:36
06. Mirrorslave 04:58
07. Nensha 05:49
08. Rebirth 05:48
09. The Shadowing 04:26
10. Set Us Free 01:15
******************************
Total playing time: 45:24






[more=Technical info]
Input File: 2. North Star of Nija.mp3
Channels : 2
Sample Rate : 44100
Precision : 16-bit
Duration : 00:05:14.22 = 13857014 samples = 23566.4 CDDA sectors
File Size : 12.6M
Bit Rate : 320k
Sample Encoding: MPEG audio (layer I, II or III)
Comments :
Title=North Star of Nija
Artist=Orbit Culture
Album=Nija
Tracknumber=02/10
Year=2020-20-20
Discnumber=1/1

[/more]

Register
(14) ALEXSATHANAS, BandR75, chipsgott, dalek, emperor90, infiltrator, jollo, Jorn777, Olethros, Rosen, Slam91, stumpheavyrock, VALERY, zerger,
Aug 6 2020, 12:28:32 Batushka - Raskol [ep] (2020)


*Artist: Batushka
*Album: Raskol [ep]
*Year: 2020
*Genre: Black Metal
*Country: Poland
*Format: mp3@CBR320kbps
*Size: 69MB

Tracklist:
01. Irmos I 04:49
02. Irmos II 05:54
03. Irmos III 06:45
04. Irmos IV 07:39
05. Irmos V 05:23
******************************
Total playing time: 30:30





[more=Technical info]
Input File: 2. IRMOS II.mp3
Channels : 2
Sample Rate : 44100
Precision : 16-bit
Duration : 00:05:54.61 = 15638081 samples = 26595.4 CDDA sectors
File Size : 14.2M
Bit Rate : 320k
Sample Encoding: MPEG audio (layer I, II or III)
Comments :
Title=IRMOS II
Artist=Batushka
Album="RASKOL"
Tracknumber=02/05
Year=2020-20-20
Discnumber=1/1

[/more]

Register
(63) ALEXSATHANAS, alikkon, Alpha_Prime, Aresson, Black Cat, caro, cenzored, cesar, Daale, Demonologist, dermarsoran, djsema4, Femto, fylopaloma, gena, Golodomor, grimoir, HMHamster, infiltrator, infozahist, kim666, kostja, lafuma, Lux, M8R8K, marilin, Maximvs, Metalass, nadin85, nekrokilldozer, nemx, Nerevar, obituarydark, Olethros, Paradayz, rabindranad, rammmirez, randumbum, Rarog, recber, robertho777, Rosen, RUSP73, Sanctus, sarcophagus, satanist666, sergsazan, smes, soulskinner681, supremo, TeamatSE, thenecromancer, Tino, toly1917, trabantfan, Unscarted, VALERY, varlam4, vasiljev_sergej, vov7609, V_H_H_V, yuratroll, Сварог Барг,
Aug 6 2020, 12:07:14 Selenseas - The Outer Limits (2020)


*Artist: Selenseas
*Album: The Outer Limits
*Year: 2020
*Genre: Power Metal
*Country: Russian Federation
*Format: mp3@CBR320kbps
*Size: 131MB

Tracklist:
01. Intro 00:54
02. Hope 04:34
03. Frigate 05:10
04. Time 04:28
05. Asgard 04:40
06. The Revenge of the Ifrit 06:01
07. Dante 05:42
08. The Mirror 04:15
09. The Flame of Dawn 03:33
10. The Milky Way 04:15
11. The Outer Limits 04:30
12. The Mirror (Radio Edit) (Bonus Track) 03:13
13. The Milky Way (Alternative Version) (Bonus Track) 04:06
******************************
Total playing time: 55:21




Preview 4


[more=Technical info]
Input File: 02 - Hope.mp3
Channels : 2
Sample Rate : 44100
Precision : 16-bit
Duration : 00:04:33.62 = 12066818 samples = 20521.8 CDDA sectors
File Size : 11.0M
Bit Rate : 322k
Sample Encoding: MPEG audio (layer I, II or III)
Comments :
Title=Hope
Artist=Selenseas
Album=The Outer Limits
Tracknumber=2
Year=2020
Discnumber=1

[/more]

Register
(15) ace73pq, aviacademy, boby9052, DenisKov, gwar, Herrant, HMHamster, infiltrator, metala, Olethros, Rosen, Rover, satanist666, talismanFS, Сварог Барг,
Aug 6 2020, 11:56:58 Avatar - Hunter Gatherer (2020)


*Artist: Avatar
*Album: Hunter Gatherer
*Year: 2020
*Genre: Avant-Garde Death/Groove Metal
*Country: Sweden
*Format: mp3@CBR320kbps
*Size: 89MB

Tracklist:
01. Silence In The Age of Apes 04:21
02. Colossus 04:01
03. A Secret Door 06:06
04. God of Sick Dreams 03:57
05. Scream Until You Wake 04:10
06. Child 05:33
07. Justice 04:41
08. Gun 04:31
09. When All But Force Has Failed 02:48
10. Wormhole 05:20
******************************
Total playing time: 45:28







[more=Technical info]
Input File: 02 Colossus.mp3
Channels : 2
Sample Rate : 44100
Precision : 16-bit
Duration : 00:04:01.71 = 10659455 samples = 18128.3 CDDA sectors
File Size : 9.66M
Bit Rate : 320k
Sample Encoding: MPEG audio (layer I, II or III)
Comments :
Title=Colossus
Artist=Avatar
Album=Hunter Gatherer
Tracknumber=2
Year=2020
Genre=Metal

[/more]

Register
(22) alikkon, carla667, caro, chipsgott, Femto, infiltrator, kaldun_85, let4ikmiha, lucifix, metala, Olethros, Paradayz, Reverend, Rosen, SaintVitus, smes, StabWound, stumpheavyrock, VALERY, yuratroll, zerger, скептик,
Aug 5 2020, 13:26:56 Betrayer - Beneath The Realm Of Consciousness [ep] (2011)


*Artist: Betrayer
*Album: Beneath The Realm Of Consciousness [ep]
*Year: 2011
*Genre: Deathcore/Math Metal
*Country: United States
*Format: mp3@CBR320kbps
*Size: 65MB

Tracklist:
01. Indoctri(nation) 00:37
02. Trance(formation) 04:32
03. Oblivion 05:06
04. Useless 05:51
05. Clarity 02:04
06. Solace (Feat. Konnor Koch Of Corruptor) 05:49
07. Beneath The Realm Of Consciousness 04:0
******************************
Total playing time: 23:59







[more=Technical info]
Input File: 02_betrayer-trance(formation).mp3
Channels : 2
Sample Rate : 44100
Precision : 16-bit
Duration : 00:04:32.84 = 12032376 samples = 20463.2 CDDA sectors
File Size : 10.9M
Bit Rate : 320k
Sample Encoding: MPEG audio (layer I, II or III)
Comments :
Title=Trance(Formation)
Artist=Betrayer
Album=Beneath the Realm of Consciousness
Tracknumber=2/7
Year=2012
Genre=Metal

[/more]

Register
(3) infiltrator, Olethros, Rosen,
Aug 5 2020, 13:09:50 Anciients - Snakebeard [ep] (2011)


*Artist: Anciients
*Album: Snakebeard [ep]
*Year: 2011
*Genre: Extreme Progressive Metal
*Country: Canada
*Format: mp3@CBR320kbps
*Size: 33MB

Tracklist:
01. Humanist 07:26
02. Built to Die 06:07
******************************
Total playing time: 13:33






[more=Technical info]
Input File: 02. Built To Die.mp3
Channels : 2
Sample Rate : 44100
Precision : 16-bit
Duration : 00:06:03.73 = 16040317 samples = 27279.5 CDDA sectors
File Size : 15.5M
Bit Rate : 340k
Sample Encoding: MPEG audio (layer I, II or III)
Comments :
Title=Built To Die
Artist=Anciients
Album=00a - Snakebeard EP
Tracknumber=2/2
Year=2011
Genre=Alt. Metal
Discnumber=1/1

[/more]

Register
(7) chipsgott, csgmnk, infiltrator, Olethros, Rosen, VALERY, yuratroll,
Aug 4 2020, 13:24:06 Perky Macabre - Empath [ep] (2020)


*Artist: Perky Macabre
*Album: Empath [ep]
*Year: 2020
*Genre: Grindcore
*Country: United States
*Format: mp3@CBR320kbps
*Size: 7MB

Tracklist:
01. Purple 01:00
02. Dazzled 00:37
03. Burrr 00:22
04. Rummikub 01:01
******************************
Total playing time: 3:00



[more=Technical info]
Input File: 02. Dazzled.mp3
Channels : 2
Sample Rate : 44100
Precision : 16-bit
Duration : 00:00:37.15 = 1638227 samples = 2786.1 CDDA sectors
File Size : 1.56M
Bit Rate : 337k
Sample Encoding: MPEG audio (layer I, II or III)
Comments :
Title=Dazzled
Artist=Perky Macabre
Album=Empath
Tracknumber=2
Year=2020

[/more]

Register
(3) infiltrator, Olethros, Rosen,
Aug 3 2020, 12:59:32 Gorified - It's Not Fear That Tears You'll Apart... It's Us [compilation] (2020)


*Artist: Gorified
*Album: It's Not Fear That Tears You'll Apart... It's Us [compilation]
*Year: 2020
*Genre: Brutal Death Metal/Goregrind
*Country: India
*Format: mp3@CBR320kbps
*Size: 117MB

Tracklist:
01. Autopsy Devourment 01:39
02. Bubbly Jism Melting Ovarian Tumours 02:00
03. Engorged The Disfigured 03:03
04. Vulgar Display Of Genital Flatulence 02:17
05. Obliteration Quandary 03:33
06. Orgasmic Xysma Exploding From Shit Caked Tract 01:50
07. Fetish Necrophilia 03:36
08. Gargling On Gastrointestinal Juices 03:45
09. Ruptured Within Seconds 02:14
10. Bizarre Experiment On Gynecrology 01:27
11. Autopsy Devourment 00:56
12. Obliteration Quandary 03:14
13. Gorified 01:02
14. Removal Of The Foetus 05:04
15. Engorged The Disfigured 02:42
16. Fetish Necrophilia 03:40
******************************
Total playing time: 42:02





[more=Technical info]
Input File: 02. Bubbly Jism Melting Ovarian Tumours.mp3
Channels : 2
Sample Rate : 44100
Precision : 16-bit
Duration : 00:02:00.70 = 5322650 samples = 9052.13 CDDA sectors
File Size : 5.96M
Bit Rate : 395k
Sample Encoding: MPEG audio (layer I, II or III)
Comments :
Title=Bubbly Jism Melting Ovarian Tumours
Artist=Gorified
Album=It's Not Fear That Tears You'll Apart... It's Us
Tracknumber=2
Year=2020
Genre=Brutal Death/Goregrind

[/more]

Register
(5) 555, infiltrator, Olethros, Rosen, supremo,
Jul 31 2020, 13:22:42 Ænigmatum - Adorned In Wrath [demo] (2020)


*Artist: Ænigmatum
*Album: Adorned In Wrath [demo]
*Year: 2020
*Genre: Black/Death Metal
*Country: United States
*Format: mp3@CBR320kbps
*Size: 29MB

Tracklist:
01. Despot of Amorphic Dominions 06:33
02. Disenthralled 05:33
******************************
Total playing time: 12:06





[more=Technical info]
Input File: 02. Disenthralled.mp3
Channels : 2
Sample Rate : 44100
Precision : 16-bit
Duration : 00:05:33.08 = 14688916 samples = 24981.1 CDDA sectors
File Size : 13.7M
Bit Rate : 328k
Sample Encoding: MPEG audio (layer I, II or III)
Comments :
Title=Disenthralled
Artist=Ænigmatum
Album=Adorned in Wrath
Tracknumber=02
Year=2020

[/more]

Register
(16) Bzth, chipsgott, El_Chibo, grimoir, infiltrator, Mares, Olethros, Ostinato, randumbum, Rosen, SilentNidhogg, uncolored, VALERY, vasiljev_sergej, Wail, wanderer73,
Jul 30 2020, 14:06:19 Draconis - Anthems For An Eternal Battle (2020)


*Artist: Draconis
*Album: Anthems For An Eternal Battle
*Year: 2020
*Genre: Death Metal
*Country: Argentina
*Format: mp3@CBR320kbps
*Size: 83MB

Tracklist:
01. Anthems for an Eternal Battle 02:31
02. Puppetes Who Ignore Their Maters 03:09
03. Inner Quest 04:53
04. My Last Journey 02:51
05. Shadows of Emptyness 05:01
06. Remember the Unremembering 02:49
07. Ship of Illusions 04:18
08. Traitors of Everyday 02:35
09. Lost Angel 03:28
10. Falling into Darkness 04:02
******************************
Total playing time: 35:37





[more=Technical info]
Input File: 02 - Puppets Who Ignore Their Masters.mp3
Channels : 2
Sample Rate : 44100
Precision : 16-bit
Duration : 00:03:09.08 = 8338604 samples = 14181.3 CDDA sectors
File Size : 7.78M
Bit Rate : 329k
Sample Encoding: MPEG audio (layer I, II or III)
Comments :
Title=Puppets Who Ignore Their Masters
Artist=Draconis
Album=Anthems for an Eternal Battles
Tracknumber=2
Year=2020

[/more]

Register
(11) 555, AlexHellhammer1602, atavist, infiltrator, jollo, judaz, Olethros, Rosen, suseka, VALERY, WX419,
Jul 30 2020, 13:48:54 Resin Tomb - Resin Tomb [ep] (2020)


*Artist: Resin Tomb
*Album: Resin Tomb [ep]
*Year: 2020
*Genre: Death Metal/Grindcore
*Country: Australia
*Format: mp3@CBR320kbps
*Size: 42MB

Tracklist:
01. Abrogate 01:53
02. Penance 03:02
03. Surfacing 03:59
04. Prostrated 01:35
05. Bestial 05:16
******************************
Total playing time: 15:45





[more=Technical info]
Input File: 02. Penance.mp3
Channels : 2
Sample Rate : 44100
Precision : 16-bit
Duration : 00:00:00.18 = 8026 samples = 13.6497 CDDA sectors
File Size : 7.41M
Bit Rate : 326M
Sample Encoding: MPEG audio (layer I, II or III)
Comments :
Title=Penance
Artist=Resin Tomb
Album=Resin Tomb
Tracknumber=2
Year=2020
Genre=Black
Discnumber=1

[/more]

Register
(6) grimoir, infiltrator, marilin, Olethros, Rosen, sludge666,
Jul 30 2020, 13:36:45 Kiniro Mosaic - On The Verge Of Death (2020)


*Artist: Kiniro Mosaic
*Album: On The Verge Of Death
*Year: 2020
*Genre: Brutal Death Metal
*Country: Taiwan
*Format: mp3@CBR320kbps
*Size: 65MB

Tracklist:
01. Hollow Death 03:03
02. Devour Her 02:52
03. Slow Death 03:11
04. Corpse Explosion 03:45
05. Dying of the Rhythm 03:10
06. Endless Death 04:31
07. Kingdom of the Dead 02:25
08. On the Verge of Death 03:40
******************************
Total playing time: 26:37





[more=Technical info]
Input File: Kiniro Mosaic - On The Verge Of Death - 02 Devour Her.mp3
Channels : 2
Sample Rate : 44100
Precision : 16-bit
Duration : 00:02:52.71 = 7616291 samples = 12952.9 CDDA sectors
File Size : 7.01M
Bit Rate : 325k
Sample Encoding: MPEG audio (layer I, II or III)
Comments :
Title=Devour Her
Artist=Kiniro Mosaic
Album=On The Verge Of Death
Tracknumber=2
Year=2020

[/more]

Register
(7) aa144aa, atavist, infiltrator, jollo, Olethros, Rosen, supremo,
Jul 30 2020, 13:18:31 Catharist - Eternal Ekur (2020)


*Artist: Catharist
*Album: Eternal Ekur
*Year: 2020
*Genre: Melodic Death Metal
*Country: United Kingdom
*Format: mp3@CBR320kbps
*Size: 69MB

Tracklist:
01. Wisdom Magic Incantation
02. Epic of Anzu
03. Obsidian Night
04. Bestower of Kingship
05. The Gatekeeper
06. Tarzan Boy (Instrumental Version)
******************************
Total playing time: 30:01





[more=Technical info]
Input File: 02 - Epic of Anzu.mp3
Channels : 2
Sample Rate : 44100
Precision : 16-bit
Duration : 00:07:44.98 = 20505574 samples = 34873.4 CDDA sectors
File Size : 18.8M
Bit Rate : 323k
Sample Encoding: MPEG audio (layer I, II or III)
Comments :
Title=Epic of Anzu
Artist=Catharist
Album=Eternal Ekur
Tracknumber=2
Year=2020

[/more]

Register
(14) BugEyes, chipsgott, DenisKov, gwynnbleid, Jorn777, Olethros, Phlebotomized, randumbum, Rosen, satanist666, sergsazan, suseka, VALERY, zhol,
Jul 30 2020, 13:05:11 Imperial Triumphant - Alphaville (2020)


*Artist: Imperial Triumphant
*Album: Alphaville
*Year: 2020
*Genre: Avant-Garde/Technical Black/Death Metal
*Country: United States
*Format: mp3@CBR320kbps
*Size: 140MB

Tracklist:
01. Rotted Futures 05:59
02. Excelsior 05:52
03. City Swine 06:56
04. Atomic Age 08:43
05. Transmission to Mercury 08:10
06. Alphaville 06:41
07. The Greater Good 07:22
08. Experiment (Voivod cover) (Bonus Track) 04:48
09. Happy Home (The Residents cover) (Bonus Track) 04:48
******************************
Total playing time: 59:19




[more=Technical info]
Input File: 02. Excelsior.mp3
Channels : 2
Sample Rate : 44100
Precision : 16-bit
Duration : 00:05:52.31 = 15536871 samples = 26423.2 CDDA sectors
File Size : 14.2M
Bit Rate : 322k
Sample Encoding: MPEG audio (layer I, II or III)
Comments :
Title=Excelsior
Artist=Imperial Triumphant
Album=Alphaville (Limited Edition)
Tracknumber=2
Year=2020
Discnumber=1

[/more]

Register
(52) 555, acerbus, ahp, alikkon, andreikun, atavist, Black Cat, BladeOvDarkness, caro, Cyrci, El_Chibo, Evilded, Fallen Soul, Fryz, fuoco, garmonbozia, gena, grimoir, Guy_, Infidel, infiltrator, insufferable, Irimias, judaz, kvetak, mardak666, marilin, metala, Metalass, mirotvorets, MMMMM, Moonshtook, multizwilling, nemx, Olethros, Orgasmik, pahail, Phlebotomized, rammstein888, randumbum, Requiescat, ripper33, Rosen, Swastika, VALERY, Vladimir, wtk.412, Xor, xska, yuratroll, ZambuL, Луч,
Jul 30 2020, 12:50:40 Alcatrazz - Born Innocent (2020)


*Artist: Alcatrazz
*Album: Born Innocent
*Year: 2020
*Genre: Heavy Metal/Shred
*Country: United States
*Format: mp3@CBR320kbps
*Size: 132MB

Tracklist:
01. Born Innocent 03:06
02. Polar Bear 04:35
03. Finn McCool 04:21
04. We Still Remember 04:02
05. London 1666 04:59
06. Dirty like the City 03:48
07. I Am the King 05:29
08. Something That I Am Missing 04:36
09. Paper Flags 04:00
10. The Wound Is Open 03:48
11. Body Beautiful 04:59
12. Warth Lane 06:15
13. For Tony 03:59
******************************
Total playing time: 57:57





[more=Technical info]
Input File: 2. Polar Bear.mp3
Channels : 2
Sample Rate : 44100
Precision : 16-bit
Duration : 00:04:35.01 = 12127765 samples = 20625.5 CDDA sectors
File Size : 11.0M
Bit Rate : 320k
Sample Encoding: MPEG audio (layer I, II or III)
Comments :
Title=Polar Bear
Artist=Alcatrazz
Album=Born Innocent
Tracknumber=02
Year=2020-20-20
Discnumber=1

[/more]

Register
(20) aviacademy, boby9052, canadaspaceman, dimitriusk, grimoir, henknegatief, Herrant, infiltrator, Jorn777, Kasper969, masterpain666, metala, Olethros, rabindranad, Rhoads, Rosen, Rover, SaintVitus, Shub, stumpheavyrock,
Jul 30 2020, 12:31:36 Drouth - Excerpts From A Dread Liturgy (2020)


*Artist: Drouth
*Album: Excerpts From A Dread Liturgy
*Year: 2020
*Genre: Black/Death Metal
*Country: United States
*Format: mp3@CBR320kbps
*Size: 93MB

Tracklist:
01. A Drowning in Sunlight 08:30
02. An Apiarist 09:51
03. O Time Thy Pyramids - An Unfinished Nightmare 07:23
04. A Repulsive Act Shrouded in Flesh 08:13
05. A Crown of Asphodels 06:28
******************************
Total playing time: 40:25





[more=Technical info]
Input File: 2. An Apiarist.mp3
Channels : 2
Sample Rate : 44100
Precision : 16-bit
Duration : 00:00:00.59 = 26063 samples = 44.3248 CDDA sectors
File Size : 23.8M
Bit Rate : 322M
Sample Encoding: MPEG audio (layer I, II or III)
Comments :
Title=An Apiarist
Artist=Drouth
Album=Excerpts from a Dread Liturgy
Tracknumber=2
Year=2020
Genre=Black Metal
Discnumber=1

[/more]

Register
(19) alikkon, atavist, El_Chibo, gena, infiltrator, metala, multizwilling, Olethros, randumbum, Rosen, SilentNidhogg, snorr, supremo, suseka, VALERY, vasiljev_sergej, Vladimir, Wail, yuratroll,
Jul 30 2020, 12:21:18 Damnation Angels - Fiber Of Our Being (2020)


*Artist: Damnation Angels
*Album: Fiber Of Our Being
*Year: 2020
*Genre: Symphonic Power Metal
*Country: United Kingdom
*Format: mp3@CBR320kbps
*Size: 128MB

Tracklist:
01. More than Human 04:43
02. Railrunner 06:35
03. Fiber of Our Being 04:58
04. Our Last Light 04:13
05. Rewrite the Future 05:40
06. Fractured Amygdala 05:21
07. Greed and Extinction 06:34
08. Remnants of a Dying Star 12:59
09. A Sum of Our Parts 04:16
******************************
Total playing time: 55:19





[more=Technical info]
Input File: 2 - Railrunner.mp3
Channels : 2
Sample Rate : 44100
Precision : 16-bit
Duration : 00:06:35.20 = 17428408 samples = 29640.1 CDDA sectors
File Size : 15.9M
Bit Rate : 321k
Sample Encoding: MPEG audio (layer I, II or III)
Comments :
Title=Railrunner
Artist=Damnation Angels
Album=Fiber of Our Being
Tracknumber=2
Year=2020
Genre=Metal
Discnumber=1

[/more]

Register
(24) ace73pq, after21allD, Alpha_Prime, BladeOvDarkness, boby9052, Cartman223, cen0byte666, chipsgott, csgmnk, grimoir, gwar, gwynnbleid, Herrant, infiltrator, Jorn777, metala, Olethros, Phlebotomized, Rosen, Rover, sadmannn, talismanFS, zhol, Сварог Барг,
Jul 30 2020, 12:11:09 Pale Horseman - For Dust Thou Art (2020)


*Artist: Pale Horseman
*Album: For Dust Thou Art
*Year: 2020
*Genre: Sludge/Doom Metal
*Country: United States
*Format: mp3@CBR320kbps
*Size: 86MB

Tracklist:
01. Tundra 04:38
02. Scourge 06:16
03. Archangel 06:03
04. Disenchanter 06:37
05. Vagrants 06:27
06. Cydonia 07:39
******************************
Total playing time: 37:40







[more=Technical info]
Input File: 2. Scourge.mp3
Channels : 2
Sample Rate : 44100
Precision : 16-bit
Duration : 00:00:00.38 = 16538 samples = 28.1259 CDDA sectors
File Size : 15.1M
Bit Rate : 323M
Sample Encoding: MPEG audio (layer I, II or III)
Comments :
Title=Scourge
Artist=Pale Horseman
Album=For Dust Thou Art
Tracknumber=2
Year=2020
Genre=Sludge Metal
Discnumber=1

[/more]

Register
(10) HMHamster, infiltrator, marilin, Olethros, randumbum, robertho777, Rosen, stub888, stumpheavyrock, VALERY,
Jul 30 2020, 11:59:24 Dimitriy Pavlovskiy's Powersquad - Mysterizer (2020)


*Artist: Dimitriy Pavlovskiy's Powersquad
*Album: Mysterizer
*Year: 2020
*Genre: Neoclassical/Progressive Metal
*Country: Ukraine
*Format: mp3@CBR320kbps
*Size: 108MB

Tracklist:
01. Book Of Myths 05:09
02. Fill The Sky 03:24
03. Return From The Grey 06:56
04. Vivid 06:17
05. Endless Sun 04:02
06. Sunset 04:04
07. Mysterizer 07:37
08. To The Land 05:18
09. Gardens Of Eden 04:26
******************************
Total playing time: 47:13







[more=Technical info]
Input File: 2 - Fill the Sky.mp3
Channels : 2
Sample Rate : 44100
Precision : 16-bit
Duration : 00:03:24.39 = 9013731 samples = 15329.5 CDDA sectors
File Size : 8.21M
Bit Rate : 321k
Sample Encoding: MPEG audio (layer I, II or III)
Comments :
Title=Fill the Sky
Artist=Dimitriy Pavlovskiy's Powersquad
Album=Mysterizer
Tracknumber=2
Year=2020
Genre=Metal
Discnumber=1

[/more]

Register
(11) after21allD, aviacademy, gwar, gwynnbleid, Herrant, infiltrator, metala, Olethros, Rosen, Rover, Сварог Барг,
Jul 30 2020, 11:23:21 Katalepsy - Terra Mortuus Est (2020)


*Artist: Katalepsy
*Album: Terra Mortuus Est
*Year: 2020
*Genre: Technical Brutal Death/Groove Metal
*Country: Russian Federation
*Format: mp3@CBR320kbps
*Size: 114MB

Tracklist:
201. Closer than Flesh 03:55
202. Night of Eden 03:57
203. Those Who Rot the Souls 04:30
204. The God of Grave 05:05
205. Terra Mortuus Est 03:53
206. Kings of the Underground 03:15
207. Deep Down Madness 04:25
208. No Rest No Peace 04:26
209. From the Dark Past (They Come) 04:59
10. Neonomicon III 05:02
11. Land of Million Crosses 06:39
******************************
Total playing time: 50:06



Preview 3



[more=Technical info]
Input File: 02. Night Of Eden.mp3
Channels : 2
Sample Rate : 44100
Precision : 16-bit
Duration : 00:00:00.24 = 10452 samples = 17.7755 CDDA sectors
File Size : 9.62M
Bit Rate : 325M
Sample Encoding: MPEG audio (layer I, II or III)
Comments :
Title=Night Of Eden
Artist=Katalepsy
Album=Terra Mortuus Est
Tracknumber=2
Year=2020
Genre=Brutal Death Metal
Discnumber=1

[/more]

Register
(54) 6666666, 666BlackDeath, aa144aa, akym, ALEXSATHANAS, alikkon, Aresson, atavist, BandR75, BERZERK, Black Cat, cesar, chipsgott, Femto, Foneg, gav-gafi, Indamage, infiltrator, insufferable, Joey_73, jollo, judaz, KVRT, martintrue, metala, Metalass, Moonshtook, multizwilling, Occultas, Olethros, Orgasmik, respect, ripper33, Rosen, SAPOGi, satanist666, scorn33, sepultura39, serjred, SS2998, StabWound, supremo, Thiarnan, tim47, troll_swamp, VALERY, Victim of fate, Vladimir, WX419, Xor, yuratroll, Луч, Сатаник, Язва,
Jul 28 2020, 12:59:17 Barron - Light In The Dark (2020)


*Artist: Barron
*Album: Light In The Dark
*Year: 2020
*Genre: Death/Thrash Metal
*Country: United States
*Format: mp3@CBR320kbps
*Size: 148MB

Tracklist:
01. What I Am 06:43
02. Broken 05:41
03. In A Hole 05:24
04. The Old Familiar Feeling 06:48
05. Blackout 05:08
06. Cold and Dark 09:01
07. Remember Why 11:12
08. Light In The Dark 14:21
******************************
Total playing time: 1:04:18



[more=Technical info]
Input File: 02. Broken.mp3
Channels : 2
Sample Rate : 44100
Precision : 16-bit
Duration : 00:05:41.73 = 15070117 samples = 25629.5 CDDA sectors
File Size : 13.8M
Bit Rate : 322k
Sample Encoding: MPEG audio (layer I, II or III)
Comments :
Title=Broken
Artist=Barron
Album=Light In The Dark
Tracknumber=2
Year=2020

[/more]

Register
(10) after21allD, atavist, boby9052, infiltrator, jollo, metala, Olethros, Rosen, sergsazan, stumpheavyrock,

1425 Pages V   1 2 3 > » 
- Lo-Fi Version Support form
Copyrights and abuse reports form
Time is now: 11th August 2020 - 11:10:18