Welcome Guest ( Log In | Register )

История благодарностей участнику necroscum ::: Спасибо сказали: 393490 раз(а)
Дата поста: В теме: За сообщение: Спасибо сказали:
Yesterday, 10:31:13 Kringa - Feast Upon The Gleam (2019)


*Artist: Kringa
*Album: Feast Upon The Gleam
*Year: 2019
*Genre: Black Metal
*Country: Austria
*Format: mp3@CBR320kbps
*Size: 102MB

Tracklist:
01. As Kaleidoscope Patterns Arise 06:21
02. Unwind the Gap Anew 06:54
03. To Sleep in Vermin Velvet 06:31
04. Eroding Passage 08:24
05. Cloak of Unbound Fears 07:42
06. Eyers of Stone 09:06
******************************
Total playing time: 44:58






[more=Technical info]
Input File: 02 Unwind The Gap Anew!.mp3
Channels : 2
Sample Rate : 48000
Precision : 16-bit
Duration : 00:06:54.15 = 19879056 samples ~ 31061 CDDA sectors
File Size : 16.6M
Bit Rate : 322k
Sample Encoding: MPEG audio (layer I, II or III)
Comments :
Title=Unwind The Gap Anew!
Artist=KRINGA
Album=Feast Upon The Gleam
Tracknumber=2
Year=2019
Genre=Black Metal

[/more]

Register
(33) -=Hass=-, 1968_janeart, acerbus, Ainar, ambre, artscald, atavist, Beazth, Borderline1991, Brann, FlammenTod666, gena, Henmik, infiltrator, judaz, kauyumari, kim666, Korpse, Moonshtook, nadin85, Olethros, Ostinato, robertho777, sethurius, stub888, suseka, tim47, tormoz, VALERY, vasiljev_sergej, wtk.412, xska, Абигор,
Yesterday, 01:13:44 Liquid Viscera - Dead Body Obsession (2019)


*Artist: Liquid Viscera
*Album: Dead Body Obsession
*Year: 2019
*Genre: Death Metal
*Country: United States
*Format: mp3@CBR320kbps
*Size: 64MB

Tracklist:
01. Wounds Filled With Larvae
02. Sepsis
03. Mortuary Perversions
04. Corpse Molestation
05. Bloated Corpses
06. Intestines
07. Murder Fiend
08. Spewing Blood
09. Swarmed With Maggots
10. Knife Wounds
11. Buried Bodies
12. Charred Corpses
13. Eviscerated
14. Dismemberment
15. Never Found
******************************
Total playing time: 24:33



[more=Technical info]
Input File: 02. Sepsis.mp3
Channels : 2
Sample Rate : 44100
Precision : 16-bit
Duration : 00:01:06.04 = 2912540 samples = 4953.3 CDDA sectors
File Size : 3.10M
Bit Rate : 375k
Sample Encoding: MPEG audio (layer I, II or III)
Comments :
Title=Sepsis
Artist=Liquid Viscera
Album=Dead Body Obsession
Tracknumber=2
Year=2019
Genre=Death/Grind

[/more]

Register
(5) andreikun, Olethros, VALERY, wanderer73, Герб,
Yesterday, 01:10:49 Wardomized - ...A Heated Exchange (2019)


*Artist: Wardomized
*Album: ...A Heated Exchange
*Year: 2019
*Genre: Death Metal
*Country: United Kingdom
*Format: mp3@CBR320kbps
*Size: 60MB

Tracklist:
01. Organ Exploit
02. Learn to Sneak
03. World War What?
04. Transitional Breakdown
05. Rebirthed
06. What Is Your Life Worth?
07. Give Me Hope, Give Me Water
08. Benji's Surprise
******************************
Total playing time: 24:07



[more=Technical info]
Input File: 02. Learn to Sneak.mp3
Channels : 2
Sample Rate : 44100
Precision : 16-bit
Duration : 00:02:34.34 = 6806526 samples = 11575.7 CDDA sectors
File Size : 6.75M
Bit Rate : 350k
Sample Encoding: MPEG audio (layer I, II or III)
Comments :
Title=Learn to Sneak
Artist=Wardomized
Album=...A Heated Exchange
Tracknumber=2/8
Year=2019

[/more]

Register
(5) andreikun, artscald, Olethros, VALERY, Герб,
Aug 21 2019, 14:08:57 Beguiler - A Conscious Decline [ep] (2019)


*Artist: Beguiler
*Album: A Conscious Decline [ep]
*Year: 2019
*Genre: Deathcore
*Country: Canada
*Format: mp3@CBR320kbps
*Size: 37MB

Tracklist:
01. Fragile Mind 03:34
02. Crutch 03:13
03. Black Cloud 04:13
04. Cynical 04:56
******************************
Total playing time: 15:56




[more=Technical info]
Input File: 02. Crutch.mp3
Channels : 2
Sample Rate : 44100
Precision : 16-bit
Duration : 00:03:13.32 = 8525412 samples = 14499 CDDA sectors
File Size : 7.88M
Bit Rate : 326k
Sample Encoding: MPEG audio (layer I, II or III)
Comments :
Title=Crutch
Artist=Beguiler
Album=A Conscious Decline
Tracknumber=2/4
Year=2019
Genre=9
Discnumber=1/1

[/more]

Register
(3) artscald, Olethros, Rosen,
Aug 21 2019, 13:54:57 Beguiler - Born Under A Bad Sign [ep] (2018)


*Artist: Beguiler
*Album: Born Under A Bad Sign [ep]
*Year: 2018
*Genre: Deathcore
*Country: Canada
*Format: mp3@CBR320kbps
*Size: 47MB

Tracklist:
01. Exponential Decay 04:24
02. Born Under A Bad Sign 03:05
03. The Underlying Truth 05:02
04. A Fractured Soul 04:03
05. A Bitter Reality 04:01
******************************
Total playing time: 20:35





[more=Technical info]
Input File: 02. Born Under a Bad Sign.mp3
Channels : 2
Sample Rate : 44100
Precision : 16-bit
Duration : 00:03:06.11 = 8207407 samples = 13958.2 CDDA sectors
File Size : 7.57M
Bit Rate : 325k
Sample Encoding: MPEG audio (layer I, II or III)
Comments :
Title=Born Under a Bad Sign
Artist=Beguiler
Album=Born Under a Bad Sign
Tracknumber=2
Year=2018
Discnumber=1

[/more]

Register
(3) artscald, Olethros, Rosen,
Aug 21 2019, 13:42:19 Medussa - La Palabra Ha Muerto (2018)


*Artist: Medussa
*Album: La Palabra Ha Muerto
*Year: 2018
*Genre: Post-Metal
*Country: Spain
*Format: mp3@CBR320kbps
*Size: 124MB

Tracklist:
01. Ethos, Pathos, Logos 06:33
02. Quirales 05:24
03. Era Discordia 06:13
04. In Verba 06:13
05. Memoria 03:35
06. La Palabra Ha Muerto 05:43
07. Continentes 13:07
08. Ataraxia 06:54
******************************
Total playing time: 53:42





[more=Technical info]
Input File: 02. Quirales.mp3
Channels : 2
Sample Rate : 44100
Precision : 16-bit
Duration : 00:05:24.25 = 14299513 samples = 24318.9 CDDA sectors
File Size : 13.2M
Bit Rate : 325k
Sample Encoding: MPEG audio (layer I, II or III)
Comments :
Title=Quirales
Artist=Medussa
Album=La Palabra Ha Muerto
Tracknumber=2/8
Year=2018
Discnumber=1/1

[/more]

Register
(3) artscald, Olethros, Rosen,
Aug 21 2019, 13:21:43 Dwell In Doom - Witches (2019)


*Artist: Dwell In Doom
*Album: Witches
*Year: 2019
*Genre: Gothic Metal
*Country: Sweden
*Format: mp3@CBR320kbps
*Size: 90MB

Tracklist:
01. Unfaithful Bitch 03:22
02. Let Them Burn 03:16
03. Embrace the Fire 04:48
04. Witches 04:17
05. Die Free 04:16
06. No God Remains 03:38
07. You Are My Enemy 04:15
08. All Mortals Die 03:22
09. Howl 03:51
10. Heart of Sin 03:59
******************************
Total playing time: 39:04





[more=Technical info]
Input File: 02. Let Them Burn.mp3
Channels : 2
Sample Rate : 44100
Precision : 16-bit
Duration : 00:03:16.25 = 8654405 samples = 14718.4 CDDA sectors
File Size : 7.90M
Bit Rate : 322k
Sample Encoding: MPEG audio (layer I, II or III)
Comments :
Title=Let Them Burn
Artist=Dwell in Doom
Album=Witches
Tracknumber=2/10
Year=2019
Genre=9
Discnumber=1/1

[/more]

Register
(10) chipsgott, dulak, fffrost, metalwoman, Olethros, Rosen, Rover, sergsazan, tOmV, VALERY,
Aug 21 2019, 13:07:18 Saecculum - Snowglobe (2019)


*Artist: Saecculum
*Album: Snowglobe
*Year: 2019
*Genre: Heavy Metal
*Country: United States
*Format: mp3@CBR320kbps
*Size: 92MB

Tracklist:
01. God Rest Ye Merry Gentelmen
02. Joy to the World
03. Angels We Have Heard on High
04. Winter Saecculum
05. Snowglobe
06. Adeste Fideles
07. Stille Nacht
08. Hark How All the Welkin Rings
09. Gold, Incense and Myrrh
10. Noel
11. Cantique De Noel
12. Merry Christmas!
******************************
Total playing time: 40:02



[more=Technical info]
Input File: 08. Hark How All the Welkin Rings.mp3
Channels : 2
Sample Rate : 44100
Precision : 16-bit
Duration : 00:03:45.50 = 9944726 samples = 16912.8 CDDA sectors
File Size : 9.12M
Bit Rate : 324k
Sample Encoding: MPEG audio (layer I, II or III)
Comments :
Title=Hark How All the Welkin Rings
Artist=Saecculum
Album=Snowglobe
Tracknumber=8/12
Year=2019
Genre=17
Discnumber=1/1

[/more]

Register
(4) Olethros, Rosen, Rover, vir2al,
Aug 21 2019, 04:21:22 Blentkills - Black Rose Poetry (2019)


*Artist: Blentkills
*Album: Black Rose Poetry
*Year: 2019
*Genre: Power Metal
*Country: Bulgaria
*Format: mp3@CBR320kbps
*Size: 67MB

Tracklist:
01. Black Rose Poetry
02. Second
03. Falling Leaf
04. My Redemption
05. On the Edge
06. Sixth
07. A New World Reforged
******************************
Total playing time: 28:49

[more=Technical info]
Input File: 02. Second.mp3
Channels : 2
Sample Rate : 44100
Precision : 16-bit
Duration : 00:03:11.05 = 8425173 samples = 14328.5 CDDA sectors
File Size : 7.82M
Bit Rate : 327k
Sample Encoding: MPEG audio (layer I, II or III)
Comments :
Title=Second
Artist=Blentkills
Album=Black Rose Poetry
Tracknumber=2/7
Year=2019

[/more]

Register
(10) artscald, aviacademy, Herrant, metala, metalwoman, Olethros, Rosen, Rover, sergsazan, vir2al,
Aug 20 2019, 14:18:51 Vilegloom - Distrust [ep] (2019)


*Artist: Vilegloom
*Album: Distrust [ep]
*Year: 2019
*Genre: Deathcore
*Country: United States
*Format: mp3@CBR320kbps
*Size: 40MB

Tracklist:
01. Abysmal 01:53
02. Distrust 03:33
03. Worthless 03:49
04. Father 02:26
05. Lotus 03:00
06. Smoak 02:44
******************************
Total playing time: 17:25



[more=Technical info]
Input File: 03. Worthless.mp3
Channels : 2
Sample Rate : 44100
Precision : 16-bit
Duration : 00:03:49.68 = 10129064 samples = 17226.3 CDDA sectors
File Size : 9.24M
Bit Rate : 322k
Sample Encoding: MPEG audio (layer I, II or III)
Comments :
Title=Worthless
Artist=Vilegloom
Album=Distrust
Tracknumber=3/6
Year=2019
Genre=9
Discnumber=1/1

[/more]

Register
(5) artscald, maochen, Olethros, respect, Rosen,
Aug 20 2019, 14:06:08 Opulent Construct - Soon They Will Surface [ep] (2019)


*Artist: Opulent Construct
*Album: Soon They Will Surface [ep]
*Year: 2019
*Genre: Deathcore/Djent
*Country: United States
*Format: mp3@CBR320kbps
*Size: 51MB

Tracklist:
01. The Fall of Zenith
02. As She Drowns
03. Phantom
04. Gaia
05. Anchors
06. Mind Machine
******************************
Total playing time: 22:05




[more=Technical info]
Input File: 02. As She Drowns.mp3
Channels : 2
Sample Rate : 44100
Precision : 16-bit
Duration : 00:03:42.66 = 9819174 samples = 16699.3 CDDA sectors
File Size : 9.02M
Bit Rate : 324k
Sample Encoding: MPEG audio (layer I, II or III)
Comments :
Title=As She Drowns
Artist=Opulent Construct
Album=Soon They Will Surface EP
Tracknumber=2/6
Year=2019
Genre=9
Discnumber=1/1

[/more]

Register
(4) artscald, maochen, Olethros, Rosen,
Aug 20 2019, 13:57:59 Echoes Of Angels - Mysterapostles (2019)


*Artist: Echoes Of Angels
*Album: Mysterapostles
*Year: 2019
*Genre: Symphonic Metal
*Country: United States
*Format: mp3@CBR320kbps
*Size: 69MB

Tracklist:
01. Mystery 01:13
02. The War of Tolerance 05:06
03. Devouring Fire 04:55
04. Tica's Roar 03:57
05. Tonight 04:32
06. Ultimate Victory 05:02
07. Rise Again 05:10
******************************
Total playing time: 29:55




[more=Technical info]
Input File: 06. Ultimate Victory.mp3
Channels : 2
Sample Rate : 44100
Precision : 16-bit
Duration : 00:05:02.26 = 13329490 samples = 22669.2 CDDA sectors
File Size : 12.2M
Bit Rate : 322k
Sample Encoding: MPEG audio (layer I, II or III)
Comments :
Title=Ultimate Victory
Artist=Echoes Of Angels
Album=Mysterapostles
Tracknumber=6/7
Year=2019
Genre=9
Discnumber=1/1

[/more]

Register
(11) Alpha_Prime, artscald, aviacademy, gwar, Herrant, Olethros, Rosen, Rover, valera2010, VALERY, Сварог Барг,
Aug 20 2019, 13:10:26 Destaize - Le Décadent (2019)


*Artist: Destaize
*Album: Le Décadent
*Year: 2019
*Genre: Progressive Metal
*Country: Ukraine
*Format: mp3@CBR320kbps
*Size: 155MB

Tracklist:
01. Anima 01:10
02. Пыль (Са) 04:49
03. Девиант 04:27
04. Сатириазис 05:47
05. Дориан 05:07
06. Моя Аменция 06:40
07. Неприкаянный 04:54
08. Exsistentia 05:28
09. Пресный 04:18
10. Аромат 06:05
11. Симметрия 05:43
12. Энзим 04:52
13. Нигде 06:11
14. Animus 01:42
******************************
Total playing time: 1:07:13





[more=Technical info]
Input File: 08. Exsistentia.mp3
Channels : 2
Sample Rate : 44100
Precision : 16-bit
Duration : 00:05:28.82 = 14501138 samples = 24661.8 CDDA sectors
File Size : 13.3M
Bit Rate : 323k
Sample Encoding: MPEG audio (layer I, II or III)
Comments :
Title=Exsistentia
Artist=Destaize
Album=Le décadent
Tracknumber=8/14
Year=2019
Genre=Alternative/Indie
Discnumber=1/1

[/more]

Register
(4) artscald, aviacademy, Olethros, Rosen,
Aug 20 2019, 12:46:14 Utility Provider - All In Time (2019)


*Artist: Utility Provider
*Album: All In Time
*Year: 2019
*Genre: Progressive Metal
*Country: Canada
*Format: mp3@CBR320kbps
*Size: 70MB

Tracklist:
01. All In Time
02. Even Stroke
03. Fold
04. Fraser Heights
05. Grease Trap
06. Icicles
07. If I Only Cared
******************************
Total playing time: 30:27



[more=Technical info]
Input File: 02 - Even Stroke.mp3
Channels : 2
Sample Rate : 44100
Precision : 16-bit
Duration : 00:03:06.42 = 8221254 samples = 13981.7 CDDA sectors
File Size : 7.69M
Bit Rate : 330k
Sample Encoding: MPEG audio (layer I, II or III)
Comments :
Title=Even Stroke
Artist=Utility Provider
Album=All in Time
Tracknumber=2
Year=2019
Genre=Metal
Discnumber=1

[/more]

Register
(10) artscald, aviacademy, chipsgott, dimitriusk, metala, Ogidni, Olethros, Rosen, Rover, Yarri,
Aug 19 2019, 14:58:16 Septic Felch - Performing Goretopsy (2019)


*Artist: Septic Felch
*Album: Performing Goretopsy
*Year: 2019
*Genre: Goregrind
*Country: United States
*Format: mp3@CBR320kbps
*Size: 60MB

Tracklist:
01. Odor Of Orcure
02. Goocifier
03. Blow Your Mind
04. Copper Popper
05. Tex Mex And Kotex
06. Rock 'Em, Dock 'Em Brobots
07. Fetal Juice On Your Chin
08. Crunchies In The Carpet
09. By The Grace Of Gore
10. Holy Roller Coaster
11. B8n458n
12. Dungeons And Drag Queens
13. Bust The Crust
14. Wacumm Cleaner
15. Hurtin For A Squirtin
16. Douche Canoe
17. Frottage Cheese
18. Penetrating The Secret Cervix
19. Crumple Foreskin
20. Hand Churned Man Butter
21. Of Whats To Cum
******************************
Total playing time: 26:08



[more=Technical info]
Input File: 07. Fetal Juice On Your Chin.mp3
Channels : 2
Sample Rate : 44100
Precision : 16-bit
Duration : 00:01:17.41 = 3413913 samples = 5805.97 CDDA sectors
File Size : 3.13M
Bit Rate : 324k
Sample Encoding: MPEG audio (layer I, II or III)
Comments :
Title=Fetal Juice On Your Chin
Artist=Septic Felch
Album=Performing Goretopsy
Tracknumber=7
Year=2019
Genre=Goregrind

[/more]

Register
(7) artscald, infiltrator, jollo, Olethros, Rosen, RotAnus, VALERY,
Aug 19 2019, 14:25:30 Sit At My Right Hand - Minutes Remain Of Time (2009)


*Artist: Sit At My Right Hand
*Album: Minutes Remain Of Time
*Year: 2009
*Genre: Experimental Death Metal
*Country: United States
*Format: mp3@CBR320kbps
*Size: 75MB

Tracklist:
01. The Underlying Reason 02:54
02. Butterflies 02:31
03. Calisto 01:56
04. It Is Not Too Late 02:34
05. I Am Undone 02:53
06. The Temple 01:40
07. Rotting Mutilation 02:21
08. Keep the Faith 03:02
09. Minutes Remain of Time 06:01
10. Strewn Across the Battlefield 03:47
11. Shall Comfort Be Given 02:23
******************************
Total playing time: 32:02






[more=Technical info]
Input File: 10. Strewn Across the Battlefield.mp3
Channels : 2
Sample Rate : 44100
Precision : 16-bit
Duration : 00:03:46.70 = 9997602 samples = 17002.7 CDDA sectors
File Size : 9.19M
Bit Rate : 324k
Sample Encoding: MPEG audio (layer I, II or III)
Comments :
Title=Strewn Across the Battlefield
Artist=Sit At My Right Hand
Album=Minutes Remain of Time
Tracknumber=10
Year=2009

[/more]

Register
(8) artscald, chipsgott, infiltrator, kimkayoung, Olethros, Rosen, tamerz, VALERY,
Aug 19 2019, 13:59:26 Slugbeast - Beyond The Valley Of Human Flesh [ep] (2019)


*Artist: Slugbeast
*Album: Beyond The Valley Of Human Flesh [ep]
*Year: 2019
*Genre: Goregrind
*Country: Sweden
*Format: mp3@CBR320kbps
*Size: 40MB

Tracklist:
01. Eyeball Eruption 01:27
02. Tornado of Human Brains 01:18
03. Beyond the Valley of Human Flesh 01:23
04. Headless Eyes 01:49
05. Malevolent Monstrosity 01:07
06. Zombie Boneyard Bonanza 01:26
07. Beast Slug 02:16
08. Night of the Creeps 01:15
09. Boiled to Death 01:16
10. Frankenwhore 01:07
******************************
Total playing time: 14:24




[more=Technical info]
Input File: 02. Tornado of Human Brains.mp3
Channels : 2
Sample Rate : 44100
Precision : 16-bit
Duration : 00:01:18.58 = 3465510 samples = 5893.72 CDDA sectors
File Size : 3.68M
Bit Rate : 374k
Sample Encoding: MPEG audio (layer I, II or III)
Comments :
Title=Tornado of Human Brains
Artist=Slugbeast
Album=Beyond the Valley of Human Flesh
Tracknumber=02
Year=2019
Genre=Metal

[/more]

Register
(4) artscald, infiltrator, Olethros, Rosen,
Aug 19 2019, 13:38:14 In Autumnus - Scrupulosity (2019)


*Artist: In Autumnus
*Album: Scrupulosity
*Year: 2019
*Genre: Atmospheric Post-Black Metal
*Country: United Kingdom
*Format: mp3@CBR320kbps
*Size: 119MB

Tracklist:
01. Again 06:28
02. Walkabout 03:13
03. Scrupulosity 12:48
04. Trepid Glare 09:54
05. Put Pens to Word 06:44
06. The Animus Moon 13:07
******************************
Total playing time: 52:14





[more=Technical info]
Input File: 04. Trepid Glare.mp3
Channels : 2
Sample Rate : 44100
Precision : 16-bit
Duration : 00:09:54.58 = 26220934 samples = 44593.4 CDDA sectors
File Size : 23.9M
Bit Rate : 322k
Sample Encoding: MPEG audio (layer I, II or III)
Comments :
Title=Trepid Glare
Artist=In Autumnus
Album=Scrupulosity
Tracknumber=4
Year=2019

[/more]

Register
(11) 1968_janeart, artscald, infiltrator, kim666, Olethros, robertho777, Rosen, suseka, tamerz, VALERY, vasiljev_sergej,
Aug 19 2019, 06:45:48 Thessa - Duality (2019)


*Artist: Thessa
*Album: Duality
*Year: 2019
*Genre: Progressive Metal
*Country: France
*Format: mp3@CBR320kbps
*Size: 155MB

Tracklist:
01. Dead and Gone
02. The Horus Heresy
03. Forgotten
04. When You Hear Me Now (feat. Guillaume Chenin)
05. Hatred
06. Lucid
07. Lost Promises
08. Ascendancy
09. Shattered
10. When You Hear Me Now (feat. Ryan Mitchell & Guillaume Chenin)
11. When You Hear Me Now (Acoustic Demo)
12. Afterglow
******************************
Total playing time: 1:02:43



[more=Technical info]
Input File: 02. The Horus Heresy.mp3
Channels : 2
Sample Rate : 44100
Precision : 16-bit
Duration : 00:07:04.12 = 18703868 samples = 31809.3 CDDA sectors
File Size : 17.8M
Bit Rate : 337k
Sample Encoding: MPEG audio (layer I, II or III)
Comments :
Title=The Horus Heresy
Artist=Thessa
Album=Duality
Tracknumber=2/12
Year=2019

[/more]

Register
(11) artscald, dimitriusk, Herrant, infiltrator, metala, Olethros, Rosen, Rover, Shadowman, terron, Yarri,
Aug 19 2019, 06:43:35 Indenor - Humanidad Revancha (2019)


*Artist: Indenor
*Album: Humanidad Revancha
*Year: 2019
*Genre: Thrash Metal
*Country: Spain
*Format: mp3@CBR320kbps
*Size: 82MB

Tracklist:
01. Nuestra Igualdad
02. Pasado Pisado
03. Lo Que No Podemos Ver
04. Sin Pensar
05. Secuestro
06. Revancha
07. Vendetta Finale
08. Futura Tortura Del Enemigo
09. Tu Final
10. Nada Mas
******************************
Total playing time: 34:42



[more=Technical info]
Input File: 02. Pasado Pisado.mp3
Channels : 2
Sample Rate : 44100
Precision : 16-bit
Duration : 00:05:34.78 = 14763798 samples = 25108.5 CDDA sectors
File Size : 13.6M
Bit Rate : 325k
Sample Encoding: MPEG audio (layer I, II or III)
Comments :
Title=Pasado Pisado
Artist=Indenor
Album=Humanidad: Revancha
Tracknumber=2/10
Year=2019

[/more]

Register
(8) andreikun, artscald, boby9052, infiltrator, Olethros, Rosen, sergsazan, stumpheavyrock,
Aug 17 2019, 06:51:33 As The Palaces Burn - End´evour (2019)


*Artist: As The Palaces Burn
*Album: End´evour
*Year: 2019
*Genre: Heavy Metal
*Country: Brazil
*Format: mp3@CBR320kbps
*Size: 112MB

Tracklist:
01. Ritus Pacis
02. L.E.O.H.
03. The Devils Hand
04. Gonna Be Fall
05. I Tried
06. The Absence
07. The Passage
08. Arcanum
09. Incarnate
10. Face Your Hell
11. Turns to Black
12. Abigail
******************************
Total playing time: 53:37



[more=Technical info]
Input File: 02. L.E.O.H..mp3
Channels : 2
Sample Rate : 44100
Precision : 16-bit
Duration : 00:03:55.61 = 10390577 samples = 17671 CDDA sectors
File Size : 9.90M
Bit Rate : 336k
Sample Encoding: MPEG audio (layer I, II or III)
Comments :
Title=L.E.O.H.
Artist=As the Palaces Burn
Album=End?evour
Tracknumber=2/12
Year=2019

[/more]

Register
(11) artscald, aviacademy, infiltrator, metalwoman, Olethros, Rosen, Rover, sergsazan, stumpheavyrock, vir2al, Сварог Барг,
Aug 17 2019, 06:49:57 Ironia - Arrastrame A Tu Infierno (2019)


*Artist: Ironia
*Album: Arrastrame A Tu Infierno
*Year: 2019
*Genre: Heavy Metal
*Country: Argentina
*Format: mp3@CBR320kbps
*Size: 86MB

Tracklist:
01. Maldito
02. Arrastrame a Tu Infierno
03. Todos Los Errores De Mi Ser
04. Aferrandome
05. Lagrimas Del Ayer
06. Tu Reflejo
07. Epitafio
08. Quedate Aqui Para Siempre
******************************
Total playing time: 32:46

[more=Technical info]
Input File: 02. Arrastrame a Tu Infierno.mp3
Channels : 2
Sample Rate : 44100
Precision : 16-bit
Duration : 00:03:42.45 = 9809957 samples = 16683.6 CDDA sectors
File Size : 10.2M
Bit Rate : 367k
Sample Encoding: MPEG audio (layer I, II or III)
Comments :
Title=Arrastrame a Tu Infierno
Artist=Ironia
Album=Arrastrame a Tu Infierno
Tracknumber=2/8
Year=2019

[/more]

Register
(9) artscald, aviacademy, infiltrator, metalwoman, Olethros, Rosen, Rover, stumpheavyrock, Сварог Барг,
Aug 16 2019, 14:58:30 UnAnyOne - Life Has A Hateful Undertone [ep] (2019)


*Artist: UnAnyOne
*Album: Life Has A Hateful Undertone [ep]
*Year: 2019
*Genre: Thrash/Death/Groove Metal
*Country: Australia
*Format: mp3@CBR320kbps
*Size: 85MB

Tracklist:
01. For I Am (Intro) 00:58
02. All Oblivion 02:43
03. A Mindless Obsession 04:17
04. Hypocrisy in Motion 03:58
05. Sacrifice of Life / Ritual of Death 06:06
06. Staining the Blade 02:20
07. Your Punishment 04:02
08. Break the Chains of Belief Part 1 01:23
09. Break the Chains of Belief Part 2 06:25
10. Acts of Rage (Dew-Scented cover) 04:03
******************************
Total playing time: 36:15






[more=Technical info]
Input File: 02. All Oblivion.mp3
Channels : 2
Sample Rate : 44100
Precision : 16-bit
Duration : 00:02:43.20 = 7196900 samples = 12239.6 CDDA sectors
File Size : 6.75M
Bit Rate : 331k
Sample Encoding: MPEG audio (layer I, II or III)
Comments :
Title=All Oblivion
Artist=UnAnyOne
Album=Life Has A Hateful Undertone [EP]
Tracknumber=2
Year=2019

[/more]

Register
(5) artscald, Olethros, Rosen, stumpheavyrock, TeamatSE,
Aug 16 2019, 14:44:20 Krayenzeit - W.I.R - Wir, Ihr, Rock 'n Folk [ep] (2019)


*Artist: Krayenzeit
*Album: W.I.R - Wir, Ihr, Rock 'n Folk [ep]
*Year: 2019
*Genre: Medieval Folk Metal
*Country: Germany
*Format: mp3@CBR320kbps
*Size: 84MB

Tracklist:
01. Intro 00:41
02. W.I.R. 04:08
03. Die Stille 04:01
04. Leviathan 05:32
05. Hautnah 04:53
06. Regen und Sturm 03:41
07. Dornröschen (Piano Version) 04:42
08. Saitentänzer (Mondëna Quartet Version) 04:07
09. Eiskalte Sterne (L'âme Immortelle Remix) 04:06
10. Outro 00:47
******************************
Total playing time: 36:38



[more=Technical info]
Input File: 3 - Die Stille.mp3
Channels : 2
Sample Rate : 44100
Precision : 16-bit
Duration : 00:04:01.15 = 10634671 samples = 18086.2 CDDA sectors
File Size : 9.69M
Bit Rate : 321k
Sample Encoding: MPEG audio (layer I, II or III)
Comments :
Title=Die Stille
Artist=Krayenzeit
Album=W.I.R - Wir, Ihr, Rock 'n Folk
Tracknumber=3
Year=2019
Genre=Alternative/Rock/Hard Rock
Discnumber=1

[/more]

Register
(8) artscald, chipsgott, djsema4, gwar, Olethros, peppuzzo, Rosen, zhol,
Aug 16 2019, 14:35:07 Superterrestrial - The Void That Exists (2019)


*Artist: Superterrestrial
*Album: The Void That Exists
*Year: 2019
*Genre: Black Metal
*Country: United Kingdom
*Format: mp3@CBR320kbps
*Size: 95MB

Tracklist:
01. Cannibal Coronal Mass Ejections 05:21
02. Collapsar 05:07
03. Tidal Disruption Event 06:15
04. Bok Globule 04:39
05. Aphelion 05:19
06. Heliacal Rising 03:59
07. Moreton Wave 10:55
******************************
Total playing time: 41:35



[more=Technical info]
Input File: 02. Collapsar.mp3
Channels : 2
Sample Rate : 44100
Precision : 16-bit
Duration : 00:05:06.64 = 13522912 samples = 22998.1 CDDA sectors
File Size : 12.3M
Bit Rate : 322k
Sample Encoding: MPEG audio (layer I, II or III)
Comments :
Title=Collapsar
Artist=Superterrestrial
Album=The Void that Exists
Tracknumber=2
Year=2019

[/more]

Register
(22) 1968_janeart, artscald, atavist, blacky66, Evilded, Indamage, internalDahlia, judaz, kim666, Olethros, Ostinato, robertho777, Rosen, serach, SilentNidhogg, stub888, suseka, tim47, toly1917, VALERY, vasiljev_sergej, Волос,

1368 Pages V   1 2 3 > » 
- Lo-Fi Version Support form
Copyrights and abuse reports form
Time is now: 23rd August 2019 - 08:04:35