Welcome Guest ( Log In | Register )

История благодарностей участнику necroscum ::: Спасибо сказали: 440043 раз(а)
Дата поста: В теме: За сообщение: Спасибо сказали:
Dec 1 2021, 17:12:23 Ukronakh - Stonewounds (2021)


*Artist: Ukronakh
*Album: Stonewounds
*Year: 2021
*Genre: Atmospheric Black/Death Metal
*Country: Ukraine
*Format: mp3@CBR320kbps
*Size: 111MB

Tracklist:
1. Коли тіні блукають (As Shadows Wander) 09:19
2. Мова моя мохом поросла (My Speech Grew with Moss) 05:45
3. Де журба обіймається зі злістю (Where Sorrow Embraces Anger) 07:34
4. Подихом чорних небес (Breath of Black Sky) 06:58
5. Зорі поміж гілля (Stars Between Branches) 06:14
6. Мертвою тишою поміж курганами (By Dead Silence Between Mounds) 05:40
7. Він малював туманом гір (He Was Painting by the Highland Mist) 06:59
******************************
Total playing time: 48:29



Preview 2



[more=Extended info][youtube]hoJ9J4E3Z9Y[/youtube]
[youtube]w6c58MZrnpE[/youtube]
[youtube]nDYpZ9pMCbM[/youtube]
[youtube]WgyNCFECnOg[/youtube][/more]

[more=Technical info]
Input File: 02. Мова моя мохом поросла.mp3
Channels : 2
Sample Rate : 44100
Precision : 16-bit
Duration : 00:05:46.51 = 15281091 samples = 25988.2 CDDA sectors
File Size : 13.9M
Bit Rate : 320k
Sample Encoding: MPEG audio (layer I, II or III)
Comments :
Title=Мова моя мохом поросла
Artist=Ukronakh
Album=Stonewounds
Tracknumber=02
Year=2021

[/more]

Register
(22) aleon, AlexSmith, artscald, Black Cat, Branis, ent404, ErikGoth, GorAtheist, KKK1488, Marek, metala, Necromayhem, nemx, robertho777, rominow, sergsazan, stormhatt, terron, THROWER666, VALERY, varlam4, wreak,
Dec 1 2021, 16:58:25 Kaira - Время Тёмных (2021)


*Artist: Kaira
*Album: Время Тёмных
*Year: 2021
*Genre: Atmospheric Pagan Metal
*Country: Belarus
*Format: mp3@CBR320kbps
*Size: 132MB

Tracklist:
1. Реквием 07:15
2. Когда солнце было богом 06:46
3. Гой, Коляда 07:09
4. Ветры буйные 06:12
5. Белый дым 06:16
6. Ритуал 08:38
7. Ночь Сврога 06:46
8. Ох Ра 05:20
9. Поход на Темнолесье 01:56
******************************
Total playing time: 56:18




Preview 4


[more=Technical info]
Input File: 02-KAIRA - Когда Солнце было Богом.mp3
Channels : 2
Sample Rate : 44100
Precision : 16-bit
Duration : 00:06:46.97 = 17947421 samples = 30522.8 CDDA sectors
File Size : 16.9M
Bit Rate : 332k
Sample Encoding: MPEG audio (layer I, II or III)
Comments :
Title=Когда Солнце было Богом
Artist=KAIRA
Album=Время Тёмных
Tracknumber=02
Year=2021
Genre=Folk Metal

[/more]

Register
(12) aleon, Alpha_Prime, artscald, Bregon, metala, robertho777, stormhatt, unit731, VALERY, varlam4, wreak, Сварог Барг,
Dec 1 2021, 16:33:36 Iscuron - The Pursuit Of Unhappiness (2021)


*Artist: Iscuron
*Album: The Pursuit Of Unhappiness
*Year: 2021
*Genre: Symphonic/Atmospheric/Medieval Black Metal
*Country: Italy
*Format: mp3@CBR320kbps
*Size: 97MB

Tracklist:
01. This Fog Will Not Dispel 06:54
02. The Pursuit of Unhappiness 06:25
03. Europa 08:05
04. Village of the Evil Cult 06:49
05. The Monastery of Sorrow 08:09
06. The North Star No Longer Shines 05:32
******************************
Total playing time: 41:54


Preview 2



[more=Extended info]Exclusive for Metalarea.org[/more]

[more=Technical info]
Input File: 02. The Pursuit Of Unhappiness.mp3
Channels : 2
Sample Rate : 44100
Precision : 16-bit
Duration : 00:06:25.59 = 17004431 samples = 28919.1 CDDA sectors
File Size : 15.6M
Bit Rate : 323k
Sample Encoding: MPEG audio (layer I, II or III)
Comments :
Title=The Pursuit Of Unhappiness
Artist=Iscuron
Album=The Pursuit Of Unhappiness
Tracknumber=2
Year=2021

[/more]

Register
(11) aleon, AlexSmith, artscald, KorvinTru, metala, robertho777, sergsazan, varlam4, wreak, zhol, Сварог Барг,
Dec 1 2021, 14:44:04 Anarcheon - Stratusfear [ep] (2017)


*Artist: Anarcheon
*Album: Stratusfear [ep]
*Year: 2017
*Genre: Melodic Death Metal
*Country: Canada
*Format: mp3@CBR320kbps
*Size: 82MB

Tracklist:
01. Stratusfear 06:32
02. Kill Milk (Calcium Stab) 05:08
03. Scary Tale 05:53
04. Etherous Claws 05:17
05. Kissed A Girl (cover) 02:52
06. Kissed A Girl (Bonus Track-Outtakes) 09:55
******************************
Total playing time: 35:37


Preview 2




[more=Technical info]
Input File: 02. Kill Milk (Calcium Stab).mp3
Channels : 2
Sample Rate : 44100
Precision : 16-bit
Duration : 00:05:08.34 = 13597794 samples = 23125.5 CDDA sectors
File Size : 12.5M
Bit Rate : 324k
Sample Encoding: MPEG audio (layer I, II or III)
Comments :
Title=Kill Milk (Calcium Stab)
Artist=Anarcheon
Album=Stratusfear
Tracknumber=2
Year=2017

[/more]

Register
(8) artscald, Marek, sergsazan, stumpheavyrock, VALERY, varlam4, wreak, zhol,
Dec 1 2021, 14:28:06 Morbid Gorgeous Girl - Basket Of The Death [ep] (2021)


*Artist: Morbid Gorgeous Girl
*Album: Basket Of The Death [ep]
*Year: 2021
*Genre: Porno Goregrind
*Country: Costa Rica
*Format: mp3@CBR320kbps
*Size: 36MB

Tracklist:
1. Ero-Guro Manga Fantasy 01:00
2. Entrapment Mutilated Parts 02:27
3. 折り紙 Human 変形 03:39
4. Goregy Party 03:59
5. スーツケースの中の切断された芸者が地獄に向かって旅行する 04:29
******************************
Total playing time: 15:34




[more=Technical info]
Input File: 02. Entrapment Mutilated Parts.mp3
Channels : 2
Sample Rate : 44100
Precision : 16-bit
Duration : 00:02:27.10 = 6487242 samples = 11032.7 CDDA sectors
File Size : 6.06M
Bit Rate : 330k
Sample Encoding: MPEG audio (layer I, II or III)
Comments :
Title=Entrapment Mutilated Parts
Artist=Morbid Gorgeous Girl
Album=Basket Of The Death
Tracknumber=2
Year=2021

[/more]

Register
(1) kefka,
Dec 1 2021, 14:17:09 Meticulous Butchery - Induced Serotonergic Despoliation [ep] (2021)


*Artist: Meticulous Butchery
*Album: Induced Serotonergic Despoliation [ep]
*Year: 2021
*Genre: Experimental Brutal Death Metal
*Country: United States
*Format: mp3@CBR320kbps
*Size: 27MB

Tracklist:
1. Bludgeoned Sentience 02:59
2. Induced Serotonergic Despoliation 04:59
3. Gelatinous Rebirth 03:15
******************************
Total playing time: 11:13



[more=Technical info]
Input File: 03. Gelatinous Rebirth.mp3
Channels : 2
Sample Rate : 44100
Precision : 16-bit
Duration : 00:03:15.09 = 8603601 samples = 14632 CDDA sectors
File Size : 8.04M
Bit Rate : 330k
Sample Encoding: MPEG audio (layer I, II or III)
Comments :
Title=Gelatinous Rebirth
Artist=Meticulous Butchery
Album=Induced Serotonergic Despoliation
Tracknumber=3
Year=2021

[/more]

Register
(4) artscald, jared_wanted, Occultas, wreak,
Nov 30 2021, 17:21:07 Anal Bleeding - Bdsm Orgy With Daemonettes In Hell (2021)


*Artist: Anal Bleeding
*Album: Bdsm Orgy With Daemonettes In Hell
*Year: 2021
*Genre: Porno Goregrind
*Country: Russian Federation
*Format: mp3@CBR320kbps
*Size: 78MB

Tracklist:
01. Pussy Destruction (Intro) 00:11
02. Supreme Genital Goddess (Cock And Ball Torture Cover) 03:54
03. Your Mouth Is My Toilet 00:08
04. Wildbdsmsessionsexexpierence 01:00
05. Sperm Regurgitate 00:46
06. Femdomcockbondagehandjob 02:36
07. Slavebondagegirls 02:18
08. Tentaclescuntdestructionasphyxiawithwhorebitchdevil 03:25
09. Tittyslapperoffutanaridaemon 02:35
10. Bigtittytorture 01:54
11. Demoness Makes You Cock And Ball Torture And You Moan Like A Pig 00:42
12. Lover Of The Dead 01:54
13. Loli Slicer 03:13
14. Flood Of Sperm 00:42
15. Daemonictentaclespenetrationinwhorewetpussy 00:35
16. Blowjobdarkgoddess 01:15
17. Cock Bondage From Your Guts 02:04
18. Balls Torture By Succubus 03:50
19. BDSM Orgy With Daemonettes In Hell 00:36
20. Полон Дом Говна (Гражданская Оборона Grindcore Cover) 01:33
21. Final Shot (Outro) 00:11
******************************
Total playing time: 35:22

[more=Technical info]
Input File: 01. Pussy destruction (intro).mp3
Channels : 2
Sample Rate : 44100
Precision : 16-bit
Duration : 00:00:11.91 = 525319 samples = 893.4 CDDA sectors
File Size : 477k
Bit Rate : 320k
Sample Encoding: MPEG audio (layer I, II or III)
Comments :
Title=Pussy destruction (intro)
Artist=Anal bleeding
Year=2021

[/more]

Register
(11) A.L.Rapsod, Analien, andreikun, caro, dcatagua, jollo, kefka, lordsloth, rominow, varlam4, wreak,
Nov 30 2021, 16:36:52 Agony By Default - A Serenade For Eternity (2021)


*Artist: Agony By Default
*Album: A Serenade For Eternity
*Year: 2021
*Genre: Melodic Black Metal
*Country: United States
*Format: mp3@CBR320kbps
*Size: 110MB

Tracklist:
01. The Cleansing
02. Paradox of Tolerance (The Plague)
03. Leave Not One Alive
04. Dogma of the Arrogant
05. The Devil You Seek
06. All That Could Have Been
07. The Rising Tides
08. Serenity in Darkness
09. The Call of Time
******************************
Total playing time: 47:51




[more=Technical info]
Input File: 02 - Paradox of Tolerance (The Plague).mp3
Channels : 2
Sample Rate : 44100
Precision : 16-bit
Duration : 00:03:28.00 = 9172800 samples = 15600 CDDA sectors
File Size : 8.53M
Bit Rate : 328k
Sample Encoding: MPEG audio (layer I, II or III)
Comments :
Title=Paradox of Tolerance (The Plague)
Artist=Agony by Default
Album=A Serenade for Eternity
Tracknumber=2
Year=2021-12-01
Genre=Alternative
Discnumber=1

[/more]

Register
(19) AlexSmith, artscald, BugEyes, caro, dermarsoran, fr47, infozahist, Korpse, Marek, metala, Olrak, robertho777, sergsazan, suseka, VALERY, varlam4, wreak, yarrsuaa, zhol,
Nov 29 2021, 17:24:21 Hässlig - Guillotine (2021)


*Artist: Hässlig
*Album: Guillotine
*Year: 2021
*Genre: Black Metal/Punk
*Country: Spain
*Format: mp3@CBR320kbps
*Size: 45MB

Tracklist:
1. Nothing 02:40
2. Guillotine 01:36
3. Like Worms 02:41
4. Innocence 02:20
5. Starvation 01:01
6. Abuse 02:40
7. Leaving Marks 02:14
8. Among the Ruins 03:32
******************************
Total playing time: 18:44




[more=Technical info]
Input File: 03. Like Worms.mp3
Channels : 2
Sample Rate : 44100
Precision : 16-bit
Duration : 00:02:41.37 = 7116285 samples = 12102.5 CDDA sectors
File Size : 6.64M
Bit Rate : 329k
Sample Encoding: MPEG audio (layer I, II or III)
Comments :
Title=Like Worms
Artist=Hässlig
Album=Guillotine
Tracknumber=3
Year=2021

[/more]

Register
(15) artscald, Ash_1980, Carcharoth, caro, dan22, lordsloth, sludge666, stormhatt, supremo, suseka, VALERY, varlam4, Wail, wreak, дивин,
Nov 29 2021, 17:10:40 Avirtue - Lost Hope [ep] (2021)


*Artist: Avirtue
*Album: Lost Hope [ep]
*Year: 2021
*Genre: Progressive Metal
*Country: Ireland
*Format: mp3@CBR320kbps
*Size: 47MB

Tracklist:
01. Blanc 04:08
02. Unanswered 03:39
03. Alone 04:08
04. Fallen to Ash 05:09
05. Honest Living 03:19
******************************
Total playing time: 20:23


Preview 2


[more=Technical info]
Input File: 02 - Unanswered.mp3
Channels : 2
Sample Rate : 44100
Precision : 16-bit
Duration : 00:03:38.74 = 9646346 samples = 16405.4 CDDA sectors
File Size : 8.87M
Bit Rate : 325k
Sample Encoding: MPEG audio (layer I, II or III)
Comments :
Title=Unanswered
Artist=Avirtue
Album=Lost Hope
Tracknumber=2
Year=2021
Discnumber=1/1

[/more]

Register
(7) after21allD, artscald, caro, metala, sadmannn, varlam4, wreak,
Nov 29 2021, 17:00:55 Warcall - Dead End Pt. 2 [ep] (2021)


*Artist: Warcall
*Album: Dead End Pt. 2 [ep]
*Year: 2021
*Genre: Melodic Death Metal
*Country: Canada
*Format: mp3@CBR320kbps
*Size: 53MB

Tracklist:
01. Intoxicated 03:37
02. Black Amber 04:59
03. Off Road 04:04
04. Control Denied 03:37
05. Venom 06:13
******************************
Total playing time: 22:30







[more=Technical info]
Input File: 02 - Black Amber.mp3
Channels : 2
Sample Rate : 44100
Precision : 16-bit
Duration : 00:04:59.00 = 13185900 samples = 22425 CDDA sectors
File Size : 12.1M
Bit Rate : 325k
Sample Encoding: MPEG audio (layer I, II or III)
Comments :
Title=Black Amber
Artist=WARCALL
Album=Dead End, Pt. 2
Tracknumber=2
Year=2021-11-26
Genre=Alternative
Discnumber=1

[/more]

Register
(11) AHBAnep, akym, artscald, BugEyes, caro, csgmnk, Marek, sergsazan, VALERY, wreak, zhol,
Nov 29 2021, 16:49:09 Benothing - Temporal Bliss Surrealms [ep] (2021)


*Artist: Benothing
*Album: Temporal Bliss Surrealms [ep]
*Year: 2021
*Genre: Death Metal
*Country: Finland
*Format: mp3@CBR320kbps
*Size: 67MB

Tracklist:
01. State of Surreal Bliss 07:38
02. Engrossed Inside Compulsions 04:47
03. Absurd Malignancy Within (Sapiens Apoptosis) 05:50
04. Stasis Hexis 11:01
******************************
Total playing time: 29:16


Preview 2


[more=Technical info]
Input File: 02 - Engrossed Inside Compulsions.mp3
Channels : 2
Sample Rate : 44100
Precision : 16-bit
Duration : 00:04:47.00 = 12656700 samples = 21525 CDDA sectors
File Size : 11.6M
Bit Rate : 323k
Sample Encoding: MPEG audio (layer I, II or III)
Comments :
Title=Engrossed Inside Compulsions
Artist=Benothing
Album=Temporal Bliss Surrealms
Tracknumber=2
Year=2021-11-26
Genre=Alternative
Discnumber=1

[/more]

Register
(10) artscald, caro, madera, Marek, troll_swamp, VALERY, varlam4, wanderer73, WOLAND, wreak,
Nov 29 2021, 16:39:08 Anarcheon - Scary Tale [ep] (2021)


*Artist: Anarcheon
*Album: Scary Tale [ep]
*Year: 2021
*Genre: Melodic Death Metal
*Country: Canada
*Format: mp3@CBR320kbps
*Size: 37MB

Tracklist:
01. Translydrainya 04:29
02. Vlad To The Bone 05:12
03. Scary Tale 06:20
******************************
Total playing time: 16:01


Preview 2



[more=Technical info]
Input File: 02 - Vlad To The Bone.mp3
Channels : 2
Sample Rate : 44100
Precision : 16-bit
Duration : 00:05:12.31 = 13773047 samples = 23423.5 CDDA sectors
File Size : 12.7M
Bit Rate : 324k
Sample Encoding: MPEG audio (layer I, II or III)
Comments :
Title=Vlad To The Bone
Artist=Anarcheon
Album=Scary Tale
Tracknumber=2
Year=2021
Discnumber=1/1

[/more]

Register
(10) artscald, caro, csgmnk, Marek, sergsazan, VALERY, varlam4, wanderer73, wreak, zhol,
Nov 29 2021, 16:31:23 Castaway - Everflowing Past [ep] (2021)


*Artist: Castaway
*Album: Everflowing Past [ep]
*Year: 2021
*Genre: Progressive Metal
*Country: Slovakia
*Format: mp3@CBR320kbps
*Size: 70MB

Tracklist:
01. Fait Accompli MMXX 06:19
02. U.N.I. 04:26
03. This-Integration (Remix) 05:01
04. Counting The Stones (Remix) 05:16
05. Fallen (Single Edit) 09:07
******************************
Total playing time: 30:09




[more=Technical info]
Input File: 02 - U.N.I.mp3
Channels : 2
Sample Rate : 44100
Precision : 16-bit
Duration : 00:04:26.18 = 11738494 samples = 19963.4 CDDA sectors
File Size : 10.8M
Bit Rate : 324k
Sample Encoding: MPEG audio (layer I, II or III)
Comments :
Title=U.N.I.
Artist=Castaway
Album=Everflowing Past
Tracknumber=2
Year=2021
Discnumber=1/1

[/more]

Register
(6) after21allD, artscald, caro, csgmnk, Paradayz, wreak,
Nov 29 2021, 16:17:35 Scars Of Solitude - If These Walls Could Talk [ep] (2021)


*Artist: Scars Of Solitude
*Album: If These Walls Could Talk [ep]
*Year: 2021
*Genre: Melodic Heavy Metal
*Country: Finland
*Format: mp3@CBR320kbps
*Size: 51MB

Tracklist:
01. Dark Matter 03:42
02. Left on Read 03:20
03. No Riddance 02:49
04. If These Walls Could Talk 03:53
05. Lullaby of the Ill-Fated 02:58
06. Burden 05:11
******************************
Total playing time: 21:53


Preview 2




[more=Technical info]
Input File: 02 - Left on Read.mp3
Channels : 2
Sample Rate : 44100
Precision : 16-bit
Duration : 00:03:20.79 = 8854883 samples = 15059.3 CDDA sectors
File Size : 8.12M
Bit Rate : 324k
Sample Encoding: MPEG audio (layer I, II or III)
Comments :
Title=Left on Read
Artist=Scars of Solitude
Album=If These Walls Could Talk
Tracknumber=2
Year=2021
Discnumber=1/1

[/more]

Register
(11) after21allD, artscald, aviacademy, caro, csgmnk, gwar, infozahist, Marek, Rover, sergsazan, wreak,
Nov 29 2021, 15:13:55 Blind Summit - Hell And Heresy [ep] (2021)


*Artist: Blind Summit
*Album: Hell And Heresy [ep]
*Year: 2021
*Genre: Progressive Metal
*Country: United Kingdom
*Format: mp3@CBR320kbps
*Size: 61MB

Tracklist:
01. War Born 04:18
02. The Place I Feel Safe 04:28
03. Heresy 01:26
04. Like Water 05:06
05. I've Been To Hell and Here Is Worse 04:42
06. 303 03:04
07. Pontos 03:12
******************************
Total playing time: 26:16




[more=Technical info]
Input File: 02 - The Place I Feel Safe.mp3
Channels : 2
Sample Rate : 44100
Precision : 16-bit
Duration : 00:04:27.00 = 11774700 samples = 20025 CDDA sectors
File Size : 10.9M
Bit Rate : 325k
Sample Encoding: MPEG audio (layer I, II or III)
Comments :
Title=The Place I Feel Safe
Artist=Blind Summit
Album=Hell and Heresy
Tracknumber=2
Year=2021-11-26
Genre=Metal
Discnumber=1

[/more]

Register
(6) artscald, caro, csgmnk, metala, varlam4, wreak,
Nov 29 2021, 15:04:30 Sinister King - All Is Vanity [ep] (2021)


*Artist: Sinister King
*Album: All Is Vanity [ep]
*Year: 2021
*Genre: Melodic Heavy/Groove Metal
*Country: Norway
*Format: mp3@CBR320kbps
*Size: 63MB

Tracklist:
01. A Cure For Insomnia 04:52
02. Sanctuary Rage 04:53
03. All Is Vanity 06:05
04. Still Here 05:19
05. Death of All Joy 05:57
******************************
Total playing time: 27:06




[more=Technical info]
Input File: 02 - Sanctuary Rage.mp3
Channels : 2
Sample Rate : 44100
Precision : 16-bit
Duration : 00:04:53.00 = 12921300 samples = 21975 CDDA sectors
File Size : 11.9M
Bit Rate : 326k
Sample Encoding: MPEG audio (layer I, II or III)
Comments :
Title=Sanctuary Rage
Artist=Sinister King
Album=All Is Vanity
Tracknumber=2
Year=2021-11-26
Genre=Metal
Discnumber=1

[/more]

Register
(7) artscald, caro, csgmnk, infozahist, Marek, Rover, wreak,
Nov 29 2021, 14:55:27 Apocalyptic Leaders - Immortal Demons [ep] (2021)


*Artist: Apocalyptic Leaders
*Album: Immortal Demons [ep]
*Year: 2021
*Genre: Black Metal
*Country: Greece
*Format: mp3@CBR320kbps
*Size: 57MB

Tracklist:
1. Immortal Demons 09:12
2. A Deadly Threat 05:34
3. Ephialtes (Reality Is the Lie) 06:30
4. Dry Scratches 03:51
******************************
Total playing time: 25:07


Preview 2




[more=Technical info]
Input File: 02. A deadly threat.mp3
Channels : 2
Sample Rate : 44100
Precision : 16-bit
Duration : 00:05:34.15 = 14736015 samples = 25061.2 CDDA sectors
File Size : 13.5M
Bit Rate : 324k
Sample Encoding: MPEG audio (layer I, II or III)
Comments :
Title=A deadly threat
Artist=Apocalyptic Leaders
Album=Immortal Demons
Tracknumber=2
Year=2021

[/more]

Register
(9) artscald, caro, kim666, robertho777, stormhatt, VALERY, varlam4, Wail, wreak,
Nov 26 2021, 17:29:19 Clitcommander - 10 Jahre 10 Hits (2021)


*Artist: Clitcommander
*Album: 10 Jahre 10 Hits
*Year: 2021
*Genre: Porno Goregrind
*Country: Germany
*Format: flac
*Size: 179MB

Tracklist:
1. Intro 02:17
2. Molmerswende 03:08
3. Mehlbox 01:23
4. Jay And Silent Bob 01:55
5. Salat 01:16
6. Oma Rosi 01:35
7. Fuck That Bitch 01:44
8. Shitty Conversation 03:31
9. Boom 01:34
10. Karnickeljenickficksong 03:54
11. Hartz, Amt, Ryan and Bier 01:59
******************************
Total playing time: 24:16




Register
(6) Carcharoth, jollo, kefka, Metalass, spazm, wreak,
Nov 26 2021, 17:20:33 Halo Metal Band - Renacer (2021)


*Artist: Halo Metal Band
*Album: Renacer
*Year: 2021
*Genre: Groove Metal
*Country: Spain
*Format: mp3@CBR320kbps
*Size: 109MB

Tracklist:
01. Reiniciar 4:24
02. Pasividad Normalizada 2:53
03. Humano 4:26
04. Marcados al Nacer 3:40
05. Memoria 3:42
06. Antimanipulación 3:48
07. Liberación 3:36
08. Nada Es Lo Mismo 4:34
09. Nunca 4:03
10. Imperio Sumisión 3:22
11. Miedo 4:05
12. Renacer 4:31
******************************
Total playing time: 47:04




[more=Technical info]
Input File: 02 - Pasividad Normalizada.mp3
Channels : 2
Sample Rate : 44100
Precision : 16-bit
Duration : 00:02:52.58 = 7610646 samples = 12943.3 CDDA sectors
File Size : 7.02M
Bit Rate : 325k
Sample Encoding: MPEG audio (layer I, II or III)
Comments :
Title=Pasividad Normalizada
Artist=Halo Metal Band
Album=Renacer
Tracknumber=2
Year=2021
Discnumber=1/1

[/more]

Register
(11) artscald, caro, chipsgott, dcatagua, infozahist, julianotidre, METALHUNTER, piwimetal, snot, StabWound, wreak,
Nov 26 2021, 17:14:31 Flavio Brandão Stratosphere Project - Depersonalization (2021)


*Artist: Flavio Brandão Stratosphere Project
*Album: Depersonalization
*Year: 2021
*Genre: Power Metal
*Country: Brazil
*Format: mp3@CBR320kbps
*Size: 88MB

Tracklist:
1. Apathy 05:27
2. Depersonalization 04:45
3. Delusion 05:44
4. Hallucination 04:44
5. Silver Line 03:53
6. Last Call 03:38
7. Twilight Storm 04:56
8. Hey Mary 05:14
******************************
Total playing time: 38:21





[more=Technical info]
Input File: 02 - Depersonalization.mp3
Channels : 2
Sample Rate : 44100
Precision : 16-bit
Duration : 00:04:45.69 = 12599105 samples = 21427 CDDA sectors
File Size : 11.5M
Bit Rate : 323k
Sample Encoding: MPEG audio (layer I, II or III)
Comments :
Title=Depersonalization
Artist=Flavio Brandão Stratosphere Project
Album=Depersonalization
Tracknumber=2
Year=2021
Discnumber=1/1

[/more]

Register
(13) after21allD, aviacademy, boby9052, caro, gwar, Herrant, HMHamster, julianotidre, Marek, postal67, Rover, wreak, Сварог Барг,
Nov 26 2021, 17:05:08 Core Of Dying Earth - Hello World (2021)


*Artist: Core Of Dying Earth
*Album: Hello World
*Year: 2021
*Genre: Melodic Death Metal
*Country: Russian Federation
*Format: mp3@CBR320kbps
*Size: 71MB

Tracklist:
01. Hello World 03:43
02. Escape 03:15
03. Info Pollution 02:58
04. Sinking Ship 03:13
05. Eternal Dust 03:17
06. Give Me More 02:51
07. Star Force 03:10
08. Cron 03:20
09. C.O.D.E. 04:34
******************************
Total playing time: 30:21


Preview 2
Preview 3



[more=Technical info]
Input File: 02 - Escape.mp3
Channels : 2
Sample Rate : 44100
Precision : 16-bit
Duration : 00:03:15.00 = 8599500 samples = 14625 CDDA sectors
File Size : 7.98M
Bit Rate : 327k
Sample Encoding: MPEG audio (layer I, II or III)
Comments :
Title=Escape
Artist=Core Of Dying Earth
Album=Hello World
Tracknumber=2
Year=2021-11-26
Genre=Alternative
Discnumber=1

[/more]

Register
(17) after21allD, artscald, boardd, BugEyes, caro, chipsgott, csgmnk, GorAtheist, infozahist, julianotidre, lary_veel, metalwoman, postal67, VALERY, varlam4, wanderer73, wreak,
Nov 26 2021, 16:57:06 Jud'powa - Focus (2021)


*Artist: Jud'powa
*Album: Focus
*Year: 2021
*Genre: Progressive Metal
*Country: Brazil
*Format: mp3@CBR320kbps
*Size: 76MB

Tracklist:
01. Origin 04:52
02. Focus 04:03
03. Journey 04:21
04. Carry On 05:20
05. Insomnia 04:03
06. Wander 04:23
07. Awake 05:16
******************************
Total playing time: 32:18




[more=Technical info]
Input File: 03 - Journey.mp3
Channels : 2
Sample Rate : 44100
Precision : 16-bit
Duration : 00:04:21.00 = 11510100 samples = 19575 CDDA sectors
File Size : 10.6M
Bit Rate : 325k
Sample Encoding: MPEG audio (layer I, II or III)
Comments :
Title=Journey
Artist=Jud'powa
Album=Focus
Tracknumber=3
Year=2021-11-26
Genre=Rock
Discnumber=1

[/more]

Register
(11) after21allD, artscald, aviacademy, caro, csgmnk, HMHamster, julianotidre, metala, Rover, Shadowman, wreak,
Nov 26 2021, 16:27:59 Backing Track - Forerunner (2021)


*Artist: Backing Track
*Album: Forerunner
*Year: 2021
*Genre: Progressive Metal/Djent
*Country: United States
*Format: mp3@CBR320kbps
*Size: 68MB

Tracklist:
01. Infinite 03:50
02. Banished 03:26
03. Heretic Flight 03:44
04. Rampancy 03:06
05. The Flood 03:56
06. Remember Reach 04:04
07. Spartan 117 03:47
08. Forward Unto Dawn 02:59
******************************
Total playing time: 28:52

[more=Technical info]
Input File: 02 - Backing Track - Banished.mp3
Channels : 2
Sample Rate : 44100
Precision : 16-bit
Duration : 00:03:26.36 = 9100256 samples = 15476.6 CDDA sectors
File Size : 8.60M
Bit Rate : 333k
Sample Encoding: MPEG audio (layer I, II or III)
Comments :
Title=Banished
Artist=Backing Track
Album=Forerunner
Tracknumber=2/8
Year=2021
Genre=GetMetal.CLUB
Discnumber=1/1

[/more]

Register
(7) after21allD, artscald, caro, kimkayoung, suseka, varlam4, wreak,
Nov 26 2021, 16:13:46 Wide Eyes - Oneironaut (2021)


*Artist: Wide Eyes
*Album: Oneironaut
*Year: 2021
*Genre: Instrumental/Progressive Metal/Djent
*Country: United States
*Format: mp3@CBR320kbps
*Size: 285MB

Tracklist:
01. Fata Morgana 07:46
02. Lucidity 05:36
03. Rampancy (feat. Charles Caswell) 06:42
04. Continuum 04:38
05. The Traveler 06:20
06. Obsidian 02:48
07. Amygdala 06:04
08. Graveward 05:27
09. Ascension 01:53
10. Vivid Perception 05:11
11. The Illusory 04:20
12. Timefall 03:48
13. Mind Lapse 06:37
14. Autokinesis 03:18
15. Synesthesia 08:19
16. Protosun 06:48
17. Meridian 04:06
18. Glimmer 06:29
19. Cyanide 06:49
20. Oblivion (feat. Stephen Taranto) 18:58
******************************
Total playing time: 2:01:57





[more=Technical info]
Input File: 02 - Lucidity.mp3
Channels : 2
Sample Rate : 44100
Precision : 16-bit
Duration : 00:05:35.00 = 14773500 samples = 25125 CDDA sectors
File Size : 13.7M
Bit Rate : 327k
Sample Encoding: MPEG audio (layer I, II or III)
Comments :
Title=Lucidity
Artist=Wide Eyes
Album=Oneironaut
Tracknumber=2
Year=2021-11-26
Genre=Metal
Discnumber=1

[/more]

Register
(6) artscald, caro, kimkayoung, suseka, wreak, Сварог Барг,

1449 Pages V   1 2 3 > » 
- Lo-Fi Version Support form
Copyrights and abuse reports form
Time is now: 3rd December 2021 - 02:24:14