Welcome Guest ( Log In | Register )

История благодарностей участнику necroscum ::: Спасибо сказали: 411795 раз(а)
Дата поста: В теме: За сообщение: Спасибо сказали:
Yesterday, 16:56:58 Cheerleader Concubine & Dehumanizing Itatrain Worship - The Divine Union Of Serrated Flesh [split] (2018)


*Artist: Cheerleader Concubine & Dehumanizing Itatrain Worship
*Album: The Divine Union Of Serrated Flesh [split]
*Year: 2018
*Genre: Porno Goregrind | Brutal Death Metal
*Country: United States | China
*Format: mp3@VBR278kbps
*Size: 61MB

Tracklist:
Cheerleader Concubine:
01. Diarrhea Creampie 02:36
02. Monster Girls Craving Monster Cock 03:00
03. Battle Anal Lolita 02:49
04. Mail Order Shotacon 02:50
Dehumanizing Itatrain Worship:
05. 殺してやるばんざーい! 05:42
06. Disgusting Scars On Me 04:29
07. Slowly Joshikouseis Rot 02:52
08. 血肉の城で踊りたい 04:34
******************************
Total playing time: 28:52






[more=Extended info]Scene CD-rip[/more]

[more=Technical info]
Input File: 02-cheerleader_concubine-monster_girls_craving_monster_cock.mp3
Channels : 2
Sample Rate : 44100
Precision : 16-bit
Duration : 00:03:00.77 = 7971825 samples = 13557.5 CDDA sectors
File Size : 6.14M
Bit Rate : 272k
Sample Encoding: MPEG audio (layer I, II or III)
Comments :
Title=Monster Girls Craving Monster Cock
Artist=Cheerleader Concubine
Album=The Divine Union of Serrated Flesh
Tracknumber=2/8
Year=2018
Genre=Death Metal
Discnumber=1/1

[/more]

Register
(3) infiltrator, satanist666, Герб,
Yesterday, 16:05:52 Toxocariasis - Demo II [demo] (2018)


*Artist: Toxocariasis
*Album: Demo II [demo]
*Year: 2018
*Genre: Goregrind
*Country: Canada
*Format: mp3@CBR320kbps
*Size: 20MB

Tracklist:
01. Vasectomy For Misanthropy 01:25
02. Methadone Influenced Self-Inflicted Trans-Orbital Lobotomy 01:57
03. Festering Cesspool Of Malignant Ligaments 02:28
04. Smog In My Ass 00:58
05. Gastrochisis Party/ In The Name Of The Father, The Son, And Ben Durham: Gorenoise 01:37
******************************
Total playing time: 8:25




[more=Technical info]
Input File: 02. methadone influenced self-inflicted trans-orbital lobotomy.mp3
Channels : 2
Sample Rate : 44100
Precision : 16-bit
Duration : 00:01:57.61 = 5186557 samples = 8820.68 CDDA sectors
File Size : 4.87M
Bit Rate : 331k
Sample Encoding: MPEG audio (layer I, II or III)
Comments :
Title=methadone influenced self-inflicted trans-orbital lobotomy
Artist=Toxocariasis
Album=Demo II
Tracknumber=2
Year=2018

[/more]

Register
(4) denver, infiltrator, Olethros, satanist666,
Yesterday, 15:54:17 Cerebral Digestion - Demo 2018 [demo] (2018)


*Artist: Cerebral Digestion
*Album: Demo 2018 [demo]
*Year: 2018
*Genre: Brutal Death Metal
*Country: Sweden
*Format: mp3@CBR320kbps
*Size: 25MB

Tracklist:
01. Vigilante in the Vivisection-Cellar 02:11
02. Frantically Ripping off Foreskin 02:47
03. Scorched by Boiling Bile 02:32
04. Fine-Cut in Torture 01:53
******************************
Total playing time: 9:23




[more=Technical info]
Input File: 02. Frantically Ripping off Foreskin.mp3
Channels : 2
Sample Rate : 44100
Precision : 16-bit
Duration : 00:02:47.38 = 7381238 samples = 12553.1 CDDA sectors
File Size : 6.86M
Bit Rate : 328k
Sample Encoding: MPEG audio (layer I, II or III)
Comments :
Title=Frantically Ripping off Foreskin
Artist=Cerebral Digestion
Album=Demo 2018
Tracknumber=2
Year=2018

[/more]

Register
(3) infiltrator, Olethros, satanist666,
Yesterday, 15:46:19 Anal Submarine - Demo 2019 [demo] (2019)


*Artist: Anal Submarine
*Album: Demo 2019 [demo]
*Year: 2019
*Genre: Goregrind
*Country: Russian Federation
*Format: mp3@CBR320kbps
*Size: 18MB

Tracklist:
01. Vulcanic Diarrhea 01:05
02. Hank Hill's Urethra 00:59
03. Turd Eater 00:59
04. Lessons In Proctology 00:47
05. Swimming In Liquid Stool 00:59
06. Rectal Caviar 00:43
07. Spanked To Death 00:52
08. Defecated Genitalia 00:20
09. Anal Submarine 00:51
******************************
Total playing time: 7:35




[more=Technical info]
Input File: 02. Hank Hill\'s Urethra.mp3
Channels : 2
Sample Rate : 44100
Precision : 16-bit
Duration : 00:00:59.25 = 2612837 samples = 4443.6 CDDA sectors
File Size : 2.47M
Bit Rate : 334k
Sample Encoding: MPEG audio (layer I, II or III)
Comments :
Title=Hank Hill's Urethra
Artist=Anal Submarine
Album=Demo 2019
Tracknumber=2
Year=2019

[/more]

Register
(4) denver, infiltrator, Olethros, satanist666,
Yesterday, 15:33:47 Nxaaxul - Evoke War Vomit [ep] (2019)


*Artist: Nxaaxul
*Album: Evoke War Vomit [ep]
*Year: 2019
*Genre: Death/Black Metal
*Country: United States
*Format: mp3@CBR320kbps
*Size: 46MB

Tracklist:
01. Sadistik Wierdness 00:48
02. Nekromaniakal Deathlust 04:26
03. Fukking War Vomit To Death 02:45
04. Sodomizing Fallen Souls 04:45
05. Nekrokannibalistik Kunt 03:57
06. Spiritual Horned Mania 03:23
******************************
Total playing time: 20:04



[more=Technical info]
Input File: 02. Nekromaniakal Deathlust.mp3
Channels : 2
Sample Rate : 44100
Precision : 16-bit
Duration : 00:04:26.78 = 11764866 samples = 20008.3 CDDA sectors
File Size : 10.8M
Bit Rate : 322k
Sample Encoding: MPEG audio (layer I, II or III)
Comments :
Title=Nekromaniakal Deathlust
Artist=Nxaaxul
Album=Evoke War Vomit
Tracknumber=2
Year=2019

[/more]

Register
(5) infiltrator, Olethros, Styx, vasiljev_sergej, Wail,
Yesterday, 14:37:40 The White Bear Project - Descent [ep] (2020)


*Artist: The White Bear Project
*Album: Descent [ep]
*Year: 2020
*Genre: Deathcore
*Country: United States
*Format: mp3@CBR320kbps
*Size: 46MB

Tracklist:
01. Psychosis 03:33
02. Falsity (Feat. Bryce Scheldbauer) 03:17
03. Mortal Chain (Feat. Bob Warner) 03:11
04. Interlude 02:18
05. Violence 03:13
06. Ides of Depravity (Feat. Kyle Williams & Alex Ives) 04:25
******************************
Total playing time: 19:57





[more=Technical info]
Input File: 02. Falsity (ft. Bryce Scheldbauer).mp3
Channels : 2
Sample Rate : 44100
Precision : 16-bit
Duration : 00:03:17.76 = 8721260 samples = 14832.1 CDDA sectors
File Size : 7.95M
Bit Rate : 321k
Sample Encoding: MPEG audio (layer I, II or III)
Comments :
Title=Falsity (ft. Bryce Scheldbauer)
Artist=The White Bear Project
Album=Descent
Tracknumber=2
Year=2020
Genre=Deathcore

[/more]

Register
(2) infiltrator, Olethros,
Yesterday, 14:22:48 T.O.M.B. - Thin The Veil (2020)


*Artist: T.O.M.B.
*Album: Thin The Veil
*Year: 2020
*Genre: Avant-Garde Black Metal
*Country: United States
*Format: mp3@CBR320kbps
*Size: 95MB

Tracklist:
01. No Return 04:31
02. Where the Wretched Lurk 06:01
03. Pestilence 03:21
04. Invocation 01:36
05. Thin the Veil 03:10
06. Decapitation of the Gods 04:24
07. Lunar Reckoning 04:37
08. Escape from Phlegethon 04:23
09. License to Depart 03:14
10. Pure Noise Necromancy 03:42
11. Hellmouth 05:42
******************************
Total playing time: 44:41





[more=Technical info]
Input File: 10. Pure Noise Necromancy.mp3
Channels : 2
Sample Rate : 44100
Precision : 16-bit
Duration : 00:03:42.53 = 9813397 samples = 16689.5 CDDA sectors
File Size : 9.04M
Bit Rate : 325k
Sample Encoding: MPEG audio (layer I, II or III)
Comments :
Title=Pure Noise Necromancy
Artist=T.O.M.B.
Album=Thin the Veil
Tracknumber=10/11
Year=2020
Genre=9
Discnumber=1/1

[/more]

Register
(8) as71, infiltrator, metala, Moonshtook, Olethros, satanist666, suseka, vasiljev_sergej,
Yesterday, 14:05:32 Nxaaxul - Black Abyss Of The Tartarean Wormhole Of The Chaotic Singularity (2020)


*Artist: Nxaaxul
*Album: Black Abyss Of The Tartarean Wormhole Of The Chaotic Singularity
*Year: 2020
*Genre: Death/Black Metal
*Country: United States
*Format: mp3@CBR320kbps
*Size: 72MB

Tracklist:
01. Black Abyss Of The Tartarean Wormhole Of The Chaotic Singularity 07:00
02. Symmetry Of The Trinity Of Death 07:15
03. Disembodied Corpse Of The Newborn 08:11
04. Interstellar Cremation Of The Spear Of Abraxas 05:57
05. Misamic Frequency Of The Rotating Four Armed Death Wheel 06:31
******************************
Total playing time: 34:54



[more=Technical info]
Input File: 04. Interstellar Cremation Of The Spear Of Abraxas.mp3
Channels : 2
Sample Rate : 44100
Precision : 16-bit
Duration : 00:05:57.61 = 15770601 samples = 26820.8 CDDA sectors
File Size : 14.4M
Bit Rate : 322k
Sample Encoding: MPEG audio (layer I, II or III)
Comments :
Title=Interstellar Cremation Of The Spear Of Abraxas
Artist=Nxaaxul
Album=Black Abyss Of The Tartarean Wormhole Of The Chaotic Singularity
Tracknumber=4
Year=2020

[/more]

Register
(4) infiltrator, Olethros, vasiljev_sergej, Wail,
Yesterday, 13:57:57 Nxaaxul - Seven Malignant Burning Spears Of Astral Anticosmos (2019)


*Artist: Nxaaxul
*Album: Seven Malignant Burning Spears Of Astral Anticosmos
*Year: 2019
*Genre: Death/Black Metal
*Country: United States
*Format: mp3@CBR320kbps
*Size: 63MB

Tracklist:
01. Noxious Fumes Quell The Abrahamic SH 02:58
02. The Abyssal Biochemigoat 03:41
03. Satanic War 04:30
04. Ordo Satanicum Imperium 02:27
05. Biochemical Warterror 666 02:19
06. Genocidal Protocol Of Luciferian Ethos 10:00
07. Vengeance Of Thermonuclear Goatvomit 01:55
08. Quayth Goetia N'xaaxul 01:43
******************************
Total playing time: 29:33



[more=Technical info]
Input File: 06. Genocidal Protocol Of Luciferian Ethos.mp3
Channels : 2
Sample Rate : 44100
Precision : 16-bit
Duration : 00:10:00.93 = 26500881 samples = 45069.5 CDDA sectors
File Size : 24.2M
Bit Rate : 322k
Sample Encoding: MPEG audio (layer I, II or III)
Comments :
Title=Genocidal Protocol Of Luciferian Ethos
Artist=Nxaaxul
Album=Seven Malignant Burning Spears Of Astral Anticosmos
Tracknumber=6
Year=2019

[/more]

Register
(5) infiltrator, Olethros, Styx, vasiljev_sergej, Wail,
Jan 23 2020, 16:11:07 Midnight Betrothed - To Follow Your Spirit Into The Night​.​.​. [demo] (2020)


*Artist: Midnight Betrothed
*Album: To Follow Your Spirit Into The Night​.​.​. [demo]
*Year: 2020
*Genre: Symphonic Black Metal
*Country: Australia
*Format: mp3@CBR320kbps
*Size: 47MB

Tracklist:
01. Necromantic Passions 04:39
02. To Follow Your Spirit Into The Night... 04:49
03. The Enchantments Of My Grief 04:54
04. Between Here And The Hereafter, Lies The Land Of Hope 05:52
******************************
Total playing time: 20:14




[more=Technical info]
Input File: 02. To Follow Your Spirit Into The Night....mp3
Channels : 2
Sample Rate : 44100
Precision : 16-bit
Duration : 00:04:49.37 = 12761393 samples = 21703 CDDA sectors
File Size : 11.7M
Bit Rate : 323k
Sample Encoding: MPEG audio (layer I, II or III)
Comments :
Title=To Follow Your Spirit Into The Night...
Artist=Midnight Betrothed
Album=To Follow Your Spirit Into The Night...
Tracknumber=2
Year=2020

[/more]

Register
(13) Evjenne, infiltrator, kim666, krotovich, morbidangelo, Olethros, Rosen, Sanctus, satanist666, VALERY, vasiljev_sergej, zhol, Сварог Барг,
Jan 23 2020, 16:01:41 Thermohaline - Thermohaline [ep] (2020)


*Artist: Thermohaline
*Album: Thermohaline [ep]
*Year: 2020
*Genre: Avant-Garde Black Metal
*Country: Brazil
*Format: mp3@CBR320kbps
*Size: 71MB

Tracklist:
01. The Calling 13:17
02. Thy Skull Shall Be Mine 09:28
03. Abyssal Reefs 08:01
******************************
Total playing time: 30:46



[more=Technical info]
Input File: 02. Thy Skull Shall Be Mine.mp3
Channels : 2
Sample Rate : 44100
Precision : 16-bit
Duration : 00:09:28.19 = 25057355 samples = 42614.5 CDDA sectors
File Size : 22.8M
Bit Rate : 321k
Sample Encoding: MPEG audio (layer I, II or III)
Comments :
Title=Thy Skull Shall Be Mine
Artist=Thermohaline
Album=Thermohaline EP
Tracknumber=2
Year=2020

[/more]

Register
(9) fuoco, Ice Gnoll, infiltrator, morbidangelo, Olethros, Rosen, Sanctus, satanist666, vasiljev_sergej,
Jan 23 2020, 15:52:28 Totenheer - Die Schwarze Spinne (2020)


*Artist: Totenheer
*Album: Die Schwarze Spinne
*Year: 2020
*Genre: Black Metal
*Country: Switzerland
*Format: mp3@CBR320kbps
*Size: 170MB

Tracklist:
01. Einklang
02. Der Komthur
03. Leibhaftiger Dämon Luzifer
04. Der Pakt mit dem Teufel
05. Feuerschweif
06. Taufsakrament
07. Höllenbrut
08. Die schwarze Spinne
09. Kindsraub
10. Verbannung
11. Die Verwandlung
12. Komthurs letzter Ritt
13. Martyrium
14. Ausklang
******************************
Total playing time: 1:14:02






[more=Technical info]
Input File: 02 - Der Komthur.mp3
Channels : 2
Sample Rate : 44100
Precision : 16-bit
Duration : 00:04:40.05 = 12350249 samples = 21003.8 CDDA sectors
File Size : 11.3M
Bit Rate : 324k
Sample Encoding: MPEG audio (layer I, II or III)
Comments :
Title=Der Komthur
Artist=Totenheer
Album=Die schwarze Spinne
Tracknumber=2
Year=2020
Genre=Metal
Discnumber=1

[/more]

Register
(26) alikkon, atavist, chipsgott, discordum, fuoco, infiltrator, kim666, Korpse, LEGION69, morbidangelo, Narasimha, nord6666, obsidianninja, Olethros, Ostinato, Rosen, satanist666, stub888, suseka, thenecromancer, tim47, tOmV, VALERY, vasiljev_sergej, V_H_H_V, zotyo1975,
Jan 23 2020, 15:33:19 Scars Of The Flesh - Reaching Into The Void [ep] (2020)


*Artist: Scars Of The Flesh
*Album: Reaching Into The Void [ep]
*Year: 2020
*Genre: Progressive Death Metal
*Country: United States
*Format: mp3@CBR320kbps
*Size: 87MB

Tracklist:
01. Infinite Static 06:28
02. Behold the Below 03:46
03. The End of It All 07:25
04. Reaching Into the Void 06:15
05. Hell in My Head 07:17
06. Where the Shadows End 04:12
******************************
Total playing time: 35:23




[more=Technical info]
Input File: 2 - Behold the Below.mp3
Channels : 2
Sample Rate : 44100
Precision : 16-bit
Duration : 00:03:46.08 = 9970084 samples = 16955.9 CDDA sectors
File Size : 9.19M
Bit Rate : 325k
Sample Encoding: MPEG audio (layer I, II or III)
Comments :
Title=Behold The Below
Artist=Scars Of The Flesh
Album=Reaching Into The Void
Tracknumber=2
Year=2020
Genre=Metal
Discnumber=1

[/more]

Register
(11) chipsgott, infiltrator, infozahist, morbidangelo, Morgoth, Niknne, Olethros, Ostinato, Rosen, serjred, VALERY,
Jan 23 2020, 15:24:34 Vananidr - Damnation (2020)


*Artist: Vananidr
*Album: Damnation
*Year: 2020
*Genre: Melodic Black Metal
*Country: Sweden
*Format: mp3@CBR320kbps
*Size: 111MB

Tracklist:
01. Distilled 07:17
02. Damnation 07:56
03. Hunter 07:14
04. Tides of Blood 06:02
05. Wounds of Old 05:58
06. Reflection 06:37
07. Void 05:57
******************************
Total playing time: 47:01





[more=Technical info]
Input File: 02. Damnation.mp3
Channels : 2
Sample Rate : 44100
Precision : 16-bit
Duration : 00:07:56.79 = 21026439 samples = 35759.2 CDDA sectors
File Size : 19.2M
Bit Rate : 322k
Sample Encoding: MPEG audio (layer I, II or III)
Comments :
Title=Damnation
Artist=Vananidr
Album=Damnation
Tracknumber=2
Year=2020
Discnumber=1

[/more]

Register
(30) atavist, BugEyes, DevilSign, Dmitry1977, infiltrator, isvili, Korpse, LEGION69, metala, morbidangelo, Morgoth, nord6666, Olethros, Ostinato, peppuzzo, Protey, Rosen, SaintVitus, satanist666, Satyr, Sjelekval, suseka, tim47, tOmV, VALERY, vasiljev_sergej, vovenom, zhol, Авел, Сварог Барг,
Jan 23 2020, 15:17:11 Ikonodrama - Etched In The Spirit (2020)


*Artist: Ikonodrama
*Album: Etched In The Spirit
*Year: 2020
*Genre: Gothic Metal
*Country: Poland
*Format: mp3@CBR320kbps
*Size: 112MB

Tracklist:
01. Open Darkness
02. Your Mephisto
03. Orpheus
04. Demonology
05. The Lantern of the Lost
06. Maldoror’s Song
07. The Mess Sire
08. My Swan Syndrome
09. Dead Master
10. Maldoror
******************************
Total playing time: 48:43



[more=Technical info]
Input File: 09. Dead Master.mp3
Channels : 2
Sample Rate : 44100
Precision : 16-bit
Duration : 00:05:24.10 = 14292634 samples = 24307.2 CDDA sectors
File Size : 13.0M
Bit Rate : 322k
Sample Encoding: MPEG audio (layer I, II or III)
Comments :
Title=Dead Master
Artist=IKONODRAMA
Album=Etched in the Spirit
Tracknumber=9/10
Year=2020
Genre=17
Discnumber=1/1

[/more]

Register
(13) Alpha_Prime, chipsgott, Ice Gnoll, infiltrator, infozahist, kluval, morbidangelo, nord6666, Olethros, postal67, Rosen, satanist666, terron,
Jan 23 2020, 14:55:35 Frigoris - ...In Stille (2020)


*Artist: Frigoris
*Album: ...In Stille
*Year: 2020
*Genre: Atmospheric/Post-Black Metal
*Country: Germany
*Format: mp3@CBR320kbps
*Size: 153MB

Tracklist:
01. Aurora stirbt 08:51
02. Funkenflug 07:50
03. Das Licht in mir 05:19
04. Stimmen im Regen 09:45
05. Einkehr 08:21
06. Scheideweg 09:02
07. Die Gleise an denen wir starben I (Nur ein Moment...) 03:00
08. Die Gleise an denen wir starben II (...in Stille) 12:37
******************************
Total playing time: 1:04:45






[more=Technical info]
Input File: 05 Einkehr.mp3
Channels : 2
Sample Rate : 44100
Precision : 16-bit
Duration : 00:00:00.50 = 22050 samples = 37.5 CDDA sectors
File Size : 20.7M
Bit Rate : 332M
Sample Encoding: MPEG audio (layer I, II or III)
Comments :
Title=Einkehr
Artist=Frigoris
Album=...in Stille
Tracknumber=5/8
Year=2020-20-20
Genre=Alternative
Discnumber=1/1

[/more]

Register
(21) 0x13, craP_cillA, Ice Gnoll, infernallord, infiltrator, kim666, Korpse, morbidangelo, Morgoth, Olethros, Olrak, Ostinato, Rosen, Sanctus, satanist666, singrad, suseka, tim47, tOmV, VALERY, vasiljev_sergej,
Jan 23 2020, 14:45:42 Crimson Sun - Fates (2020)


*Artist: Crimson Sun
*Album: Fates
*Year: 2020
*Genre: Melodic Heavy Metal
*Country: Finland
*Format: mp3@CBR320kbps
*Size: 92MB

Tracklist:
01. The Beast Within
02. Virtual Reality
03. We Are One
04. The Prison
05. Overcome
06. Fate of Nora
07. Trailblazer
08. Distant Stars
09. Essence of Creation
10. Last Day on Earth
******************************
Total playing time: 39:57





[more=Technical info]
Input File: 2 - Virtual Reality.mp3
Channels : 2
Sample Rate : 44100
Precision : 16-bit
Duration : 00:03:07.02 = 8247758 samples = 14026.8 CDDA sectors
File Size : 7.55M
Bit Rate : 323k
Sample Encoding: MPEG audio (layer I, II or III)
Comments :
Title=Virtual Reality
Artist=Crimson Sun
Album=Fates
Tracknumber=2
Year=2020
Genre=Metal
Discnumber=1

[/more]

Register
(19) AHBAnep, BugEyes, Devourer, djsema4, gwar, Herrant, Ice Gnoll, infiltrator, infozahist, metala, morbidangelo, Niknne, Olethros, postal67, Rosen, Rover, sergsazan, zhol, Сварог Барг,
Jan 23 2020, 14:31:03 Doomraiser - The Dark Side Of Old Europa (2020)


*Artist: Doomraiser
*Album: The Dark Side Of Old Europa
*Year: 2020
*Genre: Doom Metal
*Country: Italy
*Format: mp3@CBR320kbps
*Size: 119MB

Tracklist:
01. Passage 03:03
02. Chimera 05:34
03. The Dark Side of Old Europa 06:29
04. Tauroctony (The Secret Cult of Mithras) 08:30
05. Terminal Dusk 09:30
06. Häxan 07:14
07. Continuum Pt. 1 (Suspended in Darkness) 03:02
08. Loathsome Explorer Interpolation 08:35
******************************
Total playing time: 51:57







[more=Technical info]
Input File: 02 - Chimera.mp3
Channels : 2
Sample Rate : 44100
Precision : 16-bit
Duration : 00:05:34.10 = 14733854 samples = 25057.6 CDDA sectors
File Size : 13.4M
Bit Rate : 321k
Sample Encoding: MPEG audio (layer I, II or III)
Comments :
Title=Chimera
Artist=Doomraiser
Album=The Dark Age of Old Europa
Tracknumber=2
Year=2020
Genre=Doom Metal
Discnumber=1

[/more]

Register
(19) autumnwood, BERZERK, dalek, EpicDoomLord, Ice Gnoll, infiltrator, Leshiy666, Lux, marilin, mart2203, metala, Niknne, nord6666, Olethros, Rosen, stub888, stumpheavyrock, VALERY, zhol,
Jan 23 2020, 14:23:05 Jordablod - The Cabinet Of Numinous Song (2020)


*Artist: Jordablod
*Album: The Cabinet Of Numinous Song
*Year: 2020
*Genre: Black Metal
*Country: Sweden
*Format: mp3@CBR320kbps
*Size: 99MB

Tracklist:
01. A Grand Unveiling 07:40
02. The Two Wings of Becoming 03:21
03. Hin ondes mystär 04:39
04. The Beauty of Every Wound 06:05
05. Blood and Rapture 07:28
06. The Cabinet of Numinous Song 05:26
07. To Bleed Gold 08:18
******************************
Total playing time: 42:57






[more=Technical info]
Input File: 06 - The Cabinet of Numinous Song.mp3
Channels : 2
Sample Rate : 44100
Precision : 16-bit
Duration : 00:05:25.51 = 14354815 samples = 24413 CDDA sectors
File Size : 13.2M
Bit Rate : 325k
Sample Encoding: MPEG audio (layer I, II or III)
Comments :
Title=The Cabinet of Numinous Song
Artist=Jordablod
Album=The Cabinet of Numinous Song
Tracknumber=6
Year=2020
Genre=Metal
Discnumber=1

[/more]

Register
(25) alikkon, atavist, Beazth, boba, Brann, infiltrator, kim666, Korpse, Morgoth, nemx, Occultas, Olethros, poeira, rammmirez, ripper33, Rosen, SaintVitus, satanist666, Sjelekval, stub888, suseka, tim47, VALERY, vasiljev_sergej, yuratroll,
Jan 23 2020, 14:11:45 Last Frontier - Aether (Equivalent Exchange) (2020)


*Artist: Last Frontier
*Album: Aether (Equivalent Exchange)
*Year: 2020
*Genre: Atmospheric Heavy Metal
*Country: Italy
*Format: mp3@CBR320kbps
*Size: 124MB

Tracklist:
01. Toward the Last Frontier
02. Cults of Cargo
03. Fields of Thetis
04. Flames of Moloch
05. Wings of Stone
06. The Willow
07. The River
08. The Brier
09. Shahar
******************************
Total playing time: 53:51






[more=Technical info]
Input File: 02 - Cults of Cargo.mp3
Channels : 2
Sample Rate : 44100
Precision : 16-bit
Duration : 00:06:09.50 = 16294906 samples = 27712.4 CDDA sectors
File Size : 14.9M
Bit Rate : 324k
Sample Encoding: MPEG audio (layer I, II or III)
Comments :
Title=Cults of Cargo
Artist=Last Frontier
Album=Aether (Equivalent Exchange)
Tracknumber=2
Year=2020
Genre=Rock/Hard Rock/Metal
Discnumber=1

[/more]

Register
(14) aviacademy, Ice Gnoll, infiltrator, infozahist, metala, Niknne, Olethros, Olrak, postal67, Rosen, Rover, sergsazan, stumpheavyrock, Сварог Барг,
Jan 23 2020, 13:59:00 Death. Void. Terror. - To The Great Monolith II (2020)


*Artist: Death. Void. Terror.
*Album: To The Great Monolith II
*Year: 2020
*Genre: Black/Doom Metal
*Country: Switzerland
*Format: mp3@CBR320kbps
*Size: 98MB

Tracklist:
01. (- -- -) 09:35
02. (- ---) 11:43
03. (-- - --) 14:44
04. (-- --) 06:50
******************************
Total playing time: 42:52




[more=Technical info]
Input File: 02 - (- ---).mp3
Channels : 2
Sample Rate : 44100
Precision : 16-bit
Duration : 00:11:43.67 = 31031979 samples = 52775.5 CDDA sectors
File Size : 28.2M
Bit Rate : 321k
Sample Encoding: MPEG audio (layer I, II or III)
Comments :
Title=(- ---)
Artist=Death. Void. Terror.
Album=To The Great Monolith II
Tracknumber=2
Year=2020
Genre=Metal
Discnumber=1

[/more]

Register
(17) Beazth, Dmitry1977, fuoco, infiltrator, kim666, marilin, Morgoth, Olethros, Ostinato, Rosen, squall8fr, stub888, tim47, VALERY, vasiljev_sergej, Wail, wtk.412,
Jan 23 2020, 13:41:15 Ereley - Diablerie (2020)


*Artist: Ereley
*Album: Diablerie
*Year: 2020
*Genre: Progressive Metal
*Country: Czech Republic
*Format: mp3@CBR320kbps
*Size: 125MB

Tracklist:
01. Diablerie 05:04
02. Nephilim 05:51
03. Room 666 04:30
04. Hex 05:07
05. Boogie Man 06:23
06. Enchantress 04:11
07. Beast 05:16
08. Flames of Deliverance 07:52
09. Love and Hate 04:30
10. Burning Hell 05:36
******************************
Total playing time: 54:20




[more=Technical info]
Input File: 2 - Nephilim.mp3
Channels : 2
Sample Rate : 44100
Precision : 16-bit
Duration : 00:05:51.05 = 15481393 samples = 26328.9 CDDA sectors
File Size : 14.1M
Bit Rate : 322k
Sample Encoding: MPEG audio (layer I, II or III)
Comments :
Title=Nephilim
Artist=Ereley
Album=Diablerie
Tracknumber=2
Year=2020
Genre=Rock/Hard Rock/Metal
Discnumber=1

[/more]

Register
(7) infiltrator, metala, Morgoth, Olethros, postal67, Rosen, Rover,
Jan 23 2020, 13:24:34 Help - Disillusionment = Life (2020)


*Artist: Help
*Album: Disillusionment = Life
*Year: 2020
*Genre: Depressive/Post-Black Metal
*Country: Brazil
*Format: mp3@CBR320kbps
*Size: 71MB

Tracklist:
01. Disillusionment = Life (Intro) 01:07
02. We're Nothing but a Failure 06:38
03. With Water in My Lungs 04:59
04. Sorry (Worthless Man) 01:58
05. Satan's Melopeia (Remastered) 06:23
06. Into a World of Dreams 02:48
07. The Last Twilight 04:49
08. Renouncing Life 02:16
******************************
Total playing time: 30:58





[more=Technical info]
Input File: 2.We\'re Nothing But a Failure.mp3
Channels : 2
Sample Rate : 44100
Precision : 16-bit
Duration : 00:06:37.09 = 17511493 samples = 29781.5 CDDA sectors
File Size : 16.0M
Bit Rate : 322k
Sample Encoding: MPEG audio (layer I, II or III)
Comments :
Title=We're Nothing But a Failure
Artist=Help
Album=Disillusionment = Life
Tracknumber=2
Year=2020
Genre=Black Metal

[/more]

Register
(6) infiltrator, Olethros, Rosen, satanist666, VALERY, vasiljev_sergej,
Jan 23 2020, 13:11:09 Grey Skies Fallen - Cold Dead Lands (2020)


*Artist: Grey Skies Fallen
*Album: Cold Dead Lands
*Year: 2020
*Genre: Progressive Doom/Death Metal
*Country: United States
*Format: mp3@CBR320kbps
*Size: 124MB

Tracklist:
01. Visions from the Last Sunset 11:04
02. Cold Dead Lands 08:10
03. Procession to the Tombs 07:39
04. Picking Up the Pieces 11:21
05. Ways of the World 05:01
06. After the Summer Comes the Fall 10:25
******************************
Total playing time: 53:40







[more=Technical info]
Input File: 02. Cold Dead Lands.mp3
Channels : 2
Sample Rate : 44100
Precision : 16-bit
Duration : 00:08:09.80 = 21600180 samples = 36735 CDDA sectors
File Size : 19.9M
Bit Rate : 324k
Sample Encoding: MPEG audio (layer I, II or III)
Comments :
Title=Cold Dead Lands
Artist=Grey Skies Fallen
Album=Cold Dead Lands
Tracknumber=2/6
Year=2020
Discnumber=1/1

[/more]

Register
(13) dalek, infiltrator, kaldun_85, metala, Morgoth, Niknne, Olethros, Ostinato, Rosen, satanist666, stumpheavyrock, tOmV, VALERY,
Jan 23 2020, 12:59:30 Tidal Dreams - Access Denied (2020)


*Artist: Tidal Dreams
*Album: Access Denied
*Year: 2020
*Genre: Heavy/Power Metal
*Country: Greece
*Format: mp3@CBR320kbps
*Size: 102MB

Tracklist:
01. Tidal Disruption 04:41
02. Reach For The Sky 04:09
03. Access Denied 04:31
04. Flesh Hunt 03:58
05. Warrior 03:59
06. Land Of The Dead 04:11
07. Hear The Engines Roar 04:21
08. Overturn 03:13
09. Evil Bringer 03:27
10. Haunted Castle 04:04
******************************
Total playing time: 40:34



Preview 3


[more=Technical info]
Input File: 02 - Reach for the Sky.mp3
Channels : 2
Sample Rate : 44100
Precision : 16-bit
Duration : 00:04:10.01 = 11025353 samples = 18750.6 CDDA sectors
File Size : 10.1M
Bit Rate : 323k
Sample Encoding: MPEG audio (layer I, II or III)
Comments :
Title=Reach for the Sky
Artist=Tidal Dreams
Album=Access Denied
Tracknumber=2
Year=2020
Genre=Hard Rock
Discnumber=1

[/more]

Register
(10) ace73pq, gwar, Herrant, infiltrator, metala, Olethros, Rosen, Rover, vir2al, Сварог Барг,

1407 Pages V   1 2 3 > » 
- Lo-Fi Version Support form
Copyrights and abuse reports form
Time is now: 25th January 2020 - 12:27:18