Welcome Guest ( Log In | Register )

История благодарностей участнику necroscum ::: Спасибо сказали: 386045 раз(а)
Дата поста: В теме: За сообщение: Спасибо сказали:
Yesterday, 14:09:52 Odinsgoat - Gråtende Ulv [ep] (2019)


*Artist: Odinsgoat
*Album: Gråtende Ulv [ep]
*Year: 2019
*Genre: Black Metal/Grindcore
*Country: United States
*Format: mp3@CBR320kbps
*Size: 12MB

Tracklist:
01. Mørk Fe 01:02
02. Nakinn Sauðfé 01:27
03. Freya's Kjærlighet 00:31
04. Verdens Undergang 00:49
05. Jordbruk 00:20
06. Tere 00:19
******************************
Total playing time: 4:28



[more=Technical info]
Input File: 02. Nakinn Sau__f_®.mp3
Channels : 2
Sample Rate : 44100
Precision : 16-bit
Duration : 00:01:27.46 = 3857074 samples = 6559.65 CDDA sectors
File Size : 3.72M
Bit Rate : 340k
Sample Encoding: MPEG audio (layer I, II or III)
Comments :
Title=Nakinn Sauðfé
Artist=ODINSGOAT
Album=Gråtende Ulv EP
Tracknumber=2
Year=2019

[/more]

Register
(3) Olethros, Rosen, vasiljev_sergej,
Yesterday, 14:00:37 Brain Bleed - Automated Eradication [ep] (2019)


*Artist: Brain Bleed
*Album: Automated Eradication [ep]
*Year: 2019
*Genre: Death Metal/Grindcore
*Country: United States
*Format: mp3@CBR320kbps
*Size: 48MB

Tracklist:
01. Frayed Rope 01:18
02. Bird Flu 03:36
03. Automated Eradication 01:58
04. Intracranial Hemmorhage 03:14
05. Abhorrent Seduction 03:47
06. A. War Machine 01:20
07. Cerebral Extortion 02:33
08. Forging Bones To Steel 01:54
******************************
Total playing time: 19:40


Preview 2


[more=Technical info]
Input File: 02. BIRD FLU.mp3
Channels : 2
Sample Rate : 44100
Precision : 16-bit
Duration : 00:03:36.88 = 9564408 samples = 16266 CDDA sectors
File Size : 9.01M
Bit Rate : 332k
Sample Encoding: MPEG audio (layer I, II or III)
Comments :
Title=BIRD FLU
Artist=BRAIN BLEED
Album=AUTOMATED ERADICATION
Tracknumber=2
Year=2019

[/more]

Register
(2) Olethros, Rosen,
Yesterday, 13:46:05 Infested Monastery - Undead Hatred [ep] (2019)


*Artist: Infested Monastery
*Album: Undead Hatred [ep]
*Year: 2019
*Genre: Black/Death Metal/Grindcore/Goregrind
*Country: France
*Format: mp3@CBR320kbps
*Size: 36MB

Tracklist:
01. Undead Hatred 01:42
02. Hunter's Workshop 01:59
03. Endless Gravestones 02:13
04. Witch's Lair 00:58
05. The Stench Of Blood 02:43
06. Cathedral Of Suffering 02:18
07. Un Silence De Mort 01:04
08. Rise Of The New Dawn 02:23
******************************
Total playing time: 15:20




[more=Technical info]
Input File: 02. Hunter\'s workshop.mp3
Channels : 2
Sample Rate : 44100
Precision : 16-bit
Duration : 00:01:59.88 = 5286796 samples = 8991.15 CDDA sectors
File Size : 4.93M
Bit Rate : 329k
Sample Encoding: MPEG audio (layer I, II or III)
Comments :
Title=Hunter's workshop
Artist=Infested Monastery
Album=Undead Hatred EP
Tracknumber=2
Year=2019

[/more]

Register
(3) Olethros, Rosen, vasiljev_sergej,
Yesterday, 13:26:48 Cymothoa Exigua - Terminated Tongue Torture And Testicles Terror [ep] (2019)


*Artist: Cymothoa Exigua
*Album: Terminated Tongue Torture And Testicles Terror [ep]
*Year: 2019
*Genre: Goregrind
*Country: Poland
*Format: mp3@CBR320kbps
*Size: 38MB

Tracklist:
01. A Ticket To Gas Chamber 00:13
02. Disorganizing Putrid Flesh 00:19
03. Fascism Extermination 00:19
04. Bondage And Discipline 00:13
05. Dominance And Submission 00:16
06. Snuffing Strangers 00:46
07. Epizootic Ulcerative Syndrome 00:10
08. Epidermophyton Floccosum 00:38
09. Religions Are Nazism 00:16
10. Quick Cummers 00:08
11. Porphyromonas Gingivalis 00:16
12. Anal Cadaver 00:15
13. Subconscious Manipulation 00:14
14. Murders Without Motive 00:17
15. Severe Pulmonary Haemorrhage Syndrome 00:24
16. Living Fresh Flesh 00:09
17. Cadavers Not Victims 00:20
18. Clogged Fetus Drowning In Urea 00:06
19. The Beauty Of Torturing The Body Of Woman 00:11
20. Fat Firm Filters 00:17
21. Human Decay Love 00:05
22. Aeromonas Salmonicida 00:06
23. Sadochism And Masochism 00:47
24. Sphaerothecum Destruens 00:04
25. Hemangioendothelioma 00:16
26. Stinky And Pinky Ultraspeed Penetration 00:36
27. Multifocal Lymphangioendotheliomatosis 00:19
28. Pseudorhabdosynochus 00:28
29. Oropharyngeal Cancer 00:17
30. Face Of Mirrors 00:09
31. Bronchiolitis Obliterans Organizing Pneumonia 00:25
32. Proximal Subungual Onychomycosis 00:20
33. Public Anal Terror 00:20
34. Brachioproctic Insertion 00:43
35. Fusobacterium Polymorphum 00:14
36. Capnocytophaga Canimorsus 02:13
******************************
Total playing time: 13:09




[more=Technical info]
Input File: 02. Disorganizing Putrid Flesh.mp3
Channels : 2
Sample Rate : 44100
Precision : 16-bit
Duration : 00:00:19.25 = 849057 samples = 1443.97 CDDA sectors
File Size : 978k
Bit Rate : 406k
Sample Encoding: MPEG audio (layer I, II or III)
Comments :
Title=Disorganizing Putrid Flesh
Artist=Cymothoa Exigua
Album=URL026 Terminated Tongue Torture and Testicles Terror
Tracknumber=2
Year=2019

[/more]

Register
(2) Olethros, Rosen,
Yesterday, 13:01:34 Black Usurper - Shadows Of The World (2019)


*Artist: Black Usurper
*Album: Shadows Of The World
*Year: 2019
*Genre: Black Metal
*Country: Argentina
*Format: mp3@CBR320kbps
*Size: 70MB

Tracklist:
01. Schatten der Welt 03:55
02. Für Immer 02:21
03. Ich Werde Nicht 03:12
04. Hallo Morgensonne 05:19
05. Part II. Die Bestattung 03:57
06. Verurteilen 04:40
07. Kriegslied 00:52
08. Nachwirkungen 03:33
******************************
Total playing time: 27:49





[more=Technical info]
Input File: 02. Fur Immer.mp3
Channels : 2
Sample Rate : 44100
Precision : 16-bit
Duration : 00:02:21.31 = 6231639 samples = 10598 CDDA sectors
File Size : 6.39M
Bit Rate : 362k
Sample Encoding: MPEG audio (layer I, II or III)
Comments :
Title=Fur Immer
Artist=Black Usurper
Album=Shadows Of The World
Tracknumber=2/8
Year=2019

[/more]

Register
(5) BlazonStone, kim666, Olethros, Rosen, vasiljev_sergej,
Yesterday, 12:36:44 Septicemia - Del Terror A La Putrefacción (2019)


*Artist: Septicemia
*Album: Del Terror A La Putrefacción
*Year: 2019
*Genre: Brutal Death Metal
*Country: Argentina
*Format: mp3@CBR320kbps
*Size: 67MB

Tracklist:
01. Materia oscura 03:33
02. Parálisis del sueño 03:22
03. Apología del caos 04:39
04. Manifiesto de muerte 04:49
05. Putrida existencia 03:51
06. Baño de sangre 03:46
07. Condición extrema corporal 03:59
******************************
Total playing time: 27:59



[more=Technical info]
Input File: 02. Parálisis Del sueño.mp3
Channels : 2
Sample Rate : 44100
Precision : 16-bit
Duration : 00:03:22.18 = 8915962 samples = 15163.2 CDDA sectors
File Size : 8.30M
Bit Rate : 328k
Sample Encoding: MPEG audio (layer I, II or III)
Comments :
Title=Parálisis Del sueño
Artist=Septicemia
Album=Del Terror a La putrefacción
Tracknumber=2
Year=2019
Genre=Death Metal
Discnumber=1

[/more]

Register
(3) maochen, Olethros, Rosen,
Jun 14 2019, 15:32:57 Perky Macabre - Pile Of Stinking Heads [ep] (2019)


*Artist: Perky Macabre
*Album: Pile Of Stinking Heads [ep]
*Year: 2019
*Genre: Grindcore
*Country: United States
*Format: mp3@VBR212kbps
*Size: 6MB

Tracklist:
01. Pink Teeth 00:19
02. Body Bits In The Garden 00:34
03. Inhospitable Trance 00:28
04. Love You To Pieces 00:27
05. Lust Torso Cleaving 01:06
06. Frostbitten Dick 00:43
******************************
Total playing time: 3:37



[more=Technical info]
Input File: 02. Body Bits In The Garden.mp3
Channels : 2
Sample Rate : 44100
Precision : 16-bit
Duration : 00:00:34.56 = 1524096 samples = 2592 CDDA sectors
File Size : 1.03M
Bit Rate : 239k
Sample Encoding: MPEG audio (layer I, II or III)
Comments :
Title=Body Bits In The Garden
Artist=Perky Macabre
Album=Pile Of Stinking Heads
Tracknumber=2
Year=2019

[/more]

Register
(3) Olethros, Orkkh, Rosen,
Jun 14 2019, 15:22:10 Baelgevath - Dissonance Of Virtue [ep] (2019)


*Artist: Baelgevath
*Album: Dissonance Of Virtue [ep]
*Year: 2019
*Genre: Black/Death Metal
*Country: United States
*Format: mp3@CBR320kbps
*Size: 59MB

Tracklist:
01. Dissonance of Virtue 05:32
02. Envisage 04:20
03. Mons Veneris 04:17
04. The Weeping Philosopher 04:15
05. Rebirth 07:22
******************************
Total playing time: 25:46



[more=Technical info]
Input File: 02. Envisage.mp3
Channels : 2
Sample Rate : 44100
Precision : 16-bit
Duration : 00:04:20.64 = 11494268 samples = 19548.1 CDDA sectors
File Size : 10.5M
Bit Rate : 321k
Sample Encoding: MPEG audio (layer I, II or III)
Comments :
Title=Envisage
Artist=Baelgevath
Album=Dissonance of Virtue
Tracknumber=2/5
Year=2019
Genre=9
Discnumber=1/1

[/more]

Register
(7) GorAtheist, Olethros, Ostinato, Rosen, SilentNidhogg, VALERY, vasiljev_sergej,
Jun 14 2019, 15:14:24 Elephant - Liechtenstein (2019)


*Artist: Elephant
*Album: Liechtenstein
*Year: 2019
*Genre: Instrumental/Psychedelic Doom Metal/Drone
*Country: Austria
*Format: mp3@CBR320kbps
*Size: 129MB

Tracklist:
01. Mantra / Shinra 24:04
02. Back To Earth 05:43
03. Crimson Dunes / Indigo Forest 20:24
04. Space 06:28
******************************
Total playing time: 56:39





[more=Technical info]
Input File: 02 - Back to Earth.mp3
Channels : 2
Sample Rate : 44100
Precision : 16-bit
Duration : 00:05:43.58 = 15152054 samples = 25768.8 CDDA sectors
File Size : 13.7M
Bit Rate : 320k
Sample Encoding: MPEG audio (layer I, II or III)
Comments :
Title=Back to Earth
Artist=Elephant
Album=Liechtenstein
Tracknumber=2
Year=2019
Genre=Metal
Discnumber=1

[/more]

Register
(4) Olethros, Ostinato, Rosen, Sabbathian,
Jun 14 2019, 14:58:02 Gorslava - Chromatic Ritual Magic (2019)


*Artist: Gorslava
*Album: Chromatic Ritual Magic
*Year: 2019
*Genre: Occult Doom Metal
*Country: United States
*Format: mp3@CBR320kbps
*Size: 100MB

Tracklist:
01. Incarnadine 04:19
02. Eau de Nil 04:43
03. Glaucous 05:26
04. Meline 04:03
05. Porphyrous 03:14
06. Thulian 04:22
07. Smaragdine 04:59
08. Nasturtium 04:07
09. Sable 03:25
10. Celeste 04:58
******************************
Total playing time: 43:36

Preview 1

[more=Technical info]
Input File: 2 - Eau de Nil.mp3
Channels : 2
Sample Rate : 44100
Precision : 16-bit
Duration : 00:04:43.91 = 12520607 samples = 21293.5 CDDA sectors
File Size : 11.4M
Bit Rate : 322k
Sample Encoding: MPEG audio (layer I, II or III)
Comments :
Title=Eau de Nil
Artist=Gorslava
Album=Chromatic Ritual Magic
Tracknumber=2
Year=2019
Genre=Metal
Discnumber=1

[/more]

Register
(10) avkruchinin, marilin, metala, Olethros, piledriver, robertho777, Rosen, SatanicPanzer, stub888, VALERY,
Jun 14 2019, 14:51:16 Dreamer N Fighters - The Fighters (2019)


*Artist: Dreamer N Fighters
*Album: The Fighters
*Year: 2019
*Genre: Heavy Metal
*Country: Indonesia
*Format: mp3@CBR320kbps
*Size: 113MB

Tracklist:
01. The One
02. The Fighters
03. Intoxicated
04. Rebel Song
05. Damailah Dunia
06. Of My Revenge
07. Zombie Attack
08. Mechanical Human
09. The Silence
10. Buruh Song
11. The Last Goodbye
******************************
Total playing time: 49:12




[more=Technical info]
Input File: 2 - The Fighters.mp3
Channels : 2
Sample Rate : 44100
Precision : 16-bit
Duration : 00:05:04.60 = 13433036 samples = 22845.3 CDDA sectors
File Size : 12.3M
Bit Rate : 322k
Sample Encoding: MPEG audio (layer I, II or III)
Comments :
Title=The Fighters
Artist=Dreamer N Fighters
Album=The Fighters
Tracknumber=2
Year=2019
Genre=Rock/Hard Rock/Metal
Discnumber=1

[/more]

Register
(7) GorAtheist, metala, metalwoman, Rosen, Rover, stumpheavyrock, Сварог Барг,
Jun 14 2019, 14:34:36 Cremisi - Dawn Of A New Era (2019)


*Artist: Cremisi
*Album: Dawn Of A New Era
*Year: 2019
*Genre: Symphonic Folk Metal
*Country: Italy
*Format: mp3@CBR320kbps
*Size: 113MB

Tracklist:
01. Dark Winds
02. The Black Death
03. Dawn of a New Era
04. Captain's Log
05. Confession
06. In the Name of the Lord
07. Waves of Sorrow
08. Battle of Lepanto
09. The Hanged Man
10. On the Moon
******************************
Total playing time: 49:11




[more=Technical info]
Input File: 2 - The Black Death.mp3
Channels : 2
Sample Rate : 44100
Precision : 16-bit
Duration : 00:05:16.31 = 13949183 samples = 23723.1 CDDA sectors
File Size : 12.8M
Bit Rate : 323k
Sample Encoding: MPEG audio (layer I, II or III)
Comments :
Title=The Black Death
Artist=Cremisi
Album=Dawn of a New Era
Tracknumber=2
Year=2019
Genre=Metal
Discnumber=1

[/more]

Register
(12) ace73pq, boardd, djsema4, fabriziomagno, GorAtheist, Olethros, Rosen, sayfut, sergsazan, sok, zhol, Сварог Барг,
Jun 14 2019, 14:26:37 A World In Grayscale - Galaxies Above (2019)


*Artist: A World In Grayscale
*Album: Galaxies Above
*Year: 2019
*Genre: Instrumental Post-Metal
*Country: United States
*Format: mp3@CBR320kbps
*Size: 111MB

Tracklist:
01. Universes Crumble 04:33
02. Crushed Bits 05:03
03. Empty Space 06:51
04. Kepler 08:08
05. The Law Of Decay 06:41
06. Polarization 06:16
07. (Faded) Into The Night 10:58
******************************
Total playing time: 48:30



[more=Technical info]
Input File: 2 - Crushed Bits.mp3
Channels : 2
Sample Rate : 44100
Precision : 16-bit
Duration : 00:05:03.43 = 13381219 samples = 22757.2 CDDA sectors
File Size : 12.2M
Bit Rate : 322k
Sample Encoding: MPEG audio (layer I, II or III)
Comments :
Title=Crushed Bits
Artist=A World In Grayscale
Album=Galaxies Above
Tracknumber=2
Year=2019
Genre=Rock/Metal
Discnumber=1

[/more]

Register
(2) Olethros, Rosen,
Jun 14 2019, 14:18:55 Dancing Sun - Firefable (2019)


*Artist: Dancing Sun
*Album: Firefable
*Year: 2019
*Genre: Experimental Metal
*Country: Italy
*Format: mp3@CBR320kbps
*Size: 90MB

Tracklist:
01. Healing Silence
02. Dead Waters
03. Laszlo Podenco's Dreams
04. Firefable
05. Birds of Fire
06. Midas
07. Tree
08. Lotte's Song
******************************
Total playing time: 39:11

[more=Technical info]
Input File: 2 - Dead Waters.mp3
Channels : 2
Sample Rate : 44100
Precision : 16-bit
Duration : 00:06:07.80 = 16219892 samples = 27584.9 CDDA sectors
File Size : 14.7M
Bit Rate : 321k
Sample Encoding: MPEG audio (layer I, II or III)
Comments :
Title=Dead Waters
Artist=Dancing Sun
Album=Firefable
Tracknumber=2
Year=2019
Genre=Metal
Discnumber=1

[/more]

Register
(5) avkruchinin, kimkayoung, metala, Olethros, Rosen,
Jun 14 2019, 14:11:29 Grasping Veld - Voyager (2019)


*Artist: Grasping Veld
*Album: Voyager
*Year: 2019
*Genre: Sludge/Post-Black Metal
*Country: Russian Federation
*Format: mp3@CBR320kbps
*Size: 122MB

Tracklist:
01. Let's Wait Forever 04:21
02. Dissolution Point, Pt. 1 04:44
03. Dissolution Point, Pt. 2 04:06
04. Voyager 07:58
05. Threshold 08:46
06. Oceans of Jupiter 06:23
07. A Mere Satellite 07:29
08. The Sleep 09:37
******************************
Total playing time: 53:24


Preview 2



[more=Technical info]
Input File: 2 - Dissolution Point, Pt. 1.mp3
Channels : 2
Sample Rate : 44100
Precision : 16-bit
Duration : 00:04:44.36 = 12540188 samples = 21326.9 CDDA sectors
File Size : 11.4M
Bit Rate : 321k
Sample Encoding: MPEG audio (layer I, II or III)
Comments :
Title=Dissolution Point, Pt. 1
Artist=Grasping Veld
Album=Voyager
Tracknumber=2
Year=2019
Genre=Metal
Discnumber=1

[/more]

Register
(5) GorAtheist, Olethros, robertho777, Rosen, VALERY,
Jun 14 2019, 14:01:40 Premature Burial - Antihuman (2019)


*Artist: Premature Burial
*Album: Antihuman
*Year: 2019
*Genre: Heavy/Thrash Metal
*Country: Spain
*Format: mp3@CBR320kbps
*Size: 107MB

Tracklist:
01. Back To Zero 03:23
02. Oceanic Burial Ground 05:50
03. Alpha Wolf In No Man's Land 04:55
04. Temperance I / Tombchild 05:36
05. Temperance II / Reptile Eyes 04:18
06. Condemned To The Twilight Zone 05:25
07. Creator And Destroyer 05:04
08. G'Mork Rising 05:21
09. The Grave Song 02:57
10. Seekers Of The Truth 03:59
******************************
Total playing time: 46:48




[more=Technical info]
Input File: 02 - Oceanic Burial Ground.mp3
Channels : 2
Sample Rate : 44100
Precision : 16-bit
Duration : 00:05:50.40 = 15452772 samples = 26280.2 CDDA sectors
File Size : 14.0M
Bit Rate : 320k
Sample Encoding: MPEG audio (layer I, II or III)
Comments :
Title=Oceanic Burial Ground
Artist=premature burial
Album=Antihuman
Tracknumber=2
Year=2019
Genre=Heavy Metal
Discnumber=1

[/more]

Register
(11) andreikun, boardd, GorAtheist, metala, Olethros, Rosen, Rover, sayfut, sergsazan, stumpheavyrock, vir2al,
Jun 14 2019, 13:51:30 Aitvaras - Aitvaras (2019)


*Artist: Aitvaras
*Album: Aitvaras
*Year: 2019
*Genre: Melodic Black Metal
*Country: Austria
*Format: mp3@CBR320kbps
*Size: 108MB

Tracklist:
01. Opus a Aitvaras 01:40
02. Coming from the Abyss 05:02
03. In Times of War 06:16
04. Pestkammer 07:47
05. Mourning Emptiness 08:48
06. Until Memories Fade 05:02
07. Verachtung 05:13
08. Paradise Denied 07:06
******************************
Total playing time: 46:54



[more=Technical info]
Input File: 02. Coming from the Abyss.mp3
Channels : 2
Sample Rate : 44100
Precision : 16-bit
Duration : 00:05:02.23 = 13328343 samples = 22667.2 CDDA sectors
File Size : 12.2M
Bit Rate : 322k
Sample Encoding: MPEG audio (layer I, II or III)
Comments :
Title=Coming from the Abyss
Artist=Aitvaras
Album=Aitvaras
Tracknumber=2/8
Year=2019
Genre=Alternative/Indie
Discnumber=1/1

[/more]

Register
(24) 1968_janeart, boardd, craP_cillA, djsema4, GorAtheist, kimkayoung, legion01, makarytch, metala, metalwoman, NachtWulf, older68, Olethros, RENыч, rickzammuto, robertho777, Rosen, sergsazan, Shadechaser, SilentNidhogg, VALERY, vasiljev_sergej, zhol, Сварог Барг,
Jun 14 2019, 13:43:24 Oenos - Noir II (2019)


*Artist: Oenos
*Album: Noir II
*Year: 2019
*Genre: Sludge/Doom/Post-Metal
*Country: United Kingdom
*Format: mp3@CBR320kbps
*Size: 96MB

Tracklist:
01. Animus
02. Blandano Valderice
03. Azei
04. Tao
05. Two Messengers
06. Protos
07. Vladika
08. Cancellus II
******************************
Total playing time: 42:33




[more=Technical info]
Input File: 02 - Blandano Valderice.mp3
Channels : 2
Sample Rate : 44100
Precision : 16-bit
Duration : 00:06:37.66 = 17536850 samples = 29824.6 CDDA sectors
File Size : 16.0M
Bit Rate : 321k
Sample Encoding: MPEG audio (layer I, II or III)
Comments :
Title=Blandano Valderice
Artist=oenos
Album=Noir II
Tracknumber=2
Year=2019
Genre=Metal
Discnumber=1

[/more]

Register
(5) Olethros, robertho777, Rosen, SatanicPanzer, VALERY,
Jun 14 2019, 13:34:42 Arkhé Mortem - Origin Of Death (2019)


*Artist: Arkhé Mortem
*Album: Origin Of Death
*Year: 2019
*Genre: Death Metal
*Country: Mexico
*Format: mp3@CBR320kbps
*Size: 60MB

Tracklist:
01. Origin Of Death
02. Of Shoggoths
03. Eternal Cosmic Darkness
04. Osmotic Lysis
05. Invocation
06. Paths To Madness
07. Cryptum
******************************
Total playing time: 25:26




[more=Technical info]
Input File: 02 - Of Shoggoths.mp3
Channels : 2
Sample Rate : 44100
Precision : 16-bit
Duration : 00:02:54.41 = 7691305 samples = 13080.5 CDDA sectors
File Size : 7.12M
Bit Rate : 327k
Sample Encoding: MPEG audio (layer I, II or III)
Comments :
Title=Of Shoggoths
Artist=Arkhe Mortem
Album=Origin of Death
Tracknumber=2
Year=2019
Genre=Death Metal
Discnumber=1

[/more]

Register
(7) GorAtheist, jollo, Olethros, Ostinato, Rosen, VALERY, Герб,
Jun 14 2019, 13:24:31 Austpex - Austpex (2019)


*Artist: Austpex
*Album: Austpex
*Year: 2019
*Genre: Melodic Death Metal
*Country: Chile
*Format: mp3@CBR320kbps
*Size: 87MB

Tracklist:
01. Circulo De Fuego
02. El Errante
03. En La Niebla
04. Lepper Faith
05. Manto Astral
06. Ruta Sin Rumbo
07. Vulture
08. El Paso Que Quema
******************************
Total playing time: 37:48





[more=Technical info]
Input File: 02 - Endless Circle.mp3
Channels : 2
Sample Rate : 44100
Precision : 16-bit
Duration : 00:03:48.09 = 10058769 samples = 17106.8 CDDA sectors
File Size : 9.31M
Bit Rate : 327k
Sample Encoding: MPEG audio (layer I, II or III)
Comments :
Title=Endless Circle
Artist=Enemy X
Album=Endless Circle
Tracknumber=2
Year=2019
Genre=Heavy Metal
Discnumber=1

[/more]

Register
(8) GorAtheist, metalwoman, Olethros, Rosen, sergsazan, VALERY, zhol, Сварог Барг,
Jun 14 2019, 13:14:42 Enemy X - Endless Circle (2019)


*Artist: Enemy X
*Album: Endless Circle
*Year: 2019
*Genre: Heavy/Groove Metal
*Country: United States
*Format: mp3@CBR320kbps
*Size: 80MB

Tracklist:
01. Worth Dying For
02. Endless Circle
03. Dying Light
04. High
05. Almost
06. Incomplete
07. Still We Rise
08. Bow Down
09. Wait For You
10. Last Dance
******************************
Total playing time: 34:48





[more=Technical info]
Input File: 02 - Endless Circle.mp3
Channels : 2
Sample Rate : 44100
Precision : 16-bit
Duration : 00:03:48.09 = 10058769 samples = 17106.8 CDDA sectors
File Size : 9.31M
Bit Rate : 327k
Sample Encoding: MPEG audio (layer I, II or III)
Comments :
Title=Endless Circle
Artist=Enemy X
Album=Endless Circle
Tracknumber=2
Year=2019
Genre=Heavy Metal
Discnumber=1

[/more]

Register
(6) boby9052, Olethros, Rosen, RotAnus, Rover, stumpheavyrock,
Jun 14 2019, 13:03:38 Rebel - Sakálok Földjén (2019)


*Artist: Rebel
*Album: Sakálok Földjén
*Year: 2019
*Genre: Heavy/Power Metal
*Country: Hungary
*Format: mp3@CBR320kbps
*Size: 84MB

Tracklist:
01. Világfa
02. Győztesek könnye
03. Angyal
04. Keresztek az égen
05. Vér, vas és becsület
06. Jég foglya
07. Szavak
08. Sakálok földjén
******************************
Total playing time: 36:29





[more=Technical info]
Input File: 02. Győztesek könnye.mp3
Channels : 2
Sample Rate : 44100
Precision : 16-bit
Duration : 00:04:47.39 = 12673987 samples = 21554.4 CDDA sectors
File Size : 11.7M
Bit Rate : 324k
Sample Encoding: MPEG audio (layer I, II or III)
Comments :
Title=Győztesek könnye
Artist=Rebel
Album=Sakálok földjén
Tracknumber=2
Year=2019
Genre=Heavy Metal
Discnumber=1

[/more]

Register
(5) metalwoman, Olethros, Rosen, Rover, Сварог Барг,
Jun 13 2019, 15:38:39 Soulshifter - My Weak Heart [ep] (2019)


*Artist: Soulshifter
*Album: My Weak Heart [ep]
*Year: 2019
*Genre: Melodic Death Metal
*Country: Germany
*Format: mp3@CBR320kbps
*Size: 68MB

Tracklist:
01. Cut the Silvercord
02. Soulshift
03. Reality Is More Evil Than a Demon
04. Abyss of the Soul
05. My Weak Heart
06. Ballad of a Carnivore
07. Withered Rose
******************************
Total playing time: 29:35



[more=Technical info]
Input File: 02. Soulshift.mp3
Channels : 2
Sample Rate : 44100
Precision : 16-bit
Duration : 00:04:42.48 = 12457368 samples = 21186 CDDA sectors
File Size : 11.4M
Bit Rate : 323k
Sample Encoding: MPEG audio (layer I, II or III)
Comments :
Title=Soulshift
Artist=Soulshifter
Album=My Weak Heart
Tracknumber=2/7
Year=2019
Genre=9
Discnumber=1/1

[/more]

Register
(15) BugEyes, djsema4, GorAtheist, goxther, metalwoman, older68, Olethros, Olrak, Rosen, satanist666, sergsazan, VALERY, wanderer73, zhol, Сварог Барг,
Jun 13 2019, 15:31:02 Ingested - Call Of The Void [ep] (2019)


*Artist: Ingested
*Album: Call Of The Void [ep]
*Year: 2019
*Genre: Brutal Death Metal/Deathcore
*Country: United Kingdom
*Format: mp3@CBR320kbps
*Size: 40MB

Tracklist:
01. Mouth of the Abyss 04:42
02. Eternal Kingdoms - Part I 03:56
03. Eternal Kingdoms - Part II 02:53
04. The Empyrean Creed 05:50
******************************
Total playing time: 17:21






[more=Technical info]
Input File: 2 - Eternal Kingdoms, Pt. 1.mp3
Channels : 2
Sample Rate : 44100
Precision : 16-bit
Duration : 00:03:57.23 = 10461887 samples = 17792.3 CDDA sectors
File Size : 9.53M
Bit Rate : 321k
Sample Encoding: MPEG audio (layer I, II or III)
Comments :
Title=Eternal Kingdoms, Pt. 1
Artist=Ingested
Album=Call of the Void
Tracknumber=2
Year=2019
Genre=Metal
Discnumber=1

[/more]

Register
(12) ALEXSATHANAS, BandR75, Foneg, GorAtheist, Joey_73, maochen, Morbid, older68, Olethros, Ostinato, Rosen, Герб,
Jun 13 2019, 15:24:18 Parca - Obscena Agonía (2019)


*Artist: Parca
*Album: Obscena Agonía
*Year: 2019
*Genre: Death Metal
*Country: Ecuador
*Format: mp3@CBR320kbps
*Size: 62MB

Tracklist:
01. Intro
02. Trago para el Muerto
03. Pena de Muerte
04. Salve Satan
05. Baila el Pornogore
06. C.H.E.P.A.
07. Guerra y Matanza
08. Plan Maestro
******************************
Total playing time: 26:58




[more=Technical info]
Input File: 02. Trago para el Muerto.mp3
Channels : 2
Sample Rate : 44100
Precision : 16-bit
Duration : 00:02:41.42 = 7118710 samples = 12106.6 CDDA sectors
File Size : 6.57M
Bit Rate : 325k
Sample Encoding: MPEG audio (layer I, II or III)
Comments :
Title=Trago para el Muerto
Artist=Parca
Album=Obscena Agonía
Tracknumber=2/8
Year=2019
Genre=9
Discnumber=1/1

[/more]

Register
(9) alikkon, andreikun, GorAtheist, jollo, MMMMM, Olethros, Rosen, VALERY, Герб,

1351 Pages V   1 2 3 > » 
- Lo-Fi Version Support form
Copyrights and abuse reports form
Time is now: 18th June 2019 - 06:15:09