Welcome Guest ( Log In | Register )

История благодарностей участнику necroscum ::: Спасибо сказали: 359184 раз(а)
Дата поста: В теме: За сообщение: Спасибо сказали:
Yesterday, 12:50:55 Haggus & Botched Anastomosis J-Pouch - Grotesque Mincegore Atrocity [split] (2018)


*Artist: Haggus & Botched Anastomosis J-Pouch
*Album: Grotesque Mincegore Atrocity [split]
*Year: 2018
*Genre: Goregrind | Goregrind
*Country: United States | United States
*Format: mp3@CBR320kbps
*Size: 25MB

Tracklist:
Haggus:
01. I Can't Get No Putrefaction 02:35
02. Pulpified Cadaver 01:38
03. Biopsy In The Basement 01:04
Botched Anastomosis J-Pouch:
04. Malt Liquor Schistosomiasis/ Self-Dissection Exploration To Find Ascariasis/ Infectious Chagas Disease In My Feces/ Blinding Trachoma/ The Exotics Of A Buruli Ulcer/ Hydatid Worms Affecting The Brain & Other Organs/ Rabies.../ Mysterious Cause Of Death 05:54
******************************
Total playing time: 11:11






[more=Technical info]
Input File: 02. Pulpified Cadaver.mp3
Channels : 2
Sample Rate : 44100
Precision : 16-bit
Duration : 00:01:38.59 = 4347863 samples = 7394.32 CDDA sectors
File Size : 4.02M
Bit Rate : 326k
Sample Encoding: MPEG audio (layer I, II or III)
Comments :
Title=Pulpified Cadaver
Artist=HAGGUS
Album=Botched Anastomosis J-Pouch Split CS
Tracknumber=2
Year=2018

[/more]

Register
(4) Anhra Mainyu, Rosen, RotAnus, Герб,
Yesterday, 12:29:31 Various Artists - Hexagonectomy Brutal Deathsquad [split] (2018)


*Artist: Various Artists
*Album: Hexagonectomy Brutal Deathsquad [split]
*Year: 2018
*Genre: Brutal Death Metal
*Country: France
*Format: mp3@CBR320kbps
*Size: 75MB

Tracklist:
Scumbags:
01. Cenotaph Of Disgust (Feat. Quentin Of Hurakan) 02:10
Arachnoctopussya:
02. Drowning Virgin Teen Beneath Necroslime 02:34
The Lump:
03. Scabs And Crabs 03:48
Hurakan:
04. Uraken Stellar Punch (Feat. Geoffrey Of Inseminate Degerenacy And Renan Of Arachnoctopussya) 03:09
Wasteland:
05. Disciples Of The Sun 03:18
Putridity Pleasure Party:
06. Atrocious Torment Of Extraterrestrial Majesty 03:37
Guttural Deepthroat:
07. Worms In Her Pussy 03:39
Inseminate Degeneracy:
08. Genetic Disorder 04:04
09. Hexagonectomy Brutal Deathsquad (Feat. All The Singers On This Album) (Bonus Track) 05:26
******************************
Total playing time: 31:45







[more=Technical info]
Input File: 02. Arachnoctopussya - Drowning Virgin Teen Beneath Necroslime.mp3
Channels : 2
Sample Rate : 44100
Precision : 16-bit
Duration : 00:02:34.73 = 6823637 samples = 11604.8 CDDA sectors
File Size : 6.40M
Bit Rate : 331k
Sample Encoding: MPEG audio (layer I, II or III)
Comments :
Title=Arachnoctopussya - Drowning Virgin Teen Beneath Necroslime
Artist=The French Slam Family
Album=Hexagonectomy Brutal Deathsquad [Official 8​-​way Split Album]
Tracknumber=2
Year=2018

[/more]

Register
(3) Rosen, uk82, Герб,
Yesterday, 11:59:29 Disinterested Handjob - Imagine [single] (2018)


*Artist: Disinterested Handjob
*Album: Imagine [single]
*Year: 2018
*Genre: Experimental Grindcore
*Country: Australia
*Format: mp3@CBR320kbps
*Size: 7MB

Tracklist:
01. Imagine (Feat. Yoko Ono) 03:12
******************************
Total playing time: 3:12




[more=Technical info]
Input File: 01. Imagine (Yoko Ono).mp3
Channels : 2
Sample Rate : 44100
Precision : 16-bit
Duration : 00:03:12.17 = 8474565 samples = 14412.5 CDDA sectors
File Size : 7.80M
Bit Rate : 325k
Sample Encoding: MPEG audio (layer I, II or III)
Comments :
Title=Imagine (Yoko Ono)
Artist=Disinterested Handjob
Album=Imagine feat. Yoko Ono
Tracknumber=1
Year=2018

[/more]

Register
(1) Rosen,
Yesterday, 05:02:16 Impaled Offering - The Agony Of Rebirth (2018)


*Artist: Impaled Offering
*Album: The Agony Of Rebirth
*Year: 2018
*Genre: Blackened Death Metal/Goregrind
*Country: United States
*Format: mp3@CBR320kbps
*Size: 72MB

Tracklist:
01. Intravenous Hatred
02. Crowbar Disfigurement
03. Metempsychosis
04. Cowering Inside the Catacombs
05. Slumbers of Reality
06. Unearth
07. Slavedriven Into Oblivion
08. Meditation Through Flesh
09. The Agony of Rebirth
******************************
Total playing time: 31:07



[more=Technical info]
Input File: 02. Crowbar Disfigurement.mp3
Channels : 2
Sample Rate : 44100
Precision : 16-bit
Duration : 00:04:11.86 = 11107158 samples = 18889.7 CDDA sectors
File Size : 10.1M
Bit Rate : 321k
Sample Encoding: MPEG audio (layer I, II or III)
Comments :
Title=Crowbar Disfigurement
Artist=Impaled Offering
Album=The Agony of Rebirth
Tracknumber=2/9
Year=2018

[/more]

Register
(6) AHBAnep, metala, older68, Rosen, satanist666, VALERY,
Yesterday, 03:22:00 Eighty One Hundred - Heaven In Flames (2018)


*Artist: Eighty One Hundred
*Album: Heaven In Flames
*Year: 2018
*Genre: Heavy/Power Metal
*Country: Italy
*Format: mp3@CBR320kbps
*Size: 85MB

Tracklist:
01. Overture 80100
02. Heaven In Flames (Album Version)
03. Cry Out
04. Payback My Time
05. No Way Out
06. Mater Gaia (feat. Ale De Mayo)
07. Power Of Revolution
******************************
Total playing time: 36:42



[more=Technical info]
Input File: 02. Heaven In Flames (Album Version).mp3
Channels : 2
Sample Rate : 44100
Precision : 16-bit
Duration : 00:05:35.88 = 14812220 samples = 25190.9 CDDA sectors
File Size : 13.5M
Bit Rate : 322k
Sample Encoding: MPEG audio (layer I, II or III)
Comments :
Title=Heaven In Flames (Album Version)
Artist=Eighty One Hundred
Album=Heaven In Flames
Tracknumber=2/7
Year=2018

[/more]

Register
(8) infozahist, metala, Rosen, Rover, sadmannn, satanist666, sergsazan, vir2al,
Oct 14 2018, 06:22:09 As I Destruct - From Fear To Oblivion (2018)


*Artist: As I Destruct
*Album: From Fear To Oblivion
*Year: 2018
*Genre: Melodic Death/Groove Metal
*Country: Australia
*Format: mp3@CBR320kbps
*Size: 114MB

Tracklist:
1. Prologue
2. Shattered Hearts
3. Black Tie Stigma
4. Greed Agreement
5. A Question Of Faith
6. Asher's Lullaby
7. My Endless Love
8. Vultures Of Virtue
9. Thredson
10. Devil You Know (Devil You Created)
11. Redemption
12. Epilogue
******************************
Total playing time: 49:26

[more=Technical info]
Input File: 02. Shattered Hearts.mp3
Channels : 2
Sample Rate : 44100
Precision : 16-bit
Duration : 00:05:39.04 = 14951620 samples = 25427.9 CDDA sectors
File Size : 13.6M
Bit Rate : 321k
Sample Encoding: MPEG audio (layer I, II or III)
Comments :
Title=Shattered Hearts
Artist=As I Destruct
Album=From Fear To Oblivion
Tracknumber=2/12
Year=2018

[/more]

Register
(5) Rosen, TeamatSE, terron, VALERY, Герб,
Oct 14 2018, 05:03:21 Firefield - Final Haven (2018)


*Artist: Firefield
*Album: Final Haven
*Year: 2018
*Genre: Power Metal
*Country: United States
*Format: mp3@CBR320kbps
*Size: 94MB

Tracklist:
01. Overture
02. Shinigami Eyes
03. Phantom of the North
04. The Final Haven
05. Lakes of Ice
06. Break the Silence
07. Storms of Callisto
08. Celestial Worlds
09. Celestial Worlds, Pt. 2
******************************
Total playing time: 45:51



[more=Technical info]
Input File: 02. Shinigami Eyes.mp3
Channels : 2
Sample Rate : 44100
Precision : 16-bit
Duration : 00:04:34.41 = 12101393 samples = 20580.6 CDDA sectors
File Size : 11.0M
Bit Rate : 320k
Sample Encoding: MPEG audio (layer I, II or III)
Comments :
Title=Shinigami Eyes
Artist=FireField
Album=Final Haven
Tracknumber=2/10
Year=2018

[/more]

Register
(4) metala, Rosen, Rover, wn129aa,
Oct 14 2018, 04:10:01 Total Order - Illusionary (2018)


*Artist: Total Order
*Album: Illusionary
*Year: 2018
*Genre: Melodic Progressive Metal
*Country: Australia
*Format: mp3@CBR320kbps
*Size: 109MB

Tracklist:
01. Prism 04:20
02. Shadows 04:50
03. Rebirth 05:44
04. The Garden of Eden 05:29
05. Illusionary 05:50
06. Gates of Shambhala 05:19
07. Entrapment 04:05
08. God Machine 04:07
09. Perpetual Paradox 07:26
******************************
Total playing time: 47:10



[more=Technical info]
Input File: 02. Shadows.mp3
Channels : 2
Sample Rate : 44100
Precision : 16-bit
Duration : 00:04:50.14 = 12794954 samples = 21760.1 CDDA sectors
File Size : 11.7M
Bit Rate : 322k
Sample Encoding: MPEG audio (layer I, II or III)
Comments :
Title=Shadows
Artist=Total Order
Album=Illusionary
Tracknumber=2/9
Year=2018

[/more]

Register
(6) avkruchinin, LiarOfAngmar, metala, Rosen, Rover, snot,
Oct 14 2018, 04:07:08 The Ripper - Hell Rising (2018)


*Artist: The Ripper
*Album: Hell Rising
*Year: 2018
*Genre: Heavy/Speed Metal
*Country: Mexico
*Format: mp3@CBR320kbps
*Size: 84MB

Tracklist:
01. Royal Death
02. Carronero
03. Hellripper
04. Rock N' Roll y Heavy Metal
05. Demon Road
06. Bloody Soul
07. Reborn from the Ashes
08. Epic Death (Epicness)
******************************
Total playing time: 36:20

[more=Technical info]
Input File: 02. Carronero.mp3
Channels : 2
Sample Rate : 44100
Precision : 16-bit
Duration : 00:04:36.55 = 12195855 samples = 20741.2 CDDA sectors
File Size : 11.1M
Bit Rate : 322k
Sample Encoding: MPEG audio (layer I, II or III)
Comments :
Title=Carronero
Artist=THE RIPPER
Album=Hell Rising
Tracknumber=2/8
Year=2018

[/more]

Register
(8) andreikun, avkruchinin, boby9052, Darkness, metala, pichileon, Rosen, Rover,
Oct 14 2018, 04:00:30 Arawn - Zrozeni (2018)


*Artist: Arawn
*Album: Zrozeni
*Year: 2018
*Genre: Crossover Thrash Metal
*Country: Czech Republic
*Format: mp3@CBR320kbps
*Size: 83MB

Tracklist:
01. Arawn 04:52
02. Krásná Mrtvá 03:50
03. Krev 05:04
04. Lidice 03:48
05. Můžeš 03:58
06. Tma 03:35
07. Válečník 05:24
08. Vrah 03:20
09. Zákon Jungle 03:20
10. Zvuky Války 02:57
******************************
Total playing time: 40:08



[more=Technical info]
Input File: 02. Arawn.mp3
Channels : 2
Sample Rate : 44100
Precision : 16-bit
Duration : 00:04:52.23 = 12887123 samples = 21916.9 CDDA sectors
File Size : 11.7M
Bit Rate : 321k
Sample Encoding: MPEG audio (layer I, II or III)
Comments :
Title=Arawn
Artist=Arawn
Album=Zrozeni
Tracknumber=2/10
Year=2018

[/more]

Register
(5) ehfeka44, pichileon, Rosen, wgs73, Yarri,
Oct 13 2018, 12:36:33 Bleach Milk - Bleach Milk [compilation] (2018)


*Artist: Bleach Milk
*Album: Bleach Milk [compilation]
*Year: 2018
*Genre: Grindcore
*Country: United States
*Format: mp3@CBR320kbps
*Size: 35MB

Tracklist:
01. Behind Me 01:04
02. Blooming Death 00:26
03. Fragile Order 00:53
04. Insomnia Dreams 01:07
05. No Human 00:37
06. Stone Baths 00:35
07. God's Vein 00:17
08. Smelling The Burning Trees 00:44
09. Root Pocket 02:33
10. Myth 00:35
11. Fuckjob 00:23
12. Reviews 01:25
13. Ghost Costume 01:01
14. Collateral 02:04
15. Untitled 00:45
******************************
Total playing time: 14:29



[more=Technical info]
Input File: 02. Blooming Death.mp3
Channels : 1
Sample Rate : 44100
Precision : 16-bit
Duration : 00:00:26.05 = 1148585 samples = 1953.38 CDDA sectors
File Size : 1.18M
Bit Rate : 362k
Sample Encoding: MPEG audio (layer I, II or III)
Comments :
Title=Blooming Death
Artist=BLEACH MILK
Album=S/T
Tracknumber=2
Year=2018

[/more]

Register
(5) Rosen, satanist666, spiritualdecay666, wgs73, Герб,
Oct 13 2018, 12:16:12 Fecal Hammer - Promo 2018 [demo] (2018)


*Artist: Fecal Hammer
*Album: Promo 2018 [demo]
*Year: 2018
*Genre: Brutal Death Metal/Goregrind
*Country: United States
*Format: mp3@CBR320kbps
*Size: 10MB

Tracklist:
01. Cum Cannon Crushing Cankerous Cunts 00:53
02. Anally Inserting Shit Infected Testicles 01:20
03. Spewing Scatified Spermage 01:16
04. Pussy-Fucked With Faecal Crusts 00:56
******************************
Total playing time: 4:25



[more=Technical info]
Input File: 02. Anally Inserting Shit Infected Testicles.mp3
Channels : 2
Sample Rate : 44100
Precision : 16-bit
Duration : 00:01:20.41 = 3546037 samples = 6030.68 CDDA sectors
File Size : 3.27M
Bit Rate : 326k
Sample Encoding: MPEG audio (layer I, II or III)
Comments :
Title=Anally Inserting Shit Infected Testicles
Artist=FECAL HAMMER
Album=Promo 2018
Tracknumber=2
Year=2018

[/more]

Register
(4) carnegrinder, Rosen, spiritualdecay666, Герб,
Oct 12 2018, 12:22:40 Something In The Terrace - Feed The Progression [ep] (2016)


*Artist: Something In The Terrace
*Album: Feed The Progression [ep]
*Year: 2016
*Genre: Grindcore/Powerviolence
*Country: United States
*Format: flac
*Size: 146MB

Tracklist:
01. Above Your Cloud 01:51
02. Aim To Please 02:49
03. Don't Give Up 02:09
04. Eye Sight 02:02
05. Face The Battles 00:58
06. Skrilla Season 02:33
******************************
Total playing time: 12:22





[more=Extended info]Bandcamp purchase

Exclusive for Metalarea.org[/more]

Register
(2) Rosen, wgs73,
Oct 12 2018, 12:10:53 My Minds Mine - Passengers Of The Void (2018)


*Artist: My Minds Mine
*Album: Passengers Of The Void
*Year: 2018
*Genre: Grindcore
*Country: Netherlands
*Format: mp3@CBR320kbps
*Size: 38MB

Tracklist:
01. Aftermath 01:07
02. Hate Formation 00:58
03. Slave Abuse 01:11
04. The Promised Resurrection 01:02
05. Passenger of the Void 01:00
06. Cocoon of Conform 01:11
07. (They Rather) See Us Dead 01:33
08. Deceptive Attitude 01:26
09. War Corrosion 00:56
10. Nothing but Teeth 01:12
11. Empty Carcass 00:47
12. The Omnipotent God 00:50
13. Rot Away 00:47
14. Faceless Plague 02:58
******************************
Total playing time: 16:58





[more=Technical info]
Input File: 02. Hate Formation.mp3
Channels : 2
Sample Rate : 44100
Precision : 16-bit
Duration : 00:00:58.94 = 2599166 samples = 4420.35 CDDA sectors
File Size : 2.52M
Bit Rate : 342k
Sample Encoding: MPEG audio (layer I, II or III)
Comments :
Title=Hate Formation
Artist=My Minds Mine
Album=Passengers of the Void
Tracknumber=2
Year=2018
Discnumber=1

[/more]

Register
(10) BandR75, FUDEDOR, Ostinato, Rosen, satanist666, StrixPT, wgs73, WX419, Zhelezjaka, Герб,
Oct 12 2018, 04:04:18 Bringer Of Sorrow - They Dwell In Lightning (2018)


*Artist: Bringer Of Sorrow
*Album: They Dwell In Lightning
*Year: 2018
*Genre: Sludge/Doom Metal
*Country: United States
*Format: mp3@CBR320kbps
*Size: 74MB

Tracklist:
01. Saturns Throne
02. Moon Dance
03. Bringer of Sorrow
04. Circle of Salt
05. Noiseless Infinity
06. They Dwell in Lightning
07. Bloodhawk
08. When the Ground Bleeds Black
09. Spell Master
10. Vessel
******************************
Total playing time: 32:04



[more=Technical info]
Input File: 02. Moon Dance.mp3
Channels : 2
Sample Rate : 44100
Precision : 16-bit
Duration : 00:05:01.71 = 13305323 samples = 22628.1 CDDA sectors
File Size : 12.2M
Bit Rate : 322k
Sample Encoding: MPEG audio (layer I, II or III)
Comments :
Title=Moon Dance
Artist=Bringer of Sorrow
Album=They Dwell in Lightning
Tracknumber=2/10
Year=2018

[/more]

Register
(4) marilin, Rosen, stub888, VALERY,
Oct 12 2018, 04:01:43 Era Zero - Era Zero (2018)


*Artist: Era Zero
*Album: Era Zero
*Year: 2018
*Genre: Progressive Power Metal
*Country: Spain
*Format: mp3@CBR320kbps
*Size: 91MB

Tracklist:
01. Despertar
02. Quimera
03. Ritual
04. Babilonia
05. Lobo
06. Sirena
07. Alma Negra
******************************
Total playing time: 39:51



[more=Technical info]
Input File: 02. Quimera.mp3
Channels : 2
Sample Rate : 44100
Precision : 16-bit
Duration : 00:06:56.10 = 18350186 samples = 31207.8 CDDA sectors
File Size : 16.6M
Bit Rate : 320k
Sample Encoding: MPEG audio (layer I, II or III)
Comments :
Title=Quimera
Artist=Era Zero
Album=Era Zero
Tracknumber=2/7
Year=2018

[/more]

Register
(4) Foneg, Herrant, Rosen, Rover,
Oct 10 2018, 12:54:17 Liquid Viscera - Oozing Curdled Fluids [demo] (2018)


*Artist: Liquid Viscera
*Album: Oozing Curdled Fluids [demo]
*Year: 2018
*Genre: Death Metal/Goregrind
*Country: United States
*Format: mp3@CBR320kbps
*Size: 8MB

Tracklist:
01. Swarmed With Maggots 01:15
02. Sepsis 01:06
03. Charred Corpses 01:14
******************************
Total playing time: 3:35



[more=Technical info]
Input File: 02. Sepsis.mp3
Channels : 2
Sample Rate : 44100
Precision : 16-bit
Duration : 00:01:06.38 = 2927358 samples = 4978.5 CDDA sectors
File Size : 2.78M
Bit Rate : 335k
Sample Encoding: MPEG audio (layer I, II or III)
Comments :
Title=Sepsis
Artist=Liquid Viscera
Album=Oozing Curdled Fluids
Tracknumber=2
Year=2018

[/more]

Register
(3) carnegrinder, Rosen, RotAnus,
Oct 10 2018, 12:41:54 Gorecock - Brie!! (2018)


*Artist: Gorecock
*Album: Brie!!
*Year: 2018
*Genre: Goregrind
*Country: United States
*Format: mp3@CBR320kbps
*Size: 74MB

Tracklist:
01. Robbing The Sperm Bank 02:12
02. Testicular Christmas Parasites 00:52
03. A Capella, With Only The Deepest Throat 01:09
04. Cum Out Your Eyes 01:21
05. Raped And Beaten Into Oblivion 03:01
06. Philharmonic Gorchestra 01:57
07. Organ Grinder 00:50
08. A Giant Veiny Triumphant Boner 00:24
09. Mr03 PR0N PL0X 02:31
10. McBorted 00:43
11. Kidnapped By Gorecock And Forced To Eat Your Own Balls 01:03
12. Fishrape 01:05
13. Bottled Dolphin Fetuses (BP Did The Right Thing) 01:59
14. Dick Basket: The Voyage Of Truth 03:01
15. Decapitating The Jonas Brothers 01:40
16. Beating Vegans To Death With Dead Animals 01:19
17. Forced To Drink Vomited Semen Off A Dirty Nightclub Bathroom Floor 09:00
******************************
Total playing time: 34:07






[more=Technical info]
Input File: Gorecock - BRIE!! - 02 Testicular Christmas Parasites.mp3
Channels : 2
Sample Rate : 44100
Precision : 16-bit
Duration : 00:00:52.46 = 2313310 samples = 3934.2 CDDA sectors
File Size : 2.21M
Bit Rate : 337k
Sample Encoding: MPEG audio (layer I, II or III)
Comments :
Title=Testicular Christmas Parasites
Artist=Gorecock
Album=BRIE!!
Tracknumber=2
Year=2010

[/more]

Register
(5) carnegrinder, jollo, Rosen, satanist666, vyacheslav,
Oct 10 2018, 12:25:02 Cannabinoid Hyperemesis Syndrome - A Specific Cause Of Cyclical Vomiting [ep] (2018)


*Artist: Cannabinoid Hyperemesis Syndrome
*Album: A Specific Cause Of Cyclical Vomiting [ep]
*Year: 2018
*Genre: Goregrind
*Country: Spain
*Format: mp3@CBR320kbps
*Size: 16MB

Tracklist:
01. Cannabic-Vomitive Sensation 00:28
02. Vaporized Death 00:22
03. Face-Deformed Cogollo 00:30
04. Caterpillar Larva Infestation 00:32
05. Purulent Regurgitation 00:03
06. Voy A Dejarte Como Un Colador (Con La Ceniza De Mi Porro De Hachis) 00:02
07. Welcome To Tijuana, Machetes, Cráneos Y Marihuana 00:04
08. Skullbong 00:11
09. Dismembered Pothead 00:38
10. Breathing Your Cadaveric Gases 00:29
11. Twenty-Meters Puke Shot 00:15
12. Explosión Gastrica De Cocaína 00:12
13. Orverry Corpse 00:27
14. Self-Fecunded Femme Haze 00:06
15. Boweljoint Inhalation 00:05
16. Irrigation System With Viscera Remains 00:20
17. Gore-Induced Rastafari 00:13
18. Crystallized Lungs By Excessive Fungi Smoke 00:26
19. Human Cuttings 00:07
******************************
Total playing time: 5:30



[more=Technical info]
Input File: 02. Vaporized Death.mp3
Channels : 2
Sample Rate : 44100
Precision : 16-bit
Duration : 00:00:22.68 = 999968 samples = 1700.63 CDDA sectors
File Size : 1.06M
Bit Rate : 375k
Sample Encoding: MPEG audio (layer I, II or III)
Comments :
Title=Vaporized Death
Artist=Cannabinoid Hyperemesis Syndrome
Album=A Specific Cause of Cyclical Vomiting
Tracknumber=2
Year=2018

[/more]

Register
(2) Rosen, satanist666,
Oct 10 2018, 01:27:14 Suburban Terrorist - Inhuman Breed (2018)


*Artist: Suburban Terrorist
*Album: Inhuman Breed
*Year: 2018
*Genre: Death Metal/Hardcore
*Country: Slovakia
*Format: mp3@CBR320kbps
*Size: 72MB

Tracklist:
01. A Wave of Filth and Trash
02. Yawning Emptiness
03. Mindblowing Attack
04. Reign of Evil
05. Putridity of Humanity
06. Unearth the Human Flesh
07. Cloned and Mutilated
08. Inhuman Breed
******************************
Total playing time: 31:15



[more=Technical info]
Input File: 02. Yawning Emptiness.mp3
Channels : 2
Sample Rate : 44100
Precision : 16-bit
Duration : 00:03:39.10 = 9662486 samples = 16432.8 CDDA sectors
File Size : 8.84M
Bit Rate : 323k
Sample Encoding: MPEG audio (layer I, II or III)
Comments :
Title=Yawning Emptiness
Artist=SUBURBAN TERRORIST
Album=Inhuman Breed
Tracknumber=2/8
Year=2018

[/more]

Register
(8) jollo, lary_veel, lldma, Ostinato, Rosen, vyacheslav, WX419, Герб,
Oct 9 2018, 13:06:40 Goregasmatron & Discharge Of The Bloodyentrails - Goregasmatron/Discharge Of The Bloodyentrails [split] (2018)


*Artist: Goregasmatron & Discharge Of The Bloodyentrails
*Album: Goregasmatron/Discharge Of The Bloodyentrails [split]
*Year: 2018
*Genre: Goregrind/Noisegrind | Goregrind
*Country: Philippines | Colombia
*Format: mp3@CBR320kbps
*Size: 42MB

Tracklist:
Goregasmatron:
01. Existential Proctologist; The Rectal Point Of Entry 00:54
02. Cosmic Copulation Of The Interstellar Genetalias, Kayatus Coitum 01:17
03. The Awakening; Rotting Lewd Cerberus Of Gore The Laughing Emissary Of Terror And Horror 00:54
04. Scat Rites; Summoning The Coprosaurus Verse LXIX 00:54
05. Opening The Intradimensional Rift Through Your Ass 00:53
06. Padre Kalibanga Konstipado Karatista Invoking The Copro Miracles Of Mechupatamia 00:47
07. Meditative Approach To Defecation From The 16th Dimension 01:14
08. Ancient Extraterrestrial Manuscript Of Deities To Sensual Ejaculation Volume DCLXVI 00:32
09. A Cataclysmic Orgy By The Sky Deities At The Primordial Saltwater Sea Of Putang Inammu 01:24
10. An Elixir To All Ailments Conjured By PapaColognezuzu Himself, Ngilngig Nga Tambal 01:01
Discharge Of The BloodyEntrails:
11. Fear The Seikoi (Feat. Juliet Ringsrud Of Schoolgirl Upon Thy Corpse) 06:18
12. Take This Apology Bitch 01:44
******************************
Total playing time: 17:52







[more=Technical info]
Input File: 11. Fear The Seikoi.mp3
Channels : 2
Sample Rate : 44100
Precision : 16-bit
Duration : 00:06:18.20 = 16678400 samples = 28364.6 CDDA sectors
File Size : 15.2M
Bit Rate : 322k
Sample Encoding: MPEG audio (layer I, II or III)
Comments :
Title=11 - Discharge Of The BloodyEntrails - Fear The Seikoi (Feat. Juliet Ringsrud of Schoolgirl Upon Thy Corpse)
Artist=Goregasmatron & Discharge Of The BloodyEntrails
Album=Goregasmatron & Discharge Of The BloodyEntrails - Split Tape
Tracknumber=11
Year=2018

[/more]

Register
(5) A.L.Rapsod, carnegrinder, Rosen, satanist666, Герб,
Oct 9 2018, 12:37:53 Haggus - Mincecore Agenda [ep] (2016)


*Artist: Haggus
*Album: Mincecore Agenda [ep]
*Year: 2016
*Genre: Grindcore/Goregrind
*Country: United States
*Format: mp3@CBR320kbps
*Size: 9MB

Tracklist:
01. Vivisection, Why? 00:28
02. Mincecore Agenda 01:30
03. Organ Grinder 00:19
04. Legalized Murder 01:50
******************************
Total playing time: 4:07





[more=Technical info]
Input File: 02. Mincecore Agenda.mp3
Channels : 2
Sample Rate : 44100
Precision : 16-bit
Duration : 00:01:30.91 = 4009175 samples = 6818.32 CDDA sectors
File Size : 3.70M
Bit Rate : 326k
Sample Encoding: MPEG audio (layer I, II or III)
Comments :
Title=Mincecore Agenda
Artist=HAGGUS
Album=Mincecore Agenda EP CS
Tracknumber=2
Year=2016

[/more]

Register
(4) Rosen, RotAnus, satanist666, Герб,
Oct 9 2018, 12:06:09 Hematoespermia - Hematoespermia [ep] (2018)


*Artist: Hematoespermia
*Album: Hematoespermia [ep]
*Year: 2018
*Genre: Goregrind
*Country: Chile
*Format: mp3@CBR320kbps
*Size: 17MB

Tracklist:
01. Neoplastia Intraepitelial Maligna 00:42
02. Me Pican Las Ladillas 00:42
03. Uretritis De Nongonococcal 00:43
04. Lesiones Cervicauterinas Precancerosas 01:21
05. Extravasación Leucocitaria En La Glándula Seminal Infectada 00:53
06. Treponema Pallidum 00:56
07. Doble Meato Urinario 00:44
08. Secreción Sanguinolenta Uretral Post Coital 00:37
******************************
Total playing time: 6:38





[more=Technical info]
Input File: 02. Me Pican las Ladillas.mp3
Channels : 2
Sample Rate : 44100
Precision : 16-bit
Duration : 00:00:42.95 = 1893963 samples = 3221.03 CDDA sectors
File Size : 1.91M
Bit Rate : 357k
Sample Encoding: MPEG audio (layer I, II or III)
Comments :
Title=Me Pican las Ladillas
Artist=Hematoespermia
Album=Hematoespermia - Ep 2018
Tracknumber=2
Year=2018

[/more]

Register
(4) carnegrinder, Rosen, satanist666, Герб,
Oct 8 2018, 13:16:07 LéoxGérard & Paramécie Balnéaire & Milf & Heterophobic - 4 Ways To Anal Porn And Shemale Pov [split] (2018)


*Artist: LéoxGérard & Paramécie Balnéaire & Milf & Heterophobic
*Album: 4 Ways To Anal Porn And Shemale Pov [split]
*Year: 2018
*Genre: Goregrind/Pornogrind/Cybergrind | Goregrind/Cybergrind | Experimental Goregrind/Cybergrind | Porno Goregrind
*Country: France | France | France | France
*Format: mp3@CBR320kbps
*Size: 61MB

Tracklist:
LéoxGérard:
01. Conception Of Reality 02:53
02. Myka The Dead Teddy Bear 02:12
03. Pneus Brûlés 01:19
04. Casaspian 01:58
Paramécie Balnéaire:
05. Every Day I Am A Turnip 00:50
06. Gore Nose 01:10
07. I Tore Away My Hands Skin In An Accident De Caddie When I Was Drunk So I Can't Play Guitare 01:15
08. Grand Fucker Discount 00:19
09. Nipples 01:00
MILF:
10. Non 00:59
11. Le Pire 01:36
12. C'est 01:54
13. Nicolas Jory 01:37
14. !!! (Feat. Vincent) 01:21
Heterophobic:
15. Un Ordinateur Vaut Mieux Que Plein D'Instruments Inutiles 00:55
16. Après Tout, Exporter Du Guitar Pro En WAV C'Est Mieux Qu'Enregistrer 00:33
17. Le Monde Serait Plus Beau Si Tout Le Monde Écoutait Alien Fucker 01:02
18. Sérénade Pour Toi, Ô Ma Mie 00:11
19. Cybergrind Unplugged (Enfin, Autant Que J'ai Pu) 00:40
******************************
Total playing time: 23:44






[more=Technical info]
Input File: 03. Pneus Brûlés.mp3
Channels : 2
Sample Rate : 44100
Precision : 16-bit
Duration : 00:01:19.91 = 3524119 samples = 5993.4 CDDA sectors
File Size : 3.36M
Bit Rate : 337k
Sample Encoding: MPEG audio (layer I, II or III)
Comments :
Title=Pneus Brûlés
Artist=LéoxGérard
Album=4 Ways To Anal Porn And Shemale POV
Tracknumber=3
Year=2018

[/more]

Register
(4) A.L.Rapsod, Rosen, satanist666, Герб,
Oct 8 2018, 12:42:14 Infested Monastery - Noisome (2018)


*Artist: Infested Monastery
*Album: Noisome
*Year: 2018
*Genre: Black/Death Metal/Grindcore/Goregrind
*Country: France
*Format: mp3@CBR320kbps
*Size: 65MB

Tracklist:
01. Bone Breaker Abbot 01:15
02. Genital Destroyer Nun 00:44
03. Suicide Helper Father 02:00
04. Quarterer Inquisitor 00:56
05. Head Cutter Deacon 01:25
06. Flesh Tearer Vicar 01:21
07. Nipple Biter Mother Superior 01:58
08. Guts Spreader Archbishop 01:51
09. Toenail Puller Pontiff 01:27
10. Womb Devourer Monk 00:51
11. Skull Hammerer Bishop 02:00
12. Eye Piercer Abbess 02:01
13. Impaler Cardinal 01:32
14. Scalper Seminarian 01:53
15. Leg Crusher Priest 02:00
16. Face Grinder Dean 02:04
17. Acid Bath Killer Pope 01:23
******************************
Total playing time: 26:41



[more=Technical info]
Input File: 02. Genital destroyer Nun.mp3
Channels : 2
Sample Rate : 44100
Precision : 16-bit
Duration : 00:00:44.28 = 1952704 samples = 3320.93 CDDA sectors
File Size : 1.99M
Bit Rate : 360k
Sample Encoding: MPEG audio (layer I, II or III)
Comments :
Title=Genital destroyer Nun
Artist=Infested Monastery
Album=Noisome
Tracknumber=2
Year=2018

[/more]

Register
(7) A.L.Rapsod, jollo, Rosen, satanist666, vyacheslav, Wolftribes, Герб,

1262 Pages V   1 2 3 > » 
- Lo-Fi Version Support form
Copyrights and abuse reports form
Time is now: 16th October 2018 - 13:25:23