Welcome Guest ( Log In | Register )

История благодарностей участнику necroscum ::: Спасибо сказали: 361822 раз(а)
Дата поста: В теме: За сообщение: Спасибо сказали:
Yesterday, 14:20:00 Sterbehilfe - 47 Menschen, Ein Wunsch (2001)


*Artist: Sterbehilfe
*Album: 47 Menschen, Ein Wunsch
*Year: 2001
*Genre: Grindcore
*Country: Germany
*Format: mp3@CBR320kbps
*Size: 34MB

Tracklist:
01. Tag Der Abrechnung & Frei Sein 02:12
02. Pink Pussy 00:37
03. Arbeit Bis Acht 00:43
04. I Don't Want To Be Protected By The USA 00:31
05. Aufreisser 00:15
06. Kindersex 01:30
07. Let's Go - Fight 00:43
08. Letzte Aktion 01:07
09. Sinn Des Lebens 01:14
10. Dr. Tod 00:16
11. Inzest 00:42
12. Tagebuch Eines Kranken 00:15
13. Ende 2000 00:17
14. Jahre Der Vernunft 00:15
15. El Dia De La Bestia 00:38
16. Das Dahinwelkende Moderne Leben (AmeriKKKa No. 2) 00:54
17. Zeit-TotschlagMaschine 01:05
18. Duft Der Frauen 00:32
19. How Can Anyone Be Political And Be Correct 00:11
20. Ebola 00:21
21. Time's Up 00:58
******************************
Total playing time: 15:16





[more=Technical info]
Input File: 02. Pink Pussy.mp3
Channels : 2
Sample Rate : 44100
Precision : 16-bit
Duration : 00:00:37.36 = 1647488 samples = 2801.85 CDDA sectors
File Size : 1.50M
Bit Rate : 320k
Sample Encoding: MPEG audio (layer I, II or III)
Comments :
Title=Pink Pussy
Artist=Sterbehilfe
Album=47 Menschen, ein Wunsch
Tracknumber=2/21
Year=2001
Genre=Grindcore

[/more]

Register
(3) Grinder999, Olethros, wgs73,
Yesterday, 13:26:27 Apothecary - A Mist Upon A Sacred Forest Floor, Beheld The Dark Flame [ep] (2018)


*Artist: Apothecary
*Album: A Mist Upon A Sacred Forest Floor, Beheld The Dark Flame [ep]
*Year: 2018
*Genre: Atmospheric Black Metal
*Country: United States
*Format: mp3@CBR320kbps
*Size: 47MB

Tracklist:
01. Archaic Specter 10:00
02. Passage I 10:00
******************************
Total playing time: 20:00



[more=Technical info]
Input File: 02. passage I.mp3
Channels : 2
Sample Rate : 44100
Precision : 16-bit
Duration : 00:10:00.64 = 26488224 samples = 45048 CDDA sectors
File Size : 24.1M
Bit Rate : 321k
Sample Encoding: MPEG audio (layer I, II or III)
Comments :
Title=passage I
Artist=Apothecary
Album=A Mist Upon A Sacred Forest Floor, Beheld the Dark Flame
Tracknumber=2
Year=2018

[/more]

Register
(10) 1968_janeart, artscald, kim666, Olethros, Ostinato, SilentNidhogg, stub888, VALERY, vasiljev_sergej, vovenom,
Dec 13 2018, 13:12:08 Gurthang - I Will Not Serve (2015)


*Artist: Gurthang
*Album: I Will Not Serve
*Year: 2015
*Genre: Black/Funeral Doom Metal
*Country: Poland
*Format: mp3@CBR320kbps
*Size: 155MB

Tracklist:
01. Nemesis 02:52
02. Decaying Tombs 05:36
03. Visions 08:43
04. Non Serviam 03:55
05. The Unconquered Sun 05:29
06. Levant du serpent noir 04:44
07. The Scarlet Whore 04:50
08. Beauty of Misconception 04:58
09. Devouring the Echo 06:28
10. Equilibrium Pathology 05:28
11. O Ye, the Sons of Sion 05:14
12. Szklany okruch 09:33
******************************
Total playing time: 1:07:50






[more=Extended info]Exclusive for Metalarea.org[/more]

[more=Technical info]
Input File: 12. Szklany Okruch.mp3
Channels : 2
Sample Rate : 44100
Precision : 16-bit
Duration : 00:09:32.43 = 25244163 samples = 42932.2 CDDA sectors
File Size : 22.9M
Bit Rate : 320k
Sample Encoding: MPEG audio (layer I, II or III)
Comments :
Title=Szklany Okruch
Artist=Gurthang
Album=I Will Not Serve
Tracknumber=12/12
Year=2017

[/more]

Register
(13) artscald, Hell_Is_Here, LEGION69, marilin, metala, Olethros, Ostinato, Rosen, Shadechaser, Tino, Unleashed, VALERY, vasiljev_sergej,
Dec 13 2018, 00:59:50 Mortiferous Scorn - The Agony Experiment (2018)


*Artist: Mortiferous Scorn
*Album: The Agony Experiment
*Year: 2018
*Genre: Death Metal
*Country: United States
*Format: mp3@CBR320kbps
*Size: 54MB

Tracklist:
01. Nothing Left 02:54
02. Regret 03 03
03. Endless 02:43
04. Hollow 02:53
05. Reborn 02:40
06. Suffering 03:34
07. Wounded 02:19
08. The Machine 02:57
******************************
Total playing time: 20:00



[more=Technical info]
Input File: 02. Regret.mp3
Channels : 2
Sample Rate : 44100
Precision : 16-bit
Duration : 00:03:03.81 = 8106021 samples = 13785.8 CDDA sectors
File Size : 7.43M
Bit Rate : 323k
Sample Encoding: MPEG audio (layer I, II or III)
Comments :
Title=Regret
Artist=Mortiferous Scorn
Album=The Agony Experiment
Tracknumber=2/8
Year=2018

[/more]

Register
(9) andreikun, artscald, hatefukk, jollo, marilin, Olethros, Ostinato, Rosen, Герб,
Dec 13 2018, 00:48:59 Grim Shit - Story Of A Ghost (2018)


*Artist: Grim Shit
*Album: Story Of A Ghost
*Year: 2018
*Genre: Progressive/Melodic Death Metal
*Country: France
*Format: mp3@CBR320kbps
*Size: 101MB

Tracklist:
01. Birth of a Ghost
02. Broken Child
03. Angels Hope
04. In the Back of My Mind (Cemetery of Dreams)
05. Suffer More
06. Ghosted
******************************
Total playing time: 43:50



[more=Technical info]
Input File: 02. Broken Child.mp3
Channels : 2
Sample Rate : 44100
Precision : 16-bit
Duration : 00:08:51.28 = 23429624 samples = 39846.3 CDDA sectors
File Size : 21.3M
Bit Rate : 320k
Sample Encoding: MPEG audio (layer I, II or III)
Comments :
Title=Broken Child
Artist=Grim Shit
Album=Story of a Ghost
Tracknumber=2/6
Year=2018

[/more]

Register
(3) artscald, Olethros, Rosen,
Dec 13 2018, 00:47:25 Sour Times - The Course Of Empire (2018)


*Artist: Sour Times
*Album: The Course Of Empire
*Year: 2018
*Genre: Sludge/Stoner/Doom Metal
*Country: United States
*Format: mp3@CBR320kbps
*Size: 89MB

Tracklist:
01. Our Time 05:05
02. Copper Hearted Barbarians 06:27
03. The Course Of Empire 05:53
04. No Longer Eden 04:26
05. The Savage State 05:13
06. Take Heed 05:47
07. Desolation 05:55
******************************
Total playing time: 38:46



[more=Technical info]
Input File: 02. Copper Hearted Barbarians.mp3
Channels : 2
Sample Rate : 44100
Precision : 16-bit
Duration : 00:06:27.81 = 17102509 samples = 29085.9 CDDA sectors
File Size : 15.5M
Bit Rate : 320k
Sample Encoding: MPEG audio (layer I, II or III)
Comments :
Title=Copper Hearted Barbarians
Artist=Sour Times
Album=The Course of Empire
Tracknumber=2/7
Year=2018

[/more]

Register
(6) artscald, marilin, Olethros, Ostinato, Rosen, stub888,
Dec 12 2018, 13:48:43 Gurthang - Shattered Echoes (2017)


*Artist: Gurthang
*Album: Shattered Echoes
*Year: 2017
*Genre: Funeral Doom/Black Metal
*Country: Poland
*Format: mp3@CBR320kbps
*Size: 133MB

Tracklist:
01. Closure 05:01
02. Denial 05:12
03. Advance the Disease 04:01
04. Paragon of Virtue 04:53
05. My Salvation 04:33
06. Departed 06:03
07. Inheritance - The Distress 05:45
08. Rebirth 04:54
09. Ignite 08:11
10. Pylon of Blaze 04:13
11. Inheritance II: Red Mourning 05:51
******************************
Total playing time: 58:37






[more=Technical info]
Input File: 02. Denial.mp3
Channels : 2
Sample Rate : 44100
Precision : 16-bit
Duration : 00:05:12.13 = 13764977 samples = 23409.8 CDDA sectors
File Size : 12.5M
Bit Rate : 321k
Sample Encoding: MPEG audio (layer I, II or III)
Comments :
Title=Denial
Artist=Gurthang
Album=Shattered Echoes
Tracknumber=2
Year=2017
Genre=Black Metal
Discnumber=1

[/more]

Register
(11) artscald, Doooomed, Hell_Is_Here, marilin, Olethros, Ostinato, Rosen, Shadechaser, VALERY, vasiljev_sergej, vov7609,
Dec 12 2018, 04:19:59 Sold Soul - Into The Mouth Of Hell (2018)


*Artist: Sold Soul
*Album: Into The Mouth Of Hell
*Year: 2018
*Genre: Blackened Deathcore
*Country: United States
*Format: mp3@CBR320kbps
*Size: 93MB

Tracklist:
01. Preface to Damnation
02. A Voyage Through River Styx (feat. Niko Apostolakis)
03. The Son of Perdition (feat. CJ McCreery)
04. Gnarled Horns
05. The Beast of Gevaudan (feat. Greg Gilbert)
06. Severed Tongues
07. Harrowing, His Calls to the Void
08. Dread Father (feat. Cameron McBride)
09. The Son of Perdition (feat. Ben Mason) (Alternate Version)
******************************
Total playing time: 40:29



[more=Technical info]
Input File: 02. A Voyage Through River Styx (feat. Niko Apostolakis).mp3
Channels : 2
Sample Rate : 44100
Precision : 16-bit
Duration : 00:04:35.66 = 12156694 samples = 20674.6 CDDA sectors
File Size : 11.1M
Bit Rate : 321k
Sample Encoding: MPEG audio (layer I, II or III)
Comments :
Title=A Voyage Through River Styx (feat. Niko Apostolakis)
Artist=Sold Soul, Niko Apostolakis
Album=Into the Mouth of Hell
Tracknumber=2/9
Year=2018

[/more]

Register
(4) artscald, Olethros, Ostinato, Rosen,
Dec 11 2018, 04:23:23 Experiment Specimen - The Cosmic Order (2018)


*Artist: Experiment Specimen
*Album: The Cosmic Order
*Year: 2018
*Genre: Death Metal
*Country: Canada
*Format: mp3@CBR320kbps
*Size: 77MB

Tracklist:
01. The Cosmic Order
02. Alpha Centauri
03. The Great Old Ones
04. Parasite Machine
05. Adjusting the Universe
06. Objective Dehumanization
07. Silver Tongue Devils
******************************
Total playing time: 33:25

[more=Technical info]
Input File: 02. Alpha Centauri.mp3
Channels : 2
Sample Rate : 44100
Precision : 16-bit
Duration : 00:04:01.34 = 10642874 samples = 18100.1 CDDA sectors
File Size : 9.71M
Bit Rate : 322k
Sample Encoding: MPEG audio (layer I, II or III)
Comments :
Title=Alpha Centauri
Artist=Experiment Specimen
Album=The Cosmic Order
Tracknumber=2/7
Year=2018

[/more]

Register
(11) artscald, jollo, judaz, KeeLs, Olethros, Ostinato, Rosen, samokot, terron, yuratroll, Герб,
Dec 11 2018, 04:22:08 Astyanax - Embalmed With Afterbirth (2018)


*Artist: Astyanax
*Album: Embalmed With Afterbirth
*Year: 2018
*Genre: Death Metal
*Country: United States
*Format: mp3@CBR320kbps
*Size: 83MB

Tracklist:
01. A Mind Made for Murder
02. Slaughterhouse Infection
03. Chemical Castration
04. LSD (Lunatic's Savage Delight)
05. Justified Parasitosis
06. Sodomized Christ
07. Hobo With a Shotgun
08. Embalmed With Afterbirth
09. Impregnated Through Defecation
******************************
Total playing time: 35:58

[more=Technical info]
Input File: 02. Slaughterhouse Infection.mp3
Channels : 2
Sample Rate : 44100
Precision : 16-bit
Duration : 00:04:16.15 = 11296083 samples = 19211 CDDA sectors
File Size : 10.3M
Bit Rate : 321k
Sample Encoding: MPEG audio (layer I, II or III)
Comments :
Title=Slaughterhouse Infection
Artist=Astyanax
Album=Embalmed With Afterbirth
Tracknumber=2/9
Year=2018

[/more]

Register
(11) andreikun, artscald, jollo, judaz, Olethros, Ostinato, Rosen, satanist666, VALERY, varlam4, Герб,
Dec 10 2018, 14:29:52 Incinerated - Avenged (2016)


*Artist: Incinerated
*Album: Avenged
*Year: 2016
*Genre: Brutal Death Metal/Grindcore
*Country: Australia
*Format: mp3@CBR320kbps
*Size: 41MB

Tracklist:
01. Stalked 01:02
02. Kidnapped 01:44
03. Tortured 01:16
04. Murdered 00:56
05. Arrested 00:56
06. Convicted 00:54
07. Released 01:44
08. Hunted 01:02
09. Captured 00:54
10. Lacerated 01:08
11. Punished 01:12
12. Executed 01:35
13. Buried 01:29
14. Avenged 01:11
******************************
Total playing time: 17:03





[more=Technical info]
Input File: 02. Kidnapped.mp3
Channels : 2
Sample Rate : 44100
Precision : 16-bit
Duration : 00:01:44.42 = 4604790 samples = 7831.28 CDDA sectors
File Size : 4.31M
Bit Rate : 330k
Sample Encoding: MPEG audio (layer I, II or III)
Comments :
Title=Kidnapped
Artist=Incinerated
Album=Avenged
Tracknumber=2
Year=2016

[/more]

Register
(5) artscald, Hell_Is_Here, Olethros, Rosen, satanist666,
Dec 10 2018, 14:14:14 Incinerated - Lobotomise (2017)


*Artist: Incinerated
*Album: Lobotomise
*Year: 2017
*Genre: Brutal Death Metal/Grindcore
*Country: Australia
*Format: mp3@CBR320kbps
*Size: 44MB

Tracklist:
01. Excision 01:44
02. Avenged 01:17
03. Corpse In The Grass 00:48
04. Bed Ridden 01:05
05. Tortured 01:19
06. Dog Food 01:08
07. Nightmare In The Flesh 00:41
08. Released 01:45
09. Meat Hook Lobotomy 01:17
10. Captured 00:57
11. Kidnapped 01:50
12. Slit Throats 00:52
13. Choked To Death 01:00
14. Execute 01:46
******************************
Total playing time: 17:29





[more=Technical info]
Input File: 02. Avenged.mp3
Channels : 2
Sample Rate : 44100
Precision : 16-bit
Duration : 00:01:17.56 = 3420440 samples = 5817.07 CDDA sectors
File Size : 3.42M
Bit Rate : 353k
Sample Encoding: MPEG audio (layer I, II or III)
Comments :
Title=Avenged
Artist=Incinerated
Album=Lobotomise
Tracknumber=2
Year=2017
Genre=Metal

[/more]

Register
(6) artscald, Hell_Is_Here, Olethros, Rosen, satanist666, Герб,
Dec 10 2018, 13:51:42 Loathing Existence - Demo I [demo] (2018)


*Artist: Loathing Existence
*Album: Demo I [demo]
*Year: 2018
*Genre: Brutal Deathcore
*Country: United States
*Format: mp3@CBR320kbps
*Size: 12MB

Tracklist:
01. Lucid Revelations Of The Undead Form 02:07
02. Penis Architeuthis And The Physeter Macrocephallus (Feat. Ty Of OTM) 01:21
03. Swunged And Refuckulated 01:29
******************************
Total playing time: 4:57



[more=Technical info]
Input File: 02. Penis Architeuthis and the Physeter Macrocephallus (ft. Ty of OTM).mp3
Channels : 2
Sample Rate : 44100
Precision : 16-bit
Duration : 00:01:21.64 = 3600192 samples = 6122.78 CDDA sectors
File Size : 3.44M
Bit Rate : 337k
Sample Encoding: MPEG audio (layer I, II or III)
Comments :
Title=Penis Architeuthis and the Physeter Macrocephallus (ft. Ty of OTM)
Artist=Loathing Existence
Album=Demo I
Tracknumber=2
Year=2018

[/more]

Register
(4) artscald, Hell_Is_Here, Olethros, Rosen,
Dec 10 2018, 13:30:41 Astru - The Cruel Mother [demo] (2018)


*Artist: Astru
*Album: The Cruel Mother [demo]
*Year: 2018
*Genre: Experimental Doom Metal
*Country: Hungary
*Format: mp3@CBR320kbps
*Size: 52MB

Tracklist:
01. In The Shadow Of Mountains 06:33
02. An Echo Of Ice 05:18
03. Back From The Dead 05:47
04. Fountain Of Snow 05:06
******************************
Total playing time: 22:44



[more=Technical info]
Input File: 02. An Echo Of Ice.mp3
Channels : 2
Sample Rate : 44100
Precision : 16-bit
Duration : 00:05:18.79 = 14058595 samples = 23909.2 CDDA sectors
File Size : 12.9M
Bit Rate : 323k
Sample Encoding: MPEG audio (layer I, II or III)
Comments :
Title=An Echo Of Ice
Artist=The Cruel Mother
Album=The Cruel Mother: demo
Tracknumber=2
Year=2018

[/more]

Register
(10) artscald, Hell_Is_Here, metala, Olethros, Rosen, stub888, thenecromancer, VALERY, varlam4, zotyo1975,
Dec 10 2018, 13:16:12 Demonic Executioner - Alone [demo] (2018)


*Artist: Demonic Executioner
*Album: Alone [demo]
*Year: 2018
*Genre: Death Metal
*Country: United States
*Format: mp3@CBR320kbps
*Size: 77MB

Tracklist:
01. They Are All Dead 05:19
02. Alone 10:13
03. Another Fight 04:31
04. Endless Pain 07:27
05. The End Of Everything 06:00
******************************
Total playing time: 33:30



[more=Technical info]
Input File: 03. Another Fight.mp3
Channels : 2
Sample Rate : 44100
Precision : 16-bit
Duration : 00:04:31.61 = 11978001 samples = 20370.8 CDDA sectors
File Size : 10.9M
Bit Rate : 322k
Sample Encoding: MPEG audio (layer I, II or III)
Comments :
Title=Another Fight
Artist=Demonic Executioner
Album=Alone
Tracknumber=3
Year=2018

[/more]

Register
(3) artscald, Olethros, Rosen,
Dec 10 2018, 13:02:51 Wintercold - Striden [ep] (2018)


*Artist: Wintercold
*Album: Striden [ep]
*Year: 2018
*Genre: Atmospheric Black/Doom Metal
*Country: Sweden
*Format: mp3@CBR320kbps
*Size: 25MB

Tracklist:
01. Striden 03:17
02. Home 03:14
03. Vägen Mellan Livet & Döden (Re-Mastered) 04:10
******************************
Total playing time: 10:41






[more=Technical info]
Input File: 02. Home.mp3
Channels : 2
Sample Rate : 44100
Precision : 16-bit
Duration : 00:03:14.88 = 8594384 samples = 14616.3 CDDA sectors
File Size : 7.99M
Bit Rate : 328k
Sample Encoding: MPEG audio (layer I, II or III)
Comments :
Title=Home
Artist=Salute Records
Album=Wintercold "Striden" Ep (salr-303)
Tracknumber=2
Year=2018

[/more]

Register
(12) 1968_janeart, artscald, Buregon, kim666, Olethros, Rosen, satanist666, Shadechaser, stub888, thenecromancer, VALERY, vasiljev_sergej,
Dec 10 2018, 00:59:45 Metus - Ugly (2018)


*Artist: Metus
*Album: Ugly
*Year: 2018
*Genre: Progressive Groove Metal
*Country: United States
*Format: mp3@CBR320kbps
*Size: 105MB

Tracklist:
01. Nazareth
02. Paranoia
03. This Is War
04. We the Majority
05. Fed Up
06. Distorted Fidelity
07. Trapt
08. Alternate Reality
09. Ugly
10. Framed
11. Decorus
12. A Morgue Wedding
13. Lament
******************************
Total playing time: 45:36



[more=Technical info]
Input File: 02. Paranoia.mp3
Channels : 2
Sample Rate : 44100
Precision : 16-bit
Duration : 00:03:23.09 = 8956269 samples = 15231.8 CDDA sectors
File Size : 8.15M
Bit Rate : 321k
Sample Encoding: MPEG audio (layer I, II or III)
Comments :
Title=Paranoia
Artist=Metus
Album=Ugly
Tracknumber=2/13
Year=2018

[/more]

Register
(4) artscald, Olethros, Rosen, snot,
Dec 10 2018, 00:35:43 Baltic - By The Light Of The Hidden Sun (2018)


*Artist: Baltic
*Album: By The Light Of The Hidden Sun
*Year: 2018
*Genre: Avant-Garde/Post-Metal
*Country: United States
*Format: mp3@CBR320kbps
*Size: 104MB

Tracklist:
01. The Great Burning 05:27
02. The Study And Practice Of Making Maps 08:26
03. In The Ocean Of Storms 11:00
04. By The Light Of The Hidden Sun 11:39
05. You'll Become One Of The Invisible People 07:09
******************************
Total playing time: 43:41



[more=Technical info]
Input File: 02. The Study and Practice of Making Maps.mp3
Channels : 2
Sample Rate : 44100
Precision : 16-bit
Duration : 00:08:27.09 = 22362845 samples = 38032 CDDA sectors
File Size : 20.9M
Bit Rate : 330k
Sample Encoding: MPEG audio (layer I, II or III)
Comments :
Title=The Study and Practice of Making Maps
Artist=Baltic
Album=By the Light of the Hidden Sun
Tracknumber=2/5
Year=2018

[/more]

Register
(6) artscald, Buregon, DiegoMassakre, Olethros, Ostinato, Rosen,
Dec 8 2018, 14:07:40 Bowel Evacuation - Fecal Fetishist (2015)


*Artist: Bowel Evacuation
*Album: Fecal Fetishist
*Year: 2015
*Genre: Porno Goregrind
*Country: Germany
*Format: mp3@CBR320kbps
*Size: 97MB

Tracklist:
01. Shitro 01:41
02. Harzer Roller Deepthroad 02:39
03. Schlucken Musst Du Selbst 02:12
04. Ehre Deinen Kot 02:34
05. Formicophilie 02:57
06. Wer Leiden Will, Muss Nicht Schoen Sein 03:27
07. Die Zehn Gebote 01:15
08. Neverending Penetration 02:47
09. Sounds Of Anal Defloration 03:02
10. GrandMxIxLxF 03:29
11. Ich Rauch Nur Meinen Eigenen Scheiß 02:53
12. Meine Frau Ist Ein Mann 02:51
13. Kuscheln (Outro) 08:08
******************************
Total playing time: 39:55






[more=Technical info]
Input File: 02. Harzer-Roller Deepthroat.mp3
Channels : 2
Sample Rate : 44100
Precision : 16-bit
Duration : 00:02:39.28 = 7024248 samples = 11946 CDDA sectors
File Size : 6.77M
Bit Rate : 340k
Sample Encoding: MPEG audio (layer I, II or III)
Comments :
Title=Harzer-Roller Deepthroat
Artist=Bowel Evacuation
Album=Fecal Fetishist
Tracknumber=2
Year=2018
Genre=Metal

[/more]

Register
(8) A.L.Rapsod, jollo, Olethros, Rosen, RotAnus, satanist666, zotyo1975, Герб,
Dec 8 2018, 13:01:09 Torturepig - Wargore [ep] (2018)


*Artist: Torturepig
*Album: Wargore [ep]
*Year: 2018
*Genre: Goregrind
*Country: United States
*Format: mp3@CBR320kbps
*Size: 18MB

Tracklist:
01. Freedom Is A Lie 00:41
02. Televised Suicide 00:42
03. Wartorn Society 01:02
04. End It All 00:19
05. Butcher 01:08
06. Putrid Fucking Hell 00:12
07. Destroy Me 00:58
08. Elitist Cunt 02:44
******************************
Total playing time: 7:46



[more=Technical info]
Input File: 02. Televised Suicide.mp3
Channels : 2
Sample Rate : 44100
Precision : 16-bit
Duration : 00:00:42.74 = 1884746 samples = 3205.35 CDDA sectors
File Size : 1.88M
Bit Rate : 353k
Sample Encoding: MPEG audio (layer I, II or III)
Comments :
Title=Televised Suicide
Artist=TORTUREPIG
Album=WARGORE
Tracknumber=2
Year=2018

[/more]

Register
(4) Olethros, Rosen, satanist666, Герб,
Dec 7 2018, 23:24:04 Pronoia - Mimesis (2018)


*Artist: Pronoia
*Album: Mimesis
*Year: 2018
*Genre: Progressive Metal
*Country: Argentina
*Format: mp3@CBR320kbps
*Size: 104MB

Tracklist:
01. Fulgor 04:55
02. Contranatural 04:52
03. Convulso 04:09
04. Nubla 06:22
05. Ritual 04:56
06. Mimesis 05:16
07. Implosion 05:11
08. Portales 04:29
09. Inmutable 04:51
******************************
Total playing time: 45:01




[more=Technical info]
Input File: 02. Contranatural.mp3
Channels : 2
Sample Rate : 44100
Precision : 16-bit
Duration : 00:04:52.77 = 12911289 samples = 21958 CDDA sectors
File Size : 11.8M
Bit Rate : 321k
Sample Encoding: MPEG audio (layer I, II or III)
Comments :
Title=Contranatural
Artist=Pronoia
Album=Mimesis
Tracknumber=2/9
Year=2018

[/more]

Register
(9) acundof, AHBAnep, artscald, aviacademy, csgmnk, ironjuan, Olethros, Rosen, Rover,
Dec 7 2018, 14:12:14 Big Huge Bag Of Cans With The Lads - Lords Of The Sesh [ep] (2018)


*Artist: Big Huge Bag Of Cans With The Lads
*Album: Lords Of The Sesh [ep]
*Year: 2018
*Genre: Goregrind
*Country: United Kingdom
*Format: mp3@CBR320kbps
*Size: 34MB

Tracklist:
01. 45 Pints And A Packet Of Crips 02:46
02. Big Huge Bag Of Cans With The Lads 03:10
03. Every Night I Wake Up Screaming 00:06
04. Recording Vocals Is Hard When Your Jaw's In Another Country 02:43
05. We Are The Gremlins 02:36
06. Gurncore 03:01
******************************
Total playing time: 14:22





[more=Technical info]
Input File: 02. Big Huge Bag Of Cans With The Lads.mp3
Channels : 2
Sample Rate : 44100
Precision : 16-bit
Duration : 00:03:10.39 = 8396199 samples = 14279.2 CDDA sectors
File Size : 7.79M
Bit Rate : 327k
Sample Encoding: MPEG audio (layer I, II or III)
Comments :
Title=Big Huge Bag Of Cans With The Lads
Artist=Big Huge Bag Of Cans With The Lads
Album=Lords Of The Sesh
Tracknumber=2
Year=2018

[/more]

Register
(4) Olethros, Rosen, satanist666, Герб,
Dec 7 2018, 13:55:48 Crime Syndikhate - Crime Syndicates [ep] (2018)


*Artist: Crime Syndikhate
*Album: Crime Syndicates [ep]
*Year: 2018
*Genre: Goregrind
*Country: France
*Format: mp3@CBR320kbps
*Size: 25MB

Tracklist:
01. The New Order 02:26
02. Yakuza Vs Triad 00:26
03. Ndranghetta 00:50
04. La Pegra 03:00
05. Triad Vs Yakuza 01:44
06. Djihad 01:43
07. The Syndikhate 666bpm (Feat. Simon) 00:54
******************************
Total playing time: 11:03



[more=Technical info]
Input File: 02. Yakuza vs Triad.mp3
Channels : 2
Sample Rate : 44100
Precision : 16-bit
Duration : 00:00:26.23 = 1156655 samples = 1967.1 CDDA sectors
File Size : 1.08M
Bit Rate : 328k
Sample Encoding: MPEG audio (layer I, II or III)
Comments :
Title=Yakuza vs Triad
Artist=CRIME SYNDIKHATE
Album=Crime Syndicates
Tracknumber=2
Year=2006

[/more]

Register
(5) Aynekko, Olethros, Rosen, satanist666, Герб,
Dec 7 2018, 01:32:47 Jt Ripper - Gathering Of The Insane (2018)


*Artist: Jt Ripper
*Album: Gathering Of The Insane
*Year: 2018
*Genre: Black/Thrash Metal
*Country: Germany
*Format: mp3@CBR320kbps
*Size: 85MB

Tracklist:
01. Cvlt
02. Chaos
03. Childs Play
04. Feast
05. Shadows
06. Nightstalker
07. Them
08. Maze
09. Second Skin
10. Carnal Lust
******************************
Total playing time: 36:35

[more=Technical info]
Input File: 02. Chaos.mp3
Channels : 2
Sample Rate : 44100
Precision : 16-bit
Duration : 00:04:22.10 = 11558786 samples = 19657.8 CDDA sectors
File Size : 10.6M
Bit Rate : 322k
Sample Encoding: MPEG audio (layer I, II or III)
Comments :
Title=Chaos
Artist=JT RIPPER
Album=Gathering of the Insane
Tracknumber=2/10
Year=2018

[/more]

Register
(16) Appie_Thrasher, artscald, Asketto, Asle, boby9052, DarkHorde, desekrator, Evilded, Foneg, neoatheist, Olethros, Ostinato, potap03020100, Rosen, wgs73, Wolftribes,
Dec 7 2018, 01:31:29 Unforeseen - Starless Black (2018)


*Artist: Unforeseen
*Album: Starless Black
*Year: 2018
*Genre: Progressive/Heavy Metal
*Country: Hungary
*Format: mp3@CBR320kbps
*Size: 96MB

Tracklist:
01. Hollow Heart
02. L'appel du vide lepel
03. Starless Black
04. Ego
05. Derelict
06. Glaciers
07. Aeterna
08. Parapsycho
******************************
Total playing time: 41:42

[more=Technical info]
Input File: 02. L\'appel du vide lepel.mp3
Channels : 2
Sample Rate : 44100
Precision : 16-bit
Duration : 00:05:56.80 = 15735012 samples = 26760.2 CDDA sectors
File Size : 14.3M
Bit Rate : 321k
Sample Encoding: MPEG audio (layer I, II or III)
Comments :
Title=L'appel du vide lepel
Artist=Unforeseen
Album=Starless Black
Tracknumber=2/8
Year=2018

[/more]

Register
(7) artscald, csgmnk, Olethros, Rosen, Rover, Yarri, Нигилист,

1272 Pages V   1 2 3 > » 
- Lo-Fi Version Support form
Copyrights and abuse reports form
Time is now: 15th December 2018 - 12:49:00