Welcome Guest ( Log In | Register )

История благодарностей участнику necroscum ::: Спасибо сказали: 358626 раз(а)
Дата поста: В теме: За сообщение: Спасибо сказали:
Sep 13 2018, 12:40:49 Lagras - Terminus Hic Deus [ep] (2018)


*Artist: Lagras
*Album: Terminus Hic Deus [ep]
*Year: 2018
*Genre: Depressive Black Metal/Ambient
*Country: Germany
*Format: mp3@CBR320kbps
*Size: 61MB

Tracklist:
01. Akt 1 00:57
02. Tuesday Night 05:09
03. Akt 2 00:54
04. Path To The River (Near The Forest) 18:04
05. Akt 3 02:49
******************************
Total playing time: 27:53




[more=Technical info]
Input File: 02. Tuesday Night.mp3
Channels : 2
Sample Rate : 44100
Precision : 16-bit
Duration : 00:05:09.10 = 13631178 samples = 23182.3 CDDA sectors
File Size : 12.4M
Bit Rate : 322k
Sample Encoding: MPEG audio (layer I, II or III)
Comments :
Title=Tuesday Night
Artist=Lagras
Album=Terminus Hic Deus
Tracknumber=2
Year=2018

[/more]

Register
(8) 1968_janeart, kim666, Ostinato, Rosen, SilentNidhogg, stub888, tOmV, vasiljev_sergej,
Sep 13 2018, 04:15:12 Silence Of Oblivion - In Choosing Right Or Left... (2018)


*Artist: Silence Of Oblivion
*Album: In Choosing Right Or Left...
*Year: 2018
*Genre: Thrash/Speed Metal
*Country: Brazil
*Format: mp3@CBR320kbps
*Size: 86MB

Tracklist:
01. Future II
02. In Choosing Right or Left...
03. Level of the Ground
04. Monkey See... Monkey Do!
05. 4th Industrial Age
06. Slaves of State Machine
07. Real Life
08. Violence
09. Humonkey
******************************
Total playing time: 37:32

[more=Technical info]
Input File: 02. In Choosing Right or Left....mp3
Channels : 2
Sample Rate : 44100
Precision : 16-bit
Duration : 00:04:20.17 = 11473541 samples = 19512.8 CDDA sectors
File Size : 10.4M
Bit Rate : 320k
Sample Encoding: MPEG audio (layer I, II or III)
Comments :
Title=In Choosing Right or Left...
Artist=Silence of Oblivion
Album=In Choosing Right or Left...
Tracknumber=2/9
Year=2018

[/more]

Register
(6) boby9052, metala, METALHUNTER, Rosen, Rover, terron,
Sep 12 2018, 12:24:41 A Sea Of Silent Skulls - Remember (2018)


*Artist: A Sea Of Silent Skulls
*Album: Remember
*Year: 2018
*Genre: Instrumental Doom Metal
*Country: United States
*Format: flac
*Size: 176MB

Tracklist:
01. Initial Shock 06:12
02. Revenge! 06:35
03. Innocent Blood 01:33
04. Pure Evil 11:52
05. Forever Scarred 10:04
******************************
Total playing time: 36:16




Register
(3) Rosen, Shadowman, thenecromancer,
Sep 11 2018, 12:03:26 Necrologyst - Singles Scumpilation [best of/compilation] (2018)


*Artist: Necrologyst
*Album: Singles Scumpilation [best of/compilation]
*Year: 2018
*Genre: Goregrind
*Country: Argentina
*Format: mp3@CBR320kbps
*Size: 107MB

Tracklist:
01. La Wea Omitible 07:48
02. The Black Metal Is For Faggots 01:34
03. Punks Maricas 01:45
04. Me Exito Viendo Los Videos De Firecold 02:17
05. Look Mommy, I'm Composing Cybergrind 02:10
06. I Am Retarded 00:31
07. I Am Retarded 2 00:21
08. Aguante El Patriarcado 03:45
09. A Orgy In The Morgue 02:03
10. Antision 01:41
11. Interludio Mierdero 01:35
12. I Am Retarded And I Copy Of Cannibal Corpse 00:26
13. Hoooooooooods! 02:07
14. Fetus Devourer 01:51
15. F.U.C.K S.A 01:58
16. Cybershit 02:23
17. Diabetic Leg Amputated 02:18
18. Cerebral Cancer 01:40
19. Goreswing 02:30
20. Post-Modernismo De Mierda 01:49
21. Uno Menos 01:35
22. Outro De Mierda Que Pense Haber Borrado 02:11
******************************
Total playing time: 46:18




[more=Technical info]
Input File: 12. I am retarded and I copy of cannibal corpse.mp3
Channels : 2
Sample Rate : 44100
Precision : 16-bit
Duration : 00:00:26.75 = 1179675 samples = 2006.25 CDDA sectors
File Size : 1.22M
Bit Rate : 364k
Sample Encoding: MPEG audio (layer I, II or III)
Comments :
Title=I am retarded and I copy of cannibal corpse
Artist=Necrologyst
Album=Singles Scumpilation
Tracknumber=12
Year=2018

[/more]

Register
(2) infiltrator, Rosen,
Sep 11 2018, 00:59:29 Heavy Generation - The Spirit Lives On (2018)


*Artist: Heavy Generation
*Album: The Spirit Lives On
*Year: 2018
*Genre: Heavy Metal
*Country: Italy
*Format: mp3@CBR320kbps
*Size: 111MB

Tracklist:
01. Born to Rock
02. Fire Steel Metal
03. No Control
04. Blood and Sand
05. Heavy Generation
06. Path of Denial
07. My Spirit Lives On
08. Odin
09. Warriors
10. March Until the Grave
11. No More Mercy
******************************
Total playing time: 48:33



[more=Technical info]
Input File: 02. Fire Steel Metal.mp3
Channels : 2
Sample Rate : 44100
Precision : 16-bit
Duration : 00:04:03.37 = 10732749 samples = 18253 CDDA sectors
File Size : 9.74M
Bit Rate : 320k
Sample Encoding: MPEG audio (layer I, II or III)
Comments :
Title=Fire Steel Metal
Artist=Heavy Generation
Album=The Spirit Lives On
Tracknumber=2/11
Year=2018

[/more]

Register
(9) avkruchinin, Beazth, infiltrator, metala, Rosen, Rover, vir2al, wgs73, Yarri,
Sep 11 2018, 00:44:27 Ritual - Epic Sagas (2018)


*Artist: Ritual
*Album: Epic Sagas
*Year: 2018
*Genre: Black Metal
*Country: United States
*Format: mp3@CBR320kbps
*Size: 112MB

Tracklist:
01. Victory
02. Abandoned Forgotten
03. Deathtiny
04. Perpetual Winter
05. Conquer All
06. Open Seas
07. And Will Be Back
08. Beginning of the End
09. Pallbearer
10. SomberBlack Metal
******************************
Total playing time: 48:51



[more=Technical info]
Input File: 02. Abandoned Forgotten.mp3
Channels : 2
Sample Rate : 44100
Precision : 16-bit
Duration : 00:04:51.21 = 12842185 samples = 21840.5 CDDA sectors
File Size : 11.6M
Bit Rate : 320k
Sample Encoding: MPEG audio (layer I, II or III)
Comments :
Title=Abandoned Forgotten
Artist=Ritual
Album=Epic Sagas
Tracknumber=2/10
Year=2018

[/more]

Register
(11) 1968_janeart, andivi, Boozer, infiltrator, judaz, kim666, Rosen, stub888, suseka, terron, VALERY,
Sep 10 2018, 12:24:37 Pain Olympics - Nearly Unintelligible Scenarios [ep] (2018)


*Artist: Pain Olympics
*Album: Nearly Unintelligible Scenarios [ep]
*Year: 2018
*Genre: Grindcore/Goregrind
*Country: United States
*Format: mp3@CBR320kbps
*Size: 10MB

Tracklist:
01. Severe Dissociation 00:15
02. Onlookers Could Be Heard Screaming 00:19
03. Before Being Dragged Towards The Bushes 00:39
04. Only Too Aware Of The Dangers 00:11
05. Calls For An Investigation 00:20
06. Apparent Accident On The Water Slide 00:20
07. Depository 00:07
08. Various Ways Of Finding An Exit 01:30
******************************
Total playing time: 3:41



[more=Technical info]
Input File: 02. onlookers could be heard screaming.mp3
Channels : 2
Sample Rate : 44100
Precision : 16-bit
Duration : 00:00:19.70 = 868638 samples = 1477.28 CDDA sectors
File Size : 951k
Bit Rate : 386k
Sample Encoding: MPEG audio (layer I, II or III)
Comments :
Title=onlookers could be heard screaming
Artist=PAIN OLYMPICS
Album=NEARLY UNINTELLIGIBLE SCENARIOS
Tracknumber=2
Year=2018

[/more]

Register
(2) infiltrator, Rosen,
Sep 10 2018, 11:53:44 Fake Meat - 食中毒 [ep] (2018)


*Artist: Fake Meat
*Album: 食中毒 [ep]
*Year: 2018
*Genre: Goregrind
*Country: Taiwan
*Format: mp3@CBR320kbps
*Size: 22MB

Tracklist:
01. Emetic Aperitif 00:30
02. Sumptuous Incontinence 00:40
03. Foodborne Illness 00:53
04. Cross Contamination 01:12
05. Nutritional Deficiency 00:43
06. E Coli 01:17
07. Bacterial Host 00:49
08. Digestive Collapse 00:31
09. Cholestoral Ecstasy 00:24
10. Desperate Consumption 00:48
11. Clogging Of The Arteries 00:27
******************************
Total playing time: 8:14




[more=Technical info]
Input File: 02. Sumptuous Incontinence.mp3
Channels : 2
Sample Rate : 44100
Precision : 16-bit
Duration : 00:00:40.31 = 1777627 samples = 3023.18 CDDA sectors
File Size : 1.88M
Bit Rate : 374k
Sample Encoding: MPEG audio (layer I, II or III)
Comments :
Title=Sumptuous Incontinence
Artist=Fake Meat
Album=食中毒
Tracknumber=2
Year=2018

[/more]

Register
(3) infiltrator, METALHUNTER, Rosen,
Sep 10 2018, 11:32:55 Antti Martikainen - Hymn Of The High Seas, Vol. 2 (2018)


*Artist: Antti Martikainen
*Album: Hymn Of The High Seas, Vol. 2
*Year: 2018
*Genre: Instrumental Epic/Folk/Symphonic Metal
*Country: Finland
*Format: mp3@CBR320kbps
*Size: 181MB

Tracklist:
01. Dangerous Tides 04:48
02. Sunken Sailor's Inn 05:02
03. Wenches And Rum 04:59
04. The Queen of Storms 04:05
05. Down with the Waves 05:03
06. Uncharted 05:43
07. To Our Watery Grave 06:15
08. Oceanbound 13:06
09. Cutthroat Crew (Acoustic Version) 04:37
10. Wenches And Rum (Acoustic Version) 04:17
11. Hymn of the High Seas (Metal Version) 04:26
12. Taking Back Nassau (Metal Version) 04:59
13. Drowning Crown (Metal Version) 04:05
14. Dangerous Tides (Metal Version) 04:09
15. Sunken Sailor's Inn (Metal Version) 03:20
******************************
Total playing time: 1:18:54




[more=Technical info]
Input File: 02. Sunken Sailor\'s Inn.mp3
Channels : 2
Sample Rate : 44100
Precision : 16-bit
Duration : 00:05:02.52 = 13341000 samples = 22688.8 CDDA sectors
File Size : 12.1M
Bit Rate : 320k
Sample Encoding: MPEG audio (layer I, II or III)
Comments :
Title=Sunken Sailor's Inn
Artist=Antti Martikainen
Album=Hymn of the High Seas, Vol. 2
Tracknumber=2/15
Year=2018
Discnumber=1/1

[/more]

Register
(5) A.L.Rapsod, djsema4, infiltrator, Rosen, stone88,
Sep 9 2018, 06:42:39 Antti Martikainen - Hymn Of The High Seas, Vol. 1 (2018)


*Artist: Antti Martikainen
*Album: Hymn Of The High Seas, Vol. 1
*Year: 2018
*Genre: Epic/Folk/Symphonic Metal/Instrumental
*Country: Finland
*Format: mp3@CBR320kbps
*Size: 180MB

Tracklist:
01. Hymn Of The High Seas
02. Taking Back Nassau
03. Only For The Brave
04. Oath To The Abyss
05. Black Skulls
06. Old West Conquest
07. Wild Iron
08. The Dream Of Libertalia
09. Drowning Crown
10. Cutthroat Crew
11. Saloon Showdown
12. Dead Frontiers
13. Silver Bullet
******************************
Total playing time: 1:18:43



[more=Technical info]
Input File: 02. Taking Back Nassau.mp3
Channels : 2
Sample Rate : 44100
Precision : 16-bit
Duration : 00:06:33.46 = 17351366 samples = 29509.1 CDDA sectors
File Size : 15.7M
Bit Rate : 320k
Sample Encoding: MPEG audio (layer I, II or III)
Comments :
Title=Taking Back Nassau
Artist=Antti Martikainen
Album=Hymn of the High Seas, Vol. 1
Tracknumber=2/13
Year=2018
Discnumber=1/1

[/more]

Register
(8) A.L.Rapsod, Cartman223, djsema4, gwar, Kronet, MeatWolf, stone88, скептик,
Sep 8 2018, 12:08:32 Chainsaw Disgorgement - 2018 Demo [demo] (2018)


*Artist: Chainsaw Disgorgement
*Album: 2018 Demo [demo]
*Year: 2018
*Genre: Brutal Death Metal
*Country: United States
*Format: mp3@CBR320kbps
*Size: 17MB

Tracklist:
01. Picked Up Off The Side Of The Road 02:03
02. Stuffed In The Trunk 03:05
03. Hacked Up With A Chainsaw 02:12
******************************
Total playing time: 7:20





[more=Technical info]
Input File: 01. Picked up off the Side of the Road.mp3
Channels : 2
Sample Rate : 44100
Precision : 16-bit
Duration : 00:02:03.28 = 5436560 samples = 9245.85 CDDA sectors
File Size : 5.12M
Bit Rate : 332k
Sample Encoding: MPEG audio (layer I, II or III)
Comments :
Title=Picked up off the Side of the Road
Artist=Chainsaw Disgorgement
Album=2018 Demo
Tracknumber=1
Year=2018

[/more]

Register
(3) Pinhead666, uk82, vyacheslav,
Sep 8 2018, 12:08:19 A Sea Of Silent Skulls - The Break Of Day [single] (2018)


*Artist: A Sea Of Silent Skulls
*Album: The Break Of Day [single]
*Year: 2018
*Genre: Instrumental Doom Metal
*Country: United States
*Format: flac
*Size: 67MB

Tracklist:
01. The Break Of Day 09:53
******************************
Total playing time: 9:53




Register
(1) Rosen,
Sep 8 2018, 11:17:18 A Sea Of Silent Skulls - Coexistence Of The Desolate [ep] (2018)


*Artist: A Sea Of Silent Skulls
*Album: Coexistence Of The Desolate [ep]
*Year: 2018
*Genre: Instrumental Doom Metal
*Country: United States
*Format: flac
*Size: 120MB

Tracklist:
01. Drowning In Self-Adoration 03:33
02. Break Free 20:13
******************************
Total playing time: 23:46




Register
(2) LazarShadow, Rosen,
Sep 8 2018, 06:20:46 Celtauro - Origen (2018)


*Artist: Celtauro
*Album: Origen
*Year: 2018
*Genre: Heavy/Celtic/Folk Metal
*Country: Spain
*Format: mp3@CBR320kbps
*Size: 111MB

Tracklist:
01. La Danza de Deva
02. Coraje
03. Al Final del Arcoíris
04. Leviatán
05. La Batalla de Kinsale
06. Martes de Carnaval
07. Mediohombre
08. Hijo del Sol
******************************
Total playing time: 48:19



[more=Technical info]
Input File: 02. Coraje.mp3
Channels : 2
Sample Rate : 44100
Precision : 16-bit
Duration : 00:05:51.63 = 15506883 samples = 26372.2 CDDA sectors
File Size : 14.1M
Bit Rate : 320k
Sample Encoding: MPEG audio (layer I, II or III)
Comments :
Title=Coraje
Artist=CelTauro
Album=Origen
Tracknumber=2/8
Year=2018

[/more]

Register
(7) Cartman223, djsema4, Mogozoz, Rosen, Rover, talismanFS, terron,
Sep 7 2018, 03:22:14 Gomorrha - Winter (2018)


*Artist: Gomorrha
*Album: Winter
*Year: 2018
*Genre: Power Metal
*Country: Netherlands
*Format: mp3@CBR320kbps
*Size: 113MB

Tracklist:
01. Seelenschrei
02. Sinfonie der Schmerzen
03. Chor der Verdammten
04. Inferno
05. Weltschmerz.
06. Kapitel X
07. Zombieland
08. Winter
09. Der kopflose Reiter (Bonustrack)
******************************
Total playing time: 49:31



[more=Technical info]
Input File: 02. Sinfonie der Schmerzen.mp3
Channels : 2
Sample Rate : 44100
Precision : 16-bit
Duration : 00:05:06.04 = 13496540 samples = 22953.3 CDDA sectors
File Size : 12.2M
Bit Rate : 320k
Sample Encoding: MPEG audio (layer I, II or III)
Comments :
Title=Sinfonie der Schmerzen
Artist=Gomorrha
Album=Winter
Tracknumber=2/9
Year=2018

[/more]

Register
(9) aviacademy, gwar, infiltrator, metala, older68, postal67, Rosen, wn129aa, zhol,
Sep 7 2018, 03:11:40 Silent Clash - Inner Lies (2018)


*Artist: Silent Clash
*Album: Inner Lies
*Year: 2018
*Genre: Progressive Metal
*Country: Canada
*Format: mp3@CBR320kbps
*Size: 117MB

Tracklist:
01. Underground
02. Behind the Smile
03. Temptation
04. Crime of Humanity
05. Inequity
06. Now You're Gone
07. Insanity
08. Self Redemption
09. Against the Wind
******************************
Total playing time: 51:05



[more=Technical info]
Input File: 02. Behind the Smile.mp3
Channels : 2
Sample Rate : 44100
Precision : 16-bit
Duration : 00:06:38.31 = 17565647 samples = 29873.5 CDDA sectors
File Size : 15.9M
Bit Rate : 320k
Sample Encoding: MPEG audio (layer I, II or III)
Comments :
Title=Behind the Smile
Artist=Silent Clash
Album=Inner Lies
Tracknumber=2/9
Year=2018

[/more]

Register
(5) AHBAnep, aviacademy, dimitriusk, metala, terron,
Sep 6 2018, 13:10:03 Chafe - Crimes Against Music Vol. 1 (2018)


*Artist: Chafe
*Album: Crimes Against Music Vol. 1
*Year: 2018
*Genre: Goregrind
*Country: United States
*Format: flac
*Size: 144MB

Tracklist:
01. Memoirs Of An Arabian Gimp Destroyer 01:29
02. Projectile Hysterectomy 01:27
03. Full English Placenta 00:43
04. Necrotising Gastrointestinal Fist-Fuck 00:58
05. Don't Lobotomise My Cat, Alan 01:48
06. Cutaneous Foreskin Inversion 00:27
07. Bite The Pillow, I'm Going In Dry! 00:45
08. Testicle Kebab 01:26
09. Jackhammer Prostate Crusher 00:22
10. Why Did I Wake Up In This Lesbian's Van? 02:18
11. Bang Tidy Corpse 01:07
12. White Bullet To The Back Of The Throat 02:16
13. Shit-Stained Utensil Vasectomy 00:59
14. Sandblasted Face-Fuck 00:51
15. Prolapse Explosion 00:29
16. If The Body's Still Warm... 01:10
17. Scum Of The Earth 02:52
******************************
Total playing time: 21:27



Register
(3) infiltrator, jollo, Rosen,
Sep 6 2018, 12:40:41 Primitive Lungs - Multiplicious Monochroma (2009)


*Artist: Primitive Lungs
*Album: Multiplicious Monochroma
*Year: 2009
*Genre: Experimental Grindcore
*Country: Canada
*Format: mp3@CBR320kbps
*Size: 119MB

Tracklist:
01. Spine Tree Forester 02:11
02. Cube Of Vomit 02:59
03. Pointless Attack 00:39
04. Killer Whales - The Squid Assassins 03:28
05. Shocking Death Posture 02:39
06. Subterranean Nuclear Testing 00:42
07. Attackmaster General 03:14
08. Toxicological Botoxidizor 02:33
09. Contradictory Anatomy 01:38
10. Calamicious Objects 04:09
11. Inconclusive Brainwave Mangler 04:47
12. Railgun 5000 In The Future (With Perpetual Motion Device) 03:21
13. Cerebral Alternators 04:36
14. The End Of Life On Earth 00:38
15. Exploding Graveyard 01:43
16. Stomach Contents Of A Marine Mammal 00:12
17. Multiplicious Monochroma 03:11
18. Destroy Music (Autophagia Cover 2008) 00:10
19. His Mighty Toadness, Ruler Of The Nine Swamps Of The Washington Bay Area In The Cambrian Era (2008) 01:54
20. Killer Whales - The Squid Assassins (Metal Version 2008) 03:45
21. Corpse Killer (For 3DO) (2008) 02:15
22. Rogue Diplomat (2008) 01:18
******************************
Total playing time: 52:02



[more=Technical info]
Input File: 02. Cube Of Vomit.mp3
Channels : 2
Sample Rate : 44100
Precision : 16-bit
Duration : 00:02:59.24 = 7904308 samples = 13442.7 CDDA sectors
File Size : 7.26M
Bit Rate : 324k
Sample Encoding: MPEG audio (layer I, II or III)
Comments :
Title=Cube Of Vomit
Artist=Primitive Lungs
Album=Multiplicious Monochroma
Tracknumber=2
Year=2009

[/more]

Register
(4) infiltrator, metala, Rosen, spiritualdecay666,
Sep 6 2018, 12:18:31 Klimaxxx - Masturbate To Death (2018)


*Artist: Klimaxxx
*Album: Masturbate To Death
*Year: 2018
*Genre: Porno Goregrind
*Country: United States
*Format: mp3@CBR320kbps
*Size: 50MB

Tracklist:
01. I Like To Fuck Decomposed Girls 01:34
02. I Want To See What Your Insides Look Like 01:57
03. Masturbating In Public!!! 02:04
04. Possessed Detached Cock 01:33
05. Infected Decomposing Menstrual Cavity 01:52
06. I'm A Gore Pornstar 03:28
07. Insatiable Craving For Tantalized Cooter 02:21
08. She's Dead... But So Wet 01:31
09. Regurgitated Seminal Filth 02:55
10. Triumph Of The Penis (Disgorged Foetus) 01:39
******************************
Total playing time: 20:54





[more=Technical info]
Input File: 02. I Want To See What Your Insides Look Like.mp3
Channels : 2
Sample Rate : 44100
Precision : 16-bit
Duration : 00:01:57.64 = 5187704 samples = 8822.63 CDDA sectors
File Size : 4.88M
Bit Rate : 332k
Sample Encoding: MPEG audio (layer I, II or III)
Comments :
Title=I Want To See What Your Insides Look Like
Artist=Klimaxxx
Album=M**turbate to Death
Tracknumber=2
Year=2018

[/more]

Register
(10) aa144aa, infiltrator, jollo, necromasochist, Rosen, RotAnus, spiritualdecay666, uk82, vyacheslav, zotyo1975,
Sep 6 2018, 11:51:54 Morgue Dismemberment - Tea And Surgery [ep] (2018)


*Artist: Morgue Dismemberment
*Album: Tea And Surgery [ep]
*Year: 2018
*Genre: Brutal Death Metal
*Country: United States
*Format: mp3@CBR320kbps
*Size: 38MB

Tracklist:
01. Biochemical Asphyxiation 02:36
02. Tea And Surgery 03:39
03. Acidic Regurgitation Martin Funderud Slam Tribute 03:47
04. Artilery Segmintation 02:35
05. Screwdriver Cranial Impalement 03:06
******************************
Total playing time: 15:43





[more=Technical info]
Input File: 02. Tea and Surgery.mp3
Channels : 2
Sample Rate : 44100
Precision : 16-bit
Duration : 00:03:39.18 = 9665794 samples = 16438.4 CDDA sectors
File Size : 8.90M
Bit Rate : 325k
Sample Encoding: MPEG audio (layer I, II or III)
Comments :
Title=Tea and Surgery
Artist=Morgue Dismemberment
Album=Tea and surgery
Tracknumber=2
Year=2018

[/more]

Register
(4) maochen, Rosen, spiritualdecay666, vyacheslav,
Sep 5 2018, 12:54:03 Perky Macabre - Messy Death [ep] (2018)


*Artist: Perky Macabre
*Album: Messy Death [ep]
*Year: 2018
*Genre: Grindcore
*Country: United States
*Format: mp3@VBR269kbps
*Size: 6MB

Tracklist:
01. Hallucinate To Victimize 00:27
02. Obscene Feelings 00:25
03. Dismal Dimensions 00:25
04. Fleeting Lucidity 00:18
05. Unblessed Things 00:23
06. Morbid Murmur 00:14
07. Rotten Fragrance Lingers 00:26
08. Crimson Famine 00:14
09. Sudden Blood Ejection 00:11
******************************
Total playing time: 3:03



[more=Technical info]
Input File: 02. Obscene Feelings.mp3
Channels : 2
Sample Rate : 44100
Precision : 16-bit
Duration : 00:00:25.36 = 1118552 samples = 1902.3 CDDA sectors
File Size : 876k
Bit Rate : 276k
Sample Encoding: MPEG audio (layer I, II or III)
Comments :
Title=Obscene Feelings
Artist=Perky Macabre
Album=Messy Death
Tracknumber=2
Year=2018

[/more]

Register
(1) Rosen,
Sep 5 2018, 03:47:17 Thola - Stalking Tender Prey [ep] (2018)


*Artist: Thola
*Album: Stalking Tender Prey [ep]
*Year: 2018
*Genre: Thrash/Power Metal
*Country: Switzerland
*Format: mp3@CBR320kbps
*Size: 97MB

Tracklist:
01. Seven Ga7es
02. Wolfburn
03. Imprisonment of Your Mind
04. Squaring the Circle
05. Ride Your System
06. XVII
07. Babawanga
08. X-Tree-M
******************************
Total playing time: 42:22



[more=Technical info]
Input File: 02. Wolfburn.mp3
Channels : 2
Sample Rate : 44100
Precision : 16-bit
Duration : 00:05:45.81 = 15250001 samples = 25935.4 CDDA sectors
File Size : 13.8M
Bit Rate : 320k
Sample Encoding: MPEG audio (layer I, II or III)
Comments :
Title=Wolfburn
Artist=Thola
Album=Stalking Tender Prey
Tracknumber=2/8
Year=2018

[/more]

Register
(9) boby9052, infiltrator, infozahist, METALHUNTER, postal67, Rosen, Rover, sayfut, sergsazan,
Sep 5 2018, 03:30:10 Adnate - Neo-Dryas (2018)


*Artist: Adnate
*Album: Neo-Dryas
*Year: 2018
*Genre: Doom/Post-Metal
*Country: Australia
*Format: mp3@CBR320kbps
*Size: 88MB

Tracklist:
01. A Call To Prayer 02:41
02. Rebirth 11:49
03. Convergence 11:47
04. Cataclysm 12:15
******************************
Total playing time: 38:32



[more=Technical info]
Input File: 02. Rebirth.mp3
Channels : 2
Sample Rate : 44100
Precision : 16-bit
Duration : 00:11:49.06 = 31269458 samples = 53179.4 CDDA sectors
File Size : 28.4M
Bit Rate : 320k
Sample Encoding: MPEG audio (layer I, II or III)
Comments :
Title=Rebirth
Artist=ADNATE
Album=Neo-Dryas
Tracknumber=2/4
Year=2018

[/more]

Register
(5) bowelstew, infiltrator, marilin, Rosen, VALERY,
Sep 4 2018, 12:53:18 Unspoken - Requiem Aeternam Deo (2013)


*Artist: Unspoken
*Album: Requiem Aeternam Deo
*Year: 2013
*Genre: Death Metal
*Country: Norway
*Format: mp3@CBR320kbps
*Size: 109MB

Tracklist:
01. Baptised At The Altar Of Rats 03:12
02. Redemption Scars 03:51
03. Death Of A Dynasty 07:55
04. Among The Carnage 04:44
05. Dawn Of Maggots 03:38
06. Leviathan Rise 04:02
07. The Culprit 07:51
08. Void Of Eden Pt I 02:40
09. Void Of Eden Pt II 03:41
10. Oppression, Pawns And Poisonous Tongues 06:25
******************************
Total playing time: 47:59






[more=Extended info]Exclusive for Metalarea.org[/more]

[more=Technical info]
Input File: 05. Dawn Of Maggots.mp3
Channels : 2
Sample Rate : 44100
Precision : 16-bit
Duration : 00:03:37.90 = 9609346 samples = 16342.4 CDDA sectors
File Size : 8.72M
Bit Rate : 320k
Sample Encoding: MPEG audio (layer I, II or III)
Comments :
Title=Dawn Of Maggots
Artist=Unspoken
Album=Requiem Aeternam Deo
Tracknumber=5
Year=2013
Genre=22

[/more]

Register
(13) AHBAnep, andreikun, cancer1974, Hell_Is_Here, infiltrator, jollo, KVRT, metala, METALHUNTER, Rosen, Terrorizer, VALERY, vyacheslav,
Sep 4 2018, 12:23:51 Cephalalgia - Necro Vorarephilia Fetish (2018)


*Artist: Cephalalgia
*Album: Necro Vorarephilia Fetish
*Year: 2018
*Genre: Brutal Death Metal/Goregrind
*Country: United States
*Format: mp3@CBR320kbps
*Size: 70MB

Tracklist:
01. Flesh Devouring Abomination 02:59
02. My Heart, Her Intestines 02:12
03. Sodomizing The Cunt Of A Dead 6-Week-Old Decomposing Whore 02:42
04. Putrefaction At The Crime Scene 03:00
05. Headless And Faceless 02:05
06. Legs And Limbs 02:04
07. Necro Vorarephilia Fetish 03:08
08. Tied, Gagged And Rotted 02:07
09. Broken Appendages Preventing Escape 02:31
10. Natural Abortion 03:17
11. Bloated Pus Drip (Bonus Track) 02:34
12. Mauled Beyond Recognition (Mortician Cover) (Bonus Track) 01:09
******************************
Total playing time: 29:48



[more=Technical info]
Input File: 02. My Heart, Her Intestines.mp3
Channels : 2
Sample Rate : 44100
Precision : 16-bit
Duration : 00:02:12.58 = 5846690 samples = 9943.35 CDDA sectors
File Size : 5.51M
Bit Rate : 333k
Sample Encoding: MPEG audio (layer I, II or III)
Comments :
Title=My Heart, Her Intestines
Artist=Cephalalgia
Album=Necro Vorarephilia Fetish(Full-Length)
Tracknumber=2
Year=2018

[/more]

Register
(9) aa144aa, denver, Hell_Is_Here, infiltrator, jollo, Rosen, vyacheslav, WX419, zotyo1975,

1259 Pages V  < 1 2 3 4 > » 
- Lo-Fi Version Support form
Copyrights and abuse reports form
Time is now: 23rd September 2018 - 07:08:15