Welcome Guest ( Log In | Register )

История благодарностей участнику necroscum ::: Спасибо сказали: 366415 раз(а)
Дата поста: В теме: За сообщение: Спасибо сказали:
Feb 14 2019, 13:46:55 Inferious - Begotten (2019)


*Artist: Inferious
*Album: Begotten
*Year: 2019
*Genre: Death Metal/Deathcore
*Country: United States
*Format: mp3@CBR320kbps
*Size: 80MB

Tracklist:
01. Brute
02. Nightmare Vision
03. Worm
04. Victim
05. Begotten
06. Forgotten
07. Evolution
08. Genocide
09. Black Sun
10. Blood Moon
******************************
Total playing time: 35:17



[more=Technical info]
Input File: 2 - Nightmare Vision.mp3
Channels : 2
Sample Rate : 44100
Precision : 16-bit
Duration : 00:02:48.08 = 7412372 samples = 12606.1 CDDA sectors
File Size : 6.93M
Bit Rate : 330k
Sample Encoding: MPEG audio (layer I, II or III)
Comments :
Title=Nightmare Vision
Artist=Inferious
Album=Begotten
Tracknumber=2
Year=2019
Genre=Alternative/Indie Rock/Metal
Discnumber=1

[/more]

Register
(2) artscald, Olethros,
Feb 14 2019, 13:36:49 Megawitch - Herbalism [ep] (2019)


*Artist: Megawitch
*Album: Herbalism [ep]
*Year: 2019
*Genre: Sludge/Doom Metal
*Country: United States
*Format: mp3@CBR320kbps
*Size: 61MB

Tracklist:
1. Bluntwand 04:49
2. Buzz Cauldron 06:16
3. Wizard of (oz.) 06:12
4. Sadu Hemp 05:02
5. Funeral High 06:18
******************************
Total playing time: 28:37





[more=Technical info]
Input File: 02-megawitch-buzz_cauldron-641cdc29.mp3
Channels : 2
Sample Rate : 44100
Precision : 16-bit
Duration : 00:06:16.89 = 16620937 samples = 28266.9 CDDA sectors
File Size : 15.3M
Bit Rate : 325k
Sample Encoding: MPEG audio (layer I, II or III)
Comments :
Title=Buzz Cauldron
Artist=Megawitch
Album=Herbalism
Tracknumber=2/5
Year=2019
Genre=Metal

[/more]

Register
(7) artscald, gena, marilin, Olethros, Ostinato, stub888, VALERY,
Feb 14 2019, 13:05:47 Ascheregen - Untot (2019)


*Artist: Ascheregen
*Album: Untot
*Year: 2019
*Genre: Heavy/Power/Speed Metal
*Country: Germany
*Format: mp3@CBR320kbps
*Size: 118MB

Tracklist:
01. Untot
02. Hey Christina
03. Lass es raus
04. Argenteum Astrum
05. Tod im Ascheregen
06. Hau ab
07. Wer bist du
08. Ascheregen
09. Schnell wie ein Hai
10. Verfolgungswahn
11. Depressiver Klon
12. Rockgott
13. Ich bin nicht
******************************
Total playing time: 51:15



[more=Technical info]
Input File: 2 - Hey Christina.mp3
Channels : 2
Sample Rate : 44100
Precision : 16-bit
Duration : 00:03:58.09 = 10499901 samples = 17857 CDDA sectors
File Size : 9.72M
Bit Rate : 327k
Sample Encoding: MPEG audio (layer I, II or III)
Comments :
Title=Hey Christina
Artist=Ascheregen
Album=Untot
Tracknumber=2
Year=2019
Genre=Heavy Metal
Discnumber=1

[/more]

Register
(8) artscald, metala, Olethros, sergsazan, stumpheavyrock, varlam4, vir2al, wgs73,
Feb 14 2019, 12:59:14 Nedakh - Rape The False Witch [ep] (2019)


*Artist: Nedakh
*Album: Rape The False Witch [ep]
*Year: 2019
*Genre: Black Metal
*Country: United States
*Format: mp3@CBR320kbps
*Size: 61MB

Tracklist:
1. Asmodeous Reigns
2. Ahlil Maat
3. Rape the False Witch
4. Sulphur
5. Infested with Betrayal
******************************
Total playing time: 26:46




[more=Technical info]
Input File: 4 - Channel.mp3
Channels : 2
Sample Rate : 44100
Precision : 16-bit
Duration : 00:04:37.93 = 12256801 samples = 20844.9 CDDA sectors
File Size : 11.3M
Bit Rate : 325k
Sample Encoding: MPEG audio (layer I, II or III)
Comments :
Title=Channel
Artist=In The Fire
Album=Volatile Beings
Tracknumber=4
Year=2019
Genre=Black / Death / Thrash Metal
Discnumber=1

[/more]

Register
(11) artscald, kim666, marilin, Olethros, Ostinato, satanist666, SilentNidhogg, stub888, VALERY, varlam4, vasiljev_sergej,
Feb 14 2019, 12:53:44 In The Fire - Volatile Beings (2019)


*Artist: In The Fire
*Album: Volatile Beings
*Year: 2019
*Genre: Black/Death/Thrash Metal
*Country: United States
*Format: mp3@CBR320kbps
*Size: 83MB

Tracklist:
01. Feral
02. The Devil In The Mirror
03. Into Battle
04. Channel
05. In The Fire
06. Techno-Sociopathic De-Evolution
07. Inside Out
08. The Poisoned Rye
******************************
Total playing time: 38:15



[more=Technical info]
Input File: 2 - The Devil in the Mirror.mp3
Channels : 2
Sample Rate : 44100
Precision : 16-bit
Duration : 00:03:24.73 = 9028681 samples = 15354.9 CDDA sectors
File Size : 8.38M
Bit Rate : 327k
Sample Encoding: MPEG audio (layer I, II or III)
Comments :
Title=The Devil in the Mirror
Artist=In The Fire
Album=Volatile Beings
Tracknumber=2
Year=2019
Genre=Black / Death / Thrash Metal
Discnumber=1

[/more]

Register
(10) AHBAnep, artscald, boby9052, Grimmsberg, infozahist, metala, METALHUNTER, Ostinato, varlam4, vasiljev_sergej,
Feb 14 2019, 12:48:49 Stian Nyquist - The Forgotten Gate (2019)


*Artist: Stian Nyquist
*Album: The Forgotten Gate
*Year: 2019
*Genre: Instrumental/Progressive Metal
*Country: Norway
*Format: mp3@CBR320kbps
*Size: 98MB

Tracklist:
01. World of Secrets
02. Unknown Planet
03. Lonely Soul
04. Inside the Core of the Earth
05. Peaceful Eden
06. Beneath the Underworld
07. The Forgotten Gate
******************************
Total playing time: 42:48




[more=Technical info]
Input File: 2 - Unknown Planet.mp3
Channels : 2
Sample Rate : 44100
Precision : 16-bit
Duration : 00:06:14.62 = 16520566 samples = 28096.2 CDDA sectors
File Size : 15.2M
Bit Rate : 325k
Sample Encoding: MPEG audio (layer I, II or III)
Comments :
Title=Unknown Planet
Artist=Stian Nyquist
Album=The Forgotten Gate
Tracknumber=2
Year=2019
Genre=Progressive Metal
Discnumber=1

[/more]

Register
(6) artscald, dimitriusk, Grimmsberg, MeatWolf, Olethros, terron,
Feb 14 2019, 12:41:25 Tigersclaw - Force Of Destiny (2019)


*Artist: Tigersclaw
*Album: Force Of Destiny
*Year: 2019
*Genre: Symphonic Power Metal
*Country: Germany
*Format: mp3@CBR320kbps
*Size: 165MB

Tracklist:
1. Force of Destiny 04:14
2. Walpurgis Night 03:56
3. Tigersclaw 05:57
4. Speed of Light 03:31
5. Empire of Forgotten Souls 04:44
6. Lightyears Away 04:54
7. Still of the Night 05:50
8. The Fallen Queen 05:56
9. Feel the Night 03:56
10. For Kingdoms Pride 04:38
11. Dimitte Me 03:30
12. Tears in the Night 06:15
13. Angels Don't Cry 04:47
14. Breath of the Dragon 04:19
15. Love at First Sight 06:42
******************************
Total playing time: 1:13:09



[more=Technical info]
Input File: 2 - Walpurgis Night.mp3
Channels : 2
Sample Rate : 44100
Precision : 16-bit
Duration : 00:03:56.08 = 10411172 samples = 17706.1 CDDA sectors
File Size : 9.52M
Bit Rate : 323k
Sample Encoding: MPEG audio (layer I, II or III)
Comments :
Title=Walpurgis Night
Artist=Tigersclaw
Album=Force Of Destiny
Tracknumber=2
Year=2019
Genre=Symphonic Power Metal
Discnumber=1

[/more]

Register
(12) djsema4, gwar, Herrant, infozahist, metala, Olethros, Reverend, Rover, sergsazan, terron, valera2010, WX419,
Feb 14 2019, 12:37:12 Holy Blood - Voice Of Blood (2019)


*Artist: Holy Blood
*Album: Voice Of Blood
*Year: 2019
*Genre: Folk/Death/Black Metal
*Country: Ukraine
*Format: mp3@CBR320kbps
*Size: 91MB

Tracklist:
1. Genesis 4:10 (Intro) 00:22
2. Voice of Blood 05:47
3. Ukraine
4. We Know Who We Are 06:40
5. Beginning of the Revival of the Kievan Rus
6. The Smile of the Cossack
7. Yes!, Let It Be
8. Freedom
******************************
Total playing time: 40:59



[more=Technical info]
Input File: 2 - Voice of Blood.mp3
Channels : 2
Sample Rate : 44100
Precision : 16-bit
Duration : 00:05:47.13 = 15308609 samples = 26035 CDDA sectors
File Size : 14.0M
Bit Rate : 324k
Sample Encoding: MPEG audio (layer I, II or III)
Comments :
Title=Voice of Blood
Artist=Holy Blood
Album=Voice of Blood
Tracknumber=2
Year=2019
Genre=Folk, Death, Black Metal
Discnumber=1

[/more]

Register
(11) artscald, fabriziomagno, gwar, infozahist, metala, pfk505, recber, StabWound, terron, tt2008, varlam4,
Feb 14 2019, 12:27:49 Black Mass - Warlust (2019)


*Artist: Black Mass
*Album: Warlust
*Year: 2019
*Genre: Thrash Metal
*Country: United States
*Format: mp3@CBR320kbps
*Size: 84MB

Tracklist:
1. Intro 02:34
2. Warlust 03:16
3. Programmable Life Forms 03:28
4. High Priest in Black 02:53
5. Graveyard Rock 03:36
6. Interlude 02:15
7. Hellhounds 05:33
8. Bible Stomp 04:34
9. Virgin Sacrifice 04:38
10. Fueled by Drugs 04:14
******************************
Total playing time: 37:01



[more=Technical info]
Input File: 2 - Warlust.mp3
Channels : 2
Sample Rate : 44100
Precision : 16-bit
Duration : 00:03:16.45 = 8663489 samples = 14733.8 CDDA sectors
File Size : 8.08M
Bit Rate : 329k
Sample Encoding: MPEG audio (layer I, II or III)
Comments :
Title=Warlust
Artist=Black Mass
Album=Warlust
Tracknumber=2
Year=2019
Genre=Thrash Metal
Discnumber=1

[/more]

Register
(11) andreikun, artscald, Asketto, BugEyes, Diflock, gwar, marilin, metala, METALHUNTER, Olethros, saturas1,
Feb 14 2019, 12:16:28 Thot Purge - Live. Laugh. Love. (2019)


*Artist: Thot Purge
*Album: Live. Laugh. Love.
*Year: 2019
*Genre: Slamming Brutal Deathcore
*Country: Serbia
*Format: mp3@CBR320kbps
*Size: 66MB

Tracklist:
01. Super Slut Soldiers 02:34
02. Welcome To Ancapistan™ 02:46
03. Knucklefucked 02:22
04. Capsize Kayaks 02:39
05. The Muffin Man's Wife Is A Whore 02:39
06. Toxic Thot Syndrome 02:33
07. The Fuckboy Anthem 00:52
08. Backpacking With My Besties In Morocco x 01:50
09. I Only Like BDSM Because I Hate Women 00:08
10. Coalburner Abortion 00:48
11. Uncle Slam 01:29
12. Claustrophobic Hatefuck 02:23
13. Thot Patrol Death Squads 03:33
******************************
Total playing time: 26:36





[more=Technical info]
Input File: 02 Welcome To Ancapistan™.mp3
Channels : 2
Sample Rate : 44100
Precision : 16-bit
Duration : 00:02:46.07 = 7323775 samples = 12455.4 CDDA sectors
File Size : 6.73M
Bit Rate : 324k
Sample Encoding: MPEG audio (layer I, II or III)
Comments :
Title=Welcome To Ancapistan™
Artist=THOT PURGE
Album=Live. Laugh. Love.
Tracknumber=2
Year=2019
Genre=Death Metal

[/more]

Register
(3) artscald, LordOvDarkness, Olethros,
Feb 14 2019, 12:08:51 A Hero For The World - West To East, Pt. Ii: Space Ranger (2019)


*Artist: A Hero For The World
*Album: West To East, Pt. Ii: Space Ranger
*Year: 2019
*Genre: Power Metal
*Country: Philippines
*Format: mp3@CBR320kbps
*Size: 164MB

Tracklist:
1. The Son of Ice and Fire
2. The Orville
3. I Own the Universe
4. Oceania
5. We Are Not Alone (In the Universe)
6. See You in Another Life
7. The Avenger
8. Day and Night
9. Tomorrowland
10. The Orville (Rejoining in Outer Space)
11. Guide in the Galaxy
12. Supernova
13. A Hero in Outer Space: Premonition of the Ultimate Syzygy of Stars (Instrumental)
14. Jupiter and Mars
******************************
Total playing time: 1:12:05





[more=Technical info]
Input File: 2 - The Orville.mp3
Channels : 2
Sample Rate : 44100
Precision : 16-bit
Duration : 00:05:59.52 = 15854700 samples = 26963.8 CDDA sectors
File Size : 14.5M
Bit Rate : 323k
Sample Encoding: MPEG audio (layer I, II or III)
Comments :
Title=The Orville
Artist=A Hero for the World
Album=West to East, Pt. II: Space Ranger
Tracknumber=2
Year=2019
Genre=Power Metal
Discnumber=1

[/more]

Register
(8) artscald, Druidir, gwar, Olethros, Rover, sergsazan, terron, varlam4,
Feb 14 2019, 12:01:35 Solar Eruption - The End Is Near [ep] (2019)


*Artist: Solar Eruption
*Album: The End Is Near [ep]
*Year: 2019
*Genre: Deathcore
*Country: France
*Format: mp3@CBR320kbps
*Size: 46MB

Tracklist:
01. Chiaroscuro 04:20
02. Darkness Comes Home 03:47
03. Hocus Pocus 03:50
04. End of Our Era 04:06
05. Useful Suicide 03:53
******************************
Total playing time: 19:56




[more=Technical info]
Input File: 02. Darkness Comes Home.mp3
Channels : 2
Sample Rate : 44100
Precision : 16-bit
Duration : 00:03:48.01 = 10055197 samples = 17100.7 CDDA sectors
File Size : 9.28M
Bit Rate : 326k
Sample Encoding: MPEG audio (layer I, II or III)
Comments :
Title=Darkness Comes Home
Artist=Solar Eruption
Album=The End Is Near
Tracknumber=2/5
Year=2019
Discnumber=1/1

[/more]

Register
(3) artscald, Olethros, Ostinato,
Feb 14 2019, 03:42:23 Stormhaven - Liquid Imagery (2019)


*Artist: Stormhaven
*Album: Liquid Imagery
*Year: 2019
*Genre: Progressive Death Metal
*Country: France
*Format: mp3@CBR320kbps
*Size: 141MB

Tracklist:
01. A Wayward Course 01:53
02. The Storm 07:08
03. Tides 03:56 video
04. Starless Night 04:38
05. Contemplation 02:45
06. Sirens 09:07
07. Abyss 05:07
08. Aurora 07:06
09. Vesper 06:51
10. Echoes 12:30
******************************
Total playing time: 1:01:01



[more=Technical info]
Input File: 02. The Storm.mp3
Channels : 2
Sample Rate : 44100
Precision : 16-bit
Duration : 00:07:08.20 = 18883576 samples = 32114.9 CDDA sectors
File Size : 17.2M
Bit Rate : 321k
Sample Encoding: MPEG audio (layer I, II or III)
Comments :
Title=The Storm
Artist=Stormhaven
Album=Liquid Imagery
Tracknumber=2/10
Year=2019

[/more]

Register
(8) artscald, Grimmsberg, metala, METALHUNTER, Olethros, Shadowman, VALERY, yuratroll,
Feb 13 2019, 16:35:45 Avantasia - Moonglow (2019)


*Artist: Avantasia
*Album: Moonglow
*Year: 2019
*Genre: Symphonic Power Metal
*Country: Germany
*Format: mp3@VBR261kbps
*Size: 132MB

Tracklist:
1. Ghost in the Moon 09:51
2. Book of Shallows 05:00
3. Moonglow 03:56
4. The Raven Child 11:14
5. Starlight 03:38
6. Invincible 03:07
7. Alchemy 07:28
8. The Piper at the Gates of Dawn 07:20
9. Lavender 04:30
10. Requiem for a Dream 06:08
11. Maniac (Michael Sembello cover) 04:31
12. Heart (Bonus Track) 03:47
******************************
Total playing time: 1:10:30






[more=Technical info]
Input File: 02 - Book of Shallows.mp3
Channels : 2
Sample Rate : 44100
Precision : 16-bit
Duration : 00:05:00.49 = 13251433 samples = 22536.5 CDDA sectors
File Size : 9.99M
Bit Rate : 266k
Sample Encoding: MPEG audio (layer I, II or III)
Comments :
Title=Book of Shallows
Artist=Avantasia
Album=Moonglow
Tracknumber=2
Year=2019

[/more]

Register
(40) 666days, ace73pq, AHBAnep, Alpha_Prime, Aresson, artscald, Azazel71, Black Cat, boby9052, Cheshire, djsema4, Druidir, DTGB, dulak, Faust_Vulkan_16, Femto, hammer, Herrant, HMHamster, Lamby90, LEGION69, MeatWolf, metalboll, MеtalHead, Niknne, Olethros, Olrak, Paradayz, rabindranad, recber, ripper33, Rover, satanist666, savatage13, tOmV, VALERY, varlam4, wn129aa, yuratroll, zhol,
Feb 13 2019, 16:14:31 Ripoptosome & Ganglion Cyst - Gushing Cellular Viscera Into Extracellular Cavities [split] (2018)


*Artist: Ripoptosome & Ganglion Cyst
*Album: Gushing Cellular Viscera Into Extracellular Cavities [split]
*Year: 2018
*Genre: Goregrind/Gorenoise | Goregrind/Noisegrind
*Country: United States | United States
*Format: mp3@CBR320kbps
*Size: 9MB

Tracklist:
Ripoptosome:
01. Rapidly Forming Protein Kinasis 00:14
02. Metabolysing Necroptic Signa 00:15
03. Inflammed Signal Pathway 00:12
04. Disintegrating Cellular Membrane 00:14
05. Excreting Dead Organ Tissue 00:14
06. Complex II Necrosome 00:15
07. Ectopic Fistula Genesis 00:14
08. Antibiotic Anaphylaxis 00:12
Ganglion Cyst:
09. Cystic Hygroma 00:27
10. Extreme Fibrosis 00:21
11. Medullary Sponge 00:31
12. Renal Cysts Accumulate 00:17
13. Nephronohthisis 00:15
******************************
Total playing time: 3:41




[more=Technical info]
Input File: 10. Extreme Fibrosis.mp3
Channels : 2
Sample Rate : 44100
Precision : 16-bit
Duration : 00:00:21.55 = 950443 samples = 1616.4 CDDA sectors
File Size : 933k
Bit Rate : 346k
Sample Encoding: MPEG audio (layer I, II or III)
Comments :
Title=Extreme Fibrosis
Artist=Ganglion Cyst
Album=Gushing Cellular Viscera into Extracellular Cavities [SPLIT WITH Ripoptosome]
Tracknumber=10
Year=2018

[/more]

Register
(1) Герб,
Feb 13 2019, 15:24:51 Ganglion Cyst - Masticated Chunks Splashing Into Digested Viscerae [ep] (2019)


*Artist: Ganglion Cyst
*Album: Masticated Chunks Splashing Into Digested Viscerae [ep]
*Year: 2019
*Genre: Goregrind/Noisegrind
*Country: United States
*Format: mp3@CBR320kbps
*Size: 20MB

Tracklist:
01. Human Bite Marks 01:04
02. Induced Regurgitative Prolapse 00:39
03. Epidermal Polyp Exposure 00:32
04. Bound Limbs Found In Decomposing Ruin 00:12
05. Flies Following The Body Carriage 00:31
06. Black Mouth Blood 00:24
07. Discarded Organ Container Soaked In Congealed Bile 00:15
08. Stench Of Cauterized Extremeties 00:21
09. Flesh Dummies 00:32
10. Violated Cop Corpse 00:33
11. Dismembered Victims Drenched In Drano 00:17
12. Sexual Slurry Composite 00:22
13. An Eruption Of Cadaveric XTC 00:23
14. Masticated Chunks 00:47
15. Consumed And Defecated To Oblivion 00:27
16. An All-Consuming Desire For Human Excrement 00:28
******************************
Total playing time: 7:47



[more=Technical info]
Input File: 02. Induced Regurgitative Prolapse.mp3
Channels : 2
Sample Rate : 44100
Precision : 16-bit
Duration : 00:00:39.32 = 1733836 samples = 2948.7 CDDA sectors
File Size : 1.71M
Bit Rate : 347k
Sample Encoding: MPEG audio (layer I, II or III)
Comments :
Title=Induced Regurgitative Prolapse
Artist=GANGLION CYST
Album=Masticated Chunks Splashing into Digested Viscerae
Tracknumber=2
Year=2018

[/more]

Register
(1) Olethros,
Feb 13 2019, 14:53:24 Violet Cold - Kosmik (2019)


*Artist: Violet Cold
*Album: Kosmik
*Year: 2019
*Genre: Atmospheric Black Metal
*Country: Azerbaijan
*Format: mp3@CBR320kbps
*Size: 83MB

Tracklist:
01. Contact
02. Black Sun
03. Mamihlapinatapai
04. Space Funeral
05. Ultraviolet
06. Kosmik
07. Ai(R)
******************************
Total playing time: 36:10



[more=Technical info]
Input File: 2 - Black Sun.mp3
Channels : 2
Sample Rate : 44100
Precision : 16-bit
Duration : 00:05:52.33 = 15537841 samples = 26424.9 CDDA sectors
File Size : 14.2M
Bit Rate : 322k
Sample Encoding: MPEG audio (layer I, II or III)
Comments :
Title=Black Sun
Artist=Violet Cold
Album=Kosmik
Tracknumber=2
Year=2019
Genre=Alternative/Indie Rock/Metal
Discnumber=1

[/more]

Register
(19) 1968_janeart, Antkh, artscald, Branis, djsema4, Femto, HMHamster, kim666, LEGION69, metala, metaljinie, Ostinato, pfk505, Radek, rammmirez, ripper33, varlam4, Witchmaster, xarmendarizx,
Feb 13 2019, 14:12:03 Vintlechkeit - Dype I Vinterskogens... [demo] (2019)


*Artist: Vintlechkeit
*Album: Dype I Vinterskogens... [demo]
*Year: 2019
*Genre: Black Metal/Ambient
*Country: Norway
*Format: mp3@CBR320kbps
*Size: 32MB

Tracklist:
01. Takeskoger 04:50
02. Ensomhet dype i vinterskogens... 09:13
******************************
Total playing time: 14:03





[more=Technical info]
Input File: 02. Ensomhet Dype I Vinterskogens....mp3
Channels : 2
Sample Rate : 44100
Precision : 16-bit
Duration : 00:09:13.51 = 24409923 samples = 41513.5 CDDA sectors
File Size : 22.2M
Bit Rate : 321k
Sample Encoding: MPEG audio (layer I, II or III)
Comments :
Title=Ensomhet Dype I Vinterskogens...
Artist=Vintlechkeit
Album=Dype I Vinterskogens​.​.​. (Demo)
Tracknumber=2/2
Year=2019
Genre=Atmospheric Black Metal

[/more]

Register
(16) 1968_janeart, artscald, kim666, Krosis, LordOvDarkness, Maximvs, nemx, Olethros, Ostinato, satanist666, SilentNidhogg, Sjelekval, stub888, varlam4, vasiljev_sergej, ZA670,
Feb 13 2019, 13:51:03 Misanthropic Winter - Alone [ep] (2019)


*Artist: Misanthropic Winter
*Album: Alone [ep]
*Year: 2019
*Genre: Black Metal
*Country: United States
*Format: mp3@CBR320kbps
*Size: 54MB

Tracklist:
01. Alone 03:40
02. Sorrow 07:16
03. Agony 04:34
04. Death 08:14
******************************
Total playing time: 23:44



[more=Technical info]
Input File: 04. Death.mp3
Channels : 2
Sample Rate : 44100
Precision : 16-bit
Duration : 00:08:14.68 = 21815476 samples = 37101.1 CDDA sectors
File Size : 19.8M
Bit Rate : 321k
Sample Encoding: MPEG audio (layer I, II or III)
Comments :
Title=Death
Artist=Misanthropic Winter
Album=Alone
Tracknumber=4
Year=2019

[/more]

Register
(8) artscald, Olethros, satanist666, SilentNidhogg, stub888, VALERY, varlam4, vasiljev_sergej,
Feb 13 2019, 13:30:55 Declared Dead - Cosmic Plague (2019)


*Artist: Declared Dead
*Album: Cosmic Plague
*Year: 2019
*Genre: Black/Death/Thrash Metal
*Country: Belgium
*Format: mp3@CBR320kbps
*Size: 106MB

Tracklist:
01. Cessation Begins... 01:41
02. The Sand Reckoner 03:13
03. Truth unto Untruth 02:32
04. Adorned Without Ceremony 02:39
05. Empty Invaders 03:16
06. ...the End of Nothing 03:20
07. Cosmic Plague 04:10
08. Beast in the Black 03:08
09. Children of Lesser Gods 03:41
10. Interlude in Z Minor 01:44
11. Spirit of the Ancient Jaguar 05:43
12. Chanting to a Barren Desert 04:05
13. Eyes of Aeons 03:20
******************************
Total playing time: 42:32





[more=Technical info]
Input File: 02. The Sand Reckoner.mp3
Channels : 2
Sample Rate : 44100
Precision : 16-bit
Duration : 00:03:13.08 = 8514872 samples = 14481.1 CDDA sectors
File Size : 7.90M
Bit Rate : 327k
Sample Encoding: MPEG audio (layer I, II or III)
Comments :
Title=The Sand Reckoner
Artist=Declared Dead
Album=Cosmic Plague
Tracknumber=2
Year=2019

[/more]

Register
(9) artscald, marilin, metala, METALHUNTER, Niknne, Olethros, VALERY, varlam4, vasiljev_sergej,
Feb 13 2019, 13:10:26 N.T.R - Y0U Gf Is My Personal Slut [ep] (2019)


*Artist: N.T.R
*Album: Y0U Gf Is My Personal Slut [ep]
*Year: 2019
*Genre: Porno Goregrind
*Country: Argentina
*Format: mp3@CBR320kbps
*Size: 24MB

Tracklist:
01. Intro/I Love But You Are So Tiny 01:29
02. Y0u Gf Is My Personal Slut 02:22
03. LoveLy Mom Addict To My 8in Cock 02:30
04. She Loves My Cock More Than Her Children 01:37
05. 4 - Fuck U Cuck (She Wanna Fuck With Me Now) 02:03
******************************
Total playing time: 10:01




[more=Technical info]
Input File: 03. LoveLy mom Addict to my 8in cock.mp3
Channels : 2
Sample Rate : 44100
Precision : 16-bit
Duration : 00:02:30.08 = 6618572 samples = 11256.1 CDDA sectors
File Size : 6.19M
Bit Rate : 330k
Sample Encoding: MPEG audio (layer I, II or III)
Comments :
Title=LoveLy mom Addict to my 8in cock
Artist=N.T.R
Album=Y0u gf is my personal slut
Tracknumber=3
Year=2019

[/more]

Register
(3) Olethros, RotAnus, Герб,
Feb 13 2019, 04:26:58 Torrid Complex - Left Behind (2019)


*Artist: Torrid Complex
*Album: Left Behind
*Year: 2019
*Genre: Thrash Metal
*Country: United States
*Format: mp3@CBR320kbps
*Size: 124MB

Tracklist:
01. Crawl
02. Twenty Two
03. Gassed
04. On Your Feet
05. Left Behind
06. One in the Chamber
07. Fallout
08. Blackheart
09. Blind Man
10. Immigrant Song
11. Love Song
12. Chaos
******************************
Total playing time: 53:47



[more=Technical info]
Input File: 02. Twenty Two.mp3
Channels : 2
Sample Rate : 44100
Precision : 16-bit
Duration : 00:05:22.55 = 14224631 samples = 24191.5 CDDA sectors
File Size : 13.0M
Bit Rate : 321k
Sample Encoding: MPEG audio (layer I, II or III)
Comments :
Title=Twenty Two
Artist=Torrid Complex
Album=Left Behind
Tracknumber=2/12
Year=2019

[/more]

Register
(8) artscald, Foneg, gwar, HMHamster, metala, older68, Olethros, Razorbladeswaltz,
Feb 13 2019, 04:25:29 Cryodeath - Path Of Decay (2019)


*Artist: Cryodeath
*Album: Path Of Decay
*Year: 2019
*Genre: Melodic Death Metal
*Country: United States
*Format: mp3@CBR320kbps
*Size: 100MB

Tracklist:
01. Come Whatever May
02. Time Heals Nothing
03. Silence
04. Greed
05. Path of Decay
06. Death in November
07. House of Cards
08. Rise Against
09. Change
10. Messiah
******************************
Total playing time: 43:29



[more=Technical info]
Input File: 02. Time Heals Nothing.mp3
Channels : 2
Sample Rate : 44100
Precision : 16-bit
Duration : 00:03:50.36 = 10159008 samples = 17277.2 CDDA sectors
File Size : 9.26M
Bit Rate : 322k
Sample Encoding: MPEG audio (layer I, II or III)
Comments :
Title=Time Heals Nothing
Artist=Cryodeath
Album=Path of Decay
Tracknumber=2
Year=2019

[/more]

Register
(7) artscald, older68, Olethros, satanist666, suseka, VALERY, zhol,
Feb 12 2019, 15:29:58 Wombs Of Agony - Echoes Of Time [ep] (2019)


*Artist: Wombs Of Agony
*Album: Echoes Of Time [ep]
*Year: 2019
*Genre: Depressive Black Metal
*Country: France
*Format: mp3@CBR320kbps
*Size: 40MB

Tracklist:
01. Deceit 05:27
02. Echoes of Time 04:19
03. From the Abyss 03:42
04. Do You Remember? 04:00
******************************
Total playing time: 17:28



[more=Technical info]
Input File: 03. From the abyss.mp3
Channels : 2
Sample Rate : 44100
Precision : 16-bit
Duration : 00:03:42.94 = 9831698 samples = 16720.6 CDDA sectors
File Size : 9.06M
Bit Rate : 325k
Sample Encoding: MPEG audio (layer I, II or III)
Comments :
Title=From the abyss
Artist=Wombs of Agony
Album=Echoes Of Time (EP)
Tracknumber=3
Year=2019

[/more]

Register
(11) 1968_janeart, artscald, kim666, metaljinie, Olethros, satanist666, SilentNidhogg, stub888, VALERY, varlam4, vasiljev_sergej,
Feb 12 2019, 14:49:51 Normakk - Inhibitor [ep] (2019)


*Artist: Normakk
*Album: Inhibitor [ep]
*Year: 2019
*Genre: Atmospheric Black Metal
*Country: United Kingdom
*Format: mp3@CBR320kbps
*Size: 52MB

Tracklist:
01. Monoamine Oxidase 07:50
02. Inhibitor 04:13
03. Amygdala 10:31
******************************
Total playing time: 22:34



[more=Technical info]
Input File: 02. Inhibitor.mp3
Channels : 2
Sample Rate : 44100
Precision : 16-bit
Duration : 00:04:13.11 = 11162327 samples = 18983.5 CDDA sectors
File Size : 10.2M
Bit Rate : 323k
Sample Encoding: MPEG audio (layer I, II or III)
Comments :
Title=Inhibitor
Artist=Normakk
Album=Inhibitor
Tracknumber=2
Year=2019

[/more]

Register
(11) 1968_janeart, artscald, kim666, Olethros, pfk505, satanist666, SilentNidhogg, stub888, VALERY, varlam4, vasiljev_sergej,

1291 Pages V  < 1 2 3 4 > » 
- Lo-Fi Version Support form
Copyrights and abuse reports form
Time is now: 16th February 2019 - 10:02:43