Welcome Guest ( Log In | Register )

История благодарностей участнику necroscum ::: Спасибо сказали: 360565 раз(а)
Дата поста: В теме: За сообщение: Спасибо сказали:
Nov 9 2018, 05:33:39 Painthing - Where Are You Now... ? (2018)


*Artist: Painthing
*Album: Where Are You Now... ?
*Year: 2018
*Genre: Doom/Death Metal
*Country: Poland
*Format: mp3@CBR320kbps
*Size: 130MB

Tracklist:
01. Between
02. Widow and the King
03. Buzz and Madness
04. The Shell I Live In
05. Psychosis 448
06. Only Death Will Divide Us
07. To Live Is to Fight
08. So Be It
******************************
Total playing time: 56:22

[more=Technical info]
Input File: 02. Widow and the King.mp3
Channels : 2
Sample Rate : 44100
Precision : 16-bit
Duration : 00:07:37.22 = 20163534 samples = 34291.7 CDDA sectors
File Size : 18.3M
Bit Rate : 321k
Sample Encoding: MPEG audio (layer I, II or III)
Comments :
Title=Widow and the King
Artist=Painthing
Album=Where Are You Now...?
Tracknumber=2/8
Year=2018

[/more]

Register
(10) aa144aa, chefo, marilin, metala, Ostinato, Rosen, RUDACHUR, Shadechaser, Stringer, tOmV,
Nov 9 2018, 05:32:20 Hot Ram - Where Light Goes To Die (2018)


*Artist: Hot Ram
*Album: Where Light Goes To Die
*Year: 2018
*Genre: Sludge
*Country: United States
*Format: mp3@CBR320kbps
*Size: 87MB

Tracklist:
01. Tribes of Titan
02. Ciudad de Diablo
03. Petra
04. Songs in the Storm
05. Nova Caesaria
06. Snake River
******************************
Total playing time: 37:42

[more=Technical info]
Input File: 02. Ciudad de Diablo.mp3
Channels : 2
Sample Rate : 44100
Precision : 16-bit
Duration : 00:07:17.50 = 19293750 samples = 32812.5 CDDA sectors
File Size : 17.6M
Bit Rate : 321k
Sample Encoding: MPEG audio (layer I, II or III)
Comments :
Title=Ciudad de Diablo
Artist=HOT RAM
Album=Where Light Goes to Die
Tracknumber=2
Year=2018
Genre=Metal

[/more]

Register
(6) artscald, marilin, Ostinato, Rosen, Sabbathian, stub888,
Nov 9 2018, 05:30:53 Connate Exasperation - Delusional Primacy (2018)


*Artist: Connate Exasperation
*Album: Delusional Primacy
*Year: 2018
*Genre: Death Metal
*Country: Iran
*Format: mp3@CBR320kbps
*Size: 79MB

Tracklist:
01. Egoistic Demise
02. Obsequious Supremacy
03. Delusional Primacy, Pt. 1
04. Delusional Primacy, Pt. 2
05. Hollow Mentality
06. Subsistence of the Bygone
07. Perdition
08. Labyrinth of Darkness
******************************
Total playing time: 34:13

[more=Technical info]
Input File: 02. Obsequious Supremacy.mp3
Channels : 2
Sample Rate : 44100
Precision : 16-bit
Duration : 00:05:06.99 = 13538039 samples = 23023.9 CDDA sectors
File Size : 12.4M
Bit Rate : 322k
Sample Encoding: MPEG audio (layer I, II or III)
Comments :
Title=Obsequious Supremacy
Artist=Connate Exasperation
Album=Delusional Primacy
Tracknumber=2
Year=2018
Genre=Ìåòàë

[/more]

Register
(7) andreikun, jollo, metala, older68, Ostinato, Rosen, Герб,
Nov 9 2018, 05:29:15 Hammerhedd - Essence Of Iron (2018)


*Artist: Hammerhedd
*Album: Essence Of Iron
*Year: 2018
*Genre: Thrash Metal
*Country: United States
*Format: mp3@CBR320kbps
*Size: 74MB

Tracklist:
01. Restoration
02. Disturbance
03. Primitive
04. Rhythmic Succession
05. Essence of Iron
******************************
Total playing time: 32:21

[more=Technical info]
Input File: 02. Disturbance.mp3
Channels : 2
Sample Rate : 44100
Precision : 16-bit
Duration : 00:05:58.06 = 15790314 samples = 26854.3 CDDA sectors
File Size : 14.4M
Bit Rate : 321k
Sample Encoding: MPEG audio (layer I, II or III)
Comments :
Title=Disturbance
Artist=Hammerhedd
Album=Essence of Iron
Tracknumber=2/5
Year=2018

[/more]

Register
(10) boby9052, gwar, infozahist, LightWizard, metala, older68, pichileon, Rosen, Rover, sergsazan,
Nov 8 2018, 15:28:04 Septagon - Apocalyptic Rhymes (2018)


*Artist: Septagon
*Album: Apocalyptic Rhymes
*Year: 2018
*Genre: Speed/Thrash Metal
*Country: Germany
*Format: mp3@CBR320kbps
*Size: 98MB

Tracklist:
01. The End 01:16
02. The Weight of the World 04:38
03. Home, Sweet Hell 05:16
04. Apocalyptic Rhymes 03:39
05. Make a Stand 03:36
06. The Unfathomable Evil 03:35
07. P.O.T.U.S.A. 04:56
08. Cosmic Outrage 04:22
09. Nothingness Awaits 03:15
10. Sunset Blood 07:19
******************************
Total playing time: 41:52





[more=Technical info]
Input File: 02-septagon-the_weight_of_the_world-456b23df.mp3
Channels : 2
Sample Rate : 44100
Precision : 16-bit
Duration : 00:04:39.87 = 12342179 samples = 20990.1 CDDA sectors
File Size : 11.4M
Bit Rate : 325k
Sample Encoding: MPEG audio (layer I, II or III)
Comments :
Title=The Weight of the World
Artist=Septagon
Album=Apocalyptic Rhymes
Tracknumber=2/10
Year=2018
Genre=Heavy Metal

[/more]

Register
(5) artscald, BandR75, metala, pichileon, Rosen,
Nov 8 2018, 15:23:34 Nanowar Of Steel - Stairway To Valhalla (2018)


*Artist: Nanowar Of Steel
*Album: Stairway To Valhalla
*Year: 2018
*Genre: Heavy/Power Metal
*Country: Italy
*Format: mp3@CBR320kbps
*Size: 139MB

Tracklist:
01. Declination
02. Barbie, MILF Princess of the Twilight
03. The Call of Cthulhu
04. Heavy Metal Kibbles
05. Il maestro Myagi di Pino
06. L'opelatole ecologico
07. Images and Swords
08. In the Sky
09. ...and Then I Noticed That She Was a Gargoyle
10. Tooth Fairy
11. Vegan Velociraptor
12. Another Drill in the Wall
13. Ironmonger (The Copier of the Seven Keys)
14. Bum Voyage
15. Uranus
16. The Crown and the Onion Ring
17. The Quest for Carrefour
18. Hail to Liechtenstein
******************************
Total playing time: 1:00:44






[more=Technical info]
Input File: 02-nanowar_of_steel_feat_fabio_lione-barbie_milf_princess_of_the_twilight-a91396d7.mp3
Channels : 2
Sample Rate : 44100
Precision : 16-bit
Duration : 00:05:15.37 = 13907817 samples = 23652.8 CDDA sectors
File Size : 12.8M
Bit Rate : 324k
Sample Encoding: MPEG audio (layer I, II or III)
Comments :
Title=Barbie, Milf Princess of the Twilight
Artist=Nanowar Of Steel feat. Fabio Lione
Album=Stairway To Valhalla
Tracknumber=2/18
Year=2018
Genre=Metal

[/more]

Register
(14) ace73pq, BladeOvDarkness, Darkness, Deada, Lucifer, MеtalHead, rabindranad, Rosen, satanist666, Thunderbird, Tular, VALERY, zhol, Язва,
Nov 8 2018, 15:06:16 Kuar Nhial - Kuar Nhial (2018)


*Artist: Kuar Nhial
*Album: Kuar Nhial
*Year: 2018
*Genre: Black Metal
*Country: Belgium
*Format: mp3@CBR320kbps
*Size: 68MB

Tracklist:
01. Corvus
02. Nonam
03. Spiraal
04. Lamantate
******************************
Total playing time: 29:38





[more=Technical info]
Input File: 02-kuar_nhial-nonam-1859db5a.mp3
Channels : 2
Sample Rate : 44100
Precision : 16-bit
Duration : 00:06:26.85 = 17059865 samples = 29013.4 CDDA sectors
File Size : 15.8M
Bit Rate : 326k
Sample Encoding: MPEG audio (layer I, II or III)
Comments :
Title=Nonam
Artist=Kuar Nhial
Album=Kuar Nhial
Tracknumber=2/4
Year=2018
Genre=Metal

[/more]

Register
(16) 1968_janeart, artscald, kim666, Krosis, marilin, nsk2008, Ostinato, Rosen, satanist666, SilentNidhogg, stub888, SyncestrA, Thunderbird, VALERY, vasiljev_sergej, yuratroll,
Nov 8 2018, 15:01:44 Godskill - II: The Gatherer Of Fear And Blood (2018)


*Artist: Godskill
*Album: II: The Gatherer Of Fear And Blood
*Year: 2018
*Genre: Death Metal/Deathcore
*Country: Germany
*Format: mp3@CBR320kbps
*Size: 81MB

Tracklist:
01. The Eleven Kills the Ten 04:51
02. Demon Mother 04:58
03. Ungodly is the Flesh 04:28
04. The Gatherer of Fear and Blood 05:11
05. From the Ashes of Angels 04:07
06. The Shell 04:48
07. Preliminary Invocation 02:14
08. Becoming a God 04:35
******************************
Total playing time: 35:12





[more=Technical info]
Input File: 02-godskill-demon_mother-bb503742.mp3
Channels : 2
Sample Rate : 44100
Precision : 16-bit
Duration : 00:04:58.00 = 13141712 samples = 22349.9 CDDA sectors
File Size : 12.1M
Bit Rate : 324k
Sample Encoding: MPEG audio (layer I, II or III)
Comments :
Title=Demon Mother
Artist=GodSkill
Album=II - Gatherer Of Fear And Blood
Tracknumber=2/8
Year=2018
Genre=Death Metal

[/more]

Register
(3) gwar, Ostinato, Rosen,
Nov 8 2018, 14:51:11 Décembre Noir - Autumn Kings (2018)


*Artist: Décembre Noir
*Album: Autumn Kings
*Year: 2018
*Genre: Melodic Doom/Death Metal
*Country: Germany
*Format: mp3@CBR320kbps
*Size: 160MB

Tracklist:
01. In the Pouring Rain 08:26
02. Autumn King 07:57
03. Barricades 08:35
04. A Weeping Sunrise 11:11
05. Between Silence and Shards 07:13
06. Dress.Code.Black 07:58
07. Hymn of Sorrow 11:11
08. The Downward Path 07:06
******************************
Total playing time: 1:09:37




[more=Technical info]
Input File: 02-decembre_noir-autumn_king-b83e5327.mp3
Channels : 2
Sample Rate : 44100
Precision : 16-bit
Duration : 00:07:57.47 = 21056383 samples = 35810.2 CDDA sectors
File Size : 19.2M
Bit Rate : 322k
Sample Encoding: MPEG audio (layer I, II or III)
Comments :
Title=Autumn King
Artist=Décembre Noir
Album=Autumn Kings
Tracknumber=2/8
Year=2018
Genre=Death Metal

[/more]

Register
(15) artscald, avather, BERZERK, infozahist, libertine, OfDoom, Rodriga, Rosen, satanist666, Shadechaser, thyrane, VALERY, vkryuger, yuratroll, zhol,
Nov 8 2018, 14:41:49 OHHMS - Exist (2018)


*Artist: OHHMS
*Album: Exist
*Year: 2018
*Genre: Sludge/Post-Metal
*Country: United Kingdom
*Format: mp3@CBR320kbps
*Size: 100MB

Tracklist:
01. Subjects
02. Shambles
03. Lay Down
04. Calves
******************************
Total playing time: 43:06




[more=Technical info]
Input File: 02 Shambles.mp3
Channels : 2
Sample Rate : 44100
Precision : 16-bit
Duration : 00:08:01.12 = 21217524 samples = 36084.2 CDDA sectors
File Size : 19.2M
Bit Rate : 320k
Sample Encoding: MPEG audio (layer I, II or III)
Comments :
Title=Shambles
Artist=Ohhms
Album=Exist
Tracknumber=02/04
Year=2018-18-20
Discnumber=1/1

[/more]

Register
(6) artscald, bestmen, gena, Johnix, Rosen, terron,
Nov 8 2018, 14:10:59 Cripple Bastards - La Fine Cresce Da Dentro (2018)


*Artist: Cripple Bastards
*Album: La Fine Cresce Da Dentro
*Year: 2018
*Genre: Grindcore
*Country: Italy
*Format: mp3@CBR320kbps
*Size: 65MB

Tracklist:
01. Suicidio assistito 00:16
02. Non coinvolto 02:04
03. La memoria del dolore 01:50
04. Passi nel vuoto 01:55
05. Ombra nell'ombra 00:46
06. Due metà in un errore 01:53
07. Chiusura forzata 05:08
08. Dove entra il coltello 00:56
09. Crimine contro l'immagine 01:44
10. Narcolessia emotiva 01:50
11. Nervi in guerra 01:04
12. Sguardo neutro 01:37
13. Interrato vivo 00:05
14. Equilibrio ansiogeno 00:04
15. Quali sentieri 00:07
16. Decessi per cause sconosciute 01:20
17. Recidive 01:33
18. Crociati del mare interno 04:40
******************************
Total playing time: 28:52







[more=Technical info]
Input File: 02-cripple_bastards-non_coinvolto-490ce449.mp3
Channels : 2
Sample Rate : 44100
Precision : 16-bit
Duration : 00:02:04.17 = 5475897 samples = 9312.75 CDDA sectors
File Size : 5.20M
Bit Rate : 335k
Sample Encoding: MPEG audio (layer I, II or III)
Comments :
Title=Non coinvolto
Artist=Cripple Bastards
Album=La fine cresce da dentro
Tracknumber=2/18
Year=2018
Genre=Hardcore

[/more]

Register
(19) as71, Grinder999, jollo, kefka, marilin, morve, Pinhead666, Radek, Razorbladeswaltz, Reverend, Rosen, SadistikSlayer, satanist666, spazm, wgs73, x_redwhite, Zhelezjaka, zotyo1975, Герб,
Nov 8 2018, 13:46:59 Deathrite - Nightmares Reign (2018)


*Artist: Deathrite
*Album: Nightmares Reign
*Year: 2018
*Genre: Death Metal/Grindcore
*Country: Germany
*Format: mp3@CBR320kbps
*Size: 99MB

Tracklist:
01. When Nightmares Reign 04:52
02. Appetite for Murder 04:31
03. Invoke Nocturnal Light 04:58
04. Demon Soul 07:22
05. Devil's Poison 05:02
06. Bloodlust 02:26
07. Obscure Shades 04:20
08. Temptation Calls 09:28
******************************
Total playing time: 42:59




[more=Technical info]
Input File: 02. Appetite for Murder.mp3
Channels : 2
Sample Rate : 44100
Precision : 16-bit
Duration : 00:04:31.66 = 11980294 samples = 20374.6 CDDA sectors
File Size : 10.9M
Bit Rate : 320k
Sample Encoding: MPEG audio (layer I, II or III)
Comments :
Title=Appetite for Murder
Artist=Deathrite
Album=Nightmares Reign
Tracknumber=02/08
Year=2018-18-20
Discnumber=1/1

[/more]

Register
(7) jollo, Mist13Signifier, Ostinato, Rosen, satanist666, Tino, Герб,
Nov 8 2018, 13:28:19 Einherjer - Norrøne Spor (2018)


*Artist: Einherjer
*Album: Norrøne Spor
*Year: 2018
*Genre: Viking Metal
*Country: Norway
*Format: mp3@CBR320kbps
*Size: 115MB

Tracklist:
01. The Spirit of a Thousand Years 04:19
02. Mine våpen mine ord 04:00
03. Fra konge te narr 05:12
04. Kill the Flame 04:23
05. Mot vest 05:16
06. Spre vingene 03:55
07. The Blood Song 05:33
08. Døden tar ingen fangar 04:07
09. Tapt uskyld 04:23
10. Av djupare røtter 06:51
******************************
Total playing time: 47:59






[more=Extended info]Also released with bonus track Deaf Forever (Motorhead cover)[/more]

[more=Technical info]
Input File: 02. Mine Våpen Mine Ord.mp3
Channels : 2
Sample Rate : 44100
Precision : 16-bit
Duration : 00:03:59.95 = 10581663 samples = 17996 CDDA sectors
File Size : 10.2M
Bit Rate : 339k
Sample Encoding: MPEG audio (layer I, II or III)
Comments :
Title=Mine Våpen Mine Ord
Artist=Einherjer
Album=Norrøne Spor
Tracknumber=2/10
Year=2018
Discnumber=1/1

[/more]

Register
(41) apostol_13, Aresson, BERZERK, Black Cat, BlaspherionFLUL, BrutalHero, Cartman223, CelticSPB, DarkHorde, DMIYUR, dromord, Filosofem91, gwar, hellbibber, Infidel, Jablek, Narasimha, nnnmmm, Olrak, Paradayz, Penetralia, Rodriga, Rosen, Rover, satanist666, Sethan, SS2998, stone88, terron, thenecromancer, Thunderbird, Tino, troll_swamp, VALERY, Vardlokkur, vir2al, yuratroll, Zenial, zotyo1975, Луч, Смусмумбрик,
Nov 8 2018, 04:32:09 Psalms Of Silence - In Silence There Is Truth (2018)


*Artist: Psalms Of Silence
*Album: In Silence There Is Truth
*Year: 2018
*Genre: Thrash/Heavy Metal
*Country: United States
*Format: mp3@CBR320kbps
*Size: 121MB

Tracklist:
01. Road to Oblivion
02. Black Plague
03. Steel Dragons
04. Prophet of False Hope
05. ... A Lion Among Sheep
06. Empire
07. Under the Whip, Pt. 1
08. Horizon
09. Centurion
10. Under the Whip, Pt. 2
******************************
Total playing time: 52:44



[more=Technical info]
Input File: 02. Black Plague.mp3
Channels : 2
Sample Rate : 44100
Precision : 16-bit
Duration : 00:03:59.04 = 10541488 samples = 17927.7 CDDA sectors
File Size : 9.60M
Bit Rate : 321k
Sample Encoding: MPEG audio (layer I, II or III)
Comments :
Title=Black Plague
Artist=Psalms of Silence
Album=In Silence There Is Truth
Tracknumber=2/10
Year=2018

[/more]

Register
(6) boby9052, metala, Rosen, Rover, sayfut, Spork,
Nov 7 2018, 13:37:53 Dugo - Pork Blood Stew I Love You [ep] (2018)


*Artist: Dugo
*Album: Pork Blood Stew I Love You [ep]
*Year: 2018
*Genre: Goregrind
*Country: Philippines
*Format: mp3@CBR320kbps
*Size: 10MB

Tracklist:
01. Pork Blood Stew I Love You 01:56
02. Conceived With Pork Blood Stew 01:21
03. Death By Pork Blood Stew 00:53
******************************
Total playing time: 4:10





[more=Technical info]
Input File: 02. Conceived With Pork Blood Stew.mp3
Channels : 2
Sample Rate : 44100
Precision : 16-bit
Duration : 00:01:21.40 = 3589828 samples = 6105.15 CDDA sectors
File Size : 3.40M
Bit Rate : 334k
Sample Encoding: MPEG audio (layer I, II or III)
Comments :
Title=Conceived With Pork Blood Stew
Artist=Dugo
Album=Pork Blood Stew I Love You
Tracknumber=2
Year=2018

[/more]

Register
(3) carnegrinder, Rosen, satanist666,
Nov 6 2018, 14:16:11 Hit-Run Drivers & Mankind's Devastation - Hit-Run Drivers/Mankind's Devastation [split] (2018)


*Artist: Hit-Run Drivers & Mankind's Devastation
*Album: Hit-Run Drivers/Mankind's Devastation [split]
*Year: 2018
*Genre: Goregrind | Goregrind
*Country: United States | United States
*Format: mp3@CBR320kbps
*Size: 18MB

Tracklist:
Hit-Run Drivers:
01. Multinational Car Crash Decapitations 00:47
02. Dead Pet Owners Face Gnawed On By Hungry Neglected Pet 00:34
03. Cleaning Up The Splattered Remains Of A Skydiver Who's Parachute Malfunctioned 01:26
04. Mortician Violently Shoves The Embalming Tube Up The Urethra Of A Soon To Be Interred Corpse 01:23
05. Ironically Mourning The Death Of Dale Earnhardt Sr 00:03
Mankind's Devastation:
06. 1.Mutilated 2.Deboned 3.Consumed 03:19
******************************
Total playing time: 7:32




[more=Technical info]
Input File: 02. Dead pet owners face gnawed on by hungry neglected pet.mp3
Channels : 2
Sample Rate : 44100
Precision : 16-bit
Duration : 00:00:34.56 = 1524140 samples = 2592.07 CDDA sectors
File Size : 1.56M
Bit Rate : 362k
Sample Encoding: MPEG audio (layer I, II or III)
Comments :
Title=Dead pet owners face gnawed on by hungry neglected pet
Artist=Hit-Run Drivers
Album=Split w/ Mankind's Devastation
Tracknumber=2
Year=2018

[/more]

Register
(4) carnegrinder, Lanceatum, Rosen, Герб,
Nov 5 2018, 15:18:56 Coagulopathy - The Stinking Of Infected Hematoma (2018)


*Artist: Coagulopathy
*Album: The Stinking Of Infected Hematoma
*Year: 2018
*Genre: Goregrind
*Country: United States
*Format: flac
*Size: 91MB

Tracklist:
01. Obese Corpse Eating Cops 00:54
02. Investigation On Cannibal Island 00:33
03. Shark Vs Zombie 00:34
04. Fulci Eye Gore 00:22
05. Doctor Overworked In Highly Infectious Conditions 01:02
06. Studying The Reanimated Sequence 00:37
07. The Creaking Of Rising Corpses, Long Dead 01:06
08. Unhappy Lady Pulled Apart By Zombies 00:25
09. Closed Eyed Flesh Eaters 00:52
10. Disceased Horror Spread Via Boat 01:11
11. Hunger For Blood 00:43
12. Gang Of Gut Gobblers 00:35
13. New York City Eaten Alive By The Gangrenous Horde 00:13
14. Death Only Coming From A Headshot 01:55
15. Chomping On Digits 01:20
16. Awful Way To Die In The Bowels Of A Zombie 01:36
******************************
Total playing time: 13:58



Register
(2) Rosen, satanist666,
Nov 5 2018, 15:04:24 No/Más - Raíz Del Mal (2018)


*Artist: No/Más
*Album: Raíz Del Mal
*Year: 2018
*Genre: Grindcore/Crust
*Country: United States
*Format: mp3@CBR320kbps
*Size: 26MB

Tracklist:
01. Case Study 00:35
02. Victim Of Circumstance 01:06
03. Vanity 00:41
04. Bloodwork 01:20
05. Fuck You 01:42
06. Raíz Del Mal 01:04
07. La Muerte No Tiene Edad 02:01
08. Vulnerable 00:40
09. Dwell 00:36
10. VI 00:47
******************************
Total playing time: 10:32





[more=Technical info]
Input File: 02. Victim of Circumstance.mp3
Channels : 2
Sample Rate : 44100
Precision : 16-bit
Duration : 00:00:00.07 = 2911 samples = 4.95068 CDDA sectors
File Size : 2.86M
Bit Rate : 346M
Sample Encoding: MPEG audio (layer I, II or III)
Comments :
Title=Victim of Circumstance
Artist=No / Más
Album=Raíz Del Mal
Tracknumber=2/10
Year=2018
Genre=Alternative
Discnumber=1/1

[/more]

Register
(5) artscald, DarkHorde, JohnnyBravo, Ostinato, Rosen,
Nov 5 2018, 14:58:50 Suffering Quota - Life In Disgust (2018)


*Artist: Suffering Quota
*Album: Life In Disgust
*Year: 2018
*Genre: Grindcore
*Country: Netherlands
*Format: mp3@CBR320kbps
*Size: 57MB

Tracklist:
01. Agnosia 01:11
02. God Complex 01:14
03. Apathy 03:46
04. Fear (Of History Repeating) 01:55
05. Anger 01:14
06. Hate 01:25
07. Disgust 02:47
08. Cognitive Dissonance 00:50
09. Inferiority Complex 01:34
10. Thought-Terminating Cliche I 00:35
11. Thought-Terminating Cliche II 02:44
12. 101 01:08
******************************
Total playing time: 20:23





[more=Technical info]
Input File: 02 God Complex.mp3
Channels : 2
Sample Rate : 44100
Precision : 16-bit
Duration : 00:01:14.33 = 3277733 samples = 5574.38 CDDA sectors
File Size : 3.61M
Bit Rate : 388k
Sample Encoding: MPEG audio (layer I, II or III)
Comments :
Title=God Complex
Artist=Suffering Quota
Album=Life in Disgust
Tracknumber=2/12
Year=2018
Genre=Metal
Discnumber=1/1

[/more]

Register
(4) A.L.Rapsod, Rosen, satanist666, wgs73,
Nov 5 2018, 14:27:25 Muscles - Demo [demo] (2018)


*Artist: Muscles
*Album: Demo [demo]
*Year: 2018
*Genre: Goregrind
*Country: Russian Federation
*Format: mp3@CBR320kbps
*Size: 10MB

Tracklist:
01. Maggots In Your Ass/ Stupid Eyes Full Of Worms/ Swarming Parasites In The Stomach/ You Will Be Stabbed With A Knife/ The War Is Over/ Flesh Against Iron 04:36
******************************
Total playing time: 4:36



[more=Technical info]
Input File: 01. maggots in your ass.mp3
Channels : 2
Sample Rate : 44100
Precision : 16-bit
Duration : 00:04:36.78 = 12206086 samples = 20758.6 CDDA sectors
File Size : 11.2M
Bit Rate : 323k
Sample Encoding: MPEG audio (layer I, II or III)
Comments :
Title=maggots in your ass / stupid eyes full of worms / swarming parasites in the stomach / you will be stabbed with a knife / the war is over / flesh against iron
Artist=Muscles
Album=Demo
Tracknumber=1
Year=2018

[/more]

Register
(2) carnegrinder, Rosen,
Nov 5 2018, 14:05:07 Pain Olympics - Act Of Consumption [ep] (2018)


*Artist: Pain Olympics
*Album: Act Of Consumption [ep]
*Year: 2018
*Genre: Goregrind
*Country: United States
*Format: mp3@CBR320kbps
*Size: 15MB

Tracklist:
01. Stomachlover2277 00:58
02. Swallowing Too Many Can Be A Problem 00:24
03. They Woke Up The Monster That Could Eat People In The Hole 00:14
04. Tummy Troubles 00:30
05. Aliens Attacked The Earth, The Survived Woman Was Eaten In The Process Of Fleeing 00:13
06. Two Scientific Friends 00:18
07. You Are Hot. Eat Me Please. Where You Live (Featuring Lionel) 00:43
08. Unfortunately All Bets Are Off When Your Tiny. 00:13
09. Ok. I Want To Be Eaten Alive By A Lot Of Things And Be In It's Stomachs Stomachs Alive Anacondas, Hippos And Whales But I Do Not Wanna Be In That Thing 00:32
10. Toph's Huge Lunch: Digestion 01:20
11. No Promises 00:18
******************************
Total playing time: 5:43



[more=Technical info]
Input File: 02. Swallowing Too Many Can Be a Problem.mp3
Channels : 2
Sample Rate : 44100
Precision : 16-bit
Duration : 00:00:24.22 = 1067926 samples = 1816.2 CDDA sectors
File Size : 1.11M
Bit Rate : 368k
Sample Encoding: MPEG audio (layer I, II or III)
Comments :
Title=Swallowing Too Many Can Be a Problem
Artist=PAIN OLYMPICS
Album=Act of Consumption
Tracknumber=2
Year=2018

[/more]

Register
(3) carnegrinder, Rosen, satanist666,
Nov 5 2018, 13:43:12 Excruciation - The Drunk Diary [ep] (2018)


*Artist: Excruciation
*Album: The Drunk Diary [ep]
*Year: 2018
*Genre: Goregrind
*Country: Indonesia
*Format: mp3@CBR320kbps
*Size: 19MB

Tracklist:
01. Drunkass Sweet Baby 00:47
02. To Know My Bestie's Stuff 00:46
03. Holy Spirit Love To Puke 01:03
04. Having A Good Time With Misha And Dima 00:44
05. Deddy Already Ordered Five Towers Of Beer 00:43
06. I Hate My Niece And My Nephew... Really 00:44
07. Drunk Time With Yuying And Chuck 00:52
08. I Remember My First Lima Beans 00:47
09. My Ex's Diarrhea 00:55
10. Waking Up With Empty Stomach In Jardie's House 00:53
******************************
Total playing time: 8:14





[more=Technical info]
Input File: 02. To Know My Bestie\'s Stuff.mp3
Channels : 2
Sample Rate : 44100
Precision : 16-bit
Duration : 00:00:46.06 = 2031202 samples = 3454.43 CDDA sectors
File Size : 1.84M
Bit Rate : 320k
Sample Encoding: MPEG audio (layer I, II or III)
Comments :
Title=To Know My Bestie's Stuff
Artist=Excruciation
Album=The Drunk Diary (EP)
Tracknumber=2
Year=2018
Genre=Goregrind
Discnumber=1

[/more]

Register
(4) Anhra Mainyu, Rosen, RotAnus, satanist666,
Nov 5 2018, 13:19:22 Azrael - The Harrowing Of Hell [demo] (2011)


*Artist: Azrael
*Album: The Harrowing Of Hell [demo]
*Year: 2011
*Genre: Black Metal
*Country: Canada
*Format: mp3@CBR320kbps
*Size: 30MB

Tracklist:
01. Rebuild My Church 02:57
02. Evening Canticle 03:15
03. Moonlight Hangs Frozen 04:17
04. Christ Enthroned 02:08
******************************
Total playing time: 12:37




[more=Technical info]
Input File: 02. Evening Canticle.mp3
Channels : 2
Sample Rate : 44100
Precision : 16-bit
Duration : 00:03:15.85 = 8636985 samples = 14688.8 CDDA sectors
File Size : 8.03M
Bit Rate : 328k
Sample Encoding: MPEG audio (layer I, II or III)
Comments :
Title=Evening Canticle
Artist=Azrael
Album=The Harrowing Of Hell
Tracknumber=2
Year=2018

[/more]

Register
(11) artscald, kim666, marioamuro, Ostinato, Rosen, satanist666, SilentNidhogg, stub888, thenecromancer, VALERY, vasiljev_sergej,
Nov 5 2018, 05:41:52 Sumptus Ignis - Ambition (2018)


*Artist: Sumptus Ignis
*Album: Ambition
*Year: 2018
*Genre: Progressive/Doom Metal
*Country: United States
*Format: mp3@CBR320kbps
*Size: 102MB

Tracklist:
01. Crusader (The Purge)
02. Heartstrings Black
03. Incursio
04. Fire at Will
05. Foolish Endeavor
06. Sacred Alchemy
******************************
Total playing time: 44:13



[more=Technical info]
Input File: 02. Heartstrings Black.mp3
Channels : 2
Sample Rate : 44100
Precision : 16-bit
Duration : 00:09:25.19 = 24925011 samples = 42389.5 CDDA sectors
File Size : 22.7M
Bit Rate : 321k
Sample Encoding: MPEG audio (layer I, II or III)
Comments :
Title=Heartstrings Black
Artist=Sumptus Ignis
Album=Ambition
Tracknumber=2/6
Year=2018

[/more]

Register
(6) artscald, marilin, metala, Rosen, VALERY, yuratroll,
Nov 5 2018, 05:37:29 Sankta Kruco - Glacialis (2018)


*Artist: Sankta Kruco
*Album: Glacialis
*Year: 2018
*Genre: Death/Doom Metal
*Country: United Kingdom
*Format: mp3@CBR320kbps
*Size: 96MB

Tracklist:
01. Foresta Nigra 04:55
02. Sulfuran 04:36
03. Ultio Matris Terris 04:26
04. Glacialis 03:43
05.Elemiah 05:07
06. Vlad, the Lord of Bran 04:34
07. Mother of the last lycan 03:23
08. Serpenton+Oblio (outro) 06:19
09. Ultio Matris Terris Orchestral (Bonus Track) 04:35
******************************
Total playing time: 41:38



[more=Technical info]
Input File: 02. Sulfuran.mp3
Channels : 2
Sample Rate : 44100
Precision : 16-bit
Duration : 00:04:36.11 = 12176275 samples = 20708 CDDA sectors
File Size : 11.1M
Bit Rate : 321k
Sample Encoding: MPEG audio (layer I, II or III)
Comments :
Title=Sulfuran
Artist=Sankta Kruco
Album=Glacialis
Tracknumber=2/9
Year=2018

[/more]

Register
(7) artscald, marilin, Mist13Signifier, Rosen, sergsazan, Shadechaser, VALERY,

1268 Pages V  < 1 2 3 4 > » 
- Lo-Fi Version Support form
Copyrights and abuse reports form
Time is now: 17th November 2018 - 07:23:01