Welcome Guest ( Log In | Register )

История благодарностей участнику necroscum ::: Спасибо сказали: 356893 раз(а)
Дата поста: В теме: За сообщение: Спасибо сказали:
Jul 11 2018, 14:34:34 A Sea Of Silent Skulls - From Birth To Slaughter (2016)


*Artist: A Sea Of Silent Skulls
*Album: From Birth To Slaughter
*Year: 2016
*Genre: Instrumental Doom Metal
*Country: United States
*Format: flac
*Size: 113MB

Tracklist:
01. Washed Ashore 06:07
02. An Ember Among The Pyre 04:25
03. They Will Know Your Pain 11:31
04. A Crowd Is Gathering 01:29
05. The Execution 12:28
******************************
Total playing time: 36:00




Register
(1) Rosen,
Jul 11 2018, 14:26:56 A Sea Of Silent Skulls - Exploration Of The Soul (2016)


*Artist: A Sea Of Silent Skulls
*Album: Exploration Of The Soul
*Year: 2016
*Genre: Instrumental Doom Metal
*Country: United States
*Format: flac
*Size: 161MB

Tracklist:
01. Shades Of No Existence 05:12
02. Becoming The Reflection 10:12
03. I Don't Think You Can Hear Me 12:43
04. In The Doorway 05:59
05. The Evil That Lurks Beyond 08:39
******************************
Total playing time: 42:45




Register
(1) Rosen,
Jul 11 2018, 14:13:09 A Sea Of Silent Skulls - A Shadow Cast Upon The World (2016)


*Artist: A Sea Of Silent Skulls
*Album: A Shadow Cast Upon The World
*Year: 2016
*Genre: Instrumental Doom Metal
*Country: United States
*Format: flac
*Size: 203MB

Tracklist:
01. Burning It All Down 07:01
02. The Screams Turn To Silence 04:36
03. No Destination 09:02
04. A Glimpse Of The Shadow 02:32
05. Kill Me If You Must, But I Will Never Bow Down 10:56
06. Return To Clarity 09:02
07. Leaving Ground 08:31
08. There Will Be No Other Way 05:26
******************************
Total playing time: 57:06




Register
(1) Rosen,
Jul 11 2018, 14:10:14 A Sea Of Silent Skulls - The Pattern Of The Universe (2016)


*Artist: A Sea Of Silent Skulls
*Album: The Pattern Of The Universe
*Year: 2016
*Genre: Instrumental Doom Metal
*Country: United States
*Format: flac
*Size: 233MB

Tracklist:
01. A Leap Of Faith 13:34
02. An Unfamiliar Presence 17:26
03. Faces Emerging From The Walls 18:41
04. The Wind Carries A Voice Of Deception 25:07
******************************
Total playing time: 1:14:48




Register
(1) Rosen,
Jul 11 2018, 13:52:58 A Sea Of Silent Skulls - Inherently Primal (2017)


*Artist: A Sea Of Silent Skulls
*Album: Inherently Primal
*Year: 2017
*Genre: Instrumental Doom Metal
*Country: United States
*Format: flac
*Size: 240MB

Tracklist:
01. Born Into Hellfire 03:07
02. Dive Into Yourself 03:30
03. Shift In Perception 03:17
04. Last Glimpse Of Earth 03:53
05. Annihilation Of The Ego 11:53
06. Floating In Ethereal Dreams 14:46
07. Clarity = Confusion 04:21
08. Emerging From The Shadows 07:31
09. Surrounded By An Eternal Fog 05:33
10. Delusional Conclusion? 06:52
11. The Only Voice To Trust 03:51
12. Death Of Mortality 03:23
13. The Face You Always Know 04:17
******************************
Total playing time: 1:16:14



Register
(1) Rosen,
Jul 11 2018, 13:49:07 A Sea Of Silent Skulls - Murder Dominion (2017)


*Artist: A Sea Of Silent Skulls
*Album: Murder Dominion
*Year: 2017
*Genre: Instrumental Doom Metal
*Country: United States
*Format: flac
*Size: 379MB

Tracklist:
01. Inching Towards Insanity 05:03
02. Hands Gripping A Throat That Could Be My Own 11:17
03. The Source Of Pain 08:32
04. Understanding Uncertainty 03:25
05. Ontological Shock 08:00
06. 23 Steps 05:05
07. No Air Left To Breathe 03:01
08. Pulverized Back To Life 06:28
09. Purge This Evil Entity 06:17
10. Divinity 02:52
11. Time Is A River Running Dry 05:14
12. Blast Radius 05:38
13. Comfortable In The Fallout 02:08
14. Return To Dust 05:27
15. Babylon Must Fall 11:40
16. Return To Light (Bonus Track) 16:53
******************************
Total playing time: 1:47:00





Register
(1) Rosen,
Jul 11 2018, 13:30:51 A Sea Of Silent Skulls - Life After Extinction (2017)


*Artist: A Sea Of Silent Skulls
*Album: Life After Extinction
*Year: 2017
*Genre: Instrumental Doom Metal
*Country: United States
*Format: flac
*Size: 268MB

Tracklist:
01. Sandstorm 07:36
02. Calm Desert Sky 02:28
03. Attack Of Glaurung 06:58
04. Captured By The Faceless Horde 08:26
05. Counting The Cracks In The Stone-Walled Cells 03:11
06. The Executioner's Axe Lusting With Anticipation 05:53
07. The Beheading 06:16
08. The Darkness That Engulfs Us All 07:02
09. Ascending In The Fiery Chariot 07:42
10. Destination Unknown 04:17
11. Life After... 05:13
12. Extinction 06:07
13. Gates Of Peril 16:00
******************************
Total playing time: 1:27:09




Register
(1) Rosen,
Jul 11 2018, 13:28:21 A Sea Of Silent Skulls - Subliminal Deception [ep] (2017)


*Artist: A Sea Of Silent Skulls
*Album: Subliminal Deception [ep]
*Year: 2017
*Genre: Instrumental Doom Metal
*Country: United States
*Format: flac
*Size: 52MB

Tracklist:
01. Exit Wound 06:31
02. A Cog In The Clogged Machine 08:25
03. Born On Broken Glass 03:43
04. The Cycle Repeats Itself 06:27
******************************
Total playing time: 25:06




Register
(1) Rosen,
Jul 11 2018, 13:13:44 A Sea Of Silent Skulls - Illusions (2018)


*Artist: A Sea Of Silent Skulls
*Album: Illusions
*Year: 2018
*Genre: Instrumental Doom Metal
*Country: United States
*Format: flac
*Size: 219MB

Tracklist:
01. Echoes Of The Battlefield 06:53
02. The Berserker 05:41
03. Radioactive Decay 07:35
04. Reduced To Ash 08:29
05. Final Guardian 05:19
06. Endless Space 06:36
07. Grludgehammer 05:02
08. Chained To The Wall 06:16
09. Exile 03:45
10. Visceral Eternity 03:04
******************************
Total playing time: 58:40




Register
(1) Rosen,
Jul 11 2018, 13:05:16 A Sea Of Silent Skulls - The Soul Is A Weapon [best of/compilation] (2018)


*Artist: A Sea Of Silent Skulls
*Album: The Soul Is A Weapon [best of/compilation]
*Year: 2018
*Genre: Instrumental Doom Metal
*Country: United States
*Format: flac
*Size: 307MB

Tracklist:
01. From Creation To Absolution 04:05
02. Screams Of The Helpless Infants, All Future Corpses, Terrified Of What Is To Come 08:56
03. Rupture 10:58
04. Playing In Fire 02:35
05. Lacerate 06:40
06. Bleeding Will Not Stop 04:28
07. Obstruction Of Tyranny 06:27
08. The Hidden Doorway 06:01
09. Resist The Animalistic Urges 05:13
10. To Be Not To Be Naught 08:31
11. The Infinite Moment Of Right Now 06:34
******************************
Total playing time: 1:10:28




Register
(2) A.L.Rapsod, Rosen,
Jul 11 2018, 12:51:47 A Sea Of Silent Skulls - The Power We Hold (2018)


*Artist: A Sea Of Silent Skulls
*Album: The Power We Hold
*Year: 2018
*Genre: Instrumental Doom Metal
*Country: United States
*Format: flac
*Size: 156MB

Tracklist:
01. The Final Feast Of The Decomposing 13:57
02. Reckless 07:22
03. Your Place In Hell 17:43
******************************
Total playing time: 39:02




Register
(1) Rosen,
Jul 11 2018, 12:42:58 A Sea Of Silent Skulls - Recurring Dream [ep] (2018)


*Artist: A Sea Of Silent Skulls
*Album: Recurring Dream [ep]
*Year: 2018
*Genre: Instrumental Doom Metal
*Country: United States
*Format: flac
*Size: 74MB

Tracklist:
01. Recurring Dream 17:24
******************************
Total playing time: 17:24




Register
(1) Rosen,
Jul 11 2018, 12:29:10 Decomposed Carcasses - Terrorizor Of The Soul [single] (2018)


*Artist: Decomposed Carcasses
*Album: Terrorizor Of The Soul [single]
*Year: 2018
*Genre: Goregrind
*Country: Canada
*Format: mp3@CBR320kbps
*Size: 3MB

Tracklist:
01. Terrorizor Of The Soul 01:13
******************************
Total playing time: 1:13



[more=Technical info]
Input File: 01. Terrorizor Of The Soul.mp3
Channels : 2
Sample Rate : 44100
Precision : 16-bit
Duration : 00:01:13.90 = 3259166 samples = 5542.8 CDDA sectors
File Size : 3.04M
Bit Rate : 329k
Sample Encoding: MPEG audio (layer I, II or III)
Comments :
Title=Terrorizor Of The Soul
Artist=Decomposed Carcasses.
Year=2018

[/more]

Register
(1) Rosen,
Jul 11 2018, 12:16:59 Destroyland - Le Cronache Di Thanatos (2018)


*Artist: Destroyland
*Album: Le Cronache Di Thanatos
*Year: 2018
*Genre: Death/Black Metal
*Country: Italy
*Format: mp3@CBR320kbps
*Size: 163MB

Tracklist:
01. Intro
02. Lande desolate
03. Precipizio
04. Abominio
05. Odio
06. Necropolis
07. Destroyland pt.1
08. Destroyland pt.2
09. Solo
10. Rifiuto
11. Attacco alle scorte
12. Rivolta
13. Guerra pt.1
14. Guerra pt.2
15. L' esecuzione
16. Outro
******************************
Total playing time: 1:11:01

[more=Technical info]
Input File: 02. Lande desolate.mp3
Channels : 2
Sample Rate : 44100
Precision : 16-bit
Duration : 00:04:41.07 = 12395187 samples = 21080.2 CDDA sectors
File Size : 11.2M
Bit Rate : 320k
Sample Encoding: MPEG audio (layer I, II or III)
Comments :
Title=Lande desolate
Artist=Destroyland
Album=Le cronache di thanatos
Tracknumber=2/16
Year=2018

[/more]

Register
(5) infiltrator, LordOvDarkness, metala, Rosen, vov7609,
Jul 11 2018, 12:05:47 Friday The 13Th: Part 2 - First Blood [ep] (2018)


*Artist: Friday The 13Th: Part 2
*Album: First Blood [ep]
*Year: 2018
*Genre: Brutal Death Metal/Goregrind
*Country: United States
*Format: mp3@CBR320kbps
*Size: 24MB

Tracklist:
01. Stabbed 01:45
02. Leviathan 03:22
03. Horrendous Death 00:38
04. Garroted 02:00
05. Zombie Apocalypse (Mortician Cover) 02:49
******************************
Total playing time: 10:34



[more=Technical info]
Input File: 01. Stabbed.mp3
Channels : 2
Sample Rate : 44100
Precision : 16-bit
Duration : 00:01:45.44 = 4649728 samples = 7907.7 CDDA sectors
File Size : 4.31M
Bit Rate : 327k
Sample Encoding: MPEG audio (layer I, II or III)
Comments :
Title=Stabbed
Artist=Friday The 13th: Part 2
Album=First Blood
Tracknumber=1
Year=2018

[/more]

Register
(6) FUDEDOR, infiltrator, Rosen, RotAnus, uk82, Witchmaster,
Jul 10 2018, 12:57:18 30Xx - Dark Future [ep] (2017)


*Artist: 30Xx
*Album: Dark Future [ep]
*Year: 2017
*Genre: Experimental Goregrind
*Country: Japan
*Format: mp3@CBR320kbps
*Size: 14MB

Tracklist:
01. Nerve Splicer 00:38
02. Dark Simulations 02:20
03. Death Machine 01:10
04. Secret Base 01:43
******************************
Total playing time: 5:51




[more=Technical info]
Input File: 02. DARK SIMULATIONS.mp3
Channels : 2
Sample Rate : 44100
Precision : 16-bit
Duration : 00:02:20.08 = 6177352 samples = 10505.7 CDDA sectors
File Size : 5.75M
Bit Rate : 328k
Sample Encoding: MPEG audio (layer I, II or III)
Comments :
Title=DARK SIMULATIONS
Artist=30XX
Album=DARK FUTURE
Tracknumber=2
Year=2017

[/more]

Register
(2) Rosen, volostakoeto,
Jul 10 2018, 12:43:32 Decomposed Carcasses - Intergalactic Noise Malfunctions [ep] (2018)


*Artist: Decomposed Carcasses
*Album: Intergalactic Noise Malfunctions [ep]
*Year: 2018
*Genre: Goregrind/Noisegrind
*Country: Canada
*Format: mp3@CBR320kbps
*Size: 5MB

Tracklist:
01. Intergalactic Noise Malfunctions 01:02
02. Raining Arachnids 00:18
03. Cataclysmic Necrosis 00:10
04. Monsterous Projections 00:18
******************************
Total playing time: 1:48



[more=Technical info]
Input File: 03. Cataclysmic Necrosis.mp3
Channels : 2
Sample Rate : 44100
Precision : 16-bit
Duration : 00:00:10.32 = 455024 samples = 773.85 CDDA sectors
File Size : 557k
Bit Rate : 432k
Sample Encoding: MPEG audio (layer I, II or III)
Comments :
Title=Cataclysmic Necrosis
Artist=Decomposed Carcasses.
Album=Intergalactic Noise Malfunctions
Tracknumber=3
Year=2018

[/more]

Register
(2) infiltrator, Rosen,
Jul 10 2018, 12:23:51 Gorehouse - Meat The Family [ep] (2005)


*Artist: Gorehouse
*Album: Meat The Family [ep]
*Year: 2005
*Genre: Death Metal
*Country: New Zealand
*Format: mp3@VBR219kbps
*Size: 23MB

Tracklist:
01. Fiend For Blood (Autopsy Cover) 00:29
02. Choke On Your Own Fuckin' Filth 03:01
03. Dead Dreams 00:14
04. Infintile Convulsions 00:31
05. Molest, Stab, Rape, Rape, Rape! 03:02
06. Shot In The Chest 00:36
07. Snotspill 00:17
08. Thing 00:49
09. Welcome To The Gorehouse 01:25
10. ...When You Bleed 01:10
******************************
Total playing time: 11:34




[more=Technical info]
Input File: 02. Choke On Your Own Fuckin\' Filth.mp3
Channels : 2
Sample Rate : 44100
Precision : 16-bit
Duration : 00:03:01.63 = 8009839 samples = 13622.2 CDDA sectors
File Size : 6.05M
Bit Rate : 266k
Sample Encoding: MPEG audio (layer I, II or III)
Comments :
Title=Choke On Your Own Fuckin' Filth
Artist=Gorehouse
Album=Meat The Familly [Ep]
Tracknumber=2
Year=2005

[/more]

Register
(3) infiltrator, Rosen, Svafrlami,
Jul 10 2018, 12:03:08 Gorehouse - Romancing The Corpse [demo] (2004)


*Artist: Gorehouse
*Album: Romancing The Corpse [demo]
*Year: 2004
*Genre: Death Metal
*Country: New Zealand
*Format: mp3@VBR264kbps
*Size: 39MB

Tracklist:
01. Welcome To The Gorehouse 01:30
02. Charred Pig 05:41
03. Choke On Your Own Fucking Filth 03:44
04. Cruel And Unusual (Horribly Mutilated) 04:43
05. Whole To Mutilate Again 04:08
******************************
Total playing time: 19:46




[more=Technical info]
Input File: 05. Whole To Mutilate Again.mp3
Channels : 2
Sample Rate : 44100
Precision : 16-bit
Duration : 00:04:08.92 = 10977372 samples = 18669 CDDA sectors
File Size : 8.28M
Bit Rate : 266k
Sample Encoding: MPEG audio (layer I, II or III)
Comments :
Title=Whole To Mutilate Again
Artist=Gorehouse
Album=Romancing The Corpse [Demo]
Tracknumber=5
Year=2004

[/more]

Register
(3) infiltrator, Rosen, Svafrlami,
Jul 10 2018, 11:38:32 Decomposed Carcasses - The Executioner [ep] (2018)


*Artist: Decomposed Carcasses
*Album: The Executioner [ep]
*Year: 2018
*Genre: Goregrind
*Country: Canada
*Format: mp3@CBR320kbps
*Size: 10MB

Tracklist:
01. Morbid Necrophiliac Obsessed With Bigfoot 01:33
02. Strangled 00:29
03. Executed By Trolls 01:29
04. The Executioner's Blast Beat 00:11
05. Festering Stench Of Rotting Flesh Infested With Maggots And Parasites 00:49
******************************
Total playing time: 4:31




[more=Technical info]
Input File: 03. Executed By Trolls.mp3
Channels : 2
Sample Rate : 44100
Precision : 16-bit
Duration : 00:01:29.68 = 3955020 samples = 6726.22 CDDA sectors
File Size : 3.76M
Bit Rate : 336k
Sample Encoding: MPEG audio (layer I, II or III)
Comments :
Title=Executed By Trolls
Artist=Decomposed Carcasses.
Album=The Executioner EP
Tracknumber=3
Year=2018

[/more]

Register
(2) infiltrator, Rosen,
Jul 10 2018, 11:18:25 Grind Insides - Sir, You Are Dead [ep] (2018)


*Artist: Grind Insides
*Album: Sir, You Are Dead [ep]
*Year: 2018
*Genre: Goregrind
*Country: Hungary
*Format: mp3@CBR320kbps
*Size: 6MB

Tracklist:
01. Wow You Are Really Dead, Do You Feel Okay? 00:25
02. Do You Have A Minute To Talk About Our Lord And Saviour, Satan-O-Meter? 00:45
03. Short Love Song 00:21
04. Gutted On Your Backyard. "Hey Gordon, There's A Crowbar In Your Guts!" 00:29
05. I Worked 3 Minutes On This Track... I.. I Spent 3 Minutes On This. Well I'm Proud. 00:22
******************************
Total playing time: 2:22



[more=Technical info]
Input File: 02. Do you have a minute to talk about our Lord and Saviour, Satan-o-meter-.mp3
Channels : 2
Sample Rate : 44100
Precision : 16-bit
Duration : 00:00:45.48 = 2005712 samples = 3411.07 CDDA sectors
File Size : 1.94M
Bit Rate : 341k
Sample Encoding: MPEG audio (layer I, II or III)
Comments :
Title=Do you have a minute to talk about our Lord and Saviour, Satan-o-meter?
Artist=Grind Insides
Album=Sir, You Are Dead
Tracknumber=2
Year=2018

[/more]

Register
(2) infiltrator, Rosen,
Jul 9 2018, 13:56:07 Munging Corpse - Blood Soaked Woods [ep] (2018)


*Artist: Munging Corpse
*Album: Blood Soaked Woods [ep]
*Year: 2018
*Genre: Brutal Death Metal/Goregrind
*Country: United States
*Format: mp3@CBR320kbps
*Size: 10MB

Tracklist:
01. Machete Embedded Skull 01:40
02. Extreme Debridement 00:34
03. Blood Soaked Woods 02:06
******************************
Total playing time: 4:20





[more=Technical info]
Input File: 02. Extreme Debridement.mp3
Channels : 2
Sample Rate : 44100
Precision : 16-bit
Duration : 00:00:34.93 = 1540281 samples = 2619.53 CDDA sectors
File Size : 1.54M
Bit Rate : 352k
Sample Encoding: MPEG audio (layer I, II or III)
Comments :
Title=Extreme Debridement
Artist=Munging Corpse
Album=Blood Soaked Woods EP
Tracknumber=2
Year=2018

[/more]

Register
(2) Rosen, uk82,
Jul 9 2018, 13:41:05 Munging Corpse - Slow Rot Session [ep] (2018)


*Artist: Munging Corpse
*Album: Slow Rot Session [ep]
*Year: 2018
*Genre: Brutal Death Metal/Goregrind
*Country: United States
*Format: mp3@CBR320kbps
*Size: 50MB

Tracklist:
01. Severe Organ Failure And Reanimation 02:42
02. The Authorities Are Dead Too 04:50
03. Rotting Alive 05:22
04. Save Yourself 04:46
05. Undead Or Suicide 03:42
******************************
Total playing time: 21:22





[more=Technical info]
Input File: 02. The Authorities are Dead too.mp3
Channels : 2
Sample Rate : 44100
Precision : 16-bit
Duration : 00:04:50.81 = 12824765 samples = 21810.8 CDDA sectors
File Size : 11.8M
Bit Rate : 325k
Sample Encoding: MPEG audio (layer I, II or III)
Comments :
Title=The Authorities are Dead too
Artist=Munging Corpse
Album=Slow Rot Session
Tracknumber=2
Year=2018

[/more]

Register
(2) Rosen, uk82,
Jul 9 2018, 13:25:44 Munging Corpse - Morbid Housing [ep] (2018)


*Artist: Munging Corpse
*Album: Morbid Housing [ep]
*Year: 2018
*Genre: Brutal Death Metal/Goregrind
*Country: United States
*Format: mp3@CBR320kbps
*Size: 36MB

Tracklist:
01. Carried Through The Woods In A Trash Bag 03:14
02. Autopsy Table 02:15
03. The Mask Hides A Hideous Face 05:18
04. Morbid Housing 04:34
******************************
Total playing time: 15:21





[more=Technical info]
Input File: 02. Autopsy Table.mp3
Channels : 2
Sample Rate : 44100
Precision : 16-bit
Duration : 00:02:15.22 = 5963070 samples = 10141.3 CDDA sectors
File Size : 5.62M
Bit Rate : 333k
Sample Encoding: MPEG audio (layer I, II or III)
Comments :
Title=Autopsy Table
Artist=Munging Corpse
Album=Morbid Housing EP
Tracknumber=2
Year=2018

[/more]

Register
(2) Rosen, uk82,
Jul 9 2018, 13:12:16 Munging Corpse - 2017 Demo [demo] (2017)


*Artist: Munging Corpse
*Album: 2017 Demo [demo]
*Year: 2017
*Genre: Brutal Death Metal/Goregrind
*Country: United States
*Format: mp3@CBR320kbps
*Size: 34MB

Tracklist:
01. Limb Removal Orgy 02:22
02. Extermination Camp 02:30
03. Trauma Before Death 02:27
04. Unpredictably Violent Re-Animation 02:10
05. Synthetic Corpse 05:13
******************************
Total playing time: 14:42





[more=Technical info]
Input File: 02. Extermination Camp.mp3
Channels : 2
Sample Rate : 44100
Precision : 16-bit
Duration : 00:02:30.32 = 6628936 samples = 11273.7 CDDA sectors
File Size : 6.10M
Bit Rate : 325k
Sample Encoding: MPEG audio (layer I, II or III)
Comments :
Title=Extermination Camp
Artist=Munging Corpse
Album=2017 Demo
Tracknumber=2
Year=2017

[/more]

Register
(2) Rosen, uk82,

1251 Pages V  < 1 2 3 4 > » 
- Lo-Fi Version Support form
Copyrights and abuse reports form
Time is now: 18th July 2018 - 15:22:02