Welcome Guest ( Log In | Register )

История благодарностей участнику kakha_k ::: Спасибо сказали: 2373 раз(а)
Дата поста: В теме: За сообщение: Спасибо сказали:
Jan 18 2019, 17:05:47 Thor - Christmas In Valhalla (2018)
НУ про любительский уровень может говорить или только поверхностный человек, или поверхностно разбирающийя в музыке или поверхностно слушавший все это.
(1) slack,
Jan 1 2019, 12:19:17 Atoma - Skylight (2012)
Это отличная музыка, великолепный альбом уникальной группы.
(2) Foneg, ivreactor,
May 20 2018, 21:23:20 Devolver - Devolver (2016)
Перезалил:
Register
(1) satanist666,
May 16 2018, 16:14:27 Euphoreon - Ends Of The Earth (2018)
По моему в 2018 году поздно уже такое сочинять. Хотя эта работа гораздо лучше многих сегодняшних.
(1) MeatWolf,
Apr 27 2018, 21:38:12 Judas Priest - Firepower (2018)
Долгожданным был. ПОслушал почти внимательно. К сожаленжию я не восхищен. Да, конечно в нем все исполнено и записано на высоком уровне, к этому не придраться но ведь каждая нота в альбоме, сто лет как, была мне уже известна. Каждый звук в нем давно был мне знаком.
(2) Ghostb, infiltrator,
Apr 20 2018, 14:10:22 Bullet - Dust To Gold (2018)


*Artist: Bullet
*Album: Dust To Gold
*Year: 2018
*Genre: Heavy Metal/Hard Rock
*Country: Sweden
*Format: mp3@CBR320kbps
*Size: 132MB

Tracklist:
1. Speed and Attack 02:36
2. Ain't Enough 02:39
3. Rogue Soldier 03:03
4. Fuel the Fire 03:28
5. One More Round 03:08
6. Highway Love 03:24
7. Wildfire 04:03
8. Screams in the Night 02:51
9. Forever Rise 04:04
10. The Prophecy 00:29
11. Hollow Grounds 03:51
12. Dust to Gold 05:32
******************************
Total playing time: 39:08




[more=Technical info]
Input File: 02-Ain\'t Enough.mp3
Channels : 2
Sample Rate : 44100
Precision : 16-bit
Duration : 00:03:25.69 = 9070885 samples = 15426.7 CDDA sectors
File Size : 10.1M
Bit Rate : 392k
Sample Encoding: MPEG audio (layer I, II or III)
Comments :
Title=Ain't Enough
Artist=Bullet
Album=Dust to Gold
Tracknumber=2
Year=2018
Discnumber=1/1

[/more]

Register
(22) ace73pq, Amsterdam, avkruchinin, Diflock, DOKTORBLACK88, ExeThrash, fuoco, infiltrator, metalboll, Mogozoz, MеtalHead, oldvarg, Olrak, Rosen, Rover, Shadowman, smes, VALERY, wgs73, wn129aa, WX419, Yarri,
Nov 10 2017, 23:14:48 Shroud Of Bereavement - Alone Beside Her (2007)
[youtube]q3LzwMgdhlY[/youtube]

Я люблю такую музыку. Она настоящая.
(1) Sanc,
Oct 7 2017, 06:58:13 Wings Of Dahak - Unholy Wings (2017)
Эпик но не задевает сердце, не очаровывает. Вот как абсолютное большнство современных работ. Жаль.
(1) neoatheist,
Oct 1 2017, 07:24:59 Trees Of Eternity - Hour Of The Nightingale (2016)
Мне глубоко жаль, очень жаль, что она умерла. Да, с ней альбом делали очень долго, но какая она музыкант была, какой уникальный голос у нее был!
Вот такая неумолимая она, жизнь.
Спасибо ей за эти прекрасный песни и этот альбом.
(2) deep-pression, infiltrator,
Jul 2 2017, 00:58:37 Stereo Nasty - Twisting The Blade (2017)


*Artist: Stereo Nasty
*Album: Twisting The Blade
*Year: 2017
*Genre: Heavy Metal
*Country: Ireland
*Format: mp3@CBR320kbps
*Size: 84MB

Tracklist:
1. Kill or Be Killed 03:37
2. No One Gets Out Alive 03:28
3. Reflections of Madness 03:08
4. Near Dark 04:29
5. Through the Void 06:55
6. Haunting the Night 03:32
7. Twisting the Blade 03:43
8. Vengeance 02:16
9. Becoming a Beast 03:51
******************************
Total playing time: 34:59




[more=Technical info]
Input File: 04-Near Dark.mp3
Channels : 2
Sample Rate : 44100
Precision : 16-bit
Duration : 00:04:32.41 = 12013281 samples = 20430.8 CDDA sectors
File Size : 11.1M
Bit Rate : 325k
Sample Encoding: MPEG audio (layer I, II or III)
Comments :
Title=Near Dark
Artist=Stereo Nasty
Album=Twisting The Blade
Tracknumber=4
Year=2017
Genre=Heavy Metal

[/more]

Register
(25) Amsterdam, Andrew, avkruchinin, Boozer, Buregon, csgmnk, Darkness, fsc97, infiltrator, katalin, metadeat, metala, METALHUNTER, MetalW, Mogozoz, Mplast, oldvarg, Olrak, Rosen, roverinc, SAPOGi, Spunkynut, Storky, Tino, wgs73,
Apr 7 2017, 00:55:35 Shield Breaker - A Warrior's Death Song (2017)
[youtube]gNCeqvhQ41s[/youtube]
(1) artscald,
Apr 7 2017, 00:36:18 Phrenelith - Desolate Endscape (2017)
Олдскул люблю но это не мое тут.
(1) neoatheist,
Dec 17 2016, 21:58:13 Ranger - Speed & Violence (2016)
НУ просто неповторимая для сегодняшнего дня у них музыка. Угар да и только. Молодцы. Сохраняют они для меня надежду на будущее в стиле.
(1) DarkHorde,
Dec 15 2016, 13:29:11 Ranger - Knights Of Darkness [ep] (2013)
Вот это и есть тот искомый современный и хороший метал!
Альбом угарный, великолепный.
(1) vosmidesijatye,
Sep 10 2016, 15:24:27 Wifebeater - Misogynist (2015)



Не свежесортный, да.
(1) TodesGott,
Jul 31 2016, 22:45:38 Stormtide - Wrath Of An Empire (2016)
Не очень-то знаю зачем, но слушая эту музыку, не избавлюсь от образа и вкуса обычного пряника :-) Музыка проста. Музыка похожа на пряник.
(1) MeatWolf,
Jul 31 2016, 21:55:28 Pragnavit - Skarby Zmiainaha Karala (2016)
Приятная музыка.
Это такой стиль, что если группа его соблюдает, невозможно откровенно плохо сочинять.

А данная конкретная работа, действительно, приятная, то есть стоящая. Мне рекомендовали эту вещь послушать и скажу честно, не разочарован совсем. Спасибо.
(2) infiltrator, Абигор,
May 28 2016, 22:46:50 Visions Of Atlantis - Old Routes - New Waters [ep] (2016)
Эта группа одна из тех, который я называю старыми знакомыми. Неплохие у них работы бывали помню. Странно, что здесь сопвсем нет отзывов.
(1) Ironcast,
May 21 2016, 12:36:01 Vektor - Terminal Redux (2016)
Видно, что они с самого начала очень одаренными ребятами были. Отличная музыка у них. Не только бодро исполняют но и что-то стоящее сочиняют. И это сейчас, в 2016-м году. Большой зачет.
(3) DarkHorde, troll_swamp, vosmidesijatye,
May 10 2016, 12:59:38 Tension - Breaking Point (1986)
Да, спид метал тогда был великолепен. Аж заслушивался десятками исполнителями и множествами великолепных альбомов. Этих не слышал тогда а оказывается неплохо ребята сочиняли и играли.
(1) slack,
May 10 2016, 12:55:07 Utmarken - Utmarken (2016)
[youtube]c2JUDzIbhAA[/youtube]

Я даже ошарашен здешными комментариями. Величественно? Величественно? Эпично? Этот вокал тут можно с Киске сравнивать? Чаво?
Даже в темях Falconer-а по-моему такое не читал. Или это дань такая убогому нынешнему времени?
Я считаю, что Falconer на несколько голов выше стоит, вот призадумался и даже сравнивать неприятно становиться.
(1) Deze,
Apr 7 2016, 20:02:24 Moonsorrow - Jumalten Aika (2016)
Релиз наикрутейшей группы. Всегда событие.
На первой странице писали, что музыка получилаьс длинной. Отлично сказано! Люблю длинную, как сагу, музыку. С наслаждением и меедленно скачиваю, чтобы посмаковать на совесть.

Kwaad,
ЦИТАТА(Kwaad @ 5th April 2016 - 14:23:41) *
Вполне себе "земельная" музыка, ничего инопланетного или космического здесь нет.

Может быть здесь, на данном альбоме и нет (я еще не слушал), но улыбнусь и скажу тебе уверенно и просто, на ранних альбомах ой-же как есть космос.
(3) neoatheist, vosmidesijatye, WOLAND,
Feb 25 2016, 12:43:54 Nightwish - Angels Fall First (1997)
Нет, все зря, Once великолепен.

Angels Fall First (2007) [Official Collector's Edition / Special 10th Anniversary Edition. Made in the EU. 0602517449343; Remastered]

Register
(1) Сварог Барг,
Feb 25 2016, 10:56:04 Nightwish - Angels Fall First (1997)
Once великолепен.
(1) vosmidesijatye,
Feb 22 2016, 19:14:08 Hypno5e - Shores Of The Abstract Line (2016)
Так и есть, я не ошибся, альбом, вообще музыка в нем великолепны. И как здорово все сконструировано, исполнено. Отличный альбом.
Дейтсвительно ярчайпие представотели постметал. Я всегда считал и считаю, что творить даже чуточку стоящую вещь в постметале сложная задача, очень сложная. А как ярко эти справились, молодцы.
(3) aesteticvice, infiltrator, mimoladoff,

21 Pages V   1 2 3 > » 
- Lo-Fi Version Support form
Copyrights and abuse reports form
Time is now: 17th September 2019 - 23:50:37