Welcome Guest ( Log In | Register )

История благодарностей участнику lucifix ::: Спасибо сказали: 6874 раз(а)
Дата поста: В теме: За сообщение: Спасибо сказали:
Feb 17 2020, 09:34:54 Moongates Guardian - Wanderers In The Shadowed Land [ep] (2015)
ЦИТАТА(lollibub @ Feb 16 2020, 23:58:23) *
какой пароль от архива?

как и всегда : metalarea.org
(1) Veligor,
Jan 30 2020, 07:39:58 Nattverd - Styggdom (2020)
[youtube]ikKo3NDVCfM[/youtube]
(4) atavist, Foneg, infiltrator, Veligor,
Jan 29 2020, 14:47:11 Voodoocult - Voodoocult (1995)
320
Register
(2) varlam4, Veligor,
Jan 29 2020, 14:45:07 Voodoocult - Jesus Killing Machine (1994)
320
Register
(2) varlam4, Veligor,
Dec 7 2019, 11:50:22 Helheim - Yersinia Pestis (2003)
320
Register
(3) kimkayoung, nsk2008, Veligor,
Dec 7 2019, 11:47:54 Helheim - Blod Og Ild (2000)
320
Register
(2) kimkayoung, Veligor,
Nov 28 2019, 08:41:18 Burzum - Umskiptar (2012)
320
Register
(5) A.L.Rapsod, atom72, Gylve, multizwilling, Veligor,
Sep 24 2019, 10:35:09 Ancient Moon - Benedictus Diabolica, Gloria Patri (2019)
Register
(5) infiltrator, NOMIDIMON, peppuzzo, thenecromancer, Veligor,
Sep 5 2019, 11:14:19 Tool - 10.000 Days (2006)
320
Register
(2) Veligor, Луч,
Sep 5 2019, 10:24:00 Tool - Demo 72826 [demo] (1991)
320
Register
(4) Aparo, infiltrator, thenecromancer, Veligor,
Aug 25 2019, 15:03:43 Apeiron - Abgesang (2019)
ЦИТАТА(krotovich @ Aug 25 2019, 16:52:04) *
За Русь в метро Усрусь

Сходи-ка на горшок ,
Чепушок
(4) Glioma, infiltrator, ingram, Veligor,
Aug 19 2019, 15:01:22 Зарево - Всполохи Ночи (2019)
Register
(5) artscald, CultMetalSerge, recber, Veligor, Сварог Барг,
Aug 2 2019, 16:18:51 1349 - Dødskamp [ep] (2019)
Обложка - Эдвард Мунк "У смертного одра (Лихорадка)"
(4) infiltrator, mardak666, Veligor, vosmidesijatye,
Mar 29 2019, 17:56:08 Darkened Nocturn Slaughtercult - Mardom (2019)
pray.gif
(2) infiltrator, troll_swamp,
Mar 6 2019, 10:50:45 ICS Vortex - Storm Seeker (2011)
320
Register
(3) Aresson, dma-09, Veligor,
Feb 3 2019, 10:01:56 Deadlife - Worthless Existence [ep] (2014)
Register
(3) kim666, Veligor, xarmendarizx,
Sep 17 2018, 10:46:09 Atrium Carceri - Codex (2018)
Register

Register
(8) Ludwig Hagen, Mirddin, Nhmrath, recber, stub888, thenecromancer, Veligor, wtk.412,
Sep 17 2018, 09:37:40 Atrium Carceri - Codex (2018)


*Artist: Atrium Carceri
*Album: Codex
*Year: 2018
*Genre: Dark Ambient
*Country: Sweden
*Format: mp3@CBR320kbps
*Size: 105MB

Tracklist:
01. The Void (4:35)
02. From Chasms Reborn (4:18)
03. The Seer (4:40)
04. A Memory Lost (1:42)
05. The Empty Chapel (3:00)
06. Path Of Fallen Gods (6:05)
07. The Ancient City (4:23)
08. Sacrifice To The Machine (4:55)
09. The Maze (3:05)
10. A Hunger Too Deep (2:12)
11. The Citadel (7:10)
******************************
Total playing time: 46:05



[more=Extended info][youtube]WYckudaK0N4[/youtube][/more]

[more=Technical info]
Input File: 01 - The Void.mp3
Channels : 2
Sample Rate : 44100
Precision : 16-bit
Duration : 00:04:35.09 = 12131337 samples = 20631.5 CDDA sectors
File Size : 11.0M
Bit Rate : 321k
Sample Encoding: MPEG audio (layer I, II or III)
Comments :
Title=The Void
Artist=Atrium Carceri
Album=Codex
Tracknumber=1
Year=2018
Genre=Dark Ambient/Drone

[/more]

Register
(16) Boozer, dk201x, dromord, endemoniada, gena, Hell_Is_Here, Infidel, kefka, milosdjor, princeshr, recber, RUSP73, SyncestrA, thenecromancer, tOmV, Veligor,
Sep 15 2018, 11:11:50 Kreator - Gods Of Violence (2017)
320
Register
(1) Veligor,
Sep 13 2018, 12:01:02 Grisly - The Spectral Wars (2018)
Архивы , сцуко , не найдены по всем ссылкам ... Позаимствовал в и-нете
320
Register
(1) Veligor,
Aug 29 2018, 17:52:15 Negură Bunget - Om (2006)
320
Register
(7) artscald, garmonbozia, kramer820, MadCarrot, pain, Veligor, Авел,
Aug 28 2018, 17:53:17 Sterbend - Dwelling Lifeless (2006)
320
Register
(3) morbidangelo, pain, Veligor,
Aug 26 2018, 17:31:32 Mekong Delta - Classics [best of/compilation] (1993)
320
Register
(4) Aresson, Mplast, pain, Veligor,
Aug 24 2018, 17:08:18 Summoning - Dol Guldur (1996)
320
Register
(5) Brann, thenecromancer, Trelledorn, Veligor, Vidder242,
Aug 14 2018, 16:23:56 Unanimated - Ancient God Of Evil (1995)
320
Register
(3) infiltrator, Kavo, Veligor,

48 Pages V   1 2 3 > » 
- Lo-Fi Version Support form
Copyrights and abuse reports form
Time is now: 1st June 2020 - 17:08:13