Welcome Guest ( Log In | Register )

История благодарностей участнику COOLER ::: Спасибо сказали: 2280 раз(а)
Дата поста: В теме: За сообщение: Спасибо сказали:
Nov 7 2015, 11:41:19 Flowers For Bodysnatchers - Aokigahara (2015)


*Artist: Flowers For Bodysnatchers
*Album: Aokigahara
*Year: 2015
*Genre: Dark Ambient
*Country: Australia
*Format: mp3@CBR320kbps
*Size: 141MB

Tracklist:
1. Prisoner Of Night And Fog
2. And There Is A Darkness
3. Field Of Ink
4. Kuroi Jukai
5. There Will Be Lies
6. Night Heroin
7. Aokigahara
8. A Rope To End It All
9. A Man Metallic
10. The Games Foxes Play
******************************
Total playing time: 1:01:58



[more=Extended info][youtube]cTxb9oiV70A[/youtube]
"Аокигахара (青ヶ原) это лес известный как "лес для суицидников". Находится он на северо-западном подножии горы Фудзи в Японии. Лес этот очень густой и скрывает собой все звуки, кроме звуков самого себя. Лес имеет историческую связь с демонами в японской мифологии.

Дункан Ричи исследует долгое путешествие в Аокигахара, через звуковые полотна и текстуры. Дункан провел бесчисленные часы на полевой записи, между рейсами из Токио в Аокигахара. Это красивый, глубокий и темный дарк-эмбиент альбом повествует о выборе между жизнью и смертью."[/more]

[more=Technical info]
Input File: 01 - Prisoner Of Night And Fog.mp3
Channels : 2
Sample Rate : 44100
Precision : 16-bit
Duration : 00:04:32.46 = 12015442 samples = 20434.4 CDDA sectors
File Size : 10.9M
Bit Rate : 321k
Sample Encoding: MPEG audio (layer I, II or III)
Comments :
Title=Prisoner Of Night And Fog
Artist=Flowers For Bodysnatchers
Album=Aokigahara
Tracknumber=1
Year=2015
Genre=Dark Ambient

[/more]

Register
(3) ddarkthrone, stub888, Velkaarn,
Nov 6 2015, 20:19:39 Nimon - Fear Of Change (2015)


*Artist: Nimon
*Album: Fear Of Change
*Year: 2015
*Genre: Cosmic Dark Ambient
*Country: Germany
*Format: mp3@CBR320kbps
*Size: 136MB

Tracklist:
1. A New Job In A New Town
2. Leaving Your Friends Behind
3. Blank Slate
4. Throw It All Away
5. Replacements
6. The Rough With The Smooth
7. Anything Is Possible
8. Blazing Sun
9. No Bed To Sleep On
10. Shining Moon
11. Things Get In The Way
******************************
Total playing time: 1:03:39



[more=Extended info]Великолепный пример качественного Cosmic Dark Ambient из Германии.[/more]

[more=Technical info]
Input File: 01 - A New Job In A New Town.mp3
Channels : 2
Sample Rate : 44100
Precision : 16-bit
Duration : 00:06:27.91 = 17106611 samples = 29092.9 CDDA sectors
File Size : 15.6M
Bit Rate : 321k
Sample Encoding: MPEG audio (layer I, II or III)
Comments :
Title=A New Job In A New Town
Artist=Nimon
Album=Fear Of Change
Tracknumber=1
Year=2015
Genre=Ambient

[/more]

Register
(3) Diflock, stub888, veselchak_u,
Oct 18 2015, 16:40:03 Totengeflüster - Vom Seelensterben (2012)
Register
(1) varg-38ru,
Oct 18 2015, 15:51:45 Nauticus - The Wait (2012)
Register
(1) varlam4,
Oct 18 2015, 15:00:58 Halcyon - Jerusalem (2012)
Register
(2) ddarkthrone, varlam4,
Oct 18 2015, 11:25:48 Myrkwid - Sequel To Part II [demo] (2007)
Register
(2) varg-38ru, varlam4,
Oct 17 2015, 18:56:45 Transmetal - Mexico Barbaro (1996)
Register
(1) wanderer73,
Oct 17 2015, 18:29:14 Ancient Cosmos - The Tale Of Nothingness [ep] (2015)


*Artist: Ancient Cosmos
*Album: The Tale Of Nothingness [ep]
*Year: 2015
*Genre: Melodic Death Metal
*Country: Japan
*Format: mp3@CBR320kbps
*Size: 42MB

Tracklist:
1. The Awakening (Intro)
2. The Cursed Cosmos
3. Embrace The Tears Of Nothingness
4. Under A Dying Moon...
5. Lost Dreams (Outro)
******************************
Total playing time: 17:42



[more=Technical info]
Input File: 01. The Awakening (Intro).mp3
Channels : 2
Sample Rate : 44100
Precision : 16-bit
Duration : 00:01:52.11 = 4943831 samples = 8407.88 CDDA sectors
File Size : 4.48M
Bit Rate : 320k
Sample Encoding: MPEG audio (layer I, II or III)
Comments :
Title=The Awakening (Intro)
Artist=Ancient Cosmos
Album=The Tale Of Nothingness (EP)
Tracknumber=01
Year=2015

[/more]

Register
(9) gwynnbleid, ImNotRussian, Mogozoz, morbidangelo, Rosen, VALERY, varlam4, wanderer73, wreak,
Oct 17 2015, 16:35:25 Adam Skorupa - Hatred (Original Videogame Soundtrack) [ost] (2015)


*Artist: Adam Skorupa
*Album: Hatred (Original Videogame Soundtrack) [ost]
*Year: 2015
*Genre: Funeral Doom Metal/Dark Ambient/Instrumental
*Country: Poland
*Format: mp3@CBR320kbps
*Size: 78MB

Tracklist:
1. Alone Against Humanity
2. Cold Blooded Executor
3. Fear As The Weapon Of Mass Destruction
4. Distant To Reality
5. Impenetrable Void Of A Hateful Mind
6. Suffering Injection
7. An Unknown Feeling Of Remorse
8. Solitary March Of The Damned One
9. Overkill
10. Its Time
11. Reveal
12. Destruction
13. Human Shields
******************************
Total playing time: 36:56

[more=Technical info]
Input File: 01. Alone Against Humanity.mp3
Channels : 2
Sample Rate : 44100
Precision : 16-bit
Duration : 00:03:29.30 = 9229910 samples = 15697.1 CDDA sectors
File Size : 8.53M
Bit Rate : 326k
Sample Encoding: MPEG audio (layer I, II or III)
Comments :
Title=Alone Against Humanity
Artist=Adam Skorupa
Album=Hatred
Tracknumber=1
Year=2015
Genre=Dark Ambient

[/more]

Register
(6) Hell_Is_Here, KKK1488, Rosen, varlam4, wreak, Герб,
Oct 17 2015, 16:11:37 Order Of Victory & Sacris Tandem - Strength Of Materials (2015)


*Artist: Order Of Victory & Sacris Tandem
*Album: Strength Of Materials
*Year: 2015
*Genre: Dark Ambient/Martial Industrial | Dark Ambient/Martial Industrial
*Country: Russian Federation | Russian Federation
*Format: mp3@CBR320kbps
*Size: 112MB

Tracklist:
1. Strength Of Materials
******************************
Total playing time: 48:03



[more=Technical info]
Input File: 01 Strength Of Materials.mp3
Channels : 2
Sample Rate : 44100
Precision : 16-bit
Duration : 00:48:30.66 = 128359930 samples = 218299 CDDA sectors
File Size : 117M
Bit Rate : 321k
Sample Encoding: MPEG audio (layer I, II or III)
Comments :
Title=Strength Of Materials
Artist=Order Of Victory & Sacris Tandem
Album=Strength Of Materials
Tracknumber=1
Year=2015
Genre=Martial Industrial

[/more]

Register
(1) Raw1488,
Oct 17 2015, 16:00:04 Ведьма Под Морфина Гидрохлоридом - Тихольда Диволла (2015)


*Artist: Ведьма Под Морфина Гидрохлоридом
*Album: Тихольда Диволла
*Year: 2015
*Genre: Darkwave/Dark Ambient
*Country: Russian Federation
*Format: mp3@CBR320kbps
*Size: 116MB

Tracklist:
1. Акайя
2. Гномы-Механики 3
3. Горлицы 2
4. Горлицы
5. Жабы У Воды
6. Махаон
7. Пепельный Кот
8. Переправа
9. Помощь Виктимария 4
10. Родник
11. Сухоцвет
12. Усы Гранойи
******************************
Total playing time: 51:50

Preview 1

[more=Technical info]
Input File: 01 - Акайя.mp3
Channels : 2
Sample Rate : 44100
Precision : 16-bit
Duration : 00:02:28.43 = 6545631 samples = 11132 CDDA sectors
File Size : 5.94M
Bit Rate : 320k
Sample Encoding: MPEG audio (layer I, II or III)
Comments :
Title=Акайя
Artist=Ведьма Под Морфина Гидрохлоридом
Album=Тихольда Диволла
Tracknumber=1
Year=2015
Genre=Dark Ambient/Darkwave

[/more]

Register
(3) Moonshtook, Velkaarn, xska,
Oct 17 2015, 15:44:16 Worms Of The Earth - Sitra Achra (2015)


*Artist: Worms Of The Earth
*Album: Sitra Achra
*Year: 2015
*Genre: Industrial/Dark Ambient/Ritual Ambient/Tribal Ambient
*Country: United States
*Format: mp3@CBR320kbps
*Size: 116MB

Tracklist:
1. Malkuth - The World Dissolves And Reveals Sitra Achra
2. Gamaliel - Corrupted Sanctuary Of Fire
3. Gnarled Roots Suspend The Ruined Temple
4. Path Of Samekh
5. Thagirion - Mired In A River Of Drowned Bodies
6. Path Of Zamradiel
7. Satariel - Field Of Apocryphal Monuments
8. Excising The Last Vestiges Of Ahamkara
9. [CLOSING]
******************************
Total playing time: 53:05




[more=Technical info]
Input File: 01 - Malkuth (The World Dissolves and Reveals Sitra Achra).mp3
Channels : 2
Sample Rate : 44100
Precision : 16-bit
Duration : 00:09:04.60 = 24016948 samples = 40845.1 CDDA sectors
File Size : 21.9M
Bit Rate : 322k
Sample Encoding: MPEG audio (layer I, II or III)
Comments :
Title=Malkuth (The World Dissolves and Reveals Sitra Achra)
Artist=Worms Of The Earth
Album=Sitra Achra
Tracknumber=1
Year=2015
Genre=Dark Ambient / Industrial

[/more]

Register
(4) Chasm, Ostinato, sethurius, Velkaarn,
Oct 16 2015, 20:21:10 Barst & RM74 & Treha Sektori - Tri Muerti (2015)


*Artist: Barst & RM74 & Treha Sektori
*Album: Tri Muerti
*Year: 2015
*Genre: Dark Ambient/Experimental | Dark Ambient/Experimental | Dark Ambient/Experimental
*Country: Belgium | Switzerland | France
*Format: mp3@CBR320kbps
*Size: 101MB

Tracklist:
1. Tu Nel
2. A Sweet Masquerade
3. With Sermons
******************************
Total playing time: 43:26

[more=Technical info]
Input File: 01 - Tu Nel.mp3
Channels : 2
Sample Rate : 44100
Precision : 16-bit
Duration : 00:24:49.41 = 65682937 samples = 111706 CDDA sectors
File Size : 59.6M
Bit Rate : 320k
Sample Encoding: MPEG audio (layer I, II or III)
Comments :
Title=Tu Nel
Artist=Barst & RM74 & Treha Sektori
Album=Tri Muerti
Tracknumber=1
Year=2015
Genre=Dark Ambient

[/more]

Register
(7) gena, Hell_Is_Here, Konst, milosdjor, randumbum, Sarcis, svndvst,
Oct 16 2015, 19:28:43 Hades Almighty - Pyre Era, Black! [ep] (2015)


*Artist: Hades Almighty
*Album: Pyre Era, Black! [ep]
*Year: 2015
*Genre: Black Metal
*Country: Norway
*Format: mp3@CBR128kbps
*Size: 18MB

Tracklist:
1. Pyre Era, Black!
2. Funeral Storm
3. Bound
******************************
Total playing time: 19:50

Register
(17) 0x13, 1968_janeart, andivi, blacky66, cancer1974, craP_cillA, ddarkthrone, fabriziomagno, Henmik, marilin, metala, RUSP73, Sjelekval, tont, vasiljev_sergej, vov7609, ZA670,
Mar 1 2015, 16:05:51 Dope Stars Inc. - Terapunk (2015)


*Artist: Dope Stars Inc.
*Album: Terapunk
*Year: 2015
*Genre: Industrial/Cyberpunk/Electro-Industrial
*Country: Italy
*Format: mp3@CBR320kbps
*Size: 90MB

Tracklist:
01. It's Going to Rain for You
02. Many Thanks
03. Don't Wanna Know
04. Take It
05. Do It Yourself
06. Along With You
07. You Have No Chance
08. Dressed Inside Your Fear
09. Spider Claw
10. The Believer
******************************
Total playing time: 39:24

[more=Extended info]Поддержать группу, купив цифровой альбом по особой низкой для России цене, CD, футболку TeraPunk можно на сайте лейбла-издателя.[/more]

[more=Technical info]
Input File: 01 - It\\\'s Going to Rain for You.mp3
Channels : 2
Sample Rate : 44100
Precision : 16-bit
Duration : 00:02:40.96 = 7098248 samples = 12071.9 CDDA sectors
File Size : 6.48M
Bit Rate : 322k
Sample Encoding: MPEG audio (layer I, II or III)
Comments :
Title=It's Going to Rain for You
Artist=Dope Stars Inc.
Album=Terapunk
Tracknumber=1
Year=2015
Genre=Industrial Rock

[/more]

Register
(2) Jurmagund, sperminator,
Aug 5 2014, 18:59:17 Cold Void - Winter & Suicide [demo] (2007)
Register
(1) dermarsoran,
Jul 20 2014, 09:38:32 Profanum - A Descent Into Medieval Darkness [demo] (1996)


*Artist: Profanum
*Album: A Descent Into Medieval Darkness [demo]
*Year: 1996
*Genre: Black Metal/Dark Ambient/Instrumental
*Country: Poland
*Format: mp3@ABR256kbps
*Size: 29MB

Tracklist:
1. The Serpent Crown
2. Raven Singing Over My Closed Eyes
3. A Descent into Medieval Darkness
******************************
Total playing time: 21:23



[more=Extended info]

Промо-кассета, выпущенная в октябре 1996. Оригинальная кассета состояла из 6 композиций, однако автор оцифровки убрал три первые композиции по причине их идентичности с теми, которые вошли в первый полноформатный альбом. Оставшиеся три композиции вошли во второй альбом группы в измененном варианте.[/more]

Register
(28) 1968_janeart, Borderline1991, Darkthronefoad, ddarkthrone, dermarsoran, dulak, Evilded, Flowergatherer, Hell_Is_Here, Ildjarn, komornik797, Leiche, marilin, milosdjor, Moonshtook, morbidangelo, NachtWulf, Nak, randumbum, rom666, Rosen, sacrut, spiritualdecay666, tont, vasiljev_sergej, wreak, wtk.412, yavamir,
Jul 19 2014, 11:04:45 Rudozar - Legacy III (2006)


*Artist: Rudozar
*Album: Legacy III
*Year: 2006
*Genre: Dark Ambient/Martial Industrial/Dungeon Synth
*Country: Russian Federation
*Format: mp3@CBR320kbps
*Size: 89MB

Tracklist:
1. Nordavindur
2. My Sword Are Bloodred
3. Path Of Autumn Vengeance
4. Towards To Darkwoods Of Kaschej
5. Song Of Blizzard
6. Last War
7. Проклятье (Хорт cover)
8. Pagan Endless Circle
******************************
Total playing time: 1:03:59

[more=Extended info]Rudozar был основан на рубеже 2002/03 гг. в г. Верхнеудинск (Улан-Удэ) Яросветом Змеем - басистом сибирского pagan black metal акта Хорт . Музыка данного проекта представляет собой причудливую смесь Lo-Fi, martial industrial, dark ambient, dungeon synth при тотальном отсутствии вокала и голосовых сэмплов.

В 2003-2004 году был записан материал для первого полноформатника, а в 2005 – материал для второго. Зимой 2006-07 в проекте также участвовали Шаман (вокал) и Яра (вокал). Скопировано с Dark-World.ru. К сожалению, сотрудничество было кратковременным, а записи с вокалом – утеряны. В конце 2007 года Змей вернулся к записи последнего инструментального альбома. Примечательно, что в этот период название проекта было Рдяный Вран Зари (!), но в 2007 году автор решает переименовать его в Rudozar.

Всего за период 2003-2008 года было записано четыре полноформатника, в силу различного рода обстоятельств, не представленных на суд общественности. К 2008 году проект прекратил свое существование, органично переродившись в более доступные для слушателей формы музыкального творчества – на платформе Rudozar, Яросветом Змеем в конце 2008 года был реализован martial folk проект Verkhneudinsk 1666 (записано два демо), а в 2012 году был основан Рдяный Вран Зари (epic pagan folk metal)[/more]

[more=Technical info]
Input File: 01 - Nordavindur.mp3
Channels : 2
Sample Rate : 44100
Precision : 16-bit
Duration : 00:10:48.18 = 28584518 samples = 48613.1 CDDA sectors
File Size : 25.9M
Bit Rate : 320k
Sample Encoding: MPEG audio (layer I, II or III)
Comments :
Title=Nordavindur
Artist=Rudozar
Year=2014

[/more]

Register
(2) dorn1, varlam4,
Jul 19 2014, 10:54:10 Remete - Keleti Limes (2014)


*Artist: Remete
*Album: Keleti Limes
*Year: 2014
*Genre: Dark Ambient/Drone
*Country: Hungary
*Format: mp3@CBR320kbps
*Size: 89MB

Tracklist:
1. Idegent Temetnek
2. Sorsbilincs
3. Keleti Limes
4. Barlang A Szirt Alatt
5. A Nesztelen
******************************
Total playing time: 41:18



[more=Technical info]
Input File: 01. Idegent Temetnek.mp3
Channels : 2
Sample Rate : 44100
Precision : 16-bit
Duration : 00:07:06.73 = 18818661 samples = 32004.5 CDDA sectors
File Size : 17.1M
Bit Rate : 320k
Sample Encoding: MPEG audio (layer I, II or III)
Comments :
Title=Idegent Temetnek
Artist=Remete
Album=Keleti Limes
Tracknumber=01
Year=2014

[/more]

Register
(5) Euthanasiast, Hell_Is_Here, randumbum, stub888, SyncestrA,
Jul 18 2014, 11:27:40 Seren Ffordd - Strands V (2014)


*Artist: Seren Ffordd
*Album: Strands V
*Year: 2014
*Genre: Dark Ambient
*Country: United Kingdom
*Format: mp3@VBR211kbps
*Size: 178MB

Tracklist:
1. Strands V
2. Strands V (Quiet Version)
******************************
Total playing time: 1:55:24



[more=Extended info]Seren Ffordd выпускал большинство своих произведений на уже канувших в лету итальянских лэйблах Umbra и Penumbra, несмотря на то, что сам исполнитель территориально из Уэльса.

В переводе с уэльского наречия Seren Ffordd означает Путь к Звёздам, или Млечный Путь.[/more]

Register
(2) Hell_Is_Here, randumbum,
Jul 17 2014, 21:20:15 Müldeponie - Through The Shadow War (Part. I) (2014)


*Artist: Müldeponie
*Album: Through The Shadow War (Part. I)
*Year: 2014
*Genre: Dark Ambient/Medieval/Dungeon Synth
*Country: France
*Format: mp3@CBR320kbps
*Size: 118MB

Tracklist:
1. Intro
2. Vultures Land
3. Into The Black Order
4. Marching To The Middle Earth (Feat B.M.)
5. La Traversée Des Âges Pt. I - L'Âge Sombre (Album Version)
6. Through The Shadow War
7. Of Shadow And Light
8. Return Of The Black Enemy
******************************
Total playing time: 48:11



Preview 3
Preview 4


[more=Extended info]
[youtube]n0aSG08CJUg[/youtube][/more]

[more=Technical info]
Input File: M?ldeponie - Through The Shadow War (Part. I) - 01 Intro.mp3
Channels : 2
Sample Rate : 44100
Precision : 16-bit
Duration : 00:02:56.24 = 7772228 samples = 13218.1 CDDA sectors
File Size : 7.25M
Bit Rate : 329k
Sample Encoding: MPEG audio (layer I, II or III)
Comments :
Title=Intro
Artist=MГјldeponie
Album=Through The Shadow War (Part. I)
Tracknumber=1
Year=2014
Genre=Dungeon Synth/Dark Ambient

[/more]

Register
(4) dorn1, Euthanasiast, randumbum, добрыйКот,
Jul 17 2014, 21:01:33 Church Of Ra - Church Of Ra (2014)


*Artist: Church Of Ra
*Album: Church Of Ra
*Year: 2014
*Genre: Dark Ambient
*Country: France
*Format: mp3@CBR320kbps
*Size: 65MB

Tracklist:
1. Track One
2. Track Two
******************************
Total playing time: 28:35

Preview 1
Preview 2

Preview 4


[more=Extended info]Проект состоит из участников Amenra, Oathbreaker, Hessian, The Black Heart Rebellion, Pieces Of Quiet, Hive Destruction, Sembler Deah, Treha Sektori.[/more]

[more=Technical info]
Input File: 01 Track one.mp3
Channels : 2
Sample Rate : 44100
Precision : 16-bit
Duration : 00:20:07.81 = 53264377 samples = 90585.7 CDDA sectors
File Size : 48.3M
Bit Rate : 320k
Sample Encoding: MPEG audio (layer I, II or III)
Comments :
Title=Track one
Artist=Church Of Ra
Album=Church Of Ra
Tracknumber=1/2

[/more]

Register
(7) 666BlackDeath, donnar, Hell_Is_Here, Hyperborea, InFestus, marilin, stub888,
Jul 16 2014, 21:31:12 Mastery - Lethal Legacy [ep] (2005)
Register
(1) artscald,
Jul 16 2014, 20:53:05 Insurgency - Insurgency Practice 19/11/12 [demo] (2012)


*Artist: Insurgency
*Album: Insurgency Practice 19/11/12 [demo]
*Year: 2012
*Genre: Old School Thrash Metal
*Country: United Kingdom
*Format: mp3@CBR320kbps
*Size: 68MB

Tracklist:
1. Insurgency Practice 19/11/12
******************************
Total playing time: 29:58



[more=Extended info]Полнейший андерграунд из Ланкастера, Великобритания. Ребята вполне себе подают надежды, как мне кажется. Конечно, кое где ударник суетится, но по большому счёту, скорость очень неплохая. Эксклюзивно для пользователей портала MetalArea.ORG
Советую.[/more]

[more=Technical info]
Input File: 01 - Insurgency Practice 191112.mp3
Channels : 2
Sample Rate : 48000
Precision : 16-bit
Duration : 00:29:58.95 = 86349456 samples ~ 134921 CDDA sectors
File Size : 72.0M
Bit Rate : 320k
Sample Encoding: MPEG audio (layer I, II or III)
Comments :
Title=Insurgency Practice 19/11/12
Artist=Insurgency
Album=Demo
Tracknumber=1

[/more]

Register
(4) marilin, morbidangelo, Rosen, wreak,
Jun 30 2014, 19:57:04 Tummler And Solomon - You've Worn Out Your Welcome (2014)
Невероятные впечатления для всех фанатов экспериментального пост дума да и вообще любителей качественной музыки. Музыка характеризуется божественным чистым вокалом, вкрапления которого накладываются на плотные гитарные рифы и продуманные партии от ударника.
Рекомендую.
(1) vosmidesijatye,

32 Pages V   1 2 3 > » 
- Lo-Fi Version Support form
Copyrights and abuse reports form
Time is now: 13th July 2020 - 04:57:22