Welcome Guest ( Log In | Register )

История благодарностей участнику Federico7979 ::: Спасибо сказали: 1291 раз(а)
Дата поста: В теме: За сообщение: Спасибо сказали:
Aug 6 2014, 14:05:48 Destroyers - Night Of The Lustly Queen (1989)
i found these two links from the remastered version.

320kbps

http://turbobit.net/wvsd3lupo1ka.html

http://depositfiles.org/files/g0u25c45l
(1) Tino,
May 21 2014, 21:00:08 Pheretrum - From The Underworlds [ep] (2013)


*Artist: Pheretrum
*Album: From The Underworlds [ep]
*Year: 2013
*Genre: Death Metal
*Country: Uruguay
*Format: mp3@CBR320kbps
*Size: 20MB

Tracklist:
1. The Path To Your Pheretrum
2. Forever Chaos
******************************
Total playing time: 6:56

[more=Extended info]150 pro tapes limited copies[/more]

[more=Technical info]
Input File: promo_tape.mp3
Channels : 2
Sample Rate : 44100
Precision : 16-bit
Duration : 00:01:09.49 = 3064597 samples = 5211.9 CDDA sectors
File Size : 2.78M
Bit Rate : 320k
Sample Encoding: MPEG audio (layer I, II or III)
Comments :
Title=The Path To Your Pheretrum - Forever Chaos
Artist=Pheretrum
Album=From The Underworlds EP
Tracknumber=01
Year=2013
Genre=Death Metal

[/more]

Register


Official Site:
http://pheretrum.no-ip.org/
(1) sombra,
Feb 8 2014, 20:21:25 Atomic Aggressor - Bloody Resurrection [best of/compilation] (2002)
new link here:
Register
(2) Anhra Mainyu, infiltrator,
Dec 7 2012, 12:45:58 Territory - Killer Instinct (2011)
320kbps too , my upload this time.
cheers
Register
(1) MEmethuselah,
Jul 16 2012, 03:12:55 Nocturnal Legion - Sacrifice [ep] (2012)


*Artist: Nocturnal Legion
*Album: Sacrifice [ep]
*Year: 2012
*Genre: Black Metal
*Country: Uruguay
*Format: mp3@CBR320kbps
*Size: 44MB

Tracklist:
1. -
2. Sacrifice
3. The Hammer Of Thor
4. -
******************************
Total playing time: 16:02

[more=Extended info]scans included, own cd rip. 20 copies limited


Input File: Nocturnal Legion - 01 - -.mp3
Channels : 2
Sample Rate : 44100
Precision : 16-bit
Duration : 00:01:14.24 = 3273984 samples = 5568 CDDA sectors
File Size : 4.99M
Bit Rate : 538k
Sample Encoding: MPEG audio (layer I, II or III)
Comments :
Title=-
Artist=Nocturnal Legion
Album=Sacrifice EP
Tracknumber=01
Year=2012
Genre=138

[/more]

Register
(5) kefka, satanas189, tont, vasiljev_sergej, wgs73,
Jan 2 2011, 23:40:40 Agressor - Neverending Destiny (1990)
Excellent!

mirror 256kbps
Register
(5) Bathory88, mika, necrofag, W.N.F.C., Zahrim,
Dec 12 2010, 17:08:28 Vader - The Ultimate Incantation (1993)
great release.

mirror 320kbps
Register
(8) 121mon, ancientlair, Brann, danilenish, metal73, muskatnuss, squirol, W.N.F.C.,
Dec 3 2010, 01:55:29 Unleashed - Live In Vienna '93 [live] (1993)
great release.
Mirror 320kbps

Register
(7) beast666, Brann, Cartman223, craP_cillA, Drizzling Blur, kolar666, metal73,
Nov 30 2010, 00:57:09 Slaughter Lord - Thrash 'Til Death 86-87 [compilation] (1998)
awesome band.

mirror 320kbps
Register
(6) cavanagh, hanyrin, igore2911, kluval, nbhfy, xska,
Nov 25 2010, 16:49:18 Sinister - Diabolical Summoning (1993)
mirror 320kbps
Register
(4) ElfinQueen, Hyperborea, infiltrator, lucifix,
Nov 22 2010, 18:05:30 Insanity - Death After Death (1994)
great oldschool death !

mirror 192kbps

Register
(2) MetalAlex, samokot,
Nov 22 2010, 18:04:29 Insanity - Visions Of Apocalypse (2008)
great death metal!

mirror 256kbps

Register
(2) metala, VALERY,
Nov 22 2010, 18:00:44 Messiah - Choir Of Horrors (1991)
great album!

mirror 271kbps
Register
(1) frwd,
Nov 22 2010, 17:59:49 Messiah - Hymn To Abramelin [reissue 2002] (1986)
amazing band

mirror 320kbps
Register
(5) billywhite, danilenish, hatework, ripper33, SamDimas,
Nov 22 2010, 17:59:02 Necrodeath - Into The Macabre (1987)
this is death metal from their veins!!
amazing band from ita!

mirror 256kbps
Register
(1) metal73,
Nov 22 2010, 17:55:55 Thanatos - Official Live Tape 1987 (1987)
mirror 192kbps
Register
(2) beast666, Wolfera,
Nov 22 2010, 17:54:49 Warhammer - Abbatoir Of Death [demo] (1985)
a fucking mad demo!

mirror 305kbps
Register
(4) billywhite, Galactus, SS90, Нигилист,
Nov 22 2010, 17:53:54 Voor - Evil Metal [demo] (1985)
AWESOME DEMO!

mirror 288kbps
Register
Nov 22 2010, 17:53:10 Thanatos - Realm Of Ecstacy (1992)
amazing band from the netherworlds !

Mirror 320kbps
Register
(1) Typhoid,
Nov 22 2010, 17:52:18 Armoured Angel - Communion [demo] (1990)
mirror 192kbps
Register
(3) Fryz, Proteus_666, thate_topa,
Nov 22 2010, 17:51:50 Armoured Angel - Wings Of Death [demo] (1989)
amazing demo!

Mirror 256kbps
Register
(3) muskatnuss, Proteus_666, thate_topa,
Nov 22 2010, 17:49:40 Armoured Angel - Stigmartyr [ep] (1992)


*Artist: Armoured Angel
*Album: Stigmartyr [ep]
*Year: 1992
*Genre: Death Metal
*Country: Australia
*Format: mp3@CBR320kbps
*Size: 30MB

Tracklist:
1. Hymn Of Hate
2. Beyond The Sacrament
3. Stigmartyr
4. Ordained In Darkness
******************************
Total playing time: 15:17

[more=Extended info]Lucy - Bass
Matt Green - Guitar
Joel Green - Drums, Lead Vocals[/more]

Register
(11) beast666, ENDSMOUTH, Fryz, garretje, Golfzilla, Proteus_666, satanas189, sperminator, thate_topa, THERION, triton,
Feb 12 2010, 01:38:47 Burial - Frigid Cold [demo] (1992)
Their full-lenght is great.
Really good demo with, of course, tracks from the album.

Mirror:
Register


Size: 31.45 MB
Quality: 192kbps
(1) AmmoniA,
Feb 10 2010, 13:03:09 Belphegor - The Last Supper (1994)
Mirror (Re-released 1999):
Register


Size: 84.18 MB
Quality: 192kbps
(3) caro, Deripasko, vov7609,
Feb 9 2010, 18:12:50 Obituary - Cause Of Death (1990)
Great album.

Mirror:
Register


Size: 121.28 MB
Quality: 320kbps
(7) Blashyrkh524, gammi707, imblackwizards, Lord Noctua, myrage, troll_swamp, vadik,

11 Pages V   1 2 3 > » 
- Lo-Fi Version Support form
Copyrights and abuse reports form
Time is now: 4th August 2020 - 18:20:39