Welcome Guest ( Log In | Register )

История благодарностей участнику 1000va ::: Спасибо сказали: 528 раз(а)
Дата поста: В теме: За сообщение: Спасибо сказали:
Feb 17 2016, 14:39:09 V.I.D.A. - Sombras De La Ignorancia (2010)


*Artist: V.I.D.A.
*Album: Sombras De La Ignorancia
*Year: 2010
*Genre: Thrash/Death/Groove Metal
*Country: Argentina
*Format: mp3@CBR320kbps
*Size: 84MB

Tracklist:
1. Victimas del Infierno.
2. Sometido y Condenado.
3. Instinto.
4. Sombras de la Ignorancia.
5. Almas.
6. Peste.
7. Pozos de Dolor.
8. Realidad.
9. Reflejos de Ambición.
******************************
Total playing time: 38:15







[more=Extended info]Jor: Bajo - Voz.
Pula: Guitarra - Voz.
Javi: Bateria.[/more]

[more=Technical info]
Input File: 04 Sombras de la Ignorancia.mp3
Channels : 2
Sample Rate : 44100
Precision : 16-bit
Duration : 00:04:56.44 = 13073092 samples = 22233.1 CDDA sectors
File Size : 11.9M
Bit Rate : 321k
Sample Encoding: MPEG audio (layer I, II or III)
Comments :
Title=Sombras de la Ignorancia
Artist=V.I.D.A.
Album=Sombas de la Ignorancia
Tracknumber=4
Year=2010
Genre=Death Metal / Groove Metal

[/more]

Register
(10) KVRT, METALHUNTER, morbidangelo, Rosen, RotAnus, spiritualdecay666, SyncestrA, varlam4, wanderer73, wreak,
Feb 16 2016, 17:20:40 Gorod - A Maze Of Recycled Creeds (2015)
Mirror

Register
(2) Acolyte192, mimoladoff,
Feb 16 2016, 16:55:06 Renacer - Alas De Fuego [best of/compilation] (2015)


*Artist: Renacer
*Album: Alas De Fuego [best of/compilation]
*Year: 2015
*Genre: Melodic Heavy Metal
*Country: Argentina
*Format: mp3@CBR320kbps
*Size: 242MB

Tracklist:
Disc 1

1. Alucinado
2. Hoy como ayer
3. El lenguaje de mi vida
4. Guerrero inmortal
5. Nueva sangre
6. Mi refugio
7. Cenizas del alma
8. Preguntándome por que
9. Senderos del tiempo
10. Paz en la tormenta (Imperio cover)
11. Será una gran victoria (Imperio cover)
12. Maleficio (Imperio cover)

Disc 2

1. Alas de fuego
2. Surcando caminos
3. Ancha es Castilla (Mägo de Oz cover)
4. El infierno que amamos
5. Detrás de la oscuridad
6. Deja correr la tinta
7. Si tu no estás aquí (Ángeles del Infierno cover)
8. Imperios de soledad
9. Senderos del tiempo (demo version)
10. Madre tierra (demo version)
******************************
Total playing time: 1:45:51



[more=Extended info]Disc 1: 2015 re-recorded versions.

Disc 2: Songs taken from their EPs.

LINE-UP
Christian Bertoncelli: Vocals
Diego de Paolo: Guitar
Juan Manuel Ocampo: Guitar
Guillermo Tebes: Bass
Damian Oliva: Drums[/more]

[more=Technical info]
Input File: 02-Hoy como Ayer.mp3
Channels : 2
Sample Rate : 44100
Precision : 16-bit
Duration : 00:03:45.98 = 9965850 samples = 16948.7 CDDA sectors
File Size : 9.04M
Bit Rate : 320k
Sample Encoding: MPEG audio (layer I, II or III)
Comments :
Title=02-Hoy como Ayer
Artist=Renacer
Album=Alas De Fuego
Tracknumber=2
Year=2015
Genre=Metal

[/more]

Register
(4) Rosen, spiritualdecay666, varlam4, wreak,
Feb 16 2016, 16:10:00 Mastifal - Cultura Brutal (2015)
Register
(1) Spritznkarli,
Feb 16 2016, 15:02:06 Overkill - Historikill 1995-2007 (Box Set - 2015) [best of/compilation] (2015)


*Artist: Overkill
*Album: Historikill 1995-2007 (Box Set - 2015) [best of/compilation]
*Year: 2015
*Genre: Thrash Metal
*Country: United States
*Format: flac
*Size: 5460MB

Tracklist:
1995: Wrecking Your Neck: Live

Cd1

01. Where It Hurts
02. Infectious
03. Coma
04. Supersonic Hate
05. Wrecking Crew
06. Powersurge
07. The Wait - New High In Lows
08. Skullcrusher
09. Spiritual Void
10. Hello From The Gutter
11. Anxiety
12. Elimination
13. Fast Junkie
14. World Of Hurt

Cd2:

01. Gasoline Dream
02. Rotten To The Core
03. Horrorscope
04. Under One
05. New Machine
06. Thanx For Nothin'
07. Bastard Nation
08. Fuck You


1996: The Killing Kind

01. Battle
02. God-Like
03. Certifiable
04. Burn You Down / To Ashes
05. Let Me Shut That For You
06. Bold Face Pagan Stomp
07. Feeding Frenzy
08. The Cleansing
09. The Morning After / Private Bleeding
10. Cold, Hard Fact
11. Cornucopia
12. Tyrant
13. Killogy


1997: From The Underground And Below

01. It Lives
02. Save Me
03. Long Time Dyin'
04. Genocya
05. Half Past Dead
06. F.U.C.T.
07. I'm Alright
08. The Rip N' Tear
09. Promises
10. Little Bit O' Murder


1999: Necroshine

01. Necroshine
02. My December
03. Let Us Prey
04. 80 Cycles
05. Revelation
06. Stone Cold Jesus
07. Forked Tongue Kiss
08. I Am Fear
09. Black Line
10. Dead Man


1999: Coverkill

01. Overkill
02. No Feelings
03. Hymn 43
04. Changes
05. Space Truckin'
06. Deuce
07. Never Say Die
08. Death Tone
09. Cornucopia
10. Tyrant
11. Ain't Nothin' To Do
12. I'm Against It


2000: Bloodletting

01. Thunderhead
02. Bleed Me
03. What I'm Missin'
04. Death Comes Out To Play
05. Let It Burn
06. I, Hurricane
07. Left Hand Man
08. Blown Away
09. My Name Is Pain
10. Can't Kill A Dead Man


2002: Hello From The Gutter

Cd1:

01. Hello From The Gutter (Live)
02. Necroshine
03. God-Like
04. Powersurge (Live)
05. Never Say Die
06. Coma (Live)
07. The Rip N'Tear
08. Battle
09. Electro Violence (Live)
10. Thunderhead
11. Overkill
12. Fuck You

Cd2:

01. Rotten To The Core
02. Bleed Me
03. Long Time Dyin'
04. Fatal If Swallowed
05. Elimination (Live)
06. Black Line
07. Overkill
08. World Of Hurt (Live)
09. Hammerhead
10. Skullcrusher (Live)
11. Kill At Command
12. Bastard Nation (Live)


2002: Wrecking Everything: Live

01. Necroshine
02. Thunderhead
03. Evil Never Dies
04. Deny The Cross
05. I Hate
06. Shred
07. Bleed Me)
08. Long Time Dyin'
09. It Lives
10. Battle
11. The Years Of Decay
12. In Union We Stand
13. Overkill


2003: Killbox 13

01. Devil By The Tail
02. Damned
03. No Lights
04. The One
05. Crystal Clear
06. The Sound Of Dying
07. Until I Die
08. Struck Down
09. Unholy
10. I Rise


2005: RelixIV

01. Within Your Eyes
02. Love
03. Loaded Rack
04. Bats In The Belfry
05. A Pound Of Flesh
06. Keeper
07. Wheelz
08. The Mark
09. Play The Ace
10. Old School


2007: Immortalis

01. Devils In The Mist
02. What It Takes
03. Skull And Bones
04. Shadow Of A Doubt
05. Hellish Pride
06. Walk Through Fire
07. Head On
08. Chalie Get Your Gun
09. Hell Is
10. Overkill V...The Brand


2015: Historikill (Bonus CD)

01. Blood Money (Demo)
02. Horrorscore (Demo)
03. Soulitude (Demo)
04. Killogy (Demo)
05. Old School (Remix)
06. Skull And Bones (Remix)
07. Under One (Tracking Mix)
08. Man In Black (Johnny Cash cover)
******************************
Total playing time: 11:20:24

Official Web

[more=Extended info]1 FLAC Archive for Album (Flac, Cue, Log)


Album 1 : Wrecking Your Neck: Live (753,9mb)




Album 2 : The Killing Kind (454,3mb)




Album 3 : From The Underground And Below (396,2mb)




Album 4 : Necroshine (422,08mb)




Album 5 : Coverkill (354,4mb)




Album 6 : Bloodletting (416,7mb)




Album 7 : Hello From The Gutter (768,4mb)




Album 8 : Wrecking Everything: Live (550,3mb)




Album 9 : Killbox 13 (412,6mb)




Album 10 : RelixIV (402,5mb)




Album 11 : Immortalis (387mb)




Album 12 : Historikill (Bonus CD) (272mb)

[/more]

Register
(1) avkruchinin,
Feb 15 2016, 17:37:58 Imperial Age - Warrior Race (2016)


*Artist: Imperial Age
*Album: Warrior Race
*Year: 2016
*Genre: Symphonic Metal
*Country: Russian Federation
*Format: mp3@CBR320kbps
*Size: 140MB

Tracklist:
1. Anthem Of Valour
2. Aryavarta
3. Warrior Race
4. To Mega Therion
5. Death Guard
6. Battle Heart
7. Vanaheim
8. Time of Virginity II
9. Turn The Sun Off!
******************************
Total playing time: 1:00:17



Preview 3

[more=Extended info]I put this album here and not that re release in the old post from 2014 because they say that is a new release. Can check in your facebook. If not

Songs:
1. Anthem Of Valour (Guests: F. Lione (Rhapsody Of Fire), D. Brzozowski (Dimmu Borgir, Vesania))
2. Aryavarta (Guests: V. Reshetnikov (Arkona))
3. Warrior Race (Guests: F. Lione (Rhapsody Of Fire), D. Brzozowski (Dimmu Borgir, Vesania), S. Lazar (Arkona))
4. To Mega Therion (Guests: D.Brzozowski (Dimmu Borgir, Vesania))
5. Death Guard
6. Battle Heart (Guests: F. Lione (Rhapsody Of Fire), S. Lazar (Arkona), V. Reshetnikov (Arkona))
7. Vanaheim (Guests: F. Lione (Rhapsody Of Fire), D. Brzozowski (Dimmu Borgir, Vesania))
8. Time of Virginity II
9. Turn The Sun Off! (Recorded live in Moscow 19.02.2015)

Alexander "Aor" Osipov - keys, back vox, music, lyrics
Jane "Corn" Odintsova - keys, back vox
Alexandra Sidorova - lead vocals
Dmitry "Dok" Rukhadze - bass, screams
Dmitry Kovalev - drums
Alexander Strelnikov - lead guitar
Igor "Kiv" Korolev - rhythm guitar[/more]

[more=Technical info]
Input File: 03. Warrior Race.mp3
Channels : 2
Sample Rate : 44100
Precision : 16-bit
Duration : 00:04:56.52 = 13076532 samples = 22239 CDDA sectors
File Size : 12.2M
Bit Rate : 329k
Sample Encoding: MPEG audio (layer I, II or III)
Comments :
Title=Warrior Race
Artist=Imperial Age
Album=Warrior Race
Tracknumber=03/09
Year=2016

[/more]

Register
(10) 0x13, Alpha_Prime, Cartman223, csgmnk, gwynnbleid, Mogozoz, Rosen, spieprzaj, varlam4, wreak,
Feb 15 2016, 14:14:42 1917 - Brutal Miserable Drama (2010)
Mirror

Register
(2) metala, morbidangelo,
Feb 15 2016, 13:54:41 Pogrom - Dominor Pactum (2013)
Register
(2) DarkHorde, varlam4,
Feb 15 2016, 13:43:51 Man In Pain - El Juicio Comenzó (2011)


*Artist: Man In Pain
*Album: El Juicio Comenzó
*Year: 2011
*Genre: Heavy Metal
*Country: Argentina
*Format: mp3@CBR256kbps
*Size: 69MB

Tracklist:
1. Fabricas de muerte 04:52
2. El juicio comenzó 04:28
3. Gran metal 04:29
4. Himno de lucha 04:51
5. Llanto de espadas 05:36
6. Sin ver el sol 04:37
7. Venganza 04:33
8. Battle Hymn (Manowar cover) 07:16
******************************
Total playing time: 40:42



Register
(4) morbidangelo, Rosen, varlam4, wreak,
Feb 13 2016, 14:25:28 Pogrom - Colossus (2015)


*Artist: Pogrom
*Album: Colossus
*Year: 2015
*Genre: Death Metal
*Country: Argentina
*Format: mp3@CBR320kbps
*Size: 84MB

Tracklist:
Disc 1:
1. Supremacía 06:36
2. Distopia 03:42
3. Ergastulum 04:41
4. Insurgente 06:00
5. Clandestinos 04:49
6. Desaparecido 04:25
7. Doctrina 03:32
8. Crimental 05:25
9. Colossus 02:56
******************************
Total playing time: 1:21:44




[more=Extended info]Disc 2 is a remastered edition of the Trotz Periode, their first full lenght. Will try to add shortly.

This is a really good band of Death Metal from Salta city, Argentina.

Dario Ordoñez Guitars
Federico Solano Guitars
Fernando Navas Bass, Vocals
Franco Espinoza Drums[/more]

[more=Technical info]
Input File: 08 crimental.mp3
Channels : 2
Sample Rate : 44100
Precision : 16-bit
Duration : 00:05:23.64 = 14272524 samples = 24273 CDDA sectors
File Size : 12.9M
Bit Rate : 320k
Sample Encoding: MPEG audio (layer I, II or III)
Comments :
Title=crimental
Artist=pogrom
Album=colossus
Tracknumber=8
Genre=death metal

[/more]

Register
(16) AHBAnep, andreikun, Buregon, DarkHorde, Darkthronefoad, infiltrator, metala, MMMMM, morbidangelo, Rosen, SyncestrA, VALERY, varlam4, vyacheslav, wreak, Герб,
Feb 13 2016, 13:40:31 Vrede - 2$ [demo] (1994)


*Artist: Vrede
*Album: 2$ [demo]
*Year: 1994
*Genre: Thrash/Groove Metal
*Country: Argentina
*Format: mp3@CBR128kbps
*Size: 38MB

Tracklist:
1. Lejos 02:43
2. Desaparecer 02:34
3. Seis 02:27
4. Última mano 02:27
5. Prisión de lluvia 03:04
6. The Fluid... 03:05
7. El guía 02:35
******************************
Total playing time: 18:55



[more=Extended info]Claudio Bass, Vocals (backing)
Gonzalo Drums, Vocals (backing)
Hernán Guitars, Vocals (backing)
Gabriel Vocals[/more]

Register
(4) Corpuscul, MeathookSeed, METALHUNTER, Rosen,
Feb 12 2016, 20:14:48 Masterplan - Spirit Never Die (Jараnеse Еditiоn) [bootleg] (2016)


*Artist: Masterplan
*Album: Spirit Never Die (Jараnеse Еditiоn) [bootleg]
*Year: 2016
*Genre: Power Metal
*Country: Germany
*Format: mp3@CBR320kbps
*Size: 158MB

Tracklist:
01. Spirit Never Die
02. Crystal Night
03. Wounds
04. Black Night Of Magic
05. Lonely Winds Of War
06. I’m Gonna Win
07. Watching The World
08. The Black One
09. Fiddle Of Time
10. Kind Hearted Light
11. The Game
12. Time To Be King
13. Heroes
14. Crawling From Hell
15. Sail On
******************************
Total playing time: 1:06:58

[more=Extended info]Roland Grapow - Guitars
Rick Altzi - Vocals
Axel Mackenrott - Keyboards
Jari Kainulainen - Bass
Kevin Kott and Martin Skaroupka - Drums[/more]

[more=Technical info]
Input File: 02. Crystal Night.mp3
Channels : 2
Sample Rate : 44100
Precision : 16-bit
Duration : 00:05:16.72 = 13967484 samples = 23754.2 CDDA sectors
File Size : 12.8M
Bit Rate : 323k
Sample Encoding: MPEG audio (layer I, II or III)
Comments :
Title=Crystal Night
Artist=Masterplan
Album=Spirit Never Die
Year=2016
Genre=Heavy / Power Metal

[/more]

Register
(5) Reverend, Rosen, varlam4, wn129aa, wreak,
Feb 12 2016, 18:44:53 Hollow Illusion - Hollow Illusion (2016)


*Artist: Hollow Illusion
*Album: Hollow Illusion
*Year: 2016
*Genre: Hard Rock/Heavy Metal
*Country: Norway
*Format: mp3@CBR320kbps
*Size: 82MB

Tracklist:
01. Mercury Rising
02. God of Rock
03. Lights Go Down
04. I Don’t Care
05. Now or Never
06. Mountain on Solid Ground
07. Can’t Stand Still
08. Rain
09. Fighter
10. Voodoo Medicine Man
11. Come Back
******************************
Total playing time: 38:51



[more=Extended info]Vocal: Magnus Mikkelsen Hoel
Bass: Ove Mikkelsen Hoel[/more]

[more=Technical info]
Input File: 04. I Don\\\'t Care.mp3
Channels : 2
Sample Rate : 44100
Precision : 16-bit
Duration : 00:03:19.86 = 8813738 samples = 14989.4 CDDA sectors
File Size : 8.15M
Bit Rate : 326k
Sample Encoding: MPEG audio (layer I, II or III)
Comments :
Title=I Don't Care
Artist=Hollow Illusion
Album=Hollow Illusion
Tracknumber=4
Year=2016
Genre=Hard & Heavy

[/more]

Register
(7) avkruchinin, infiltrator, metala, Mogozoz, Rosen, varlam4, wreak,
Feb 12 2016, 18:01:32 Certera - Hoy En Dia [demo] (1996)


*Artist: Certera
*Album: Hoy En Dia [demo]
*Year: 1996
*Genre: Thrash Metal
*Country: Argentina
*Format: mp3@CBR320kbps
*Size: 46MB

Tracklist:
1. Vivir y Dejar Vivir
2. Hoy en Día
3. Visiones de Libertad
4. El Favor Americano
5. Otro Desvelo del Pensante
6. Mientras Espero Justicia
7. Un Cambio en la Rueda
******************************
Total playing time: 22:47



[more=Extended info]This is a Cassette rip. Maybe should go on low bitrate, I'm not sure, the rip was 320 but the spectrogram seems to say otherwise.

Pipa (voz y guitarra)
Negro (guitarra)
Alemán (bajo)
Kato (bateria)[/more]

[more=Technical info]
Input File: 02-Hoy en D?a.mp3
Channels : 2
Sample Rate : 44100
Precision : 16-bit
Duration : 00:03:48.00 = 10054756 samples = 17099.9 CDDA sectors
File Size : 9.12M
Bit Rate : 320k
Sample Encoding: MPEG audio (layer I, II or III)
Comments :
Title=02-Hoy en DГ­a
Artist=Certera
Album=Hoy En DГ­a
Tracknumber=02
Year=1996
Genre=Metal

[/more]

Register
(7) Evilded, metala, METALHUNTER, morbidangelo, Rosen, varlam4, wreak,
Feb 12 2016, 17:32:16 Certera - Sagrada Corrupcion [demo] (1995)


*Artist: Certera
*Album: Sagrada Corrupcion [demo]
*Year: 1995
*Genre: Thrash Metal
*Country: Argentina
*Format: mp3@CBR128kbps
*Size: 25MB

Tracklist:
1. Incontenible Insurrección
2. Sagrada Corrupción
3. Desorden Irracional
4. Destructiva Obsesión
5. Manipulación Genética
6. Abismo Social
******************************
Total playing time: 28:06



[more=Extended info]Pipa (voz y guitarra)
Negro (guitarra)
Alemán (bajo)
Kato (bateria)[/more]

Register
(6) Corpuscul, Evilded, metala, METALHUNTER, Rosen, varlam4,
Feb 11 2016, 20:07:11 Sovereign - The Wolf (2002)
Register
(3) abob, acerbus, thenecromancer,
Feb 10 2016, 21:09:28 Deceased - Surreal Overdose (2011)
Register
(1) kolar666,
Feb 10 2016, 19:38:15 Doblegador - Se Iran Dos Quemando Vol. II [demo] (2012)
Register
(1) METALHUNTER,
Feb 10 2016, 17:48:35 Incantation - Dirges Of Elysium (2014)
Register
(5) Aresson, DMIYUR, Narasimha, Necroeire, zlvd,
Feb 10 2016, 02:42:31 Deceased - Supernatural Addiction (2000)
Register
(5) cancer1974, Deadhammer, varlam4, VTX, zlvd,
Feb 9 2016, 17:42:00 Various Artists - The Plague Inside – A Tribute To Paradise Lost [best of/compilation] (2016)


*Artist: Various Artists
*Album: The Plague Inside – A Tribute To Paradise Lost [best of/compilation]
*Year: 2016
*Genre: Doom/Death/Gothic Metal
*Country: United Nations
*Format: flac
*Size: 644MB

Tracklist:
Cd1 
01. Egonaut (Sweden) – Pity The Sadness 
02. The Equinox Ov The Gods (Sweden) Isolate 
03. Ennui (Georgia) – True Belief 
04. Martyre (Mexico) – Say Just Words 
05. Darkend (Italy) – Colossal Rains 
06. Cemetery Of Scream & Elint (Poland) Gothic 
07. The Eyes Of Desolation (Costa Rica) – Hallowed Land 
08. April Weeps (Slovakia) Shine 
09. Lapsus Dei (Chile) Enchantment 

Cd2 
01. Enclave Of Dreams (Russia) – Don’t Belong 
02. Little Dead Bertha (Russia) – Forever Failure 
03. Adfail (Russia) – Tragic Idol 
04. Mental Home (Russia) Medley 
05. Grenouer (Russia) – Red Shift 
06. Dominia (Russia) Gothic 
07. Svartstorm (Russia) – Hallowed Land 
08. Alkonost (Russia) Mouth 
09. Vorongrai (Russia) – Say Just Words
******************************
Total playing time: 1:26:52


Preview 2

[more=Extended info]FLAC (image+.cue+log) + Scans[/more]

Register
(5) as71, dm_372761, Groln, Raven Gris, Zenial,
Feb 9 2016, 01:14:35 Various Artists - The Plague Inside – A Tribute To Paradise Lost [best of/compilation] (2016)


*Artist: Various Artists
*Album: The Plague Inside – A Tribute To Paradise Lost [best of/compilation]
*Year: 2016
*Genre: Doom/Death/Gothic Metal
*Country: United Nations
*Format: flac
*Size: 644MB

Tracklist:
CD1
01. EGONAUT (Sweden) – Pity The Sadness
02. THE EQUINOX OV THE GODS (Sweden) Isolate
03. ENNUI (Georgia) – True Belief
04. MARTYRE (Mexico) – Say Just Words
05. DARKEND (Italy) – Colossal Rains
06. CEMETERY OF SCREAM & ELINT (Poland) Gothic
07. THE EYES OF DESOLATION (Costa Rica) – Hallowed Land
08. APRIL WEEPS (Slovakia) Shine
09. LAPSUS DEI (Chile) Enchantment

CD2
01. ENCLAVE OF DREAMS (Russia) – Don’t Belong
02. LITTLE DEAD BERTHA (Russia) – Forever Failure
03. ADFAIL (Russia) – Tragic Idol
04. MENTAL HOME (Russia) Medley
05. GRENOUER (Russia) – Red shift
06. DOMINIA (Russia) Gothic
07. SVARTSTORM (Russia) – Hallowed Land
08. ALKONOST (Russia) Mouth
09. VORONGRAI (Russia) – Say Just Words
******************************
Total playing time: 1:26:52


Preview 2

[more=Extended info]FLAC (image+.cue+log) + Scans[/more]

Register
(4) Cartman223, Lightbringer, Old Vyaine, Stringer,
Feb 8 2016, 19:47:46 Warskull & Evig Hat & Other World - Ghosts Of Dejection [split] (2015)


*Artist: Warskull & Evig Hat & Other World
*Album: Ghosts Of Dejection [split]
*Year: 2015
*Genre: Atmospheric Black Metal | Black Metal | Atmospheric Black Metal
*Country: Norway | Norway | United States
*Format: mp3@CBR320kbps
*Size: 137MB

Tracklist:
Warskull:
1. Suicide is a permanent solution (To temporary problems) 01:16 instrumental
2. As a Sudden Death in the Family 08:41
3. The Lifespan of a Shooting Star 06:50
4. The Lifespan of a Shooting Star Part II 04:41 instrumental
Evig Hat:
5. Beyond the Realm of Humanity 12:52
6. The Eyes of Eternity 10:05
Other World:
7. Crippled Souls 03:30
8. A White Flower for Death 07:05
9. Dimension Dementia 04:46
******************************
Total playing time: 59:46





[more=Technical info]
Input File: 03. The Lifespan of a Shooting Star.mp3
Channels : 2
Sample Rate : 48000
Precision : 16-bit
Duration : 00:06:50.43 = 19700496 samples ~ 30782 CDDA sectors
File Size : 16.4M
Bit Rate : 320k
Sample Encoding: MPEG audio (layer I, II or III)
Comments :
Title=The Lifespan of a Shooting Star
Artist=Warskull
Album=Ghosts of Dejection (Split)
Tracknumber=3
Year=2015
Genre=Atmospheric Black Metal

[/more]

Register
(12) artscald, cancer1974, ddarkthrone, metaljinie, Rosen, RUSP73, satanist666, Sjelekval, tont, varlam4, vasiljev_sergej, Wotanwatch,
Feb 8 2016, 17:48:55 Toxikull - Black Sheep (2016)
Register
(2) eliometal, hammer,
Feb 8 2016, 17:46:43 Unleashed - Dawn Of The Nine (2015)
320 kbps

Register
(3) Barbiturat, cuimit1349, Konst,

4 Pages V   1 2 3 > » 
- Lo-Fi Version Support form
Copyrights and abuse reports form
Time is now: 17th November 2019 - 08:02:35