Welcome Guest ( Log In | Register )

История благодарностей участнику smysl ::: Спасибо сказали: 104860 раз(а)
Дата поста: В теме: За сообщение: Спасибо сказали:
Jan 27 2022, 21:17:16 Redimoni & Graveyard - The Procession Of The Gravedemons - The Ultimate Profanation [split] (2014)


*Artist: Redimoni & Graveyard
*Album: The Procession Of The Gravedemons - The Ultimate Profanation [split]
*Year: 2014
*Genre: Thrash Metal | Death Metal
*Country: Spain | Spain
*Format: mp3@CBR320kbps
*Size: 25MB

Tracklist:
Redimoni:
1.Annihilate Without Mercy 02:25
2.Mesmerized by Fire 02:25
Graveyard:
3.Into the Mausoleum 05:34
******************************
Total playing time: 10:24





[more=Technical info]
Input File: 01 REDIMONI - Annihilate Without Mercy.mp3
Channels : 2
Sample Rate : 44100
Precision : 16-bit
Duration : 00:02:25.28 = 6406760 samples = 10895.9 CDDA sectors
File Size : 5.92M
Bit Rate : 326k
Sample Encoding: MPEG audio (layer I, II or III)
Comments :
Title=Annihilate Without Mercy
Artist=REDIMONI
Album=The Procession of the Gravedemons / The Ultimate Profanation
Tracknumber=1
Year=2014
Genre=Metal

[/more]

Register
(5) smes, stumpheavyrock, Taakeferd, varlam4, Wail,
Jan 26 2022, 20:59:18 Witchaven - Tower Of Conviction [ep] (2019)


*Artist: Witchaven
*Album: Tower Of Conviction [ep]
*Year: 2019
*Genre: Black/Thrash Metal
*Country: United States
*Format: mp3@CBR320kbps
*Size: 39MB

Tracklist:
1. Behind Cold Eyes 03:45
2. Tower of Conviction 04:17
3. Hyperion 02:11
4. Tortured Life 03:02
5. Mental Break 03:04
******************************
Total playing time: 16:19


Preview 2
Preview 3
Spotify

[more=Technical info]
Input File: 02 Tower of Conviction.mp3
Channels : 2
Sample Rate : 44100
Precision : 16-bit
Duration : 00:04:17.43 = 11352575 samples = 19307.1 CDDA sectors
File Size : 10.4M
Bit Rate : 324k
Sample Encoding: MPEG audio (layer I, II or III)
Comments :
Title=Tower of Conviction
Artist=Witchaven
Album=Tower of Conviction
Tracknumber=2
Year=2019
Genre=Black/Thrash Metal

[/more]

Register
(13) AHBAnep, artscald, boby9052, canadaspaceman, Golfzilla, sergsazan, SilentNidhogg, stumpheavyrock, Taakeferd, thrashiac55, varlam4, wanderer73, wgs73,
Jan 23 2022, 17:31:57 Asphyx - Death The Brutal Way [single] (2008)
Asphyx - Death The Brutal Way [single] (2008) CBR320kbps

Register
(1) Occultas,
Jan 16 2022, 19:33:57 Funeral Winds - Sekhmet [ep] (2015)
CBR320kbps

Register
(2) gena, thenecromancer,
Jan 16 2022, 04:50:37 Erhabenheit & Wolfsschrei - Erhabenheit/Wolfsschrei [split] (2007)
CBR320kbps

Register


Register
(3) kefka, rickzammuto, varlam4,
Jan 15 2022, 22:25:19 Korgonthurus - Tapa Itsesi [ep] (2010)
CBR320kbps

Register
(2) milosdjor, varlam4,
Jan 15 2022, 22:23:08 Dødsferd - Another Two Of Your Scars And The World Is Dead [ep] (2010)
CBR320kbps

Register
(1) varlam4,
Jan 15 2022, 16:55:07 Hellgarden - Lucifer's Lament [ep] (2014)


*Artist: Hellgarden
*Album: Lucifer's Lament [ep]
*Year: 2014
*Genre: Symphonic Black Metal
*Country: Chile
*Format: flac
*Size: 201MB

Tracklist:
1. Intro - The Possession 01:30
2. The Dark Dream 06:57
3. A Cry in the Shadows (Lucifer's Lament) 05:43
4. The Lament of the Eternal Times 05:37
5. Hellgarden 04:46
6. Outro - The Sect 01:07
******************************
Total playing time: 25:40




Register
(5) artscald, kim666, Sanctus, sergsazan, varlam4,
Jan 15 2022, 16:01:40 Hellgarden - The Secret Of The Alchemist (2018)
CBR320kbps

Register


Register


FLAC

Register


Register
(1) varlam4,
Jan 15 2022, 00:46:19 Dim Aura - R.U.S.T. [ep] (2011)
Dim Aura - R.U.S.T. [ep] (2011) mp3@CBR320kbps

Register


Register
(2) rickzammuto, varlam4,
Jan 15 2022, 00:19:02 Dim Aura - The Negation Of Existence (2013)


*Artist: Dim Aura
*Album: The Negation Of Existence
*Year: 2013
*Genre: Black Metal
*Country: Israel
*Format: mp3@CBR320kbps
*Size: 105MB

Tracklist:
1.Gods of the Undying Darkness 05:57
2.The Golden Tombs 04:46
3.Scarred Flesh Supremacy 04:55
4.Rev 17:5 07:21
5.Pissed and Infernal 05:18
6.Thus Negating All Existence 06:15
7.Black Aeon 06:09
8.Black Metal Genocide 04:33
******************************
Total playing time: 45:14





[more=Technical info]
Input File: 01 Gods of the Undying Darkness.mp3
Channels : 2
Sample Rate : 44100
Precision : 16-bit
Duration : 00:05:55.94 = 15696998 samples = 26695.6 CDDA sectors
File Size : 14.4M
Bit Rate : 323k
Sample Encoding: MPEG audio (layer I, II or III)
Comments :
Title=Gods of the Undying Darkness
Artist=Dim Aura
Album=The Negation of Existence
Tracknumber=1
Year=2013
Genre=Black Metal

[/more]

Register
(12) aleon, artscald, Carcharoth, caro, GorAtheist, kim666, Olethros, SilentNidhogg, stormhatt, supremo, VALERY, varlam4,
Jan 14 2022, 20:59:43 Hexvessel - Earth Over Us [ep] (2015)


*Artist: Hexvessel
*Album: Earth Over Us [ep]
*Year: 2015
*Genre: Psychedelic Neofolk
*Country: Finland
*Format: mp3@CBR320kbps
*Size: 27MB

Tracklist:
1.Earth Over Us 03:26
2 Gaia 06:13
******************************
Total playing time: 9:39



[more=Technical info]
Input File: 02 Gaia.mp3
Channels : 2
Sample Rate : 44100
Precision : 16-bit
Duration : 00:06:13.55 = 16473467 samples = 28016.1 CDDA sectors
File Size : 15.0M
Bit Rate : 321k
Sample Encoding: MPEG audio (layer I, II or III)
Comments :
Title=Gaia
Artist=Hexvessel
Album=Earth Over Us
Tracknumber=2
Year=2015
Genre=Folk

[/more]

Register
(5) Cartman223, gena, squall8fr, trabantfan, yuratroll,
Jan 14 2022, 20:31:57 Pyre & Interment - There Is No Redemption At The Gates Of Wrath [split] (2016)


*Artist: Pyre & Interment
*Album: There Is No Redemption At The Gates Of Wrath [split]
*Year: 2016
*Genre: Death Metal | Death Metal
*Country: Russian Federation | Sweden
*Format: mp3@CBR320kbps
*Size: 30MB

Tracklist:
Pyre:
1.At the Repulsive Gates 03:54
Interment:
2.Drenched in Blood 04:30
******************************
Total playing time: 8:24





[more=Technical info]
Input File: 01 Pyre - At The Repulsive Gates.mp3
Channels : 2
Sample Rate : 44100
Precision : 16-bit
Duration : 00:03:54.60 = 10345640 samples = 17594.6 CDDA sectors
File Size : 9.72M
Bit Rate : 332k
Sample Encoding: MPEG audio (layer I, II or III)
Comments :
Title=At The Repulsive Gates
Artist=Pyre
Album=There Is No Redemption at the Gates of Wrath
Tracknumber=1
Year=2016
Genre=Death Metal

[/more]

Register
(13) AHBAnep, artscald, BERZERK, caro, igore2911, Lanceatum, Marek, Occultas, smes, stumpheavyrock, VALERY, varlam4, wanderer73,
Jan 14 2022, 19:38:48 Dim Aura - Negged [ep] (2017)


*Artist: Dim Aura
*Album: Negged [ep]
*Year: 2017
*Genre: Black Metal
*Country: Israel
*Format: mp3@CBR320kbps
*Size: 46MB

Tracklist:
1. Dreams of Pestilence and Doom 06:45
2. The Cutthroat Axiom 05:56
3. Marian (Sisters Of Mercy cover) (Bonus Track) 07:12
******************************
Total playing time: 19:53




[more=Technical info]
Input File: 01 Dreams of Pestilence and Doom.mp3
Channels : 2
Sample Rate : 44100
Precision : 16-bit
Duration : 00:06:46.02 = 17905482 samples = 30451.5 CDDA sectors
File Size : 16.4M
Bit Rate : 323k
Sample Encoding: MPEG audio (layer I, II or III)
Comments :
Title=Dreams of Pestilence and Doom
Artist=Dim Aura
Album=Negged
Tracknumber=1
Year=2017
Genre=Black Metal

[/more]

Register
(12) aleon, artscald, Carcharoth, caro, dermarsoran, GorAtheist, kim666, Olethros, SilentNidhogg, stormhatt, VALERY, varlam4,
Jan 14 2022, 18:05:00 Midnight & Shitfucker - Midnight/Shitfucker [split] (2015)


*Artist: Midnight & Shitfucker
*Album: Midnight/Shitfucker [split]
*Year: 2015
*Genre: Black/Speed Metal | Black/Thrash Metal
*Country: United States | United States
*Format: mp3@CBR320kbps
*Size: 23MB

Tracklist:
1. Midnight - Sadist Sodomystic Seducer 02:12
2. Shitfucker - Nightmare (pt. 2) 03:48
******************************
Total playing time: 6:00




[more=Technical info]
Input File: 02 Shitfucker - Nightmare (pt. 2).mp3
Channels : 2
Sample Rate : 44100
Precision : 16-bit
Duration : 00:03:48.35 = 10070323 samples = 17126.4 CDDA sectors
File Size : 9.21M
Bit Rate : 323k
Sample Encoding: MPEG audio (layer I, II or III)
Comments :
Title=Nightmare, Pt. 2
Artist=Shitfucker
Album=Midnight / Shitfucker
Tracknumber=2
Year=2015
Genre=Metal

[/more]

Register
(8) artscald, Asketto, caro, Lanceatum, stumpheavyrock, VALERY, varlam4, Wail,
Jan 10 2022, 20:12:45 Deathrow - A Monument Of Sorrow [ep] (2017)


*Artist: Deathrow
*Album: A Monument Of Sorrow [ep]
*Year: 2017
*Genre: Black Metal
*Country: Italy
*Format: mp3@CBR320kbps
*Size: 69MB

Tracklist:
1.Neverending Rain 04:48
2.When Trumpets Of Death Sound Triumphant 06:17
3.He, The Destroyer 04:31
4.Far Away From Paradise 05:18
5.One By One 04:12
6.The Silent Stranger 04:29
******************************
Total playing time: 29:35




[more=Technical info]
Input File: 01 Neverending Rain.mp3
Channels : 2
Sample Rate : 44100
Precision : 16-bit
Duration : 00:04:48.23 = 12710855 samples = 21617.1 CDDA sectors
File Size : 11.8M
Bit Rate : 327k
Sample Encoding: MPEG audio (layer I, II or III)
Comments :
Title=Neverending Rain
Artist=Deathrow
Album=A Monument Of Sorrow EP
Tracknumber=1
Year=2017
Genre=Black Metal

[/more]

Register
(12) artscald, autumnwood, caro, kim666, NathanSS, Olethros, sacrut, SilentNidhogg, stormhatt, VALERY, varlam4, Wotanwatch,
Jan 10 2022, 20:07:08 Deathrow - Like A Lion Devouring The Sun [ep] (2016)


*Artist: Deathrow
*Album: Like A Lion Devouring The Sun [ep]
*Year: 2016
*Genre: Black Metal
*Country: Italy
*Format: mp3@CBR320kbps
*Size: 37MB

Tracklist:
1.Intro 01:35
2.The Bottomless Pit Of Anger 04:09
3.Pact To Dissolution 06:26
******************************
Total playing time: 12:10




[more=Technical info]
Input File: 02 The Bottomless Pit Of Anger.mp3
Channels : 2
Sample Rate : 44100
Precision : 16-bit
Duration : 00:04:09.51 = 11003479 samples = 18713.4 CDDA sectors
File Size : 10.1M
Bit Rate : 323k
Sample Encoding: MPEG audio (layer I, II or III)
Comments :
Title=The Bottomless Pit Of Anger
Artist=Deathrow
Album=Like A Lion Devouring The Sun EP
Tracknumber=2
Year=2016
Genre=Black Metal

[/more]

Register
(10) artscald, caro, kim666, NathanSS, Olethros, SilentNidhogg, stormhatt, VALERY, varlam4, Wotanwatch,
Jan 8 2022, 20:38:33 Legion Of Doom - Ceremony Of Domination [compilation] (2018)


*Artist: Legion Of Doom
*Album: Ceremony Of Domination [compilation]
*Year: 2018
*Genre: Black Metal
*Country: Greece
*Format: mp3@CBR320kbps
*Size: 89MB

Tracklist:
1. L' Entite Noire 05:47
2. A Sickle Like an Emblem 06:09
3. The Tyrant With the Seven Heads 06:45
4. Art Occulta 05:34
5. Thou Art of Blood 04:44
6. Spinning Galaxies 02:06
7. Chariots of Thunder 04:36
8. A Warriors Death 03:26
******************************
Total playing time: 39:07

[more=Technical info]
Input File: 01 L\' Entite Noire.mp3
Channels : 2
Sample Rate : 44100
Precision : 16-bit
Duration : 00:05:47.74 = 15335246 samples = 26080.4 CDDA sectors
File Size : 14.0M
Bit Rate : 321k
Sample Encoding: MPEG audio (layer I, II or III)
Comments :
Title=L' Entite Noire
Artist=Legion of Doom
Album=Ceremony of Domination
Tracknumber=1
Year=2019
Genre=Black Metal

[/more]

Register
(24) andivi, artscald, Carcharoth, caro, Hell_Is_Here, kefka, kim666, Mencae77, Occultas, Olethros, rammmirez, Reverend, SilentNidhogg, smes, stormhatt, stumpheavyrock, Stutthof, supremo, Taakeferd, thenecromancer, VALERY, varlam4, Victim of fate, Witchmaster,
Jan 7 2022, 22:20:51 Hate Forest - Resistance [ep] (2004)
Hate Forest - Resistance [ep] (2004) mp3@CBR320kbps

Register
(4) Occultas, thenecromancer, varlam4, wreak,
Jan 7 2022, 20:35:51 Hate Forest & Legion Of Doom - Split [split] (2008)
Hate Forest & Legion Of Doom - Split [split] (2008) mp3@CBR320kbps

Register
(1) varlam4,
Jan 7 2022, 19:00:56 Legion Of Doom - Chariots Of Thunder [ep] (2005)
Legion Of Doom - Chariots Of Thunder [ep] (2004) mp3@CBR320kbps

Register
(4) kim666, Occultas, varlam4, wreak,
Jan 2 2022, 19:17:53 Obolus - Demo [demo] (2011)
mp3@CBR320kbps

Register
(2) aleon, varg-38ru,
Jan 1 2022, 03:24:28 Isänmaa - Yli Peltojen, Vetten Ja Tunturien [best of/compilation] (2010)
Isänmaa - Yli Peltojen, Vetten Ja Tunturien mp3@CBR320kbps

Register
(2) kim666, wreak,
Dec 31 2021, 21:09:51 Holy Grail - Seasons Bleedings [ep] (2011)
ЦИТАТА(wolfskaiser @ 31st December 2021 - 17:37:01) *
Смысл, куда пропал? ровные же релизы были


Я тут не куда не пропадал. Сейчас совсем нет времени на добавление релизов.
(1) wolfskaiser,
Dec 30 2021, 16:30:31 Holy Grail - Seasons Bleedings [ep] (2011)


*Artist: Holy Grail
*Album: Seasons Bleedings [ep]
*Year: 2011
*Genre: Heavy Metal
*Country: United States
*Format: mp3@CBR320kbps
*Size: 47MB

Tracklist:
1. No Presents for Christmas (King Diamond cover) 04:04
2. Kill the King (Rainbow cover) 04:36
3. Exciter (Judas Priest cover) (Bonus Track) 04:11
4. Faster as a Shark (Accept cover) (Bonus Track) 03:45
******************************
Total playing time: 16:36


Spotify

[more=Technical info]
Input File: 01 No Presents for Christmas (King Diamond cover).mp3
Channels : 2
Sample Rate : 44100
Precision : 16-bit
Duration : 00:04:03.74 = 10748890 samples = 18280.4 CDDA sectors
File Size : 9.85M
Bit Rate : 323k
Sample Encoding: MPEG audio (layer I, II or III)
Comments :
Title=No Presents for Christmas (King Diamond cover)
Artist=Holy Grail
Album=Seasons Bleedings
Tracknumber=1
Year=2011
Genre=Heavy Metal

[/more]

Register
(13) after21allD, artscald, caro, gwar, Marek, Mogozoz, oldvarg, Olethros, refleks22, sergsazan, Taakeferd, varlam4, Wail,

265 Pages V   1 2 3 > » 
- Lo-Fi Version Support form
Copyrights and abuse reports form
Time is now: 29th January 2022 - 09:11:04