Welcome Guest ( Log In | Register )

История благодарностей участнику smysl ::: Спасибо сказали: 77118 раз(а)
Дата поста: В теме: За сообщение: Спасибо сказали:
Yesterday, 20:28:14 Gerrar - Gerrar [ep] (2021)


*Artist: Gerrar
*Album: Gerrar [ep]
*Year: 2021
*Genre: Black Metal
*Country: Romania
*Format: mp3@CBR320kbps
*Size: 41MB

Tracklist:
1.Despainos 03:58
2.Toluene 03:53
3.Backstab 03:08
4.Gangrenous 04:20
5.Encolden 02:23
******************************
Total playing time: 17:42



[more=Technical info]
Input File: 01 Despainos.mp3
Channels : 2
Sample Rate : 44100
Precision : 16-bit
Duration : 00:03:58.59 = 10521907 samples = 17894.4 CDDA sectors
File Size : 9.64M
Bit Rate : 323k
Sample Encoding: MPEG audio (layer I, II or III)
Comments :
Title=Despainos
Artist=Gerrar
Album=Gerrar
Tracknumber=1
Year=2021
Genre=Black Metal

[/more]

Register
(2) Marek, Taakeferd,
Yesterday, 20:18:02 Raptor - That Same Old Frustration [demo] (2019)


*Artist: Raptor
*Album: That Same Old Frustration [demo]
*Year: 2019
*Genre: Black Metal/Punk
*Country: Netherlands
*Format: mp3@CBR320kbps
*Size: 51MB

Tracklist:
1.Vexations 1 03:48
2.Vexations 2 02:17
3.Vexations 3 03:05
4.Vexations 4 02:41
5.Vexations 5 03:24
6.Vexations 6 02:10
7.Vexations 7 01:45
8.Vexations 8 03:02
******************************
Total playing time: 22:12



[more=Technical info]
Input File: 01 Vexations 1.mp3
Channels : 2
Sample Rate : 44100
Precision : 16-bit
Duration : 00:03:48.56 = 10079540 samples = 17142.1 CDDA sectors
File Size : 9.23M
Bit Rate : 323k
Sample Encoding: MPEG audio (layer I, II or III)
Comments :
Title=Vexations 1
Artist=Raptor
Album=That Same Old Frustration
Tracknumber=1
Year=2019
Genre=Black Metal

[/more]

Register
(1) Taakeferd,
Yesterday, 18:04:59 Torture Rack - Pit Of Limbs [ep] (2021)


*Artist: Torture Rack
*Album: Pit Of Limbs [ep]
*Year: 2021
*Genre: Old School Death Metal
*Country: United States
*Format: mp3@CBR320kbps
*Size: 24MB

Tracklist:
1.Cadaver Cum 01:10
2.Stairway to the Stench 01:34
3.Desperate Shriek of the Writhing Limbless Freak 00:40
4.Lord of the Massgrave 02:56
******************************
Total playing time: 6:20



[more=Technical info]
Input File: 01 Cadaver Cum.mp3
Channels : 2
Sample Rate : 44100
Precision : 16-bit
Duration : 00:01:10.64 = 3115180 samples = 5297.93 CDDA sectors
File Size : 3.08M
Bit Rate : 348k
Sample Encoding: MPEG audio (layer I, II or III)
Comments :
Title=Cadaver Cum
Artist=TORTURE RACK
Album=Pit of Limbs
Tracknumber=01
Year=2021
Genre=Death Metal

[/more]

Register
(11) Ambercandle, andreikun, grimoir, infiltrator, Marek, Olethros, sergsazan, Taakeferd, Tino, VALERY, Vidder242,
Yesterday, 16:41:28 Southern Spruce - Make Persia Great Again [single] (2021)


*Artist: Southern Spruce
*Album: Make Persia Great Again [single]
*Year: 2021
*Genre: Black Metal/Punk
*Country: Sweden
*Format: mp3@CBR320kbps
*Size: 23MB

Tracklist:
1.Make Persia Great Again 04:09
2.The Thief of Esfahan 03:27
******************************
Total playing time: 7:36



[more=Extended info]lineup:
Rytterson - Drums, Vocals (Slutet)
Livrädd - Guitars, Bass, Vocals (Slutet)[/more]

[more=Technical info]
Input File: 01 Make Persia Great Again.mp3
Channels : 2
Sample Rate : 44100
Precision : 16-bit
Duration : 00:04:09.80 = 11016136 samples = 18734.9 CDDA sectors
File Size : 10.1M
Bit Rate : 325k
Sample Encoding: MPEG audio (layer I, II or III)
Comments :
Title=Make Persia Great Again
Artist=Southern Spruce
Album=Make Persia Great Again (Single, 2021)
Tracknumber=1
Year=2021
Genre=Black Metal/Punk

[/more]

Register
(4) infiltrator, Olethros, Taakeferd, varlam4,
Yesterday, 16:19:38 Spornburg - Kreuzweg [ep] (2021)


*Artist: Spornburg
*Album: Kreuzweg [ep]
*Year: 2021
*Genre: Black Metal
*Country: Germany
*Format: mp3@CBR320kbps
*Size: 27MB

Tracklist:
1.Marter 03:19
2.Kreuzweg 04:02
3.Horla 03:59
******************************
Total playing time: 11:20




[more=Technical info]
Input File: 01 Marter.mp3
Channels : 2
Sample Rate : 44100
Precision : 16-bit
Duration : 00:03:19.67 = 8805359 samples = 14975.1 CDDA sectors
File Size : 8.08M
Bit Rate : 324k
Sample Encoding: MPEG audio (layer I, II or III)
Comments :
Title=Marter
Artist=Spornburg
Album=Kreuzweg
Tracknumber=1
Year=2021
Genre=Black Metal

[/more]

Register
(7) infiltrator, Marek, Olethros, Taakeferd, VALERY, varlam4, V_H_H_V,
Yesterday, 15:53:55 Visonfethacsis & Kur Extorquere & Imperator - Noche De La Carne Podrida: Ritual De Saturno [split] (2020)


*Artist: Visonfethacsis & Kur Extorquere & Imperator
*Album: Noche De La Carne Podrida: Ritual De Saturno [split]
*Year: 2020
*Genre: Raw Black Metal | Raw Black Metal | Raw Black Metal
*Country: Mexico | Mexico | Mexico
*Format: mp3@CBR320kbps
*Size: 116MB

Tracklist:
Visonfethacsis:
1.Chiara Mïştel Ęlį 06:31
2.Mûmsilerap Vmyrp Mucæv 05:12
3.Kâmrişltuo Ünhr Nàyb 06:01
Kur Extorquere:
4.Incinera 06:12
Imperator:
5.Scorn (Dopamine Underwhelment) 07:17
6.Mercury 07:49
7.Vulture 11:39
******************************
Total playing time: 50:41



[more=Technical info]
Input File: 03 VISONFETHACSIS - Kâmrişltuo Ünhr Nàyb.mp3
Channels : 2
Sample Rate : 44100
Precision : 16-bit
Duration : 00:06:01.22 = 15929714 samples = 27091.4 CDDA sectors
File Size : 14.5M
Bit Rate : 322k
Sample Encoding: MPEG audio (layer I, II or III)
Comments :
Title=Kâmrişltuo Ünhr Nàyb
Artist=VISONFETHACSIS
Album=Noche de la carne podrida: Ritual de Saturno
Tracknumber=3
Year=2020
Genre=Black Metal

[/more]

Register
(5) FUDEDOR, infiltrator, Taakeferd, VALERY, varlam4,
Yesterday, 00:20:04 White Snake Of Blackened Maze - By The Rivers Of Heresy (2020)


*Artist: White Snake Of Blackened Maze
*Album: By The Rivers Of Heresy
*Year: 2020
*Genre: Avant-Garde/Progressive Black Metal
*Country: Belgium
*Format: mp3@CBR320kbps
*Size: 101MB

Tracklist:
1.The King 05:18
2.Distrust thy Teacher 04:29
3.Faith and Denial 05:55
4.Smash the Low 05:26
5.Shadow March 04:03
6.Arise 06:02
7.Prayer at the Ruins 04:46
8.The Preacher of Nihil 04:18
9.Heretic Confessions (Heresikon) 03:49
******************************
Total playing time: 44:06



[more=Technical info]
Input File: 01 The King.mp3
Channels : 2
Sample Rate : 44100
Precision : 16-bit
Duration : 00:05:18.35 = 14039147 samples = 23876.1 CDDA sectors
File Size : 12.8M
Bit Rate : 322k
Sample Encoding: MPEG audio (layer I, II or III)
Comments :
Title=The King
Artist=White Snake of Blackened Maze
Album=By The Rivers Of Heresy
Tracknumber=1
Year=2020
Genre=Black Metal

[/more]

Register
(21) aleon, AlexSmith, as71, Cyrci, ErikGoth, gena, infiltrator, Korpse, metala, MMMMM, Morgoth, nsk2008, Olethros, Orgasmik, Ostinato, Rosen, sadmannn, Taakeferd, varlam4, vasiljev_sergej, yuratroll,
Jan 22 2021, 23:16:37 Ossements - Ossements III & IV (2020)


*Artist: Ossements
*Album: Ossements III & IV
*Year: 2020
*Genre: Experimental Black Metal
*Country: Canada
*Format: mp3@CBR320kbps
*Size: 82MB

Tracklist:
1.Ossements III 17:50
2.Ossements IV 17:49
******************************
Total playing time: 35:39



[more=Extended info]lineup:
Le Fantôme - Guitars, Drums, Vocals (Esprit Noir, Neige et Noirceur)[/more]

[more=Technical info]
Input File: 01 Ossements III.mp3
Channels : 2
Sample Rate : 44100
Precision : 16-bit
Duration : 00:17:50.51 = 47209403 samples = 80288.1 CDDA sectors
File Size : 42.9M
Bit Rate : 321k
Sample Encoding: MPEG audio (layer I, II or III)
Comments :
Title=Ossements III
Artist=ossements
Album=Ossements
Tracknumber=1
Year=2020
Genre=Black Metal

[/more]

Register
(13) AlexSmith, gena, infiltrator, legion01, Occultas, Olethros, randumbum, Rosen, Taakeferd, VALERY, varlam4, vasiljev_sergej, Velmi,
Jan 21 2021, 21:11:28 Thermohaline - Maelström (2021)


*Artist: Thermohaline
*Album: Maelström
*Year: 2021
*Genre: Avant-Garde Black Metal
*Country: International
*Format: mp3@CBR320kbps
*Size: 119MB

Tracklist:
1.Obra Dinn 07:16
2.Adamastor 08:02
3.Sirens 08:52
4.Shipwrecked 10:51
5.Dark Corners of the Ocean 08:28
6.Paardenmarkt 08:19
******************************
Total playing time: 51:48




[more=Technical info]
Input File: 01 Obra Dinn.mp3
Channels : 2
Sample Rate : 44100
Precision : 16-bit
Duration : 00:07:16.59 = 19253399 samples = 32743.9 CDDA sectors
File Size : 17.5M
Bit Rate : 321k
Sample Encoding: MPEG audio (layer I, II or III)
Comments :
Title=Obra Dinn
Artist=Thermohaline
Album=Maelström
Tracknumber=1
Year=2021
Genre=Black Metal

[/more]

Register
(16) AlexSmith, alikkon, gena, infiltrator, judaz, metala, multizwilling, Occultas, Olethros, randumbum, Rosen, Taakeferd, VALERY, varlam4, vasiljev_sergej, Vitald,
Jan 21 2021, 20:48:51 Gashkelah - The Revolt Of God [ep] (2020)


*Artist: Gashkelah
*Album: The Revolt Of God [ep]
*Year: 2020
*Genre: Black Metal
*Country: Netherlands
*Format: mp3@CBR320kbps
*Size: 49MB

Tracklist:
1.Opening And Praise 03:05
2.Our Time Has Passed 07:02
3.Path To Thagirion 06:01
4.Return To Ain - In Ashes 05:24
******************************
Total playing time: 21:32




[more=Technical info]
Input File: 02 Our Time Has Passed.mp3
Channels : 2
Sample Rate : 44100
Precision : 16-bit
Duration : 00:07:02.58 = 18635910 samples = 31693.7 CDDA sectors
File Size : 17.0M
Bit Rate : 321k
Sample Encoding: MPEG audio (layer I, II or III)
Comments :
Title=Our Time Has Passed
Artist=Gashkelah
Album=The Revolt Of God
Tracknumber=2
Year=2020
Genre=Black Metal

[/more]

Register
(11) ent404, infiltrator, kim666, Marek, Olethros, randumbum, Rosen, Taakeferd, VALERY, varlam4, vasiljev_sergej,
Jan 21 2021, 18:18:04 Kaskaskia - Fleecian Winter Majesty [ep] (2021)


*Artist: Kaskaskia
*Album: Fleecian Winter Majesty [ep]
*Year: 2021
*Genre: Atmospheric Black Metal
*Country: United States
*Format: mp3@CBR320kbps
*Size: 47MB

Tracklist:
1.Winter Tresses 06:30
2.The Throne Awaits 04:38
3.The Brunette 09:31
******************************
Total playing time: 20:39




[more=Technical info]
Input File: 01 Winter Tresses.mp3
Channels : 2
Sample Rate : 44100
Precision : 16-bit
Duration : 00:06:30.71 = 17230399 samples = 29303.4 CDDA sectors
File Size : 15.7M
Bit Rate : 322k
Sample Encoding: MPEG audio (layer I, II or III)
Comments :
Title=Winter Tresses
Artist=Kaskaskia
Album=Fleecian Winter Majesty
Tracknumber=1
Year=2021
Genre=Atmospheric Black Metal

[/more]

Register
(15) aleon, BlazonStone, ent404, infiltrator, kim666, Kodel, krotovich, Olethros, randumbum, Rosen, sergsazan, Taakeferd, VALERY, varlam4, vasiljev_sergej,
Jan 20 2021, 21:19:02 Durthang - The Winter Woods [demo] (2020)


*Artist: Durthang
*Album: The Winter Woods [demo]
*Year: 2020
*Genre: Folk/Black Metal
*Country: Spain
*Format: mp3@CBR320kbps
*Size: 41MB

Tracklist:
1.Rising from Winter Lands 03:09
2.March from the Woods of the Old Gods 03:12
3.Shores of the North 01:23
4.Into the Forest of the Heathen Souls 04:22
5.Above the Two Towers 03:01
6.Mystical Quest 01:30
******************************
Total playing time: 16:37



[more=Extended info]Music writen between 2005 and 2009.

lineup:
Ylghanon - Guitars, Bass, Keyboards (Pesticum, Thangorodrim)
Nhaarg - Vocals, Drums (Nhaarg, Pesticum)[/more]

[more=Technical info]
Input File: 01 Rising from Winter Lands.mp3
Channels : 2
Sample Rate : 44100
Precision : 16-bit
Duration : 00:03:09.82 = 8371018 samples = 14236.4 CDDA sectors
File Size : 7.76M
Bit Rate : 327k
Sample Encoding: MPEG audio (layer I, II or III)
Comments :
Title=Rising from Winter Lands
Artist=Durthang
Album=The Winter Woods
Tracknumber=1
Year=2020
Genre=Black Metal

[/more]

Register
(14) Cartman223, infiltrator, kim666, Olethros, randumbum, robertho777, Rosen, SilentNidhogg, Taakeferd, VALERY, varlam4, vasiljev_sergej, Vitald, Сварог Барг,
Jan 20 2021, 21:02:21 Re-Buried - Demo 2020 [demo] (2020)


*Artist: Re-Buried
*Album: Demo 2020 [demo]
*Year: 2020
*Genre: Old School Death Metal
*Country: United States
*Format: mp3@CBR320kbps
*Size: 29MB

Tracklist:
1.Fleshbag Martyr 03:01
2.Malignant Salvation 03:18
3.The Eulogist 02:33
4.Skin Wagon 02:14
******************************
Total playing time: 11:06



[more=Technical info]
Input File: 01 Fleshbag Martyr.mp3
Channels : 2
Sample Rate : 44100
Precision : 16-bit
Duration : 00:03:01.56 = 8006972 samples = 13617.3 CDDA sectors
File Size : 7.54M
Bit Rate : 332k
Sample Encoding: MPEG audio (layer I, II or III)
Comments :
Title=Fleshbag Martyr
Artist=Re-Buried
Album=Demo 2020
Tracknumber=1
Year=2020
Genre=Death Metal

[/more]

Register
(13) caro, desekrator, infiltrator, Marek, Olethros, Rosen, stumpheavyrock, Taakeferd, VALERY, varlam4, vyacheslav, wanderer73, Yngwarr,
Jan 20 2021, 20:32:35 Nhaarg - The Book Of The Distant Ones [ep] (2020)


*Artist: Nhaarg
*Album: The Book Of The Distant Ones [ep]
*Year: 2020
*Genre: Black Metal
*Country: Spain
*Format: mp3@CBR320kbps
*Size: 48MB

Tracklist:
1.Watching to a Starless Night Sky 06:50
2.Grime Prayer 05:29
3.Thangorodrim 03:11
4.Into the Dark Castle of the Self 05:07
******************************
Total playing time: 20:37



[more=Extended info]Nhaarg - All instruments, Vocals (Durthang, Pesticum)[/more]

[more=Technical info]
Input File: 01 Watching to a Starless Night Sky.mp3
Channels : 2
Sample Rate : 44100
Precision : 16-bit
Duration : 00:06:50.17 = 18088673 samples = 30763 CDDA sectors
File Size : 16.5M
Bit Rate : 322k
Sample Encoding: MPEG audio (layer I, II or III)
Comments :
Title=Watching to a Starless Night Sky
Artist=NHAARG
Album=The Book of the Distant Ones
Tracknumber=1
Year=2020
Genre=Black Metal

[/more]

Register
(12) Azumin1234, infiltrator, kim666, Olethros, randumbum, robertho777, Rosen, SilentNidhogg, Taakeferd, VALERY, varlam4, vasiljev_sergej,
Jan 19 2021, 20:23:51 Bestial Putrefaction - Demo [demo] (2021)


*Artist: Bestial Putrefaction
*Album: Demo [demo]
*Year: 2021
*Genre: Black/Death Metal
*Country: Canada
*Format: mp3@CBR320kbps
*Size: 28MB

Tracklist:
1.Vomited Chaos 00:56
2.Rites of Butchery 01:01
3.Regurgitated Thorns 00:53
4.Hordes of Gore 00:47
5.Heretic Noose 00:59
6.Entrails of Hate 01:10
7.Cruel Malevolence 01:14
8.Primitive Pathology 02:15
9.Christ Dismemberment 02:02
******************************
Total playing time: 11:17



[more=Technical info]
Input File: 02 Rites of Butchery.mp3
Channels : 2
Sample Rate : 44100
Precision : 16-bit
Duration : 00:01:01.47 = 2710915 samples = 4610.4 CDDA sectors
File Size : 2.62M
Bit Rate : 341k
Sample Encoding: MPEG audio (layer I, II or III)
Comments :
Title=Rites of Butchery
Artist=Bestial Putrefaction
Album=Demo
Tracknumber=2
Year=2021
Genre=Bestial Black Metal

[/more]

Register
(11) infiltrator, Marek, Olethros, Rosen, sacrut, SilentNidhogg, Taakeferd, VALERY, varlam4, vasiljev_sergej, wanderer73,
Jan 19 2021, 20:13:31 Eighten Neintres - What Do You Know About The Devil [demo] (2021)


*Artist: Eighten Neintres
*Album: What Do You Know About The Devil [demo]
*Year: 2021
*Genre: Raw Black Metal
*Country: United States
*Format: mp3@CBR320kbps
*Size: 37MB

Tracklist:
1.The Suffering knows no end (Intro) 01:53
2.Eternal Torment of the Bastard Christ 03:59
3.Better in Darkness 04:58
4.Open wide The Gates of Hell 04:09
******************************
Total playing time: 14:59



[more=Technical info]
Input File: 02 Eternal Torment of the Bastard Christ.mp3
Channels : 2
Sample Rate : 44100
Precision : 16-bit
Duration : 00:03:59.19 = 10548411 samples = 17939.5 CDDA sectors
File Size : 9.74M
Bit Rate : 326k
Sample Encoding: MPEG audio (layer I, II or III)
Comments :
Title=Eternal Torment of the Bastard Christ
Artist=Eighten Neintres
Album=What do you know about The Devil
Tracknumber=2
Year=2021
Genre=Black Metal

[/more]

Register
(10) infiltrator, kim666, Olethros, randumbum, Rosen, SilentNidhogg, Taakeferd, VALERY, varlam4, vasiljev_sergej,
Jan 19 2021, 19:23:07 Spear Of Teuta - Scorn [ep] (2021)


*Artist: Spear Of Teuta
*Album: Scorn [ep]
*Year: 2021
*Genre: Black Metal/Post-Punk
*Country: Croatia
*Format: mp3@CBR320kbps
*Size: 28MB

Tracklist:
1.Scorn 06:07
2.Tiha Jeka 05:46
******************************
Total playing time: 11:53



[more=Technical info]
Input File: 01 Scorn.mp3
Channels : 2
Sample Rate : 44100
Precision : 16-bit
Duration : 00:06:07.67 = 16214247 samples = 27575.2 CDDA sectors
File Size : 14.9M
Bit Rate : 323k
Sample Encoding: MPEG audio (layer I, II or III)
Comments :
Title=Scorn
Artist=Spear of Teuta
Album=Scorn (EP)
Tracknumber=1
Year=2021
Genre=Black Metal

[/more]

Register
(10) ent404, grimmstone, infiltrator, Olethros, robertho777, Rosen, Taakeferd, VALERY, varlam4, vasiljev_sergej,
Jan 19 2021, 19:00:03 Clarion Knell - Vanguard Of Stone [ep] (2021)


*Artist: Clarion Knell
*Album: Vanguard Of Stone [ep]
*Year: 2021
*Genre: Atmospheric Black Metal
*Country: France
*Format: mp3@CBR320kbps
*Size: 74MB

Tracklist:
1.Tour de Garde 06:26
2.Utopist 05:48
3.Insurgent Spear 07:12
4.Open Wounds 03:52
5.Ascending to Emptiness 08:57
******************************
Total playing time: 32:15



[more=Technical info]
Input File: 01 Tour de Garde.mp3
Channels : 2
Sample Rate : 44100
Precision : 16-bit
Duration : 00:06:26.14 = 17028774 samples = 28960.5 CDDA sectors
File Size : 15.5M
Bit Rate : 321k
Sample Encoding: MPEG audio (layer I, II or III)
Comments :
Title=Tour de Garde
Artist=Clarion Knell
Album=Vanguard Of Stone
Tracknumber=1
Year=2021
Genre=Atmospheric Black Metal

[/more]

Register
(13) infiltrator, kim666, Olethros, randumbum, robertho777, Rosen, sergsazan, Shadechaser, SilentNidhogg, Taakeferd, VALERY, varlam4, vasiljev_sergej,
Jan 18 2021, 18:16:29 Leprophiliac & Concilio Cadavérico - La Carne Se Desprende De Los Huesos [split] (2021)


*Artist: Leprophiliac & Concilio Cadavérico
*Album: La Carne Se Desprende De Los Huesos [split]
*Year: 2021
*Genre: Death Metal | Grindcore/Death Metal
*Country: Spain | Mexico
*Format: mp3@CBR320kbps
*Size: 43MB

Tracklist:
Leprophiliac:
1.Flesh for the Beast 03:40
2.Bricomaniac 04:31
Concilio Cadavérico:
3.Efigies De Sangre Y Carne 03:34
4.Incienso Y Putrefaccion 03:26
5.Aberraciones Inhumanas 02:40
******************************
Total playing time: 17:51



[more=Technical info]
Input File: 01 Leprophiliac - Flesh for the Beast.mp3
Channels : 2
Sample Rate : 44100
Precision : 16-bit
Duration : 00:03:40.46 = 9722374 samples = 16534.6 CDDA sectors
File Size : 8.91M
Bit Rate : 323k
Sample Encoding: MPEG audio (layer I, II or III)
Comments :
Title=Flesh for the Beast
Artist=Leprophiliac
Album=La Carne Se Desprende De Los Huesos
Tracknumber=1
Year=2021
Genre=Death Metal

[/more]

Register
(8) ENDSMOUTH, infiltrator, Occultas, Rosen, Taakeferd, varlam4, vyacheslav, wanderer73,
Jan 17 2021, 22:15:48 Graancirkel - Demo MMXXI [demo] (2021)


*Artist: Graancirkel
*Album: Demo MMXXI [demo]
*Year: 2021
*Genre: Raw Black Metal
*Country: Indonesia
*Format: mp3@CBR320kbps
*Size: 26MB

Tracklist:
1. Invasjon I 01:24
2. Invasjon II 02:45
3. Invasjon III 03:25
4. Invasjon IV 03:09
******************************
Total playing time: 10:43



[more=Technical info]
Input File: 01 Invasjon I.mp3
Channels : 2
Sample Rate : 44100
Precision : 16-bit
Duration : 00:01:24.91 = 3744311 samples = 6367.88 CDDA sectors
File Size : 3.54M
Bit Rate : 333k
Sample Encoding: MPEG audio (layer I, II or III)
Comments :
Title=Invasjon I
Artist=Graancirkel
Album=Demo MMXXI
Tracknumber=1
Year=2021
Genre=Raw Black Metal

[/more]

Register
(15) Cramloth, infiltrator, kim666, mondlicht, Occultas, Olethros, randumbum, robertho777, Rosen, SilentNidhogg, Taakeferd, thenecromancer, VALERY, varlam4, vasiljev_sergej,
Jan 17 2021, 21:21:53 Omnikinetic - Dragon Hymns [ep] (2021)


*Artist: Omnikinetic
*Album: Dragon Hymns [ep]
*Year: 2021
*Genre: Black/Death Metal
*Country: United States
*Format: mp3@CBR320kbps
*Size: 32MB

Tracklist:
1.Dragon Hymn 03:43
2.Skylakitin 03:47
3.Rites of the Moon 02:56
******************************
Total playing time: 10:26



[more=Technical info]
Input File: 01 Dragon Hymn.mp3
Channels : 2
Sample Rate : 44100
Precision : 16-bit
Duration : 00:03:43.73 = 9866405 samples = 16779.6 CDDA sectors
File Size : 9.04M
Bit Rate : 323k
Sample Encoding: MPEG audio (layer I, II or III)
Comments :
Title=Dragon Hymn
Artist=Omnikinetic
Album=Dragon Hymns (EP)
Tracknumber=1
Year=2021
Genre=Black/Death Metal

[/more]

Register
(12) infiltrator, Marek, Olethros, randumbum, Rosen, SilentNidhogg, Taakeferd, VALERY, varlam4, vasiljev_sergej, Wail, wanderer73,
Jan 17 2021, 21:03:07 Apocalyptic Leaders - Macabre (2021)


*Artist: Apocalyptic Leaders
*Album: Macabre
*Year: 2021
*Genre: Black Metal
*Country: Greece
*Format: mp3@CBR320kbps
*Size: 60MB

Tracklist:
1.Macabre 02:00
2.The doors of hell 04:22
3.Dead in the winter 04:50
4.Salvation death 02:19
5.Infinite black 05:20
6.Obscurantism (Burned alive) 03:49
7.Insomniac people 03:32
******************************
Total playing time: 26:12




[more=Technical info]
Input File: 01 Macabre.mp3
Channels : 2
Sample Rate : 44100
Precision : 16-bit
Duration : 00:02:00.07 = 5294999 samples = 9005.1 CDDA sectors
File Size : 4.88M
Bit Rate : 325k
Sample Encoding: MPEG audio (layer I, II or III)
Comments :
Title=Macabre
Artist=Apocalyptic Leaders
Album=Macabre
Tracknumber=1
Year=2021
Genre=Black Metal

[/more]

Register
(19) AlexSmith, alikkon, atavist, Gylve, infiltrator, judaz, kim666, M0ns1gn0r, Marek, Olethros, randumbum, robertho777, Rosen, SilentNidhogg, Taakeferd, undeadlich, VALERY, varlam4, vasiljev_sergej,
Jan 17 2021, 17:45:16 Último Vómito - Cadáver Reanimado [ep] (2020)


*Artist: Último Vómito
*Album: Cadáver Reanimado [ep]
*Year: 2020
*Genre: Black/Thrash Metal
*Country: Argentina
*Format: mp3@CBR320kbps
*Size: 24MB

Tracklist:
1. Último vómito 02:28
2. Cadáver reanimado 02:50
3. Gritos de ultratumba 03:18
4. Deathrash (Sarcofago cover) 01:25
******************************
Total playing time: 10:01




[more=Technical info]
Input File: 01 Último Vómito.mp3
Channels : 2
Sample Rate : 44100
Precision : 16-bit
Duration : 00:02:29.01 = 6571473 samples = 11176 CDDA sectors
File Size : 6.12M
Bit Rate : 328k
Sample Encoding: MPEG audio (layer I, II or III)
Comments :
Title=Último Vómito
Artist=Último Vómito
Album=Cadáver Reanimado
Tracknumber=1
Year=2020
Genre=Black/Thrash Metal

[/more]

Register
(13) boby9052, craP_cillA, infiltrator, Olethros, Rosen, SilentNidhogg, stumpheavyrock, Styx, Taakeferd, varlam4, vasiljev_sergej, wanderer73, wgs73,
Jan 17 2021, 16:55:16 Morbid Winds - The Black Corridors Of The Abyssal Depths Of Existence Opened Their Gates (2021)


*Artist: Morbid Winds
*Album: The Black Corridors Of The Abyssal Depths Of Existence Opened Their Gates
*Year: 2021
*Genre: Black Metal
*Country: Poland
*Format: mp3@CBR320kbps
*Size: 79MB

Tracklist:
1.The Black Corridors of the Abyssal Depths of Existence Opened Their Gates 33:44
******************************
Total playing time: 33:44



[more=Technical info]
Input File: 01 The Black Corridors of the Abyssal Depths of Existence Opened Their Gates.mp3
Channels : 2
Sample Rate : 44100
Precision : 16-bit
Duration : 00:33:44.74 = 89290814 samples = 151855 CDDA sectors
File Size : 81.3M
Bit Rate : 321k
Sample Encoding: MPEG audio (layer I, II or III)
Comments :
Title=The Black Corridors of the Abyssal Depths of Existence Opened Their Gates
Artist=Morbid Winds
Album=The Black Corridors of the Abyssal Depths of Existence Opened Their Gates
Tracknumber=1
Year=2021
Genre=Black Metal

[/more]

Register
(21) axedot, Bzth, cesar, craP_cillA, ent404, infiltrator, Kazoth, kim666, Marek, Occultas, Olethros, rimfrost, Rosen, SaintVitus, SilentNidhogg, SSBandera, Taakeferd, undeadlich, VALERY, varlam4, vasiljev_sergej,
Jan 17 2021, 00:04:48 Adrasteia & Lehman - Split Mmxxi [split] (2021)


*Artist: Adrasteia & Lehman
*Album: Split Mmxxi [split]
*Year: 2021
*Genre: Raw Black Metal/Ambient | Ambient
*Country: United States | United States
*Format: mp3@CBR320kbps
*Size: 144MB

Tracklist:
Adrasteia:
1.Polaris 29:55
Lehman:
2.As The Moon Watches Over Me 07:18
3.Frost On The Fence Line 04:03
4.Snow In The Night Sky 07:52
5.A Beautiful Blizzard 12:48
******************************
Total playing time: 1:01:56







[more=Technical info]
Input File: 01 Adrasteia - Polaris.mp3
Channels : 2
Sample Rate : 44100
Precision : 16-bit
Duration : 00:29:56.02 = 79204350 samples = 134701 CDDA sectors
File Size : 72.0M
Bit Rate : 321k
Sample Encoding: MPEG audio (layer I, II or III)
Comments :
Title=Adrasteia - Polaris
Artist=Adrasteia / Lehman
Album=Split MMXXI
Tracknumber=1
Year=2021

[/more]

Register
(8) infiltrator, kim666, Lamby90, randumbum, Rosen, SilentNidhogg, stub888, vasiljev_sergej,

199 Pages V   1 2 3 > » 
- Lo-Fi Version Support form
Copyrights and abuse reports form
Time is now: 24th January 2021 - 17:32:31