Welcome Guest ( Log In | Register )

История благодарностей участнику smysl ::: Спасибо сказали: 63313 раз(а)
Дата поста: В теме: За сообщение: Спасибо сказали:
Yesterday, 18:22:21 Hecatomb - Horrid Invocations [demo] (2020)


*Artist: Hecatomb
*Album: Horrid Invocations [demo]
*Year: 2020
*Genre: Black/Death Metal
*Country: Australia
*Format: mp3@CBR320kbps
*Size: 60MB

Tracklist:
1.Metal Maleficium 04:00
2.Queen of Perversion 03:50
3.Black Winged Pestilence 03:00
4.Fields of Gorgoroth 04:55
******************************
Total playing time: 15:45




[more=Technical info]
Input File: 01 Metal Maleficium.mp3
Channels : 2
Sample Rate : 44100
Precision : 16-bit
Duration : 00:04:00.08 = 10587572 samples = 18006.1 CDDA sectors
File Size : 9.72M
Bit Rate : 324k
Sample Encoding: MPEG audio (layer I, II or III)
Comments :
Title=Metal Maleficium
Artist=HECATOMB
Album=Horrid Invocations
Tracknumber=1
Year=2020
Genre=Death Metal

[/more]

Register
(7) Bzth, kim666, lunaraurora, morbidangelo, Olethros, Wail, wgs73,
Yesterday, 14:44:24 Narcolepsia - Anomalía Cerebral [ep] (2019)


*Artist: Narcolepsia
*Album: Anomalía Cerebral [ep]
*Year: 2019
*Genre: Old School Death Metal
*Country: Argentina
*Format: mp3@CBR320kbps
*Size: 41MB

Tracklist:
1.Intro - Aflicción 03:11
2.Fiebre De Las Cabañas 01:42
3.Anomalía Cerebral 02:10
4.Respuesta Emocional Inadecuada (R.E.I.) 01:30
5.Catalepsia 01:26
6.Desintegración 02:03
7.Pánico 01:52
8.Emergiendo Entre Los Muertos 01:46
9.Outro 01:03
******************************
Total playing time: 16:43




[more=Technical info]
Input File: 01 Intro - Aflicción.mp3
Channels : 2
Sample Rate : 44100
Precision : 16-bit
Duration : 00:03:11.88 = 8462040 samples = 14391.2 CDDA sectors
File Size : 7.95M
Bit Rate : 332k
Sample Encoding: MPEG audio (layer I, II or III)
Comments :
Title=Intro - Aflicción
Artist=Narcolepsia
Album=Anomalía Cerebral
Tracknumber=1
Year=2020
Genre=Death Metal

[/more]

Register
(5) andreikun, morbidangelo, Olethros, stumpheavyrock, VALERY,
Yesterday, 01:52:20 Evil Mayhem - Evil Never Die [ep] (2005)


*Artist: Evil Mayhem
*Album: Evil Never Die [ep]
*Year: 2005
*Genre: Thrash/Black Metal
*Country: Brazil
*Format: mp3@CBR320kbps
*Size: 47MB

Tracklist:
1.Prisioners of Souls 00:33
2.Behind the Gates of Hell 05:10
3.Under Domine 07:12
4.Power of the Destruction 07:34
******************************
Total playing time: 20:29

[more=Technical info]
Input File: 02 Behind the Gates of Hell.mp3
Channels : 2
Sample Rate : 44100
Precision : 16-bit
Duration : 00:05:10.06 = 13673426 samples = 23254.1 CDDA sectors
File Size : 12.5M
Bit Rate : 321k
Sample Encoding: MPEG audio (layer I, II or III)
Comments :
Title=Behind the Gates of Hell
Artist=Evil Mayhem
Album=Evil Never Die
Tracknumber=2
Year=2005
Genre=Thrash Metal

[/more]

Register
(12) Asketto, boby9052, cist, infiltrator, Olethros, satanist666, sergsazan, stumpheavyrock, Svafrlami, terron, Wail, wgs73,
Yesterday, 00:53:03 Perdition - Chaos Rebels [demo] (2000)


*Artist: Perdition
*Album: Chaos Rebels [demo]
*Year: 2000
*Genre: Black Metal
*Country: Germany
*Format: mp3@CBR320kbps
*Size: 25MB

Tracklist:
1.Intro 01:13
2.Chaos Rebels 02:30
3.Dominions of Absurdity 02:56
4.Doom Hunter 03:00
******************************
Total playing time: 9:39

[more=Extended info]+ scans[/more]

[more=Technical info]
Input File: 02 Chaos Rebels.mp3
Channels : 2
Sample Rate : 44100
Precision : 16-bit
Duration : 00:02:29.56 = 6595420 samples = 11216.7 CDDA sectors
File Size : 6.10M
Bit Rate : 326k
Sample Encoding: MPEG audio (layer I, II or III)
Comments :
Title=Chaos Rebels
Artist=Perdition
Album=Chaos Rebels
Tracknumber=2
Year=2000
Genre=Black Metal

[/more]

Register
(10) 1968_janeart, infiltrator, kim666, Olethros, satanist666, stub888, Svafrlami, thenecromancer, vasiljev_sergej, Wail,
Apr 4 2020, 20:01:10 Death Mantra - Death Mantra (2020)


*Artist: Death Mantra
*Album: Death Mantra
*Year: 2020
*Genre: Depressive Black Metal
*Country: United States
*Format: mp3@CBR320kbps
*Size: 99MB

Tracklist:
1.नरक 06:00
2.अनुध्या 07:13
3.उद्वस 07:54
4.विभव 10:55
5.अमत 10:19
******************************
Total playing time: 42:21



[more=Technical info]
Input File: 01 नरक (Naraka).mp3
Channels : 2
Sample Rate : 44100
Precision : 16-bit
Duration : 00:06:00.64 = 15904356 samples = 27048.2 CDDA sectors
File Size : 14.5M
Bit Rate : 322k
Sample Encoding: MPEG audio (layer I, II or III)
Comments :
Title=नरक (Naraka)
Artist=Death Mantra
Album=Death Mantra
Tracknumber=1
Year=2020
Genre=Black Metal

[/more]

Register
(8) infiltrator, kim666, randumbum, satanist666, senecazm, stub888, VALERY, vasiljev_sergej,
Apr 4 2020, 19:03:02 Idolos - Ahi Cab [ep] (2020)


*Artist: Idolos
*Album: Ahi Cab [ep]
*Year: 2020
*Genre: Atmospheric Black Metal
*Country: France
*Format: mp3@CBR320kbps
*Size: 60MB

Tracklist:
1.Prolog 02:19
2.The Deeds above 06:31
3.The Summoners 07:25
4.The Maiden and the Tree 06:27
******************************
Total playing time: 22:42






[more=Technical info]
Input File: 02 The Deeds above.mp3
Channels : 2
Sample Rate : 44100
Precision : 16-bit
Duration : 00:06:31.44 = 17262636 samples = 29358.2 CDDA sectors
File Size : 15.9M
Bit Rate : 325k
Sample Encoding: MPEG audio (layer I, II or III)
Comments :
Title=The Deeds above
Artist=Idolos
Album=Ahi Cab
Tracknumber=2
Year=2020
Genre=Black Metal

[/more]

Register
(11) cist, kim666, Ostinato, randumbum, satanist666, senecazm, sergsazan, stub888, Svafrlami, VALERY, vasiljev_sergej,
Apr 4 2020, 18:38:29 Schizoparanoic Platoon - Warfare: Mass Annihilation [ep] (2019)


*Artist: Schizoparanoic Platoon
*Album: Warfare: Mass Annihilation [ep]
*Year: 2019
*Genre: Black/Death Metal
*Country: Greece
*Format: mp3@CBR320kbps
*Size: 32MB

Tracklist:
1.The Black Plague 02:18
2.Your God Is Dead 01:49
3.Virgin Mary Hellfucked (Perversion of the holy cunt) 02:19
4.Death March 02:04
5.War Inside Your Brain 02:31
6.Demoniac (Blasphemy Cover) 02:43
******************************
Total playing time: 13:44



[more=Technical info]
Input File: 01 The Black Plague.mp3
Channels : 2
Sample Rate : 44100
Precision : 16-bit
Duration : 00:02:18.22 = 6095678 samples = 10366.8 CDDA sectors
File Size : 5.64M
Bit Rate : 327k
Sample Encoding: MPEG audio (layer I, II or III)
Comments :
Title=The Black Plague
Artist=Schizoparanoic Platoon
Album=Warfare: Mass Annihilation
Tracknumber=1
Year=2019
Genre=Death Metal

[/more]

Register
(8) cist, infiltrator, kim666, satanist666, Styx, VALERY, vasiljev_sergej, Wail,
Apr 4 2020, 14:09:34 Funestus - The Immaterial Wound [ep] (2020)


*Artist: Funestus
*Album: The Immaterial Wound [ep]
*Year: 2020
*Genre: Atmospheric Black Metal
*Country: Chile
*Format: mp3@CBR320kbps
*Size: 32MB

Tracklist:
1.I 05:54
2.II 07:33
******************************
Total playing time: 13:27



[more=Technical info]
Input File: 01 I.mp3
Channels : 2
Sample Rate : 44100
Precision : 16-bit
Duration : 00:05:54.95 = 15653207 samples = 26621.1 CDDA sectors
File Size : 14.3M
Bit Rate : 323k
Sample Encoding: MPEG audio (layer I, II or III)
Comments :
Title=I
Artist=Funestus
Album=The Immaterial Wound
Tracknumber=1
Year=2020
Genre=Black Metal

[/more]

Register
(14) cist, Corpuscul, Evilded, infiltrator, kim666, morbidangelo, Necromag, Olethros, satanist666, senecazm, sergsazan, thenecromancer, VALERY, vasiljev_sergej,
Apr 4 2020, 14:05:29 Bacterium - Sunt Lacrymae Rerum [ep] (2020)


*Artist: Bacterium
*Album: Sunt Lacrymae Rerum [ep]
*Year: 2020
*Genre: Funeral Doom Metal
*Country: Ireland
*Format: mp3@CBR320kbps
*Size: 48MB

Tracklist:
1.Sunt Lacrymae Rerum 11:02
2.Sorites Paradox 09:37
******************************
Total playing time: 20:39



[more=Technical info]
Input File: 01 Sunt Lacrymae Rerum.mp3
Channels : 2
Sample Rate : 44100
Precision : 16-bit
Duration : 00:11:02.11 = 29199183 samples = 49658.5 CDDA sectors
File Size : 26.6M
Bit Rate : 321k
Sample Encoding: MPEG audio (layer I, II or III)
Comments :
Title=Sunt Lacrymae Rerum
Artist=Bacterium
Album=Sunt Lacrymae Rerum
Tracknumber=1
Year=2020
Genre=Funeral Doom Metal

[/more]

Register
(12) Corpuscul, doomTemplar, FuneralWolf, gena, infiltrator, LEGION69, marilin, Olethros, randumbum, sergsazan, stub888, VALERY,
Apr 4 2020, 14:00:27 Sacroscum - Drugs & Death (2017)


*Artist: Sacroscum
*Album: Drugs & Death
*Year: 2017
*Genre: Black Metal/Crust
*Country: Germany
*Format: mp3@CBR320kbps
*Size: 93MB

Tracklist:
1.Initium 01:17
2.Drugs & Death 05:20
3.Autoerotic Thanatophilia 03:36
4.Gutter.Moloch.God 03:30
5.Vermin 03:37
6.Waste, Horror & Degradation 04:25
7.Skin Canvas 06:01
8.Downwards Spiral 03:59
9.DCLXVI 08:49
******************************
Total playing time: 40:34




[more=Technical info]
Input File: 02 Drugs & Death.mp3
Channels : 2
Sample Rate : 44100
Precision : 16-bit
Duration : 00:05:20.91 = 14152087 samples = 24068.2 CDDA sectors
File Size : 13.0M
Bit Rate : 325k
Sample Encoding: MPEG audio (layer I, II or III)
Comments :
Title=Drugs & Death
Artist=SACROSCUM
Album=Drugs & Death
Tracknumber=2
Year=2017
Genre=Black Metal

[/more]

Register
(8) atavist, cist, infiltrator, metala, morbidangelo, Olethros, VALERY, vasiljev_sergej,
Apr 4 2020, 10:28:29 Sedation Therapy - Demo [demo] (2018)


*Artist: Sedation Therapy
*Album: Demo [demo]
*Year: 2018
*Genre: Death/Doom Metal
*Country: United States
*Format: mp3@CBR320kbps
*Size: 26MB

Tracklist:
1.Intro 02:18
2.Crippling Disbilief 02:35
3.Withered 02:10
4.Dissolving Sensible Thought 04:22
******************************
Total playing time: 11:25



[more=Technical info]
Input File: 02 Crippling Disbelief.mp3
Channels : 2
Sample Rate : 44100
Precision : 16-bit
Duration : 00:02:36.02 = 6880262 samples = 11701.1 CDDA sectors
File Size : 6.42M
Bit Rate : 329k
Sample Encoding: MPEG audio (layer I, II or III)
Comments :
Title=Crippling Disbelief
Artist=Sedation Therapy
Album=Demo
Tracknumber=2
Year=2018
Genre=Death Metal

[/more]

Register
(8) infiltrator, lacrimoza, morbidangelo, Olethros, sergsazan, stumpheavyrock, VALERY, wanderer73,
Apr 4 2020, 10:06:18 Occulsed - Ceremonial Lifelessness [demo] (2020)


*Artist: Occulsed
*Album: Ceremonial Lifelessness [demo]
*Year: 2020
*Genre: Death Metal
*Country: United States
*Format: mp3@CBR320kbps
*Size: 38MB

Tracklist:
1.Into the Necrocculsion 04:18
2.Rancid Blessings 02:58
3.Paralytic Salvation 02:52
4.Blood Dogma 02:44
5.Winds of Penury 03:28
******************************
Total playing time: 16:20



[more=Technical info]
Input File: 01 Into the Necrocculsion.mp3
Channels : 2
Sample Rate : 44100
Precision : 16-bit
Duration : 00:04:19.05 = 11423973 samples = 19428.5 CDDA sectors
File Size : 10.5M
Bit Rate : 324k
Sample Encoding: MPEG audio (layer I, II or III)
Comments :
Title=Into the Necrocculsion
Artist=Occulsed
Album=Ceremonial Lifelessness
Tracknumber=1
Year=2020
Genre=Death Metal

[/more]

Register
(6) infiltrator, morbidangelo, Olethros, randumbum, VALERY, wanderer73,
Apr 4 2020, 08:36:59 Old Tower - The Door [ep] (2015)


*Artist: Old Tower
*Album: The Door [ep]
*Year: 2015
*Genre: Dungeon Synth/Ambient
*Country: Netherlands
*Format: mp3@CBR320kbps
*Size: 39MB

Tracklist:
1.The Door 17:14
******************************
Total playing time: 17:14



[more=Technical info]
Input File: 01 Old Tower - The Door.mp3
Channels : 2
Sample Rate : 44100
Precision : 16-bit
Duration : 00:17:13.95 = 45597063 samples = 77546 CDDA sectors
File Size : 41.5M
Bit Rate : 321k
Sample Encoding: MPEG audio (layer I, II or III)
Comments :
Title=The Door
Artist=Old Tower
Album=The Door
Tracknumber=1
Year=2015
Genre=Ambient

[/more]

Register
(5) Occultas, Olethros, thenecromancer, ZA670, zoog,
Apr 3 2020, 21:35:34 Goathex & Goatcorpse - Order Of The Plutonium Trident [split] (2020)


*Artist: Goathex & Goatcorpse
*Album: Order Of The Plutonium Trident [split]
*Year: 2020
*Genre: Black/Death Metal | Raw Black Metal
*Country: United States | United States
*Format: mp3@CBR320kbps
*Size: 30MB

Tracklist:
Goathex:
1.Arrival of the Neutron Guillotine 01:01
2.Nuclear Hecatomb 02:41
3.Flock Decimation (Biocide Conquest) 02:13
Goatcorpse:
4.Goatroduction 00:56
5.Enochian Magick Rites 02:24
6.Irradiated Seraph 02:58
7.Gods of War (Blasphemy Cover) 00:49
******************************
Total playing time: 13:02




[more=Technical info]
Input File: 02 Goathex - Nuclear Hecatomb.mp3
Channels : 2
Sample Rate : 44100
Precision : 16-bit
Duration : 00:02:41.53 = 7123341 samples = 12114.5 CDDA sectors
File Size : 6.59M
Bit Rate : 327k
Sample Encoding: MPEG audio (layer I, II or III)
Comments :
Title=Nuclear Hecatomb
Artist=Goathex
Album=Order of the Plutonium Trident
Tracknumber=2
Year=2020
Genre=Black Metal

[/more]

Register
(14) Hell_Is_Here, infiltrator, kim666, marilin, morbidangelo, nord6666, Ostinato, randumbum, satanist666, stub888, uk82, VALERY, vasiljev_sergej, wgs73,
Apr 3 2020, 20:53:15 Black Imperial Blood & Lament In Winter's Night - Black Imperial Blood/Lament In Winter's Night [split] (2020)


*Artist: Black Imperial Blood & Lament In Winter's Night
*Album: Black Imperial Blood/Lament In Winter's Night [split]
*Year: 2020
*Genre: Raw Black Metal | Raw Black Metal
*Country: Australia | Australia
*Format: mp3@CBR320kbps
*Size: 96MB

Tracklist:
Black Imperial Blood:
1.Intro 05:20
2.Furrow Of The Gods 09:49
3.Sunset Over Carpathia 05:49
Lament in Winter's Night:
4.Beyond These Mournful Lands... 07:37
5.My Return To The Astral Realms 07:45
6.Outro 04:52
******************************
Total playing time: 41:12



[more=Technical info]
Input File: 02 Black Imperial Blood - Furrow Of The Gods.mp3
Channels : 2
Sample Rate : 44100
Precision : 16-bit
Duration : 00:09:49.78 = 26009122 samples = 44233.2 CDDA sectors
File Size : 23.8M
Bit Rate : 323k
Sample Encoding: MPEG audio (layer I, II or III)
Comments :
Title=Furrow Of The Gods
Artist=Black Imperial Blood
Album=Black Imperial Blood/Lament In Winter's Night
Tracknumber=2
Year=2020
Genre=Black Metal

[/more]

Register
(13) alikkon, Forrrrest, heinz88, Hell_Is_Here, infiltrator, kim666, legion01, morbidangelo, randumbum, satanist666, stub888, VALERY, vasiljev_sergej,
Apr 3 2020, 19:57:31 Nietzu - Cast A Cold Eye [ep] (2020)


*Artist: Nietzu
*Album: Cast A Cold Eye [ep]
*Year: 2020
*Genre: Atmospheric/Post-Black Metal
*Country: United Kingdom
*Format: mp3@CBR320kbps
*Size: 72MB

Tracklist:
1.Vessel 03:26
2.VV. B. 04:06
3.Over Sea Invocation 05:33
4.Black Nimbus 04:47
5.Primavera Fades 04:06
6.Self Inflicted 04:32
7.Ritual (bonus) 04:40
******************************
Total playing time: 31:10



[more=Technical info]
Input File: 01 Vessel.mp3
Channels : 2
Sample Rate : 44100
Precision : 16-bit
Duration : 00:03:26.54 = 9108326 samples = 15490.4 CDDA sectors
File Size : 8.40M
Bit Rate : 325k
Sample Encoding: MPEG audio (layer I, II or III)
Comments :
Title=Vessel
Artist=Nietzu
Album=Cast a cold eye EP
Tracknumber=1
Year=2020
Genre=Black Metal

[/more]

Register
(12) Corpuscul, infiltrator, kim666, morbidangelo, Olethros, Ostinato, randumbum, satanist666, senecazm, sergsazan, VALERY, vasiljev_sergej,
Apr 3 2020, 17:04:40 Parasitic Ritual - Serpentine Impalement [ep] (2019)


*Artist: Parasitic Ritual
*Album: Serpentine Impalement [ep]
*Year: 2019
*Genre: Black/Doom Metal
*Country: United States
*Format: mp3@CBR320kbps
*Size: 34MB

Tracklist:
1.Entombment Ov Black Death 03:05
2.Serpentine Impalement 04:30
3.Incontrovertible 04:18
4.Shine On Me 03:18
******************************
Total playing time: 15:11





[more=Technical info]
Input File: 01 Entombment Ov Black Death.mp3
Channels : 2
Sample Rate : 44100
Precision : 16-bit
Duration : 00:03:05.22 = 8168246 samples = 13891.6 CDDA sectors
File Size : 7.51M
Bit Rate : 324k
Sample Encoding: MPEG audio (layer I, II or III)
Comments :
Title=Entombment Ov Black Death
Artist=Parasitic Ritual
Album=Serpentine Impalement
Tracknumber=1
Year=2019
Genre=Black Metal

[/more]

Register
(9) infiltrator, Olethros, randumbum, satanist666, sergsazan, stub888, Tyrone, VALERY, vasiljev_sergej,
Apr 3 2020, 15:56:58 Impetuous Burial - Demo 2020 [demo] (2020)


*Artist: Impetuous Burial
*Album: Demo 2020 [demo]
*Year: 2020
*Genre: Death Metal
*Country: United States
*Format: mp3@CBR320kbps
*Size: 20MB

Tracklist:
1.Intro 00:31
2.Slowly Scalding Heretic 02:27
3.Masticated Limbs 02:26
4.Eternal Languish 03:01
******************************
Total playing time: 8:25



[more=Technical info]
Input File: 02 Slowly Scalding Heretic.mp3
Channels : 2
Sample Rate : 44100
Precision : 16-bit
Duration : 00:02:27.81 = 6518509 samples = 11085.9 CDDA sectors
File Size : 6.08M
Bit Rate : 329k
Sample Encoding: MPEG audio (layer I, II or III)
Comments :
Title=Slowly Scalding Heretic
Artist=Impetuous Burial
Album=Demo 2020
Tracknumber=2
Year=2020
Genre=Death Metal

[/more]

Register
(5) acerbus, Corpuscul, infiltrator, Olethros, VALERY,
Apr 3 2020, 15:50:08 Reputdeath - Slurking, Reeking, Leeching [demo] (2019)


*Artist: Reputdeath
*Album: Slurking, Reeking, Leeching [demo]
*Year: 2019
*Genre: Death Metal
*Country: Malaysia
*Format: mp3@CBR320kbps
*Size: 25MB

Tracklist:
1.Soaked with leech 02:29
2.Gateway to wholeness 02:46
3.From a ripe cadaver 02:08
4.Swallowed by grave 03:10
******************************
Total playing time: 10:33



[more=Technical info]
Input File: 02 Gateway to wholeness.mp3
Channels : 2
Sample Rate : 44100
Precision : 16-bit
Duration : 00:02:46.67 = 7350279 samples = 12500.5 CDDA sectors
File Size : 6.77M
Bit Rate : 325k
Sample Encoding: MPEG audio (layer I, II or III)
Comments :
Title=Gateway to wholeness
Artist=Reputdeath
Album=SLURKING, REEKING, LEECHING
Tracknumber=2
Year=2019
Genre=Death Metal

[/more]

Register
(6) Ambercandle, Corpuscul, infiltrator, Olethros, VALERY, Wail,
Apr 3 2020, 14:09:27 Trist Død - Eternal [ep] (2019)


*Artist: Trist Død
*Album: Eternal [ep]
*Year: 2019
*Genre: Black Metal
*Country: United States
*Format: mp3@CBR320kbps
*Size: 47MB

Tracklist:
1.l 01:09
2.ll 03:42
3.lll 04:22
4.lV 05:30
5.V 03:39
6.Vl 02:04
******************************
Total playing time: 20:26




[more=Technical info]
Input File: 02 ll.mp3
Channels : 2
Sample Rate : 44100
Precision : 16-bit
Duration : 00:03:42.16 = 9797256 samples = 16662 CDDA sectors
File Size : 8.98M
Bit Rate : 323k
Sample Encoding: MPEG audio (layer I, II or III)
Comments :
Title=ll
Artist=Trist Død
Album=Eternal
Tracknumber=2
Year=2019
Genre=Black Metal

[/more]

Register
(11) Battaleon, Hefir, infiltrator, kim666, Olethros, randumbum, satanist666, sethurius, stub888, VALERY, vasiljev_sergej,
Apr 3 2020, 11:38:58 Oil Spill - Ashlands [ep] (2020)


*Artist: Oil Spill
*Album: Ashlands [ep]
*Year: 2020
*Genre: Black Metal
*Country: United States
*Format: mp3@CBR320kbps
*Size: 51MB

Tracklist:
1.Great Black Pit 05:10
2.Bloodshed Obsession 08:19
3.Trepidation 07:19
******************************
Total playing time: 20:48



[more=Technical info]
Input File: 01 Great Black Pit.mp3
Channels : 2
Sample Rate : 44100
Precision : 16-bit
Duration : 00:05:10.64 = 13699312 samples = 23298.1 CDDA sectors
File Size : 12.6M
Bit Rate : 325k
Sample Encoding: MPEG audio (layer I, II or III)
Comments :
Title=Great Black Pit
Artist=Oil Spill
Album=Ashlands
Tracknumber=1
Year=2020
Genre=Black Metal

[/more]

Register
(9) infiltrator, kim666, murian, Olethros, randumbum, satanist666, stub888, VALERY, vasiljev_sergej,
Apr 2 2020, 12:20:18 Acid Cross - Dungeon Thrash [ep] (2020)


*Artist: Acid Cross
*Album: Dungeon Thrash [ep]
*Year: 2020
*Genre: Blackened Thrash Metal/Punk
*Country: Canada
*Format: mp3@CBR320kbps
*Size: 71MB

Tracklist:
1.Symptom of Man / Bound by Oppression 06:51
2.Serpentum Dectem Dominatum 02:07
3.Terrifier 02:53
4.Post Human Eradication / Awaken Decimator 06:21
5.Flame of the End / Evil Crusaders 06:12
6.Mind Flayer / Black Tower (Bonus Track) 04:29
******************************
Total playing time: 28:53




[more=Technical info]
Input File: 01 Symptom of Man - Bound by Oppression.mp3
Channels : 2
Sample Rate : 44100
Precision : 16-bit
Duration : 00:06:51.43 = 18143975 samples = 30857.1 CDDA sectors
File Size : 16.6M
Bit Rate : 322k
Sample Encoding: MPEG audio (layer I, II or III)
Comments :
Title=Symptom of Man / Bound by Oppression
Artist=ACID CROSS
Album=DUNGEON THRASH
Tracknumber=1
Year=2020
Genre=Metal

[/more]

Register
(8) Asketto, boby9052, cist, infiltrator, marilin, Olethros, stumpheavyrock, wgs73,
Apr 2 2020, 01:56:45 Sadomortuary - Festering Evil Worship [demo] (2020)


*Artist: Sadomortuary
*Album: Festering Evil Worship [demo]
*Year: 2020
*Genre: Black/Death Metal
*Country: Italy
*Format: mp3@CBR320kbps
*Size: 31MB

Tracklist:
1.Blood Descends 04:04
2.Incensing the Putridarium 03:19
3.Wormridden Crucifix 02:36
4.Sacrilegious Tumulation 03:27
******************************
Total playing time: 13:26




[more=Technical info]
Input File: 01 Blood Descends.mp3
Channels : 2
Sample Rate : 44100
Precision : 16-bit
Duration : 00:04:04.34 = 10775350 samples = 18325.4 CDDA sectors
File Size : 9.89M
Bit Rate : 324k
Sample Encoding: MPEG audio (layer I, II or III)
Comments :
Title=Blood Descends
Artist=Sadomortuary
Album=Festering Evil Worship
Tracknumber=1
Year=2020
Genre=Black/Death Metal

[/more]

Register
(13) Corpuscul, gena, Hell_Is_Here, infiltrator, marilin, Olethros, randumbum, satanist666, stub888, stumpheavyrock, VALERY, vasiljev_sergej, Wail,
Apr 2 2020, 01:49:32 Black Ejaculation - Upheaval Of Desecration [demo] (2019)


*Artist: Black Ejaculation
*Album: Upheaval Of Desecration [demo]
*Year: 2019
*Genre: Black Metal
*Country: Italy
*Format: mp3@CBR320kbps
*Size: 39MB

Tracklist:
1.The Call of the Abyss Angel 05:26
2.Moan of the Nightside Goat 05:34
3.Upheaval of Desecration 06:00
******************************
Total playing time: 17:00



[more=Technical info]
Input File: 01 The Call of the Abyss Angel.mp3
Channels : 2
Sample Rate : 44100
Precision : 16-bit
Duration : 00:05:26.66 = 14405530 samples = 24499.2 CDDA sectors
File Size : 13.2M
Bit Rate : 323k
Sample Encoding: MPEG audio (layer I, II or III)
Comments :
Title=The Call of the Abyss Angel
Artist=Black Ejaculation
Album=Upheaval of Desecration
Tracknumber=1
Year=2019
Genre=Black Metal

[/more]

Register
(13) Hell_Is_Here, infiltrator, kim666, Olethros, Ostinato, randumbum, robertho777, satanist666, stub888, thenecromancer, VALERY, vasiljev_sergej, Wail,
Apr 2 2020, 01:43:39 Putrescine - Putrescent Utterance [demo] (2020)


*Artist: Putrescine
*Album: Putrescent Utterance [demo]
*Year: 2020
*Genre: Death Metal
*Country: Germany
*Format: mp3@CBR320kbps
*Size: 36MB

Tracklist:
1.Honor And Blood 04:23
2.Endless Seas Of Putrescent Cadavers 04:23
3.Deteriorated Mass 03:26
4.Bizarre Entity 03:20
******************************
Total playing time: 15:32




[more=Technical info]
Input File: 01 Honor And Blood.mp3
Channels : 2
Sample Rate : 44100
Precision : 16-bit
Duration : 00:04:23.36 = 11614088 samples = 19751.9 CDDA sectors
File Size : 10.7M
Bit Rate : 326k
Sample Encoding: MPEG audio (layer I, II or III)
Comments :
Title=Honor And Blood
Artist=Putrescine
Album=Putrescent Utterance
Tracknumber=1
Year=2020
Genre=Death Metal

[/more]

Register
(4) El_Chibo, Hell_Is_Here, infiltrator, VALERY,

167 Pages V   1 2 3 > » 
- Lo-Fi Version Support form
Copyrights and abuse reports form
Time is now: 6th April 2020 - 06:50:56