Welcome Guest ( Log In | Register )

История благодарностей участнику smysl ::: Спасибо сказали: 56350 раз(а)
Дата поста: В теме: За сообщение: Спасибо сказали:
Jun 19 2018, 01:29:31 Imperial Devastation & Deformity Br & Sangrena & Purgatory - Killing All The Posers [split] (2002)
Mega

Register
(1) dad,
Jun 18 2018, 21:12:59 Caveman Cult - Supremacía Primordial [ep] (2018)


*Artist: Caveman Cult
*Album: Supremacía Primordial [ep]
*Year: 2018
*Genre: Black/Death Metal
*Country: United States
*Format: mp3@CBR320kbps
*Size: 28MB

Tracklist:
1.Impaled Humanity Ablaze 02:44
2.Dogs of War (Exterminate the Filth) 03:04
3.Metal Negro Antihumano 02:28
4.Legions of the Black Vomit 03:36
******************************
Total playing time: 11:52



[more=Technical info]
Input File: 01 Impaled Humanity Ablaze.mp3
Channels : 2
Sample Rate : 44100
Precision : 16-bit
Duration : 00:02:44.09 = 7236237 samples = 12306.5 CDDA sectors
File Size : 6.68M
Bit Rate : 325k
Sample Encoding: MPEG audio (layer I, II or III)
Comments :
Title=Impaled Humanity Ablaze
Artist=Caveman Cult
Album=Supremacía Primordial
Tracknumber=1
Year=2018
Genre=Black/Death Metal

[/more]

Register
(26) Beazth, boba, Boozer, dad, elsunga, Hell_Is_Here, infiltrator, kim666, lunaraurora, marilin, METALHUNTER, Mist13Signifier, Necroeire, Ostinato, Rosen, RUSP73, sacrut, SilentNidhogg, skeletron215, Styx, SymbyoticEntity, Tino, VALERY, varg-38ru, vasiljev_sergej, wreak,
Jun 18 2018, 19:55:29 Skid Raid - Demo 2017 [demo] (2017)


*Artist: Skid Raid
*Album: Demo 2017 [demo]
*Year: 2017
*Genre: Black Metal/Crust
*Country: Mexico
*Format: mp3@CBR320kbps
*Size: 16MB

Tracklist:
1.Chains, Fire, Gasoline 03:11
2.Rape 03:54
******************************
Total playing time: 7:05



[more=Extended info]Erick Hidalgo - Vocals (Raped God 666, Opus Diaboli, Ash Nazg Búrz, In Obscurity Revealed)
Cesar Sanchez - Drums (Hacavitz, Drowned in Blood, Escarnium, Profanator, Xiat, Rapture)
Antimo Buonnano - Guitars, Bass, Vocals (Profanator, Castleumbra, Hacavitz, Blood Reaping, Hell Execution, Ravager, Demonized, Domain, Disgorge, Impiety, Pyphomgertum, Rapture, Warfield)[/more]

[more=Technical info]
Input File: 01 Chains, Fire, Gasoline.mp3
Channels : 2
Sample Rate : 44100
Precision : 16-bit
Duration : 00:03:11.54 = 8447046 samples = 14365.7 CDDA sectors
File Size : 7.71M
Bit Rate : 322k
Sample Encoding: MPEG audio (layer I, II or III)
Comments :
Title=Chains, Fire, Gasoline
Artist=Skid Raid
Album=Demo 2017
Tracknumber=1
Year=2017
Genre=Black Metal/Crust

[/more]

Register
(7) ctulhudagon, dad, infiltrator, Ostinato, Rosen, varg-38ru, vasiljev_sergej,
Jun 18 2018, 16:02:33 Mistress Of The Dead - Funeral Within Me [ep] (2018)


*Artist: Mistress Of The Dead
*Album: Funeral Within Me [ep]
*Year: 2018
*Genre: Funeral Doom Metal
*Country: Czech Republic
*Format: mp3@CBR320kbps
*Size: 45MB

Tracklist:
1.Reflection of Red Rose in the Black Marble Tombstone Beside Her Face 18:31
******************************
Total playing time: 18:31



[more=Technical info]
Input File: 01 Reflection of Red Rose in the Black Marble Tombstone Beside Her Face.mp3
Channels : 2
Sample Rate : 44100
Precision : 16-bit
Duration : 00:18:33.83 = 49119947 samples = 83537.3 CDDA sectors
File Size : 44.6M
Bit Rate : 320k
Sample Encoding: MPEG audio (layer I, II or III)
Comments :
Title=Reflection of Red Rose in the Black Marble Tombstone Beside Her Face
Artist=Mistress Of The Dead
Album=Funeral Within Me
Tracknumber=1
Year=2018
Genre=Funeral Doom Metal

[/more]

Register
(19) A.L.Rapsod, Buregon, ctulhudagon, Doooomed, fishish, Hell_Is_Here, igore2911, infiltrator, libertine, marilin, Necroeire, Ostinato, Rosen, sergsazan, Shadechaser, tOmV, VALERY, vovan4ic, wreak,
Jun 18 2018, 14:19:26 Krypthall & Hatehordes - At Noctis Fraternitae... [split] (2012)


*Artist: Krypthall & Hatehordes
*Album: At Noctis Fraternitae... [split]
*Year: 2012
*Genre: Raw Black Metal | Raw Black Metal
*Country: Mexico | Spain
*Format: mp3@CBR320kbps
*Size: 52MB

Tracklist:
Krypthall:
1.Nocte (Intro) - Ona Nocte in d'Foret 05:02
2.Revenge to Kill All Betrayers 04:14
3.Vinterhate 02:12
HateHordes:
4.Pure Rancid Black Metal 02:24
5.Libido Noctis 04:21
6.Blitzkrieg Bop (Ramones cover) 02:20
******************************
Total playing time: 20:33

[more=Extended info]Cassette, Wolfsvuur Records
Tape-rip + scans[/more]

[more=Technical info]
Input File: 01. Krypthall - Nocte (Intro) - Ona Nocte in D\'Foret.mp3
Channels : 2
Sample Rate : 44100
Precision : 16-bit
Duration : 00:05:02.20 = 13327196 samples = 22665.3 CDDA sectors
File Size : 12.2M
Bit Rate : 322k
Sample Encoding: MPEG audio (layer I, II or III)
Comments :
Title=Nocte (Intro) - Ona Nocte in D'Foret
Artist=Krypthall
Album=At Noctis Fraternitae...
Tracknumber=1/6
Year=2012
Genre=Black Metal

[/more]

Register
(15) 1968_janeart, Alexis The Best, Hell_Is_Here, INDARKNESS, infiltrator, kim666, Lanceatum, Ostinato, Rosen, RUSP73, sethurius, SilentNidhogg, Styx, varg-38ru, vasiljev_sergej,
Jun 18 2018, 12:54:10 Agressor - Satan's Sodomy Of Death (Demos) [compilation] (2018)
Mega

Register
(2) fuoco, Ostinato,
Jun 17 2018, 20:59:40 Imperial Devastation & Deformity Br & Sangrena & Purgatory - Killing All The Posers [split] (2002)


*Artist: Imperial Devastation & Deformity Br & Sangrena & Purgatory
*Album: Killing All The Posers [split]
*Year: 2002
*Genre: Death Metal | Death Metal | Death Metal | Death Metal
*Country: Brazil | Brazil | Brazil | Brazil
*Format: mp3@CBR320kbps
*Size: 149MB

Tracklist:
Imperial Devastation:
1.Presight of the End 03:23
2.Nightmare 04:43
3.Altar of Destruction 03:19
4.Imperial Devastation 05:07
Deformity BR:
5.Agony Yells 03:09
6.Bloody Banquet 03:00
7.Blooshed 03:44
8.Disgrace Is Coming 03:00
Sangrena:
9.Sanctuary of Fear 03:38
10.Blooshed 03:33
11.Dominion 03:02
12.Voices 02:54
Purgatory:
13.Whatching Through Religious Eyes 04:53
14.Memories 03:00
15.Bloodline 05:45
16.Human Decadence 04:51
******************************
Total playing time: 1:01:01

[more=Extended info]CD, Kill Again Records
FLAC-Rip + scans[/more]

[more=Technical info]
Input File: 01 Imperial Devastation - Presight of the End.mp3
Channels : 2
Sample Rate : 44100
Precision : 16-bit
Duration : 00:03:26.32 = 9098712 samples = 15474 CDDA sectors
File Size : 8.25M
Bit Rate : 320k
Sample Encoding: MPEG audio (layer I, II or III)
Comments :
Title=Presight of the End
Artist=Imperial Devastation
Album=Killing All the Posers
Tracknumber=1
Year=2002
Genre=Death Metal

[/more]

Register
(10) AHBAnep, FUDEDOR, INDARKNESS, infiltrator, Lanceatum, Mist13Signifier, Rosen, Tino, vyacheslav, wreak,
Jun 17 2018, 20:39:14 Agressor - Satan's Sodomy Of Death (Demos) [compilation] (2018)


*Artist: Agressor
*Album: Satan's Sodomy Of Death (Demos) [compilation]
*Year: 2018
*Genre: Death/Thrash Metal
*Country: France
*Format: mp3@CBR320kbps
*Size: 154MB

Tracklist:
1. Bloodfeast 02:50
2. Lucifers Spell 02:40
3. 666 03:27
4. Satan's Sodomy / Brainstorm 04:01
5. Uncontrolled Desire 04:54
6. Black Church 05:37
7. It's Pandemonium 01:10
8. Bloody Corpse 05:15
9. Elemental Decay 05:25
10. Dark Power 7:01
11. Neverending Destiny 03:46
12. Paralytic Disease 02:44
13. Bloody Corpse 04:47
14. Elemental Decay 04:44
******************************
Total playing time: 58:21



[more=Extended info]CD, La Cripta Metal Shop
FLAC-Rip + scans

01-03: "The Merciless Onslaught" Demo 1986
04-07: "Satan's Sodomy" Demo 1987
08-11: "Mixed Rehearsal" Demo 1988
12-14: "Orbital Distortion" Demo 1989[/more]

[more=Technical info]
Input File: 01 Bloodfeast.mp3
Channels : 2
Sample Rate : 44100
Precision : 16-bit
Duration : 00:02:53.13 = 7634989 samples = 12984.7 CDDA sectors
File Size : 6.93M
Bit Rate : 320k
Sample Encoding: MPEG audio (layer I, II or III)
Comments :
Title=Bloodfeast
Artist=Agressor
Album=Satan's Sodomy of Death (Demos)
Tracknumber=1
Year=2018
Genre=Death Metal

[/more]

Register
(18) boby9052, cancer1974, Diflock, FUDEDOR, Hell_Is_Here, infiltrator, marilin, martintrue, METALHUNTER, milosdjor, neoatheist, Rosen, thenecromancer, Tino, troll_swamp, vyacheslav, wreak, WX419,
Jun 16 2018, 17:19:19 Pissblood - Pissblood (2018)


*Artist: Pissblood
*Album: Pissblood
*Year: 2018
*Genre: Black Metal/Punk/D-beat
*Country: United States
*Format: mp3@CBR320kbps
*Size: 49MB

Tracklist:
1.--- 01:48
2.Smashed Knees 03:52
3.Decimate / Crucify 01:34
4.Chains 03:28
5.Purged Blood 01:30
6.Acid Burn 02:21
7.Eliminated Life 03:54
8.Piss Fucking Blood 02:40
******************************
Total playing time: 21:07



[more=Technical info]
Input File: 02 Smashed Knees.mp3
Channels : 2
Sample Rate : 44100
Precision : 16-bit
Duration : 00:03:52.44 = 10250428 samples = 17432.7 CDDA sectors
File Size : 9.48M
Bit Rate : 326k
Sample Encoding: MPEG audio (layer I, II or III)
Comments :
Title=Smashed Knees
Artist=Pissblood
Album=Pissblood
Tracknumber=2
Year=2018
Genre=Other

[/more]

Register
(11) erthrt, infiltrator, marilin, Moonshtook, Ostinato, Rosen, system36, Trelledorn, VALERY, wgs73, wreak,
Jun 16 2018, 16:31:58 Vazio - Vazio [ep] (2017)


*Artist: Vazio
*Album: Vazio [ep]
*Year: 2017
*Genre: Black Metal
*Country: Brazil
*Format: mp3@CBR320kbps
*Size: 63MB

Tracklist:
1. Eterno Vazio 06:02
2. Sombras de um Passado Antigo 03:34
3. Monumentos da Decadência 02:32
4. Decomposição da Alma 00:54
5. Além dos Limites da Criação 04:30
6. Na Escuridão Reinamos Livres 03:38
7. Raciocínio Oculto 04:46
******************************
Total playing time: 25:56




[more=Technical info]
Input File: 01 Eterno vazio.mp3
Channels : 2
Sample Rate : 44100
Precision : 16-bit
Duration : 00:06:02.59 = 15990219 samples = 27194.2 CDDA sectors
File Size : 14.7M
Bit Rate : 324k
Sample Encoding: MPEG audio (layer I, II or III)
Comments :
Title=Eterno vazio
Artist=Vazio
Album=Vazio
Tracknumber=1
Year=2017
Genre=Black Metal

[/more]

Register
(10) 1968_janeart, Ildjarn, infiltrator, kim666, Rosen, SilentNidhogg, VALERY, varg-38ru, vasiljev_sergej, xbajo,
Jun 16 2018, 15:57:14 Various Artists - A Tribute To Possessed: Seven Burning Churches [compilation] (2016)


*Artist: Various Artists
*Album: A Tribute To Possessed: Seven Burning Churches [compilation]
*Year: 2016
*Genre: Death/Thrash/Black Metal
*Country: Many
*Format: mp3@CBR320kbps
*Size: 124MB

Tracklist:
1.Pyre - The Exorcist 05:08
2.Decease - Pentagram 03:35
3.Violentor - Burning In Hell 03:01
4.Bestiality - Evil Warriors 03:45
5.Hell Patrol - Seven Churches 03:01
6.Septory - Satans Curse 04:13
7.Terrör Striker - Holy Hell 04:32
8.Sichgart - Twisted Minds 05:02
9.Grond - Fallen Angel 04:37
10.Castrum - Death Metal 02:57
11.Regressive - Swing Of The Axe 04:16
******************************
Total playing time: 44:07



[more=Extended info]CD, More Hate Productions
+ scans[/more]

[more=Technical info]
Input File: 01 Pyre - The Exorcist.mp3
Channels : 2
Sample Rate : 44100
Precision : 16-bit
Duration : 00:05:08.83 = 13619183 samples = 23161.9 CDDA sectors
File Size : 12.4M
Bit Rate : 322k
Sample Encoding: MPEG audio (layer I, II or III)
Comments :
Title=The Exorcist
Artist=Pyre
Album=A Tribute To Possessed: Seven Burning Churches
Tracknumber=1
Year=2016
Genre=Metal

[/more]

Register
(13) Boozer, DarkHorde, Hell_Is_Here, infiltrator, marilin, Moonshtook, Ostinato, Pinhead666, Rosen, thenecromancer, uk82, vasiljev_sergej, wreak,
Jun 16 2018, 14:48:52 Blasphamagoatachrist - Black Metal Warfare [demo] (2018)


*Artist: Blasphamagoatachrist
*Album: Black Metal Warfare [demo]
*Year: 2018
*Genre: Black/Death Metal
*Country: International
*Format: mp3@CBR320kbps
*Size: 48MB

Tracklist:
1. Ze Blasphamagoatachrist Machine 02:14
2. Tyrannic Empire 02:46
3. Blasphamagoatachrist 03:27
4. Black Metal Warfare 03:42
5. Fire Demons of Blokula 04:46
6. The Final Blood Orgy 02:28
7. Ravens Soaring Over Ross Bay 01:23
******************************
Total playing time: 20:46



[more=Extended info]International project (Brazil/Canada)

Sabbaoth - Bass (Goatpenis, Suppurated Fetus, Seven Deadly Sins)
T. Antichrist - Drums (Antichrist)
Virrugus Apocalli - Guitar (Goatpenis, By Disgrace of God)
Nocturnal Grave Desecrator and Black Winds - Vocals (Blasphemy, Death Worship, Apostacy)[/more]

[more=Technical info]
Input File: 02 Tyrannic Empire.mp3
Channels : 2
Sample Rate : 44100
Precision : 16-bit
Duration : 00:02:46.78 = 7355174 samples = 12508.8 CDDA sectors
File Size : 6.73M
Bit Rate : 323k
Sample Encoding: MPEG audio (layer I, II or III)
Comments :
Title=Tyrannic Empire
Artist=Blasphamagoatachrist
Album=Black Metal Warfare
Tracknumber=2
Year=2018
Genre=Black Metal

[/more]

Register
(41) 3891, acerbus, babanguida, biroutios, Boozer, cancer1974, CORROSIOR, Daale, desekrator, Disgorge666, Doooomed, FUDEDOR, Hell_Is_Here, Infernal_RadioMA, kefka, LazarShadow, LEGION69, marilin, metal73, Moonshtook, Ostinato, Pinhead666, Razorbladeswaltz, Rosen, RUSP73, sacrut, sethurius, SilentNidhogg, Styx, thenecromancer, Thunderbird, Tino, VALERY, varg-38ru, vasiljev_sergej, VECTOR, vyacheslav, wgs73, Wolftribes, wolverine, wreak,
Jun 16 2018, 01:02:35 Ancient Crypt - Centuries Of Silent Slumber (2018)


*Artist: Ancient Crypt
*Album: Centuries Of Silent Slumber
*Year: 2018
*Genre: Dungeon Synth/Ambient
*Country: United States
*Format: mp3@CBR320kbps
*Size: 97MB

Tracklist:
1.Aeons of Unending Night 09:02
2.Entombed Beneath Crumbling Mountains 07:21
3.Hidden in Sylvan Vastnesses 07:30
4.Buried Temple 09:24
5.Sunken Tomb 09:11
******************************
Total playing time: 42:28



[more=Technical info]
Input File: 01 Aeons of Unending Night.mp3
Channels : 2
Sample Rate : 44100
Precision : 16-bit
Duration : 00:09:02.67 = 23931703 samples = 40700.2 CDDA sectors
File Size : 21.8M
Bit Rate : 322k
Sample Encoding: MPEG audio (layer I, II or III)
Comments :
Title=Aeons of Unending Night
Artist=Ancient Crypt
Album=Centuries of Silent Slumber
Tracknumber=1
Year=2018
Genre=Dungeon Synth

[/more]

Register
(4) Anhra Mainyu, Dreamtale, Moonshtook, spiritualdecay666,
Jun 15 2018, 17:05:05 ...Do Fundo... Abismo - Ecos...Lamúrias [single] (2018)


*Artist: ...Do Fundo... Abismo
*Album: Ecos...Lamúrias [single]
*Year: 2018
*Genre: Death/Doom Metal
*Country: Brazil
*Format: mp3@CBR320kbps
*Size: 36MB

Tracklist:
1.Ecos... Lamúrias 15:53
******************************
Total playing time: 15:53




[more=Technical info]
Input File: 01. Ecos... Lam?rias.mp3
Channels : 2
Sample Rate : 44100
Precision : 16-bit
Duration : 00:15:54.06 = 42073958 samples = 71554.4 CDDA sectors
File Size : 38.3M
Bit Rate : 321k
Sample Encoding: MPEG audio (layer I, II or III)
Comments :
Title=Ecos... LamГєrias
Artist=...Do Fundo... Abismo
Album=Ecos... LamГєrias
Tracknumber=1
Year=2018
Genre=Death/Doom Metal

[/more]

Register
(7) ctulhudagon, infiltrator, Rosen, Shadechaser, VALERY, vyacheslav, wreak,
Jun 15 2018, 14:24:02 Förfalla - Fleshrouds [ep] (2018)


*Artist: Förfalla
*Album: Fleshrouds [ep]
*Year: 2018
*Genre: Black/Doom Metal
*Country: Australia
*Format: mp3@CBR320kbps
*Size: 32MB

Tracklist:
1.Fleshrouds 11:03
******************************
Total playing time: 11:03




[more=Extended info]Tom Void - Everything (Thrall, Thy Plagues)[/more]

[more=Technical info]
Input File: 01 Fleshrouds.mp3
Channels : 2
Sample Rate : 44100
Precision : 16-bit
Duration : 00:11:03.13 = 29244077 samples = 49734.8 CDDA sectors
File Size : 26.6M
Bit Rate : 321k
Sample Encoding: MPEG audio (layer I, II or III)
Comments :
Title=Fleshrouds
Artist=Förfalla
Album=Fleshrouds
Tracknumber=1
Year=2018
Genre=Black/Doom Metal

[/more]

Register
(15) 1968_janeart, ctulhudagon, gena, infiltrator, marilin, Ostinato, Precaria, Rosen, sergsazan, SilentNidhogg, stub888, VALERY, varg-38ru, vasiljev_sergej, wreak,
Jun 15 2018, 12:46:27 Erebos - Pesta Kommer (2018)


*Artist: Erebos
*Album: Pesta Kommer
*Year: 2018
*Genre: Atmospheric Black Metal
*Country: Poland
*Format: mp3@CBR320kbps
*Size: 76MB

Tracklist:
1.Pesta Kommer 03:48
2.Gdy Noc Blada Opanować Chce Niebiosy 02:52
3.Szepcąc Do Cieni 06:53
4.Księżyca Pożar Blady 03:30
5.Nicość... (Srogość cover) 05:08
6.Wieczność w Swych Otchłaniach Śpiąca 03:39
7.Wśród Ciemnicy 07:18
******************************
Total playing time: 33:08




[more=Extended info]Instrumental[/more]

[more=Technical info]
Input File: 01 Pesta Kommer.mp3
Channels : 2
Sample Rate : 44100
Precision : 16-bit
Duration : 00:03:48.10 = 10059166 samples = 17107.4 CDDA sectors
File Size : 9.25M
Bit Rate : 324k
Sample Encoding: MPEG audio (layer I, II or III)
Comments :
Title=Pesta Kommer
Artist=Erebos
Album=Pesta Kommer
Tracknumber=1
Year=2018
Genre=Black Metal

[/more]

Register
(21) 1968_janeart, 1nquis, gav-gafi, gena, Indamage, infiltrator, kim666, Korpse, LEGION69, metala, Ostinato, Radek, Rosen, satanist666, Shadechaser, SilentNidhogg, stone88, Tino, undeadlich, VALERY, varg-38ru,
Jun 15 2018, 01:03:14 Wyver - Wyver [demo] (2016)


*Artist: Wyver
*Album: Wyver [demo]
*Year: 2016
*Genre: Dungeon Synth/Ambient
*Country: United States
*Format: mp3@CBR320kbps
*Size: 48MB

Tracklist:
1.Dark and Foreboding Dreams in the Cavernous Slumber 04:13
2.A Hidden Pathway (Under the Shadow of the Mountain) 04:05
3.Smoke Rises from the Moonlit Crevasse 07:16
4.Mysterious Visions in the Subterranean Stream 04:08
5.Outro (Floating Orbs at the Mouth of the Cave) 01:09
******************************
Total playing time: 20:51




[more=Technical info]
Input File: 01 Dark and Foreboding Dreams in the Cavernous Slumber.mp3
Channels : 2
Sample Rate : 44100
Precision : 16-bit
Duration : 00:04:13.21 = 11166341 samples = 18990.4 CDDA sectors
File Size : 10.2M
Bit Rate : 323k
Sample Encoding: MPEG audio (layer I, II or III)
Comments :
Title=Dark and Foreboding Dreams in the Cavernous Slumber
Artist=Wyver
Album=Wyver
Tracknumber=1
Year=2016
Genre=Dungeon Synth

[/more]

Register
(3) Emhyr var Emreis, Moonshtook, spiritualdecay666,
Jun 14 2018, 22:46:18 Ashen Chalice - Kroz Život Sa Razbijenim Očima (2018)


*Artist: Ashen Chalice
*Album: Kroz Život Sa Razbijenim Očima
*Year: 2018
*Genre: Raw Black Metal/Ambient/Noise
*Country: Croatia
*Format: mp3@CBR320kbps
*Size: 126MB

Tracklist:
1.Fragment I 02:05
2.Odron Svjetla 08:56
3.Fragment II 03:11
4.Ti koja stojiš ispred vrata kaosa i trgaš mi dušu (DCCLXII) 10:39
5.Fragment III 03:27
6.Kroz život sa razbijenim očima 12:44
7.Blatne duše postojim dalje 10:46
8.Fragment IV 03:12
******************************
Total playing time: 55:00



[more=Technical info]
Input File: 02 Odron Svjetla.mp3
Channels : 2
Sample Rate : 44100
Precision : 16-bit
Duration : 00:08:56.35 = 23652903 samples = 40226 CDDA sectors
File Size : 21.6M
Bit Rate : 322k
Sample Encoding: MPEG audio (layer I, II or III)
Comments :
Title=Odron Svjetla
Artist=Ashen Chalice
Album=Kroz Еѕivot sa razbijenim oДЌima
Tracknumber=2
Year=2018
Genre=Black Metal

[/more]

Register
(10) 1968_janeart, Alexis The Best, artscald, infiltrator, Moonshtook, Rosen, RUSP73, stub888, varg-38ru, vasiljev_sergej,
Jun 14 2018, 21:59:07 Old Sorcery - Realms Of Magickal Sorrow (2017)


*Artist: Old Sorcery
*Album: Realms Of Magickal Sorrow
*Year: 2017
*Genre: Dungeon Synth/Ambient
*Country: Finland
*Format: mp3@CBR320kbps
*Size: 103MB

Tracklist:
1.Sorcerer's Dream 12:02
2.Vaikerruksen Portti 04:24
3.A Lost Soul Amid the Listening Trees 09:12
4.In a Forest Trapped 05:24
5.Further Beyond the Melancholic Horizon 13:44
******************************
Total playing time: 44:46




[more=Technical info]
Input File: 01 Sorcerer\'s Dream.mp3
Channels : 2
Sample Rate : 44100
Precision : 16-bit
Duration : 00:12:02.15 = 31846683 samples = 54161 CDDA sectors
File Size : 29.0M
Bit Rate : 321k
Sample Encoding: MPEG audio (layer I, II or III)
Comments :
Title=Sorcerer's Dream
Artist=Old Sorcery
Album=Realms of Magickal Sorrow
Tracknumber=1
Year=2017
Genre=Dungeon Synth

[/more]

Register
(3) spiritualdecay666, undeadlich, Vlosinssrigg,
Jun 14 2018, 15:45:36 Obsidian Shrine - Anno Domini Satanas (2018)


*Artist: Obsidian Shrine
*Album: Anno Domini Satanas
*Year: 2018
*Genre: Black Metal
*Country: United States
*Format: mp3@CBR320kbps
*Size: 94MB

Tracklist:
1. Descension 00:33
2. Miserable Creator 06:07
3. Anno Domini Satanas 06:03
4. Armageddon Warriors 04:03
5. ...and the Blood Flows like Wine 04:15
6. Darkness Falls 02:03
7. Nox Aeterna 07:56
8. Raped by a Demon 04:17
9. Sacrifice the Scripture 08:46
******************************
Total playing time: 44:03




[more=Technical info]
Input File: 02. Miserable Creator.mp3
Channels : 2
Sample Rate : 44100
Precision : 16-bit
Duration : 00:06:07.19 = 16192991 samples = 27539.1 CDDA sectors
File Size : 14.8M
Bit Rate : 322k
Sample Encoding: MPEG audio (layer I, II or III)
Comments :
Title=Miserable Creator
Artist=Obsidian Shrine
Album=Anno Domini Satanas
Tracknumber=02
Year=2018
Genre=Black Metal

[/more]

Register
(15) 1968_janeart, Hell_Is_Here, Ildjarn, kim666, Korpse, Ostinato, peppuzzo, Razorbladeswaltz, Rosen, satanist666, stub888, SyncestrA, VALERY, varg-38ru, wreak,
Jun 14 2018, 01:12:53 Nethermost Majesty - Acuitas [ep] (2015)


*Artist: Nethermost Majesty
*Album: Acuitas [ep]
*Year: 2015
*Genre: Black Metal
*Country: United States
*Format: mp3@CBR320kbps
*Size: 54MB

Tracklist:
1.The Witness 01:31
2.Pestifer 04:33
3.Hosanna! 07:06
4.God's Poison 06:37
5.Tsalmavet 03:34
******************************
Total playing time: 23:21



[more=Technical info]
Input File: 02 Pestifer.mp3
Channels : 2
Sample Rate : 44100
Precision : 16-bit
Duration : 00:04:33.92 = 12079960 samples = 20544.1 CDDA sectors
File Size : 11.1M
Bit Rate : 325k
Sample Encoding: MPEG audio (layer I, II or III)
Comments :
Title=Pestifer
Artist=Nethermost Majesty
Album=Acuitas EP
Tracknumber=2
Year=2015
Genre=Black Metal

[/more]

Register
(12) 1968_janeart, infiltrator, kim666, nsk2008, Rosen, satanist666, SilentNidhogg, stub888, VALERY, varg-38ru, vasiljev_sergej, wreak,
Jun 14 2018, 01:02:54 Christ Dismembered - Spit Forth Your Lies [single] (2018)


*Artist: Christ Dismembered
*Album: Spit Forth Your Lies [single]
*Year: 2018
*Genre: Black Metal
*Country: Australia
*Format: mp3@CBR320kbps
*Size: 11MB

Tracklist:
1.Spit Forth Your Lies 04:33
******************************
Total playing time: 4:33





[more=Technical info]
Input File: Christ Dismembered - Spit Forth Your Lies.mp3
Channels : 2
Sample Rate : 44100
Precision : 16-bit
Duration : 00:04:34.03 = 12084591 samples = 20552 CDDA sectors
File Size : 11.1M
Bit Rate : 324k
Sample Encoding: MPEG audio (layer I, II or III)
Comments :
Title=Spit Forth Your Lies
Artist=Christ Dismembered
Album=Spit Forth Your Lies
Year=2018
Genre=Black Metal

[/more]

Register
(7) Hell_Is_Here, Ildjarn, Rosen, satanist666, vasiljev_sergej, vovenom, wreak,
Jun 13 2018, 16:14:12 Kshatriya - Il Viaggio Dell'Eroe (2017)


*Artist: Kshatriya
*Album: Il Viaggio Dell'Eroe
*Year: 2017
*Genre: Black Metal
*Country: Italy
*Format: mp3@CBR320kbps
*Size: 128MB

Tracklist:
1.Apertura 05:36
2.Ritorno a Malkhut 06:12
3.La Dimora di Maharaj 08:32
4.Conquista dell'Arma 05:44
5.Tra le Stanze del Castello 08:31
6.Le Rovine di Ahamkara 05:44
7.Evocazione, Lotta e Sconfitta 12:31
8.Conclusione 02:32
******************************
Total playing time: 55:22




[more=Technical info]
Input File: 02 Ritorno a Malkhut.mp3
Channels : 2
Sample Rate : 44100
Precision : 16-bit
Duration : 00:06:12.94 = 16446478 samples = 27970.2 CDDA sectors
File Size : 15.1M
Bit Rate : 323k
Sample Encoding: MPEG audio (layer I, II or III)
Comments :
Title=Ritorno a Malkhut
Artist=KSHATRIYA
Album=Il Viaggio dell'Eroe
Tracknumber=2
Year=2017
Genre=Black Metal

[/more]

Register
(18) 1968_janeart, Ildjarn, infiltrator, kim666, Korpse, Moonshtook, nsk2008, Ostinato, Rosen, satanist666, SilentNidhogg, stub888, SyncestrA, Tino, VALERY, varg-38ru, vasiljev_sergej, Vlosinssrigg,
Jun 13 2018, 12:44:01 Illness - Trvmna [ep] (2015)


*Artist: Illness
*Album: Trvmna [ep]
*Year: 2015
*Genre: Black Metal
*Country: International
*Format: mp3@CBR320kbps
*Size: 64MB

Tracklist:
1. Intro 02:11
2. Trvmna 03:18
3. Dødskyggen 06:06
4. The Kingdom Comes (Mysticum cover) 04:53
5. Grobowa Mgła 03:42
6. Cranium 03:59
******************************
Total playing time: 24:09




[more=Extended info]International project (Norway/Poland)
CD, Metallic Media/Black Plague Records
+ scans[/more]

[more=Technical info]
Input File: 02 Trvmna.mp3
Channels : 2
Sample Rate : 44100
Precision : 16-bit
Duration : 00:03:19.89 = 8815237 samples = 14991.9 CDDA sectors
File Size : 8.00M
Bit Rate : 320k
Sample Encoding: MPEG audio (layer I, II or III)
Comments :
Title=Trvmna
Artist=Illness
Album=Trvmna
Tracknumber=2
Year=2015
Genre=Black Metal

[/more]

Register
(13) 1968_janeart, Ildjarn, infiltrator, kim666, nsk2008, Ostinato, Rosen, satanist666, SilentNidhogg, Sjelekval, VALERY, varg-38ru, vasiljev_sergej,
Jun 13 2018, 11:19:55 Cruel Master - Demo V [demo] (2018)


*Artist: Cruel Master
*Album: Demo V [demo]
*Year: 2018
*Genre: Black Metal/Punk
*Country: United States
*Format: mp3@CBR320kbps
*Size: 46MB

Tracklist:
1.Lecherous 02:58
2.Naked & Bleeding 03:56
3.Tortuous Death 03:19
4.Your Sacrifice 02:19
5.Depopulate 03:20
6.Become Nothing 03:55
******************************
Total playing time: 19:47



[more=Technical info]
Input File: 01 Lecherous.mp3
Channels : 2
Sample Rate : 44100
Precision : 16-bit
Duration : 00:02:58.67 = 7879391 samples = 13400.3 CDDA sectors
File Size : 7.18M
Bit Rate : 322k
Sample Encoding: MPEG audio (layer I, II or III)
Comments :
Title=Lecherous
Artist=Cruel Master
Album=Demo V
Tracknumber=1
Year=2018
Genre=Black Metal

[/more]

Register
(7) Alexis The Best, FUDEDOR, kim666, Rosen, RUSP73, stub888, varg-38ru,

153 Pages V   1 2 3 > » 
- Lo-Fi Version Support form
Copyrights and abuse reports form
Time is now: 15th August 2018 - 21:12:47