Welcome Guest ( Log In | Register )

История благодарностей участнику smysl ::: Спасибо сказали: 57636 раз(а)
Дата поста: В теме: За сообщение: Спасибо сказали:
Jan 11 2019, 01:58:29 Karanlık & Ohol Yeg - We Despise The Crescent [split] (2018)


*Artist: Karanlık & Ohol Yeg
*Album: We Despise The Crescent [split]
*Year: 2018
*Genre: Black Metal | Black Metal
*Country: Turkey | Turkey
*Format: mp3@CBR320kbps
*Size: 48MB

Tracklist:
Karanlık:
1.Widowmaker 03:11
2.In League with Lucifer 03:20
3.Defile the Holy Lands 03:05
Ohol Yeg:
4.Burning Crescents 02:51
5.Orbiting the Infinite Void 04:57
6.Primal Demise 03:17
******************************
Total playing time: 20:41





[more=Technical info]
Input File: 01 Karanlık - Widowmaker.mp3
Channels : 2
Sample Rate : 44100
Precision : 16-bit
Duration : 00:03:11.26 = 8434390 samples = 14344.2 CDDA sectors
File Size : 7.74M
Bit Rate : 324k
Sample Encoding: MPEG audio (layer I, II or III)
Comments :
Title=Widowmaker
Artist=KARANLIK
Album=We Despise the Crescent (Split)
Tracknumber=1
Year=2018
Genre=Black Metal

[/more]

Register
(16) 1968_janeart, artscald, kim666, lestllk, marilin, Maximvs, recber, satanist666, SilentNidhogg, Thunderbird, udt4050, varg-38ru, varlam4, vasiljev_sergej, vovenom, Герб,
Jan 10 2019, 19:44:46 Cruel Master - Demo VI [demo] (2018)


*Artist: Cruel Master
*Album: Demo VI [demo]
*Year: 2018
*Genre: Black Metal/Punk
*Country: United States
*Format: mp3@CBR320kbps
*Size: 51MB

Tracklist:
1.Rohypnol Romance 05:26
2.Exposer 04:26
3.The Beast 04:29
4.Midnight Voyeur 03:44
5.Smashed 04:04
******************************
Total playing time: 22:09



[more=Technical info]
Input File: 01 Rohypnol Romance.mp3
Channels : 2
Sample Rate : 44100
Precision : 16-bit
Duration : 00:05:26.71 = 14407823 samples = 24503.1 CDDA sectors
File Size : 13.1M
Bit Rate : 322k
Sample Encoding: MPEG audio (layer I, II or III)
Comments :
Title=Rohypnol Romance
Artist=Cruel Master
Album=Demo VI
Tracknumber=1
Year=2018
Genre=Black Metal

[/more]

Register
(11) Alexis The Best, artscald, kim666, Olethros, Razorbladeswaltz, RUSP73, satanist666, stub888, varg-38ru, varlam4, vasiljev_sergej,
Jan 10 2019, 19:30:14 Gallery Of Shame - Absolute Silence [demo] (2018)


*Artist: Gallery Of Shame
*Album: Absolute Silence [demo]
*Year: 2018
*Genre: Raw Black Metal
*Country: Canada
*Format: mp3@CBR320kbps
*Size: 46MB

Tracklist:
1. Absolute Silence
2. Punishment
3. Essence Removal
******************************
Total playing time: 19:49



[more=Technical info]
Input File: 01 absolute silence-punishment-essence removal.mp3
Channels : 2
Sample Rate : 44100
Precision : 16-bit
Duration : 00:19:49.63 = 52462815 samples = 89222.5 CDDA sectors
File Size : 47.8M
Bit Rate : 322k
Sample Encoding: MPEG audio (layer I, II or III)
Comments :
Title=absolute silence/punishment/essence removal
Artist=gallery of shame
Album=absolute silence
Tracknumber=1
Year=2018
Genre=Black Metal

[/more]

Register
(11) 1968_janeart, artscald, kim666, Olethros, satanist666, SilentNidhogg, stub888, udt4050, varg-38ru, varlam4, vasiljev_sergej,
Jan 10 2019, 02:15:24 Aasfresser - Und Mit Der Pestkapelle Kam Der Schwarze Tod [ep] (2018)


*Artist: Aasfresser
*Album: Und Mit Der Pestkapelle Kam Der Schwarze Tod [ep]
*Year: 2018
*Genre: Black Metal
*Country: Germany
*Format: mp3@CBR320kbps
*Size: 43MB

Tracklist:
1.Jenseits des kalten Mondes 08:22
2.Begraben und Vergessen 04:45
3.Vorspiel zur Pestkapelle 01:40
4.Pestkapelle / Ausklang 03:49
******************************
Total playing time: 18:36



[more=Technical info]
Input File: 01 Jenseits des kalten Mondes.mp3
Channels : 2
Sample Rate : 44100
Precision : 16-bit
Duration : 00:08:22.50 = 22160074 samples = 37687.2 CDDA sectors
File Size : 20.2M
Bit Rate : 321k
Sample Encoding: MPEG audio (layer I, II or III)
Comments :
Title=Jenseits des kalten Mondes
Artist=Aasfresser
Album=Und mit der Pestkapelle kam der Schwarze Tod
Tracknumber=1
Year=2018
Genre=Black Metal

[/more]

Register
(14) 1968_janeart, artscald, kim666, Krosis, lestllk, murian, Occultas, Olethros, Ostinato, SilentNidhogg, udt4050, varg-38ru, varlam4, zotyo1975,
Jan 10 2019, 02:05:46 Nebelschwaden - Trauer [ep] (2017)


*Artist: Nebelschwaden
*Album: Trauer [ep]
*Year: 2017
*Genre: Depressive Black Metal
*Country: Germany
*Format: mp3@CBR320kbps
*Size: 44MB

Tracklist:
1.Trauer 14:12
2.Summertime Depression (re-recorded) 05:11
******************************
Total playing time: 19:23




[more=Technical info]
Input File: 01 Trauer.mp3
Channels : 2
Sample Rate : 44100
Precision : 16-bit
Duration : 00:14:12.61 = 37600013 samples = 63945.6 CDDA sectors
File Size : 34.2M
Bit Rate : 320k
Sample Encoding: MPEG audio (layer I, II or III)
Comments :
Title=Trauer
Artist=Nebelschwaden
Album=Trauer
Tracknumber=1
Year=2017
Genre=Black Metal

[/more]

Register
(13) 1968_janeart, artscald, kim666, lestllk, Olethros, Ostinato, SilentNidhogg, stub888, udt4050, varg-38ru, varlam4, volostakoeto, zotyo1975,
Jan 9 2019, 23:44:25 Putrefiance - Demo 2018 [demo] (2018)


*Artist: Putrefiance
*Album: Demo 2018 [demo]
*Year: 2018
*Genre: Old School Death Metal
*Country: France
*Format: mp3@CBR320kbps
*Size: 59MB

Tracklist:
1.None Shall Be 03:14
2.Magnificent Putridity 03:09
3.Mental Lesion 03:22
4.Ritualistic Necromancy 02:05
5.Morbid Face of Desolation 04:01
6.Order from Malevolence 02:57
7.Thermonuclear Devastation (Onslaught cover) 01:21
8.Voices of Pandemia 02:44
******************************
Total playing time: 22:53



[more=Technical info]
Input File: 01 None Shall Be.mp3
Channels : 2
Sample Rate : 44100
Precision : 16-bit
Duration : 00:03:14.21 = 8564573 samples = 14565.6 CDDA sectors
File Size : 8.04M
Bit Rate : 331k
Sample Encoding: MPEG audio (layer I, II or III)
Comments :
Title=None Shall Be
Artist=Putrefiance
Album=Demo 2018
Tracknumber=1
Year=2018
Genre=Death Metal

[/more]

Register
(8) artscald, Hell_Is_Here, Olethros, Ostinato, Spork, varlam4, zhol, Герб,
Jan 9 2019, 23:34:37 Street Tombs - Demo [demo] (2018)


*Artist: Street Tombs
*Album: Demo [demo]
*Year: 2018
*Genre: Old School Death/Thrash Metal
*Country: United States
*Format: mp3@CBR320kbps
*Size: 46MB

Tracklist:
1.Paralysis 03:29
2.Rotting Ruins 04:13
3.Trash Planet 03:14
4.Web of Death 06:28
******************************
Total playing time: 17:24



[more=Technical info]
Input File: 01 Paralysis.mp3
Channels : 2
Sample Rate : 44100
Precision : 16-bit
Duration : 00:03:29.88 = 9255796 samples = 15741.1 CDDA sectors
File Size : 8.53M
Bit Rate : 325k
Sample Encoding: MPEG audio (layer I, II or III)
Comments :
Title=Paralysis
Artist=Street Tombs
Album=Demo
Tracknumber=1
Year=2018
Genre=Death Metal

[/more]

Register
(6) artscald, Diflock, Hell_Is_Here, Olethros, Ostinato, varlam4,
Jan 9 2019, 18:49:13 Charnel Altar - Charnel Altar [demo] (2019)


*Artist: Charnel Altar
*Album: Charnel Altar [demo]
*Year: 2019
*Genre: Death Metal
*Country: Australia
*Format: mp3@CBR320kbps
*Size: 64MB

Tracklist:
1.Caverns of the Hypogeum 08:56
2.Universal Supplication 04:20
3.Acephalic Worms 06:24
4.Necrotic Vaults 07:59
******************************
Total playing time: 27:39




[more=Technical info]
Input File: 01 Caverns of the Hypogeum.mp3
Channels : 2
Sample Rate : 44100
Precision : 16-bit
Duration : 00:08:56.54 = 23661194 samples = 40240.1 CDDA sectors
File Size : 21.5M
Bit Rate : 321k
Sample Encoding: MPEG audio (layer I, II or III)
Comments :
Title=Caverns of the Hypogeum
Artist=Charnel Altar
Album=Demo
Tracknumber=1
Year=2019
Genre=Death Metal

[/more]

Register
(9) artscald, Beazth, denver, Hell_Is_Here, marilin, Olethros, Ostinato, varlam4, Герб,
Jan 9 2019, 06:30:41 Hexekration Rites - Demo XXMVIII [demo] (2018)


*Artist: Hexekration Rites
*Album: Demo XXMVIII [demo]
*Year: 2018
*Genre: Black/Death Metal
*Country: France
*Format: mp3@CBR320kbps
*Size: 27MB

Tracklist:
1.Unsubmission Chant 05:52
2.Chaos Absolution 04:46
******************************
Total playing time: 10:38





[more=Extended info]Cassette, Atavism Records[/more]

[more=Technical info]
Input File: 01 Unsubmission Chant.mp3
Channels : 2
Sample Rate : 44100
Precision : 16-bit
Duration : 00:05:52.60 = 15549528 samples = 26444.8 CDDA sectors
File Size : 14.4M
Bit Rate : 327k
Sample Encoding: MPEG audio (layer I, II or III)
Comments :
Title=Unsubmission Chant
Artist=Hexekration Rites
Album=Demo MMXVIII
Tracknumber=1
Year=2018
Genre=Black/Death Metal

[/more]

Register
(11) artscald, Hell_Is_Here, lestllk, marilin, Olethros, Ostinato, satanist666, SilentNidhogg, varlam4, vasiljev_sergej, Wolftribes,
Jan 9 2019, 05:31:51 Helvellyn - Woods Of The Forgotten [ep] (2018)


*Artist: Helvellyn
*Album: Woods Of The Forgotten [ep]
*Year: 2018
*Genre: Black Metal
*Country: United Kingdom
*Format: mp3@CBR320kbps
*Size: 63MB

Tracklist:
1.Fallen Empire 05:29
2.Dethroned 07:22
3.Blooded Thorns 04:07
4.Woods Of The Forgotten 05:00
5.The Mist 05:28
******************************
Total playing time: 27:26




[more=Technical info]
Input File: 01 Fallen Empire.mp3
Channels : 2
Sample Rate : 44100
Precision : 16-bit
Duration : 00:05:29.82 = 14544930 samples = 24736.3 CDDA sectors
File Size : 13.3M
Bit Rate : 323k
Sample Encoding: MPEG audio (layer I, II or III)
Comments :
Title=Fallen Empire
Artist=Helvellyn
Album=Woods Of The Forgotten
Tracknumber=1
Year=2018
Genre=Black Metal

[/more]

Register
(16) 1968_janeart, artscald, Forest Silence, kim666, lestllk, Olethros, Ostinato, satanist666, SilentNidhogg, stub888, thenecromancer, udt4050, varlam4, vasiljev_sergej, vovenom, Абигор,
Jan 9 2019, 04:30:19 Demiurge - Trismegistus (2017)


*Artist: Demiurge
*Album: Trismegistus
*Year: 2017
*Genre: Atmospheric Black Metal
*Country: United States
*Format: mp3@CBR320kbps
*Size: 107MB

Tracklist:
1.Ain 01:29
2.Sacral Gnosis 09:59
3.Interred In Stone 07:00
4.Sephirot 08:43
5.Plexus Manifest 08:00
6.Absolution 08:38
******************************
Total playing time: 43:49




[more=Technical info]
Input File: 02 Sacral Gnosis.mp3
Channels : 2
Sample Rate : 44100
Precision : 16-bit
Duration : 00:09:59.13 = 26421545 samples = 44934.6 CDDA sectors
File Size : 24.1M
Bit Rate : 322k
Sample Encoding: MPEG audio (layer I, II or III)
Comments :
Title=Sacral Gnosis
Artist=Demiurge
Album=Trismegistus
Tracknumber=2
Year=2017
Genre=Black Metal

[/more]

Register
(14) 1968_janeart, ahp, artscald, Hell_Is_Here, kim666, metala, Ostinato, satanist666, stub888, udt4050, varlam4, vasiljev_sergej, vovenom, Абигор,
Jan 9 2019, 03:40:39 Atra Mors & Torver - Beyond The Shadows [split] (2018)


*Artist: Atra Mors & Torver
*Album: Beyond The Shadows [split]
*Year: 2018
*Genre: Black Metal | Black Metal
*Country: United Kingdom | United Kingdom
*Format: mp3@CBR320kbps
*Size: 75MB

Tracklist:
Atra Mors:
1.A Land Unchained 04:35
2.Genocide Plague 04:27
3.Snow Falls upon a Wretched Tomb 01:42
4.Cloaked in Shadow 04:02
5.Tyrant of the Winds 04:27
6.Unholy Invocation 01:03
Torver:
7.Manifestation of the Perverse 02:15
8.From the Abyss 02:18
9.Torn Apart by Rats 03:49
10.Thy Masters of Old 04:06
******************************
Total playing time: 32:44



[more=Technical info]
Input File: 01 Atra Mors - A Land Unchained.mp3
Channels : 2
Sample Rate : 44100
Precision : 16-bit
Duration : 00:04:35.17 = 12134821 samples = 20637.5 CDDA sectors
File Size : 11.1M
Bit Rate : 323k
Sample Encoding: MPEG audio (layer I, II or III)
Comments :
Title=A Land Unchained (Atra Mors)
Artist=Atra Mors/Torver
Album=Beyond The Shadows
Tracknumber=1
Year=2018
Genre=Black Metal

[/more]

Register
(17) 1968_janeart, artscald, Hell_Is_Here, kim666, lestllk, marilin, Ostinato, Razorbladeswaltz, satanist666, SilentNidhogg, stub888, udt4050, varlam4, vasiljev_sergej, vovenom, Абигор, Герб,
Jan 9 2019, 03:30:06 Atra Mors - Spirits Of The Darkwood [ep] (2018)


*Artist: Atra Mors
*Album: Spirits Of The Darkwood [ep]
*Year: 2018
*Genre: Black Metal
*Country: United Kingdom
*Format: mp3@CBR320kbps
*Size: 61MB

Tracklist:
1.Fog Of Ruin 04:21
2.Spirits Of The Darkwood 03:46
3.Undead Lust 05:01
4.Vomit Black Blood 02:41
5.Amidst Rotting Wood I Reach My End 05:01
6.Codex Sathanas 04:01
7.The Sepulchre Opens 01:38
******************************
Total playing time: 26:29




[more=Technical info]
Input File: 01 Fog Of Ruin.mp3
Channels : 2
Sample Rate : 44100
Precision : 16-bit
Duration : 00:04:21.95 = 11551863 samples = 19646 CDDA sectors
File Size : 10.6M
Bit Rate : 324k
Sample Encoding: MPEG audio (layer I, II or III)
Comments :
Title=Fog Of Ruin
Artist=Atra Mors
Album=Spirits Of The Darkwood
Tracknumber=1
Year=2018
Genre=Black Metal

[/more]

Register
(15) 1968_janeart, artscald, Hell_Is_Here, kim666, marilin, Ostinato, Razorbladeswaltz, satanist666, SilentNidhogg, stub888, udt4050, varlam4, vasiljev_sergej, vovenom, Абигор,
Jan 9 2019, 03:21:02 Ulven - Void Worship (2017)


*Artist: Ulven
*Album: Void Worship
*Year: 2017
*Genre: Black Metal
*Country: United States
*Format: mp3@CBR320kbps
*Size: 89MB

Tracklist:
1.Krypt 03:34
2.Nøkken 07:39
3.Moonless 05:23
4.Wülfcult 03:49
5.Worship of Drowned Idols 05:49
6.Funeral Light 06:24
7.Void Worship 05:42
******************************
Total playing time: 38:20





[more=Technical info]
Input File: 02 Nøkken.mp3
Channels : 2
Sample Rate : 44100
Precision : 16-bit
Duration : 00:07:39.89 = 20281061 samples = 34491.6 CDDA sectors
File Size : 18.6M
Bit Rate : 324k
Sample Encoding: MPEG audio (layer I, II or III)
Comments :
Title=Nøkken
Artist=Ulven
Album=Void Worship
Tracknumber=2
Year=2018
Genre=Black Metal

[/more]

Register
(15) 1968_janeart, artscald, Hell_Is_Here, kim666, lestllk, marilin, Olethros, Ostinato, satanist666, SilentNidhogg, stub888, udt4050, varlam4, vasiljev_sergej, vovenom,
Jan 9 2019, 03:10:27 Sarg - Totentanz (2017)


*Artist: Sarg
*Album: Totentanz
*Year: 2017
*Genre: Black Metal
*Country: Poland
*Format: mp3@CBR320kbps
*Size: 91MB

Tracklist:
1.Totentanz I 04:22
2.Totentanz II 03:22
3.Totentanz III 03:03
4.Totentanz IV 03:22
5.Totentanz V 03:13
6.Totentanz VI 05:49
7.Totentanz VII 02:57
8.Totentanz VIII 05:38
9.Totentanz IX 08:19
******************************
Total playing time: 40:05




[more=Technical info]
Input File: 02 Totentanz II.mp3
Channels : 2
Sample Rate : 44100
Precision : 16-bit
Duration : 00:03:22.28 = 8920548 samples = 15171 CDDA sectors
File Size : 8.19M
Bit Rate : 324k
Sample Encoding: MPEG audio (layer I, II or III)
Comments :
Title=Totentanz II
Artist=Sarg
Album=Totentanz
Tracknumber=2
Year=2018
Genre=Black Metal

[/more]

Register
(14) 1968_janeart, artscald, kim666, lestllk, MMMMM, Olethros, Ostinato, satanist666, SilentNidhogg, udt4050, varlam4, vasiljev_sergej, vovenom, Абигор,
Jan 9 2019, 03:01:18 Blosse - Le Dernier Crépuscule [demo] (2018)


*Artist: Blosse
*Album: Le Dernier Crépuscule [demo]
*Year: 2018
*Genre: Atmospheric/Raw Black Metal
*Country: Canada
*Format: mp3@CBR320kbps
*Size: 59MB

Tracklist:
1.De Flammes Et De Sang 13:53
2.Fumées De La Mémoire 11:32
******************************
Total playing time: 25:25



[more=Technical info]
Input File: 01 De Flammes Et De Sang.mp3
Channels : 2
Sample Rate : 44100
Precision : 16-bit
Duration : 00:13:53.12 = 36740592 samples = 62484 CDDA sectors
File Size : 33.4M
Bit Rate : 321k
Sample Encoding: MPEG audio (layer I, II or III)
Comments :
Title=De Flammes Et De Sang
Artist=BLOSSE
Album=Le Dernier Crépuscule
Tracknumber=1
Year=2018
Genre=Black Metal

[/more]

Register
(19) 1968_janeart, Andr, artscald, Evilded, kim666, Krosis, lestllk, murian, Olethros, Ostinato, pfk505, satanist666, SilentNidhogg, stub888, thenecromancer, udt4050, varlam4, vasiljev_sergej, Абигор,
Jan 9 2019, 02:47:11 Olxane - Vermilion Ruin [ep] (2018)


*Artist: Olxane
*Album: Vermilion Ruin [ep]
*Year: 2018
*Genre: Atmospheric/Raw Black Metal
*Country: Netherlands
*Format: mp3@CBR320kbps
*Size: 45MB

Tracklist:
1.Vermilion Ruin 09:25
2.Perishing Cloaks 09:26
******************************
Total playing time: 18:51



[more=Extended info]Cassette, Nebular Carcoma Records

T. - Everything (Kaffaljidhma, Mirre, Ancient Morass, Himelvaruwe)[/more]

[more=Technical info]
Input File: 01 Vermilion Ruin.mp3
Channels : 2
Sample Rate : 44100
Precision : 16-bit
Duration : 00:09:25.32 = 24930788 samples = 42399.3 CDDA sectors
File Size : 22.8M
Bit Rate : 322k
Sample Encoding: MPEG audio (layer I, II or III)
Comments :
Title=Vermilion Ruin
Artist=Olxane
Album=Vermilion Ruin
Tracknumber=1
Year=2018
Genre=Black Metal

[/more]

Register
(16) 1968_janeart, ambre, artscald, Forest Silence, kim666, lestllk, LVXXVL, Olethros, Ostinato, satanist666, SilentNidhogg, stub888, udt4050, varlam4, vasiljev_sergej, Абигор,
Jan 9 2019, 02:36:33 Nattravn - Nattravn (2018)


*Artist: Nattravn
*Album: Nattravn
*Year: 2018
*Genre: Black Metal
*Country: Italy
*Format: mp3@CBR320kbps
*Size: 77MB

Tracklist:
1.I. Itinerarium animi per aerumnas 07:31
2.II. Itinerarium mentis in nihilum 05:42
3.III. Nox secunda 10:56
4.IV. Separatio 06:19
5.V. Gnosis 03:01
******************************
Total playing time: 33:29




[more=Technical info]
Input File: 01 I. Itinerarium animi per aerumnas.mp3
Channels : 2
Sample Rate : 44100
Precision : 16-bit
Duration : 00:07:31.29 = 19902021 samples = 33847 CDDA sectors
File Size : 18.1M
Bit Rate : 322k
Sample Encoding: MPEG audio (layer I, II or III)
Comments :
Title=I. Itinerarium animi per aerumnas
Artist=Nattravn
Album=Nattravn
Tracknumber=1
Year=2018
Genre=Black Metal

[/more]

Register
(14) 1968_janeart, artscald, Forest Silence, kim666, lestllk, LVXXVL, Olethros, Ostinato, satanist666, SilentNidhogg, stub888, udt4050, varlam4, vasiljev_sergej,
Jan 9 2019, 02:25:55 Human Serpent & Isolert - Everything Dies [collaboration] (2017)


*Artist: Human Serpent & Isolert
*Album: Everything Dies [collaboration]
*Year: 2017
*Genre: Black Metal | Black Metal
*Country: Greece | Greece
*Format: mp3@CBR320kbps
*Size: 48MB

Tracklist:
1.Everything Dies 20:31
******************************
Total playing time: 20:31





[more=Technical info]
Input File: 01 Human Serpent & Isolert - Everything Dies.mp3
Channels : 2
Sample Rate : 44100
Precision : 16-bit
Duration : 00:20:31.14 = 54293450 samples = 92335.8 CDDA sectors
File Size : 49.3M
Bit Rate : 321k
Sample Encoding: MPEG audio (layer I, II or III)
Comments :
Title=Everything Dies
Artist=Human Serpent/Isolert
Album=Everything Dies (Collaboration)
Tracknumber=1
Year=2017
Genre=Black Metal

[/more]

Register
(16) 1968_janeart, artscald, Hell_Is_Here, kim666, LazarShadow, Mormo, Ostinato, RUSP73, satanist666, sethurius, Tyrone, udt4050, varlam4, vasiljev_sergej, Абигор, Герб,
Jan 8 2019, 16:33:22 Snorlax - Splintering [demo] (2018)


*Artist: Snorlax
*Album: Splintering [demo]
*Year: 2018
*Genre: Black/Death Metal
*Country: Australia
*Format: mp3@CBR320kbps
*Size: 29MB

Tracklist:
1.Righteous Virtue 02:40
2.Perpetual Paralysis 02:34
3.\ Boring Infestation // 03:12
4.Dehumanisation 03:33
******************************
Total playing time: 11:59





[more=Technical info]
Input File: 01 Righteous Virtue.mp3
Channels : 2
Sample Rate : 44100
Precision : 16-bit
Duration : 00:02:41.00 = 7100276 samples = 12075.3 CDDA sectors
File Size : 6.64M
Bit Rate : 330k
Sample Encoding: MPEG audio (layer I, II or III)
Comments :
Title=Righteous Virtue
Artist=SNORLAX
Album=Splintering Demo
Tracknumber=1
Year=2018
Genre=Black/Death Metal

[/more]

Register
(13) artscald, dermarsoran, kim666, lestllk, Olethros, Ostinato, Pinhead666, satanist666, SilentNidhogg, VALERY, varlam4, vasiljev_sergej, Wormtongue,
Jan 8 2019, 16:23:40 Fervent - Initiation [demo] (2018)


*Artist: Fervent
*Album: Initiation [demo]
*Year: 2018
*Genre: Death/Doom Metal
*Country: Finland
*Format: mp3@CBR320kbps
*Size: 53MB

Tracklist:
1.Initiation 06:00
2.Glowing Rage 05:10
3.King In Death's Blossom 04:38
4.Hallow Ancient Night 05:56
******************************
Total playing time: 21:44




[more=Technical info]
Input File: 01 Initiation.mp3
Channels : 2
Sample Rate : 44100
Precision : 16-bit
Duration : 00:06:01.06 = 15922790 samples = 27079.6 CDDA sectors
File Size : 14.6M
Bit Rate : 323k
Sample Encoding: MPEG audio (layer I, II or III)
Comments :
Title=Initiation
Artist=Fervent
Album=Initiation
Tracknumber=1
Year=2018
Genre=Death/Doom Metal

[/more]

Register
(11) artscald, fishish, Hell_Is_Here, marilin, metala, Olethros, Ostinato, Shadechaser, thenecromancer, VALERY, varlam4,
Jan 8 2019, 16:14:52 Azath - Demo 2018 [demo] (2018)


*Artist: Azath
*Album: Demo 2018 [demo]
*Year: 2018
*Genre: Death Metal
*Country: International
*Format: mp3@CBR320kbps
*Size: 27MB

Tracklist:
1.Bonecaster 03:40
2.The Whirlwind 01:01
3.Shifting Forms 03:36
******************************
Total playing time: 8:17





[more=Extended info]International: United States/Canada

Derek Orthner - Vocals (Begrime Exemious, Falsehood, Cygnus)
Andrew Lee - Bass, Guitars (Ripped to Shreds, Skullsmasher, Disincarnation)
BW - Guitars (Draghkar, Grave Spirit, Skullsmasher)[/more]

[more=Technical info]
Input File: 01 Bonecaster.mp3
Channels : 2
Sample Rate : 44100
Precision : 16-bit
Duration : 00:03:40.67 = 9731591 samples = 16550.3 CDDA sectors
File Size : 8.99M
Bit Rate : 326k
Sample Encoding: MPEG audio (layer I, II or III)
Comments :
Title=Bonecaster
Artist=Azath
Album=Demo 2018
Tracknumber=1
Year=2018
Genre=Death Metal

[/more]

Register
(5) artscald, Olethros, Ostinato, varlam4, Герб,
Jan 8 2019, 00:36:08 Shezmu - Breaching The Tomb [ep] (2018)


*Artist: Shezmu
*Album: Breaching The Tomb [ep]
*Year: 2018
*Genre: Black/Death Metal
*Country: Canada
*Format: mp3@CBR320kbps
*Size: 45MB

Tracklist:
1.Concubines of the Deceased 05:10
2.The Twelve Stances of Duat 02:58
3.Breaching the Tomb (Instrumental) 03:35
4.Rites & Intoxication 05:03
******************************
Total playing time: 16:46





[more=Technical info]
Input File: 01 Concubines of the Deceased.mp3
Channels : 2
Sample Rate : 44100
Precision : 16-bit
Duration : 00:05:10.75 = 13703899 samples = 23306 CDDA sectors
File Size : 12.6M
Bit Rate : 324k
Sample Encoding: MPEG audio (layer I, II or III)
Comments :
Title=Concubines of the Deceased
Artist=Shezmu
Album=Breaching the Tomb
Tracknumber=1
Year=2018
Genre=Black/Death Metal

[/more]

Register
(14) Amsterdam, artscald, gena, Hell_Is_Here, kim666, marilin, Occultas, Olethros, Ostinato, satanist666, SilentNidhogg, VALERY, varlam4, vasiljev_sergej,
Jan 7 2019, 23:54:15 Palmistry - Palmistry [demo] (2017)


*Artist: Palmistry
*Album: Palmistry [demo]
*Year: 2017
*Genre: Doom Metal
*Country: Canada
*Format: mp3@CBR320kbps
*Size: 25MB

Tracklist:
1.Capharnaüm 04:42
2.In The Mountains... 05:57
******************************
Total playing time: 10:39





[more=Technical info]
Input File: 01 Capharnaüm.mp3
Channels : 2
Sample Rate : 44100
Precision : 16-bit
Duration : 00:04:43.03 = 12481579 samples = 21227.2 CDDA sectors
File Size : 11.4M
Bit Rate : 322k
Sample Encoding: MPEG audio (layer I, II or III)
Comments :
Title=Capharnaüm
Artist=Palmistry
Album=Demo
Tracknumber=1
Year=2017
Genre=Doom Metal

[/more]

Register
(7) artscald, marilin, Medbotlik, Olethros, Ostinato, VALERY, varlam4,
Jan 7 2019, 23:11:56 Vleddermos - Witching Hour's Demonic Rites [demo] (2018)


*Artist: Vleddermos
*Album: Witching Hour's Demonic Rites [demo]
*Year: 2018
*Genre: Experimental Black Metal
*Country: Netherlands
*Format: mp3@CBR320kbps
*Size: 21MB

Tracklist:
1.Into The Stormy Night 04:06
2.Witching Hour's Demonic Rites 04:38
******************************
Total playing time: 8:44



[more=Technical info]
Input File: 01 Into The Stormy Night.mp3
Channels : 2
Sample Rate : 44100
Precision : 16-bit
Duration : 00:04:06.30 = 10861786 samples = 18472.4 CDDA sectors
File Size : 9.97M
Bit Rate : 324k
Sample Encoding: MPEG audio (layer I, II or III)
Comments :
Title=Into The Stormy Night
Artist=vleddermos
Album=Witching Hour's Demonic Rites
Tracknumber=1
Year=2018
Genre=Black Metal

[/more]

Register
(12) artscald, lestllk, Olethros, Ostinato, satanist666, SilentNidhogg, stub888, thenecromancer, udt4050, VALERY, varlam4, vasiljev_sergej,

155 Pages V   1 2 3 > » 
- Lo-Fi Version Support form
Copyrights and abuse reports form
Time is now: 17th January 2019 - 17:01:25