Welcome Guest ( Log In | Register )

История благодарностей участнику smysl ::: Спасибо сказали: 59938 раз(а)
Дата поста: В теме: За сообщение: Спасибо сказали:
May 24 2019, 20:07:47 Despondent Moon - A Spectral Descent [demo] (2019)


*Artist: Despondent Moon
*Album: A Spectral Descent [demo]
*Year: 2019
*Genre: Atmospheric/Raw Black Metal
*Country: United Kingdom
*Format: mp3@CBR320kbps
*Size: 61MB

Tracklist:
1.A Spectral Descent I 02:00
2.A Spectral Descent II 05:08
3.A Spectral Descent III 04:25
4.A Spectral Descent IV 04:44
5.A Spectral Descent V 02:49
6.A Spectral Descent VI 06:38
******************************
Total playing time: 25:44




[more=Technical info]
Input File: 01 A Spectral Descent I.mp3
Channels : 2
Sample Rate : 44100
Precision : 16-bit
Duration : 00:02:00.90 = 5331866 samples = 9067.8 CDDA sectors
File Size : 4.98M
Bit Rate : 329k
Sample Encoding: MPEG audio (layer I, II or III)
Comments :
Title=A Spectral Descent I
Artist=DESPONDENT MOON
Album=A Spectral Descent
Tracknumber=1
Year=2019
Genre=Black Metal

[/more]

Register
(15) 1968_janeart, aleon, craP_cillA, Evilded, kim666, Olethros, Ostinato, Rosen, SilentNidhogg, stub888, TAKATAEL, thenecromancer, VALERY, varg-38ru, vasiljev_sergej,
May 24 2019, 19:37:27 Peasant & Somalgia - Within, Without [split] (2019)


*Artist: Peasant & Somalgia
*Album: Within, Without [split]
*Year: 2019
*Genre: Black Metal | Black Metal
*Country: United Kingdom | United Kingdom
*Format: mp3@CBR320kbps
*Size: 50MB

Tracklist:
Peasant:
1.Hounds Of The Shining One 05:00
2.The Trees Find Light To Hold Earth's Grasp 04:48
Somalgia:
3.Veil Of Perceptual Illusion 06:29
4.Wandering Stars Moving Across The Celestial Sphere 03:20
******************************
Total playing time: 19:37



[more=Technical info]
Input File: 01 Peasant -Hounds Of The Shining One.mp3
Channels : 2
Sample Rate : 44100
Precision : 16-bit
Duration : 00:05:01.05 = 13276481 samples = 22579 CDDA sectors
File Size : 12.2M
Bit Rate : 324k
Sample Encoding: MPEG audio (layer I, II or III)
Comments :
Title=Hounds Of The Shining One
Artist=Peasant
Album=Within, Without
Tracknumber=1
Year=2019
Genre=Black Metal

[/more]

Register
(10) 1968_janeart, ahp, kim666, Ostinato, Rosen, SilentNidhogg, stub888, VALERY, varg-38ru, vasiljev_sergej,
May 21 2019, 21:44:46 Arvalastra - Doctrines Of The Temple Of The Moon (2019)


*Artist: Arvalastra
*Album: Doctrines Of The Temple Of The Moon
*Year: 2019
*Genre: Black/Doom Metal
*Country: Spain
*Format: mp3@CBR320kbps
*Size: 68MB

Tracklist:
1.Doctrines of the Temple of the Moon 29:42
******************************
Total playing time: 29:42





[more=Technical info]
Input File: 01 Doctrines of the Temple of the Moon.mp3
Channels : 2
Sample Rate : 44100
Precision : 16-bit
Duration : 00:29:42.46 = 78606574 samples = 133685 CDDA sectors
File Size : 71.4M
Bit Rate : 321k
Sample Encoding: MPEG audio (layer I, II or III)
Comments :
Title=Doctrines of the Temple of the Moon
Artist=Arvalastra
Album=Doctrines of the Temple of the Moon
Tracknumber=1
Year=2019

[/more]

Register
(13) 1968_janeart, ahp, LordOvDarkness, marilin, Olethros, Ostinato, robertho777, Rosen, sergsazan, SilentNidhogg, stub888, VALERY, vasiljev_sergej,
May 21 2019, 21:22:16 Athame - The Burning Times (2019)


*Artist: Athame
*Album: The Burning Times
*Year: 2019
*Genre: Black Metal
*Country: United States
*Format: mp3@CBR320kbps
*Size: 100MB

Tracklist:
1.Chamber of the Titan 01:38
2.Outliers 05:12
3.The Dawning 06:01
4.He of the Five Shapes 04:02
5.Twilight Bearers 07:41
6.Take This Torch 04:48
7.A Realm Between Realms 04:40
8.The Fiends of Devilry 06:11
9.Forked Tongue of Gilded Virtue 03:33
******************************
Total playing time: 43:46




[more=Technical info]
Input File: 02 Outliers.mp3
Channels : 2
Sample Rate : 44100
Precision : 16-bit
Duration : 00:05:12.18 = 13767270 samples = 23413.7 CDDA sectors
File Size : 12.6M
Bit Rate : 322k
Sample Encoding: MPEG audio (layer I, II or III)
Comments :
Title=Outliers
Artist=Athame
Album=The Burning Times
Tracknumber=2
Year=2019
Genre=Black Metal

[/more]

Register
(13) 1968_janeart, El_Chibo, Indamage, kim666, Korpse, lestllk, Olethros, robertho777, Rosen, SilentNidhogg, stub888, VALERY, vasiljev_sergej,
May 21 2019, 16:57:36 Vaabnet - Det Hellige Mod (2019)


*Artist: Vaabnet
*Album: Det Hellige Mod
*Year: 2019
*Genre: Black Metal
*Country: Denmark
*Format: mp3@CBR320kbps
*Size: 72MB

Tracklist:
1.I 05:17
2.II 04:13
3.III 05:47
4.IV 03:44
5.V 04:28
6.VI 07:28
******************************
Total playing time: 30:57




[more=Technical info]
Input File: 01 I.mp3
Channels : 2
Sample Rate : 44100
Precision : 16-bit
Duration : 00:05:17.80 = 14014980 samples = 23835 CDDA sectors
File Size : 12.8M
Bit Rate : 323k
Sample Encoding: MPEG audio (layer I, II or III)
Comments :
Title=I
Artist=Vaabnet
Album=Vaabnet - Det Hellige Mod
Tracknumber=1
Year=2019
Genre=Black Metal

[/more]

Register
(19) 1968_janeart, Alexis The Best, kim666, lestllk, nemx, older68, Olethros, Ostinato, robertho777, Rosen, SileniusLegard, SilentNidhogg, Sjelekval, stub888, suseka, thenecromancer, VALERY, vasiljev_sergej, zhol,
May 19 2019, 09:44:00 Leegte - Leegte [demo] (2019)


*Artist: Leegte
*Album: Leegte [demo]
*Year: 2019
*Genre: Atmospheric/Raw Black Metal
*Country: Belgium
*Format: mp3@CBR320kbps
*Size: 36MB

Tracklist:
1.Verborgen Leed 07:48
2.Verscholen Wonden 07:49
******************************
Total playing time: 15:37



[more=Technical info]
Input File: 01 Verborgen Leed.mp3
Channels : 2
Sample Rate : 44100
Precision : 16-bit
Duration : 00:07:48.09 = 20642813 samples = 35106.8 CDDA sectors
File Size : 18.8M
Bit Rate : 322k
Sample Encoding: MPEG audio (layer I, II or III)
Comments :
Title=Verborgen Leed
Artist=Leegte
Album=Demo
Tracknumber=1
Year=2019
Genre=Black Metal

[/more]

Register
(15) 1968_janeart, ahp, Evilded, kim666, lestllk, murian, NachtWulf, Olethros, Ostinato, robertho777, Rosen, SilentNidhogg, stub888, VALERY, vasiljev_sergej,
May 19 2019, 09:12:07 Nocturnal Convocation - Ritual 1 [ep] (2019)


*Artist: Nocturnal Convocation
*Album: Ritual 1 [ep]
*Year: 2019
*Genre: Doom Metal/Sludge
*Country: Italy
*Format: mp3@CBR320kbps
*Size: 67MB

Tracklist:
1.R 1.1 07:20
2.R 1.2 06:17
3.R 1.3 06:13
4.R 1.4 08:03
******************************
Total playing time: 27:53



[more=Technical info]
Input File: 01 R 1.1.mp3
Channels : 2
Sample Rate : 44100
Precision : 16-bit
Duration : 00:07:20.40 = 19421596 samples = 33029.9 CDDA sectors
File Size : 17.8M
Bit Rate : 324k
Sample Encoding: MPEG audio (layer I, II or III)
Comments :
Title=R 1.1
Artist=Nocturnal Convocation
Album=Ritual 1
Tracknumber=1
Year=2019
Genre=Metal

[/more]

Register
(8) marilin, Olethros, Ostinato, robertho777, Rosen, stub888, stumpheavyrock, VALERY,
May 18 2019, 21:33:24 Grafjammer & Wrang - Koude Gracht/Gramme Werf [split] (2019)


*Artist: Grafjammer & Wrang
*Album: Koude Gracht/Gramme Werf [split]
*Year: 2019
*Genre: Black Metal | Black Metal
*Country: Netherlands | Netherlands
*Format: mp3@CBR320kbps
*Size: 23MB

Tracklist:
Grafjammer:
1.Koude Gracht 04:49
Wrang:
2.Gramme Werf 04:40
******************************
Total playing time: 9:29






[more=Technical info]
Input File: 01 Grafjammer - Koude Gracht.mp3
Channels : 2
Sample Rate : 44100
Precision : 16-bit
Duration : 00:04:49.59 = 12770743 samples = 21719 CDDA sectors
File Size : 11.9M
Bit Rate : 327k
Sample Encoding: MPEG audio (layer I, II or III)
Comments :
Title=Koude Gracht
Artist=Grafjammer
Album=Koude Gracht / Gramme Werf
Tracknumber=1
Year=2019
Genre=Black Metal

[/more]

Register
(10) 1968_janeart, Fryz, kim666, lestllk, Ostinato, Rosen, SilentNidhogg, stub888, VALERY, vasiljev_sergej,
May 18 2019, 21:05:54 Jotun - Askvinter (2019)


*Artist: Jotun
*Album: Askvinter
*Year: 2019
*Genre: Black Metal
*Country: Sweden
*Format: mp3@CBR320kbps
*Size: 106MB

Tracklist:
1.Fördärvets ursprung 03:26
2.Ett Förbannat Liv 05:34
3.Till Helvetet (med avskurna halsar) 05:05
4.Askvinter 07:23
5.Ett rovdjur bland oss 05:42
6.Ljusets träl 04:53
7.Öppna ditt skinn 05:36
8.När tron vacklar 05:52
9.En ny resa 02:39
******************************
Total playing time: 46:10



[more=Technical info]
Input File: 02 Ett Förbannat Liv.mp3
Channels : 2
Sample Rate : 44100
Precision : 16-bit
Duration : 00:05:34.18 = 14737338 samples = 25063.5 CDDA sectors
File Size : 13.5M
Bit Rate : 323k
Sample Encoding: MPEG audio (layer I, II or III)
Comments :
Title=Ett Förbannat Liv
Artist=Jotun
Album=Askvinter
Tracknumber=2
Year=2019
Genre=Black Metal

[/more]

Register
(19) -=Hass=-, 1968_janeart, AHAB99, kim666, Krosis, lestllk, murian, NachtWulf, older68, Olethros, Ostinato, peppuzzo, robertho777, Rosen, sandr666, SilentNidhogg, VALERY, vasiljev_sergej, VECTOR,
May 17 2019, 02:29:54 Lindorm - Moseofring [demo] (2017)


*Artist: Lindorm
*Album: Moseofring [demo]
*Year: 2017
*Genre: Black Metal
*Country: Denmark
*Format: mp3@CBR320kbps
*Size: 55MB

Tracklist:
1.Kong Lindorm 05:54
2.Rite of the Opposer 04:01
3.Moseofring 06:59
4.Hinsides 00:37
5.Life Eternal 06:42
******************************
Total playing time: 24:13




[more=Technical info]
Input File: 01 Kong Lindorm.mp3
Channels : 2
Sample Rate : 44100
Precision : 16-bit
Duration : 00:05:54.43 = 15630187 samples = 26582 CDDA sectors
File Size : 14.3M
Bit Rate : 322k
Sample Encoding: MPEG audio (layer I, II or III)
Comments :
Title=Kong Lindorm
Artist=Lindorm
Album=Moseofring
Tracknumber=1
Year=2017
Genre=Black Metal

[/more]

Register
(14) 1968_janeart, aleon, kim666, NachtWulf, obituarydark, Rosen, satanist666, SilentNidhogg, Sjelekval, stub888, thenecromancer, VALERY, vasiljev_sergej, vovenom,
May 13 2019, 19:34:14 Alpdruck - Alpdruck [ep] (2019)


*Artist: Alpdruck
*Album: Alpdruck [ep]
*Year: 2019
*Genre: Black/Death Metal
*Country: United States
*Format: mp3@CBR320kbps
*Size: 59MB

Tracklist:
1.Hell's Maw 01:30
2.Flesh Vortex 04:50
3.Eternal Regret 05:07
4.Dragged Upon Putrid Ground 05:37
5.Venerunt Ad Nos Sanguinem 04:59
******************************
Total playing time: 22:03





[more=Technical info]
Input File: 02 Flesh Vortex.mp3
Channels : 2
Sample Rate : 44100
Precision : 16-bit
Duration : 00:04:50.58 = 12814534 samples = 21793.4 CDDA sectors
File Size : 11.8M
Bit Rate : 325k
Sample Encoding: MPEG audio (layer I, II or III)
Comments :
Title=Flesh Vortex
Artist=ALPDRUCK
Album=ALPDRUCK
Tracknumber=2
Year=2019
Genre=Black Metal

[/more]

Register
(10) ahp, Doooomed, lestllk, marilin, metala, Olethros, Rosen, SilentNidhogg, VALERY, vasiljev_sergej,
May 12 2019, 20:27:29 Mortum - Macabre Incenses [ep] (2019)


*Artist: Mortum
*Album: Macabre Incenses [ep]
*Year: 2019
*Genre: Black Metal
*Country: United States
*Format: mp3@CBR320kbps
*Size: 44MB

Tracklist:
1.Fire and Snow 03:57
2.Walker Between Worlds 03:43
3.Macabre Incenses 04:51
4.Tidal Waves Dwarf Skyscrapers 05:49
******************************
Total playing time: 18:20





[more=Technical info]
Input File: 01 Fire and Snow.mp3
Channels : 2
Sample Rate : 44100
Precision : 16-bit
Duration : 00:03:57.86 = 10489670 samples = 17839.6 CDDA sectors
File Size : 9.72M
Bit Rate : 327k
Sample Encoding: MPEG audio (layer I, II or III)
Comments :
Title=Fire and Snow
Artist=Mortum
Album=Macabre Incenses
Tracknumber=1
Year=2019
Genre=Black Metal

[/more]

Register
(15) 1968_janeart, andivi, kim666, lestllk, luxxul, marilin, Olethros, Ostinato, SilentNidhogg, stub888, VALERY, vasiljev_sergej, Velmi, vovenom, wendigo,
May 12 2019, 17:49:28 Disinter - Dead Inside [ep] (2019)


*Artist: Disinter
*Album: Dead Inside [ep]
*Year: 2019
*Genre: Death Metal
*Country: United States
*Format: mp3@CBR320kbps
*Size: 23MB

Tracklist:
1.No Light / Dead Inside 06:57
2.Disinter 03:07
******************************
Total playing time: 10:04




[more=Technical info]
Input File: 01 No Light - Dead Inside.mp3
Channels : 2
Sample Rate : 44100
Precision : 16-bit
Duration : 00:06:57.88 = 18428552 samples = 31341.1 CDDA sectors
File Size : 16.8M
Bit Rate : 322k
Sample Encoding: MPEG audio (layer I, II or III)
Comments :
Title=No Light / Dead Inside
Artist=DISINTER
Album=Dead Inside
Tracknumber=1
Year=2019
Genre=Death Metal

[/more]

Register
(10) AHBAnep, boby9052, judass, lortz, Olethros, Rosen, stumpheavyrock, THROWER666, VALERY, vyacheslav,
May 12 2019, 00:17:00 Chapelflames - Uaigheanna Gan Mharcáil (2019)


*Artist: Chapelflames
*Album: Uaigheanna Gan Mharcáil
*Year: 2019
*Genre: Black Metal
*Country: Ireland
*Format: mp3@CBR320kbps
*Size: 109MB

Tracklist:
1.Dólás Na Oileáin 05:26
2.Inane Utterances From Stygian Voids 05:17
3.Unmarked Graves 05:28
4.Peripheral Hallucinations 05:09
5.Suffumigation 05:39
6.The Ever Burning Pyre 06:24
7.Seared Flesh of the White Flame 05:36
8.The Northern Province - I, Embittered Blood - II, Thy Young Ensnared 07:25
******************************
Total playing time: 46:24




[more=Technical info]
Input File: 01 Dólás Na Oileáin.mp3
Channels : 2
Sample Rate : 44100
Precision : 16-bit
Duration : 00:05:27.00 = 14420480 samples = 24524.6 CDDA sectors
File Size : 13.2M
Bit Rate : 324k
Sample Encoding: MPEG audio (layer I, II or III)
Comments :
Title=Dólás Na Oileáin
Artist=ChapelFlames
Album=Uaigheanna Gan Mharcáil
Tracknumber=1
Year=2019
Genre=Black Metal

[/more]

Register
(16) 1968_janeart, Beazth, dermarsoran, infiltrator, kim666, lestllk, marilin, Olethros, raattent, Rosen, satanist666, SilentNidhogg, stub888, VALERY, vasiljev_sergej, vovenom,
May 11 2019, 23:36:04 Blackmoon Eclipse - Resurrection Of An Ancient World [demo] (2018)


*Artist: Blackmoon Eclipse
*Album: Resurrection Of An Ancient World [demo]
*Year: 2018
*Genre: Black Metal
*Country: Brazil
*Format: mp3@CBR320kbps
*Size: 49MB

Tracklist:
1.Ritual of the Undead 03:55
2.Lord in Hell 04:13
3.Resurrection of an Ancient World 02:49
4.Mountains Cold 04:03
5.Evil Goat 03:43
******************************
Total playing time: 18:43



[more=Technical info]
Input File: 01 Ritual of the Undead.mp3
Channels : 2
Sample Rate : 44100
Precision : 16-bit
Duration : 00:03:55.82 = 10399794 samples = 17686.7 CDDA sectors
File Size : 9.55M
Bit Rate : 324k
Sample Encoding: MPEG audio (layer I, II or III)
Comments :
Title=Ritual of the Undead
Artist=Blackmoon Eclipse
Album=Resurrection of an Ancient World
Tracknumber=1
Year=2018
Genre=Black Metal

[/more]

Register
(9) 1968_janeart, kim666, Olethros, Rosen, SilentNidhogg, thenecromancer, VALERY, vasiljev_sergej, vovenom,
May 11 2019, 23:08:20 Dark Desires - Old Evil (2019)


*Artist: Dark Desires
*Album: Old Evil
*Year: 2019
*Genre: Black Metal
*Country: Brazil
*Format: mp3@CBR320kbps
*Size: 66MB

Tracklist:
1.Ancient Magic 02:23
2.Cold Hands of Death 03:02
3.Hades 04:19
4.Horizon of Oblivion 04:44
5.The Moon Rise Again 03:28
6.Black Sword to Kill 04:45
7.Dark Lust 03:29
8.Old Sorcery 03:01
******************************
Total playing time: 29:11



[more=Technical info]
Input File: 01 Ancient Magic.mp3
Channels : 2
Sample Rate : 44100
Precision : 16-bit
Duration : 00:02:23.48 = 6327248 samples = 10760.6 CDDA sectors
File Size : 5.83M
Bit Rate : 325k
Sample Encoding: MPEG audio (layer I, II or III)
Comments :
Title=Ancient Magic
Artist=Dark Desires
Album=Old Evil
Tracknumber=1
Year=2019
Genre=Black Metal

[/more]

Register
(10) 1968_janeart, kim666, Olethros, Rosen, SilentNidhogg, sor, VALERY, vasiljev_sergej, vovenom, Wanwer,
May 11 2019, 22:32:37 Farewell - Dark Days Of Depression (2019)


*Artist: Farewell
*Album: Dark Days Of Depression
*Year: 2019
*Genre: Depressive Black Metal
*Country: Sweden
*Format: mp3@CBR320kbps
*Size: 85MB

Tracklist:
1. Introduction to Loneliness 05:29
2. Dark Days of Depression 06:11
3. My Mountain 04:33
4. Drifting Away 05:37
5. Hiding from Reality 06:37
6. Migraine 00:34
7. Failure 04:58
8. Sad & Forgotten 01:03
******************************
Total playing time: 35:02




[more=Technical info]
Input File: 01 Introduction to loneliness.mp3
Channels : 2
Sample Rate : 44100
Precision : 16-bit
Duration : 00:05:29.43 = 14527643 samples = 24706.9 CDDA sectors
File Size : 13.3M
Bit Rate : 322k
Sample Encoding: MPEG audio (layer I, II or III)
Comments :
Title=Introduction to loneliness
Artist=Farewell
Album=Dark days of depression
Tracknumber=1
Year=2019
Genre=Black Metal

[/more]

Register
(19) 0x13, 1968_janeart, aleon, dermarsoran, igorzz, kim666, metala, NachtWulf, NappyRob, Olethros, Rosen, sandr666, SilentNidhogg, Sjelekval, stub888, TAKATAEL, tOmV, VALERY, vasiljev_sergej,
May 11 2019, 21:12:00 Bat - Axestasy [ep] (2019)


*Artist: Bat
*Album: Axestasy [ep]
*Year: 2019
*Genre: Heavy/Speed Metal
*Country: United States
*Format: mp3@CBR320kbps
*Size: 31MB

Tracklist:
1.Wild Fever 03:04
2.Long Live the Lewd 02:04
3.ICE 03:04
4.Ritual Fool 02:24
5.Slash of the Blade 00:22
6.Axestasy 02:25
******************************
Total playing time: 13:23




[more=Technical info]
Input File: 01 Wild Fever.mp3
Channels : 2
Sample Rate : 44100
Precision : 16-bit
Duration : 00:03:04.64 = 8142580 samples = 13847.9 CDDA sectors
File Size : 7.48M
Bit Rate : 324k
Sample Encoding: MPEG audio (layer I, II or III)
Comments :
Title=Wild Fever
Artist=Bat
Album=Axestasy
Tracknumber=1
Year=2019
Genre=Metal

[/more]

Register
(19) Asketto, aviacademy, Beazth, boby9052, Bruce, BugEyes, DarkHorde, Darkness, goatkvlt, infiltrator, marilin, metalwoman, Olethros, plagueofflies, Rosen, Rover, sergsazan, stumpheavyrock, wgs73,
May 11 2019, 20:15:08 Old Sorcery - Realms Of Magickal Sorrow (2017)
Old Sorcery - Realms Of Magickal Sorrow (2017) FLAC (431mb)

Register

(2) thenecromancer, vosmidesijatye,
May 11 2019, 17:29:10 Cowardice & Grst - Cowardice/Grst [split] (2019)


*Artist: Cowardice & Grst
*Album: Cowardice/Grst [split]
*Year: 2019
*Genre: Sludge/Doom Metal | Black Metal
*Country: United States | United States
*Format: mp3@CBR320kbps
*Size: 81MB

Tracklist:
Cowardice:
1.The Usurper Ascendant 11:58
2.Heir 05:53
Grst:
3.None Shall Bear Them Away 11:24
4.Flies and Dust 06:28
******************************
Total playing time: 35:43



[more=Technical info]
Input File: 01 Cowardice - The Usurper Ascendant.mp3
Channels : 2
Sample Rate : 44100
Precision : 16-bit
Duration : 00:11:58.91 = 31703755 samples = 53918 CDDA sectors
File Size : 28.8M
Bit Rate : 321k
Sample Encoding: MPEG audio (layer I, II or III)
Comments :
Title=The Usurper Ascendant
Artist=Cowardice
Album=Cowardice | Grst
Tracknumber=1
Year=2019
Genre=Other

[/more]

Register
(7) denver, marilin, Ostinato, Rosen, stub888, VALERY, vasiljev_sergej,
May 11 2019, 15:49:26 Mammoth Grinder - Lunar Mass [single] (2019)


*Artist: Mammoth Grinder
*Album: Lunar Mass [single]
*Year: 2019
*Genre: Old School Death Metal
*Country: United States
*Format: mp3@CBR320kbps
*Size: 16MB

Tracklist:
1.Lunar Mass 02:44
2.We Must Bleed (Germs Cover) 03:00
******************************
Total playing time: 5:44




[more=Technical info]
Input File: 01 Lunar Mass.mp3
Channels : 2
Sample Rate : 44100
Precision : 16-bit
Duration : 00:02:44.92 = 7273104 samples = 12369.2 CDDA sectors
File Size : 6.87M
Bit Rate : 333k
Sample Encoding: MPEG audio (layer I, II or III)
Comments :
Title=Lunar Mass
Artist=Mammoth Grinder
Album=Lunar Mass
Tracknumber=1
Year=2019
Genre=Death Metal

[/more]

Register
(11) BERZERK, denver, infiltrator, Olethros, Ostinato, Pinhead666, Reverend, Rosen, Unkle Jonny, VALERY, zhol,
May 11 2019, 13:12:10 Ripped To Shreds - Eight Immortals Feast [demo] (2019)


*Artist: Ripped To Shreds
*Album: Eight Immortals Feast [demo]
*Year: 2019
*Genre: Old School Death Metal
*Country: United States
*Format: mp3@CBR320kbps
*Size: 19MB

Tracklist:
1. Ripped to Shreds 03:48
2. Eight Immortals Feast 03:08
3. Pestilent Excruciation (Insect Warfare cover) 01:30
******************************
Total playing time: 8:26




[more=Technical info]
Input File: 01 Ripped to Shreds.mp3
Channels : 2
Sample Rate : 44100
Precision : 16-bit
Duration : 00:03:48.12 = 10059960 samples = 17108.8 CDDA sectors
File Size : 9.23M
Bit Rate : 324k
Sample Encoding: MPEG audio (layer I, II or III)
Comments :
Title=Ripped to Shreds
Artist=Ripped to Shreds
Album=Eight Immortals Feast
Tracknumber=1
Year=2019
Genre=Death Metal

[/more]

Register
(6) denver, Olethros, Ostinato, Rosen, stumpheavyrock, VALERY,
May 11 2019, 12:50:40 Draghkar - Beyond Despair, The Dawn Of Rebirth [demo] (2019)


*Artist: Draghkar
*Album: Beyond Despair, The Dawn Of Rebirth [demo]
*Year: 2019
*Genre: Death Metal
*Country: United States
*Format: mp3@CBR320kbps
*Size: 19MB

Tracklist:
1.Beyond Despair, the Dawn of Rebirth 04:46
2.Pursued By Black Forms 03:31
******************************
Total playing time: 8:17





[more=Technical info]
Input File: 01 Beyond Despair, the Dawn of Rebirth.mp3
Channels : 2
Sample Rate : 44100
Precision : 16-bit
Duration : 00:04:46.14 = 12618686 samples = 21460.4 CDDA sectors
File Size : 11.5M
Bit Rate : 323k
Sample Encoding: MPEG audio (layer I, II or III)
Comments :
Title=Beyond Despair, the Dawn of Rebirth
Artist=Draghkar
Album=Beyond Despair, the Dawn of Rebirth
Tracknumber=1
Year=2019
Genre=Death Metal

[/more]

Register
(7) Fryz, infiltrator, marilin, Olethros, Rosen, VALERY, Герб,
May 11 2019, 10:53:49 Nihil Invocation - Strange Ones Voicing Sorrow In My Dreams (2019)


*Artist: Nihil Invocation
*Album: Strange Ones Voicing Sorrow In My Dreams
*Year: 2019
*Genre: Black Metal
*Country: United States
*Format: mp3@CBR320kbps
*Size: 91MB

Tracklist:
1.Lights Have Faded Onward 03:24
2.Blood Still Drips from My Sorrowful Portrait 04:48
3.Only a Thought of My Own Death Remains 02:02
4.Dancing Ablaze in Storms of Endless Fury 02:07
5.From Fog Below a Setting Sun... 06:26
6.Strange Ones Voice Their Sorrow in My Dreams 01:12
7.Joy is The Passing of Our Moments 02:22
8.Into the Abyss I Walk 03:33
9.The Agony that Rots Beyond 03:09
10.Hateful Force of Unseen Landscapes 04:31
11.Under the Carpathian Yoke (Vlad Tepes cover) 05:12
******************************
Total playing time: 38:46





[more=Technical info]
Input File: 01 Lights Have Faded Onward.mp3
Channels : 2
Sample Rate : 44100
Precision : 16-bit
Duration : 00:03:25.05 = 9042661 samples = 15378.7 CDDA sectors
File Size : 8.34M
Bit Rate : 325k
Sample Encoding: MPEG audio (layer I, II or III)
Comments :
Title=Lights Have Faded Onward
Artist=Nihil Invocation
Album=Strange Ones Voicing Sorrow in My Dreams
Tracknumber=1
Year=2019
Genre=Black Metal

[/more]

Register
(18) 1968_janeart, Alexis The Best, gena, judaz, kim666, lestllk, Olethros, Rosen, RUSP73, scorn33, sethurius, SilentNidhogg, stub888, SyncestrA, udt4050, VALERY, vasiljev_sergej, vovenom,
Apr 26 2019, 17:38:58 Swampbeast & Void Terror - Holocaust Of Terrestrial Empires [split] (2019)


*Artist: Swampbeast & Void Terror
*Album: Holocaust Of Terrestrial Empires [split]
*Year: 2019
*Genre: Death Metal/Grindcore | Death/Black Metal
*Country: United States | United States
*Format: mp3@CBR320kbps
*Size: 40MB

Tracklist:
Swampbeast:
1.Formless Spawn 01:56
2.Chant of Bolotnik 05:24
Void Terror:
3.Multiversal Extraction of Serenity 05:11
4.Second Death 04:30
******************************
Total playing time: 17:01





[more=Technical info]
Input File: 01 Swampbeast - Formless Spawn.mp3
Channels : 2
Sample Rate : 44100
Precision : 16-bit
Duration : 00:01:56.28 = 5127948 samples = 8721 CDDA sectors
File Size : 4.84M
Bit Rate : 333k
Sample Encoding: MPEG audio (layer I, II or III)
Comments :
Title=Swampbeast - Formless Spawn
Artist=Void Terror / Swampbeast
Album=Holocaust of Terrestrial Empires
Tracknumber=1
Year=2019
Genre=Death Metal

[/more]

Register
(4) Beazth, Ostinato, Rosen, Герб,

160 Pages V   1 2 3 > » 
- Lo-Fi Version Support form
Copyrights and abuse reports form
Time is now: 27th May 2019 - 05:15:22