Welcome Guest ( Log In | Register )

История благодарностей участнику smysl ::: Спасибо сказали: 112865 раз(а)
Дата поста: В теме: За сообщение: Спасибо сказали:
Aug 11 2022, 16:48:36 Evighetens - Sørdlyset Tempel [compilation] (2022)


*Artist: Evighetens
*Album: Sørdlyset Tempel [compilation]
*Year: 2022
*Genre: Raw Black Metal/Ambient
*Country: Chile
*Format: mp3@CBR320kbps
*Size: 130MB

Tracklist:
1.Regnet og den Evige Skyggen 02:30
2.Under en Nattfestning 07:16
3.Gjemte til Tåkesheim 02:12
4.Glemt Skogens Riket 07:12
5.Måneskygger 05:35
6.Kaneltåke 02:49
7.Det Blødende Sjelens Tempel 12:31
8.Vindere Som Krysser Over Sør 10:40
9.Den Sørlige Solnedgangen 05:39
******************************
Total playing time: 56:24



[more=Technical info]
Input File: 01 Regnet og den Evige Skyggen.mp3
Channels : 2
Sample Rate : 44100
Precision : 16-bit
Duration : 00:02:30.53 = 6638329 samples = 11289.7 CDDA sectors
File Size : 6.13M
Bit Rate : 326k
Sample Encoding: MPEG audio (layer I, II or III)
Comments :
Title=Regnet og den Evige Skyggen
Artist=Evighetens
Album=Sørdlyset Tempel
Tracknumber=1
Year=2022
Genre=Black Metal

[/more]

Register
(5) artscald, Carcharoth, kim666, stormhatt, vovenom,
Aug 10 2022, 17:02:01 Ulma - Inception [single] (2022)


*Artist: Ulma
*Album: Inception [single]
*Year: 2022
*Genre: Atmospheric/Post-Black Metal
*Country: Russian Federation
*Format: mp3@CBR320kbps
*Size: 38MB

Tracklist:
1.Inception 16:26
******************************
Total playing time: 16:26



[more=Extended info]Instrumental[/more]

[more=Technical info]
Input File: 01 Inception.mp3
Channels : 2
Sample Rate : 44100
Precision : 16-bit
Duration : 00:16:26.34 = 43497462 samples = 73975.3 CDDA sectors
File Size : 39.6M
Bit Rate : 321k
Sample Encoding: MPEG audio (layer I, II or III)
Comments :
Title=Inception
Artist=Ulma
Album=Inception
Tracknumber=1
Year=2022
Genre=Black Metal

[/more]

Register
(5) aleon, artscald, Dante_D, Mencae77, stormhatt,
Aug 9 2022, 13:28:13 Void Of Autumn & Hylster - Void Of Autumn/Hylster [split] (2022)


*Artist: Void Of Autumn & Hylster
*Album: Void Of Autumn/Hylster [split]
*Year: 2022
*Genre: Raw Black Metal | Dungeon Synth/Experimental
*Country: Finland | Denmark
*Format: mp3@CBR320kbps
*Size: 67MB

Tracklist:
Void Of Autumn:
1.Nether Swallowing Ether 04:57
2.To Reach The End 06:44
3.Last Will 05:22
Hylster:
4.Elendig Skamfering / Lyset Svigter 12:16
******************************
Total playing time: 29:19



[more=Technical info]
Input File: 01 Void Of Autumn - Nether Swallowing Ether.mp3
Channels : 2
Sample Rate : 44100
Precision : 16-bit
Duration : 00:04:57.32 = 13111768 samples = 22298.9 CDDA sectors
File Size : 12.1M
Bit Rate : 324k
Sample Encoding: MPEG audio (layer I, II or III)
Comments :
Title=Nether Swallowing Ether
Artist=Void Of Autumn
Album=Split
Tracknumber=1
Year=2022
Genre=Black Metal

[/more]

Register
(5) artscald, Carcharoth, Grev, kim666, stormhatt,
Aug 9 2022, 13:05:10 Void Of Autumn - Sanctuary Of Bones [demo] (2021)


*Artist: Void Of Autumn
*Album: Sanctuary Of Bones [demo]
*Year: 2021
*Genre: Raw Black Metal
*Country: Finland
*Format: mp3@CBR320kbps
*Size: 41MB

Tracklist:
1.Into 02:28
2.Sanctuary Of Bones 06:10
3.Dissolution 04:49
4.Manifestation 03:07
5.Out 01:23
******************************
Total playing time: 17:57



[more=Extended info]Antti Klemi - Everything (Circle of Ouroborus)[/more]

[more=Technical info]
Input File: 02 Sanctuary Of Bones.mp3
Channels : 2
Sample Rate : 44100
Precision : 16-bit
Duration : 00:06:10.65 = 16345621 samples = 27798.7 CDDA sectors
File Size : 14.9M
Bit Rate : 322k
Sample Encoding: MPEG audio (layer I, II or III)
Comments :
Title=Sanctuary Of Bones
Artist=Void Of Autumn
Album=Sanctuary Of Bones
Tracknumber=2
Year=2021
Genre=Black Metal

[/more]

Register
(7) artscald, Carcharoth, Grev, kim666, stormhatt, stub888, vovenom,
Aug 9 2022, 12:53:44 Blackgoat Holokaust - Blackgoat Holokaust [demo] (2022)


*Artist: Blackgoat Holokaust
*Album: Blackgoat Holokaust [demo]
*Year: 2022
*Genre: Black/Thrash Metal
*Country: Brazil
*Format: mp3@CBR320kbps
*Size: 32MB

Tracklist:
1.Intro 00:28
2.Negro Metal Destruidor 02:08
3.Triunfante Guerreiro 02:29
4.Tempestade de Ódio 02:53
5.Devastação Metal 04:06
6.Velho Crânio Metal Maniaco 01:38
******************************
Total playing time: 13:42



[more=Technical info]
Input File: 02 Negro Metal Destruidor.mp3
Channels : 2
Sample Rate : 44100
Precision : 16-bit
Duration : 00:02:08.82 = 5680962 samples = 9661.5 CDDA sectors
File Size : 5.26M
Bit Rate : 327k
Sample Encoding: MPEG audio (layer I, II or III)
Comments :
Title=Negro Metal Destruidor
Artist=Blackgoat Holokaust
Album=Blackgoat Holocaust
Tracknumber=2
Year=2022
Genre=Black/Thrash Metal

[/more]

Register
(7) artscald, desekrator, Grev, milenamilo, stormhatt, stumpheavyrock, wgs73,
Aug 9 2022, 12:46:59 Fog Kingdom - Of Long Forgotten Battles [ep] (2022)


*Artist: Fog Kingdom
*Album: Of Long Forgotten Battles [ep]
*Year: 2022
*Genre: Black Metal
*Country: France Canada
*Format: mp3@CBR320kbps
*Size: 47MB

Tracklist:
1.As The Battle Rages Through the Endless Night 05:59
2.These Castle Walls Cry Out in Spite and Torment 04:58
3.Through Fields of Blood and Bone 09:30
******************************
Total playing time: 20:27



[more=Technical info]
Input File: 01 As The Battle Rages Through the Endless Night.mp3
Channels : 2
Sample Rate : 44100
Precision : 16-bit
Duration : 00:05:59.08 = 15835252 samples = 26930.7 CDDA sectors
File Size : 14.5M
Bit Rate : 323k
Sample Encoding: MPEG audio (layer I, II or III)
Comments :
Title=As The Battle Rages Through the Endless Night
Artist=Fog Kingdom
Album=Of Long Forgotten Battles (EP '22)
Tracknumber=1
Year=2022
Genre=Black Metal

[/more]

Register
(11) artscald, Grev, kim666, Marek, Mencae77, nemx, SadistikSlayer, SaintVitus, stormhatt, VALERY, vovenom,
Aug 8 2022, 20:42:41 Blasphemy Rites - Demo I'02 [demo] (2002)
FLAC

Register
(2) Carcharoth, thenecromancer,
Aug 8 2022, 16:22:40 Touganī - Spirits [ep] (2022)


*Artist: Touganī
*Album: Spirits [ep]
*Year: 2022
*Genre: Atmospheric Black Metal
*Country: Germany
*Format: mp3@CBR320kbps
*Size: 76MB

Tracklist:
1.Spirits 07:31
2.In the Heart of the Forest 07:55
3.Dancing Stars 07:07
4.The Lake 10:24
******************************
Total playing time: 32:57




[more=Technical info]
Input File: 01 Spirits.mp3
Channels : 2
Sample Rate : 44100
Precision : 16-bit
Duration : 00:07:31.61 = 19915869 samples = 33870.5 CDDA sectors
File Size : 18.1M
Bit Rate : 321k
Sample Encoding: MPEG audio (layer I, II or III)
Comments :
Title=Spirits
Artist=touganī
Album=Spirits
Tracknumber=1
Year=2022
Genre=Black Metal

[/more]

Register
(14) AlexSmith, Altkiller, artscald, Carcharoth, Dark_Viking, kim666, kimkayoung, Papych, robertho777, sergsazan, SilentNidhogg, stormhatt, VALERY, vovenom,
Aug 8 2022, 14:56:26 Delirij - Narkomancer [single] (2022)


*Artist: Delirij
*Album: Narkomancer [single]
*Year: 2022
*Genre: Black/Speed Metal/Punk
*Country: Croatia
*Format: mp3@CBR320kbps
*Size: 18MB

Tracklist:
1.Narkomancer 04:07
2.Waiting for the Doomsday (Whipstriker Cover) 03:31
******************************
Total playing time: 7:38




[more=Technical info]
Input File: 01 Narkomancer.mp3
Channels : 2
Sample Rate : 44100
Precision : 16-bit
Duration : 00:04:07.76 = 10926304 samples = 18582.1 CDDA sectors
File Size : 10.0M
Bit Rate : 324k
Sample Encoding: MPEG audio (layer I, II or III)
Comments :
Title=Narkomancer
Artist=Delirij
Album=Narkomancer
Tracknumber=1
Year=2022
Genre=Metalpunk

[/more]

Register
(5) artscald, kefka, stormhatt, stumpheavyrock, wgs73,
Aug 8 2022, 14:43:04 Nocturne - Nahash [ep] (2013)


*Artist: Nocturne
*Album: Nahash [ep]
*Year: 2013
*Genre: Melodic Black Metal
*Country: Austria
*Format: mp3@CBR320kbps
*Size: 52MB

Tracklist:
1. Pert Em Kerh 05:31
2. Shapeless 06:49
3. Nahash 06:11
4. Age of Tam-tu 03:47
******************************
Total playing time: 22:18



Deezer

[more=Technical info]
Input File: 02 Shapeless.mp3
Channels : 2
Sample Rate : 44100
Precision : 16-bit
Duration : 00:06:47.72 = 17980364 samples = 30578.9 CDDA sectors
File Size : 16.4M
Bit Rate : 322k
Sample Encoding: MPEG audio (layer I, II or III)
Comments :
Title=Shapeless
Artist=Nocturne
Album=Nahash
Tracknumber=2
Year=2014
Genre=Black Metal

[/more]

Register
(11) artscald, Carcharoth, kim666, kimkayoung, Marek, noel666, sergsazan, SilentNidhogg, stormhatt, VALERY, zhol,
Aug 8 2022, 14:27:07 Succubus - XXV [ep] (2017)


*Artist: Succubus
*Album: XXV [ep]
*Year: 2017
*Genre: Melodic Death Metal
*Country: Germany
*Format: mp3@CBR320kbps
*Size: 72MB

Tracklist:
1. The Horns of Subterra 01:07
2. Fall Of Utopia 06:29
3. The Closer 03:06
4. Vampire XXV 05:08
5. Countess Bathory 06:24
6. Lost Millenniums (Demo '94) 03:16
7. Longing (Demo '94) 05:20
******************************
Total playing time: 30:50




Deezer

[more=Technical info]
Input File: 02 Fall of Utopia.mp3
Channels : 2
Sample Rate : 44100
Precision : 16-bit
Duration : 00:06:29.51 = 17177391 samples = 29213.2 CDDA sectors
File Size : 15.8M
Bit Rate : 324k
Sample Encoding: MPEG audio (layer I, II or III)
Comments :
Title=Fall of Utopia
Artist=Succubus
Album=XXV
Tracknumber=2
Year=2017
Genre=Death Metal

[/more]

Register
(8) AHBAnep, artscald, kimkayoung, Marek, sergsazan, VALERY, wanderer73, zhol,
Aug 8 2022, 02:57:38 Blasart - Depravatus [ep] (2022)


*Artist: Blasart
*Album: Depravatus [ep]
*Year: 2022
*Genre: Black/Death Metal
*Country: Chile
*Format: mp3@CBR320kbps
*Size: 24MB

Tracklist:
1.Call Of The Sacred Phallus 03:07
2.Profanation Of The Nazarenes Death 03:43
3.Ritual Of Poisonous Immersion 03:06
******************************
Total playing time: 9:56





[more=Technical info]
Input File: 01 Call Of The Sacred Phallus.mp3
Channels : 2
Sample Rate : 44100
Precision : 16-bit
Duration : 00:03:07.68 = 8276556 samples = 14075.8 CDDA sectors
File Size : 7.66M
Bit Rate : 326k
Sample Encoding: MPEG audio (layer I, II or III)
Comments :
Title=Call Of The Sacred Phallus
Artist=Blasart
Album=Depravatus
Tracknumber=1
Year=2022
Genre=Black Metal

[/more]

Register
(6) artscald, Hell_Is_Here, Mencae77, SilentNidhogg, stormhatt, VALERY,
Aug 8 2022, 02:35:36 Abstract The Light - From Out Of The Void [ep] (2016)


*Artist: Abstract The Light
*Album: From Out Of The Void [ep]
*Year: 2016
*Genre: Avant-Garde Black Metal
*Country: Australia
*Format: mp3@CBR320kbps
*Size: 89MB

Tracklist:
1. Black Conjuration 14:49
2. Gateways to Sulphur Chrysalis 08:18
3. Doomed: From Birth to Burial 07:18
4. Stoneonarock 08:04
******************************
Total playing time: 38:29




Deezer

[more=Technical info]
Input File: 01 Black Conjuration.mp3
Channels : 2
Sample Rate : 44100
Precision : 16-bit
Duration : 00:14:49.26 = 39216366 samples = 66694.5 CDDA sectors
File Size : 35.7M
Bit Rate : 321k
Sample Encoding: MPEG audio (layer I, II or III)
Comments :
Title=Black Conjuration
Artist=Abstract the Light
Album=From out of the Void
Tracknumber=1
Year=2018
Genre=Black Metal

[/more]

Register
(6) artscald, Hell_Is_Here, Mencae77, SilentNidhogg, stormhatt, zhol,
Aug 8 2022, 02:19:09 Soupir Astral - L'éternelle Traversée (2017)


*Artist: Soupir Astral
*Album: L'éternelle Traversée
*Year: 2017
*Genre: Post-Black Metal
*Country: France
*Format: mp3@CBR320kbps
*Size: 63MB

Tracklist:
1. Lueurs Incandescentes 00:42
2. Déchéance Abusive 03:43
3. Astral Light 05:57
4. Vent Du Nord 04:26
5. Le Dernier Voyage 05:19
6. Abandon 05:09
7. Fin Du Chapitre 01:45
******************************
Total playing time: 27:01



Deezer

[more=Technical info]
Input File: 02 Déchéance Abusive.mp3
Channels : 2
Sample Rate : 44100
Precision : 16-bit
Duration : 00:03:43.86 = 9872138 samples = 16789.4 CDDA sectors
File Size : 9.06M
Bit Rate : 324k
Sample Encoding: MPEG audio (layer I, II or III)
Comments :
Title=Déchéance Abusive
Artist=Soupir Astral
Album=L'eternelle Traversée
Tracknumber=2
Year=2017
Genre=Black Metal

[/more]

Register
(7) AlexSmith, artscald, Carcharoth, kim666, Mencae77, SilentNidhogg, stormhatt,
Aug 8 2022, 01:55:45 Satanaquia - Victory [demo] (1997)


*Artist: Satanaquia
*Album: Victory [demo]
*Year: 1997
*Genre: Black Metal
*Country: Brazil
*Format: mp3@CBR320kbps
*Size: 51MB

Tracklist:
1. Thy Dreams in Kingdom Come (Katharsis) 02:46
2. Angel of Light 07:07
3. Sigilum Diaboli 05:46
4. Das Buch Belial 04:48
5. Splendore Pandelar Omne Malum 02:01
******************************
Total playing time: 22:28



[more=Technical info]
Input File: 02 Angel of Light.mp3
Channels : 2
Sample Rate : 44100
Precision : 16-bit
Duration : 00:07:07.18 = 18838682 samples = 32038.6 CDDA sectors
File Size : 17.1M
Bit Rate : 320k
Sample Encoding: MPEG audio (layer I, II or III)
Comments :
Title=Angel of Light
Artist=Satanaquia
Album=Victory
Tracknumber=2
Year=1997
Genre=Black Metal

[/more]

Register
(8) artscald, Carcharoth, kim666, maringlen, SilentNidhogg, stormhatt, stumpheavyrock, thenecromancer,
Aug 7 2022, 21:02:01 Melechesh - As Jerusalem Burns... [demo] (1995)
FLAC

Register
(1) Gylve,
Aug 7 2022, 20:40:22 Fork Of Horripilation - Delving Into Hidden Lore [ep] (2022)


*Artist: Fork Of Horripilation
*Album: Delving Into Hidden Lore [ep]
*Year: 2022
*Genre: Black Metal
*Country: Brazil
*Format: mp3@CBR320kbps
*Size: 34MB

Tracklist:
1.Der Todesking 02:58
2.Nattvardsgästerna 02:26
3.A Noite do Espantalho 03:12
4.Trilogy of Lust 03:51
******************************
Total playing time: 12:27



[more=Technical info]
Input File: 02 Nattvardsgästerna.mp3
Channels : 2
Sample Rate : 44100
Precision : 16-bit
Duration : 00:02:26.69 = 6468941 samples = 11001.6 CDDA sectors
File Size : 5.98M
Bit Rate : 326k
Sample Encoding: MPEG audio (layer I, II or III)
Comments :
Title=Nattvardsgästerna
Artist=Fork of Horripilation
Album=Delving Into Hidden Lore
Tracknumber=2
Year=2022
Genre=Black Metal

[/more]

Register
(14) artscald, Carcharoth, Grev, judaz, julianotidre, kim666, Marek, Mencae77, Sanctus, SilentNidhogg, stormhatt, VALERY, vovenom, yarrsuaa,
Aug 7 2022, 20:18:48 Skade - Gudinnen (2022)


*Artist: Skade
*Album: Gudinnen
*Year: 2022
*Genre: Black Metal
*Country: Norway
*Format: mp3@CBR320kbps
*Size: 105MB

Tracklist:
1.Alltid våke 03:27
2.Iskald tåke 01:51
3.Forbitret 05:42
4.Misnøye 03:24
5.Lukker ditt øye 05:15
6.Mellomspill 01:37
7.Ouverture for andre del 05:34
8.Dypt inni skogen 05:01
9.Han senkes i jorden 03:51
10.Gudinnen Skade 02:47
11.Er 00:51
12.Gift med havet 05:41
******************************
Total playing time: 45:01




[more=Technical info]
Input File: 03 Forbitret.mp3
Channels : 2
Sample Rate : 44100
Precision : 16-bit
Duration : 00:05:42.44 = 15101384 samples = 25682.6 CDDA sectors
File Size : 13.8M
Bit Rate : 323k
Sample Encoding: MPEG audio (layer I, II or III)
Comments :
Title=Forbitret
Artist=Skade
Album=Gudinnen
Tracknumber=3
Year=2022
Genre=Black Metal

[/more]

Register
(24) AlexSmith, alikkon, Altkiller, artscald, cancer1974, Carcharoth, Grev, judaz, kim666, Korpse, kryptor, Marek, Mencae77, nemx, older68, rammmirez, robertho777, Sanctus, SilentNidhogg, stormhatt, stub888, supremo, VALERY, yarrsuaa,
Aug 7 2022, 18:59:58 Evol - The Dark Dreamquest Part I [demo] (1994)
FLAC

Register
(2) Occultas, sTerLingaz,
Aug 7 2022, 15:18:34 Nean - The Ominous Catharsis (2022)
FLAC

Register
(1) Alexis The Best,
Aug 7 2022, 01:07:32 Morcrof - Equilibrium Of Fohat [demo] (2003)


*Artist: Morcrof
*Album: Equilibrium Of Fohat [demo]
*Year: 2003
*Genre: Black/Doom Metal
*Country: Brazil
*Format: mp3@CBR320kbps
*Size: 65MB

Tracklist:
1.Proliferous Equilibrium of Fohat 05:47
2.The Fourth Knight of Revelation (Rotting Christ cover) 06:57
3.Buried Alive Existence (Live) 06:30
4.Nihilism (Prophetic Conjecture) (Live) 08:47
******************************
Total playing time: 28:01



Preview 3

[more=Technical info]
Input File: 01 Proliferous Equilibrium of Fohat.mp3
Channels : 2
Sample Rate : 44100
Precision : 16-bit
Duration : 00:05:48.03 = 15347903 samples = 26101.9 CDDA sectors
File Size : 14.0M
Bit Rate : 323k
Sample Encoding: MPEG audio (layer I, II or III)
Comments :
Title=Proliferous Equilibrium of Fohat
Artist=MORCROF
Album=Equilibrium of Fohat
Tracknumber=1
Year=2003
Genre=Dark Metal

[/more]

Register
(8) artscald, julianotidre, Occultas, quarantine, SilentNidhogg, stormhatt, thenecromancer, VALERY,
Aug 7 2022, 00:51:19 Angel Of Light - The Beautiful Morning Star [demo] (1996)


*Artist: Angel Of Light
*Album: The Beautiful Morning Star [demo]
*Year: 1996
*Genre: Black Metal
*Country: Brazil
*Format: mp3@CBR320kbps
*Size: 35MB

Tracklist:
1.Lord of the Majestic Wisdom 05:22
2.Triumphal Shadows Majesty 04:17
3.The Beautiful Morning Star 05:32
******************************
Total playing time: 15:11



[more=Technical info]
Input File: 01 Lord of the Majestic Wisdom.mp3
Channels : 2
Sample Rate : 44100
Precision : 16-bit
Duration : 00:05:21.59 = 14182031 samples = 24119.1 CDDA sectors
File Size : 12.9M
Bit Rate : 320k
Sample Encoding: MPEG audio (layer I, II or III)
Comments :
Title=Lord of the Majestic Wisdom
Artist=Angel Of Light
Album=The Beautiful Morning Star
Tracknumber=1
Year=1996
Genre=Black Metal

[/more]

Register
(10) artscald, Carcharoth, kim666, maringlen, SilentNidhogg, Storky, stormhatt, stumpheavyrock, thenecromancer, wgs73,
Aug 6 2022, 17:05:46 Mutarotik - Mutarotik [ep] (2022)


*Artist: Mutarotik
*Album: Mutarotik [ep]
*Year: 2022
*Genre: Experimental Black Metal
*Country: Canada
*Format: mp3@CBR320kbps
*Size: 27MB

Tracklist:
1.Neurotic Mutations 02:52
2.Shank Your Skull 02:26
3.Collapsed Idol 02:52
4.Tar Tongued 03:23
******************************
Total playing time: 11:33



[more=Technical info]
Input File: 01 Neurotic Mutations.mp3
Channels : 2
Sample Rate : 44100
Precision : 16-bit
Duration : 00:02:52.71 = 7616423 samples = 12953.1 CDDA sectors
File Size : 7.00M
Bit Rate : 324k
Sample Encoding: MPEG audio (layer I, II or III)
Comments :
Title=Neurotic Mutations
Artist=Mutarotik
Album=s/t
Tracknumber=1
Year=2022
Genre=Black Metal

[/more]

Register
(10) artscald, caro, Hell_Is_Here, kimkayoung, obituarydark, Pornokrator, Sanctus, SilentNidhogg, stormhatt, VALERY,
Aug 6 2022, 16:44:41 Dispar - Hopeless [demo] (2022)


*Artist: Dispar
*Album: Hopeless [demo]
*Year: 2022
*Genre: Atmospheric/Post-Black Metal
*Country: Unknown
*Format: mp3@CBR320kbps
*Size: 33MB

Tracklist:
1.Skin 06:00
2.Essence 07:21
******************************
Total playing time: 13:21



[more=Technical info]
Input File: 01 Skin.mp3
Channels : 2
Sample Rate : 44100
Precision : 16-bit
Duration : 00:06:00.20 = 15884776 samples = 27014.9 CDDA sectors
File Size : 14.6M
Bit Rate : 323k
Sample Encoding: MPEG audio (layer I, II or III)
Comments :
Title=Skin
Artist=Dispar
Album=hopeless (demo)
Tracknumber=1
Year=2022
Genre=Black Metal

[/more]

Register
(13) artscald, Aynekko, Carcharoth, caro, fallen, kim666, murian, Pepijn, Reverend, robertho777, SilentNidhogg, stormhatt, Torop,
Aug 6 2022, 15:13:49 Nean - Farewell Paris... [ep] (2022)
FLAC

Register
(2) Alexis The Best, Extreme Brutal,

285 Pages V   1 2 3 > » 
- Lo-Fi Version Support form
Copyrights and abuse reports form
Time is now: 16th August 2022 - 12:09:27