Welcome Guest ( Log In | Register )

История благодарностей участнику isvili ::: Спасибо сказали: 637 раз(а)
Дата поста: В теме: За сообщение: Спасибо сказали:
Jun 10 2019, 21:52:42 Мор - Murmanblick [demo] (2019)
В последней песне ошибся немного: Murmanblick правильно будет.
(1) satanist666,
Jun 7 2019, 11:57:48 Motanka - Motanka (2019)
Ух-ха-ха!!! Прочитал как Моhnatка 1488.gif
Но музыка очень интересная.
(2) Deze, Kwaad,
Jun 7 2019, 11:07:36 Firespawn - Abominate (2019)
Состав атский, Рррроги не хватает для полноты картины 15.gif
(1) DarkHorde,
Jun 7 2019, 10:50:21 Ocultan - Quintessence (2018)
А ведь очень годно 20.gif Стилистика по сути Melodic Black/Death Metal dooo.gif
(1) DarkHorde,
May 29 2019, 18:02:09 Soulless - An Offering From The Absolute (2018)
Очень качественный релиз.
(1) Samaritianin,
May 29 2019, 17:58:41 Vile Hex - From The Ashes Of Death (2019)
Хорошее олдскульное мяско, тетка рычит на славу dooo.gif
(1) Samaritianin,
May 27 2019, 08:45:59 Achsar - In Battle I Was Born [ep] (2019)
Веселуха!
[youtube]P0tI5b_fK-U[/youtube]
(1) shurapindos666,
May 26 2019, 14:44:48 Necroripper - Amulepe Taiñ Weichan (2019)
Более жесткое и сырое рубилово чем на альбоме 2012 года.
(1) Samaritianin,
May 26 2019, 14:40:55 Devastruction - Space Force One (2019)
Чудесный бошкотряс dooo.gif
(1) Samaritianin,
May 23 2019, 12:10:59 Gaslarm - Triskaidekaphobia (2019)
У него даже своего бэндкампа нет, по тому что его творчество заняло бы половину отведенного под бэндкамп места.
(1) Samaritianin,
May 19 2019, 15:15:06 Myrkul - The Wayward Path (2019)
По моему отлично, жестко, атмосферно, прогрессивно и мелодично 20.gif
(1) DarkHorde,
May 19 2019, 15:11:26 Nocrul - All Mortal Creatures Must Die (2018)
Годно однако, хотя у них все нормальные полноформаты начиная с 2014.
(1) rickzammuto,
May 17 2019, 13:59:34 Paladin - Ascension (2019)
Melodic Death/Power/Thrash Metal
Намешали всего в кучу, но слушается неплохо.
(1) Foneg,
May 15 2019, 12:23:24 Way Out - Wheel Of Time (2018)
Да уж 12.gif Почти 40 лет играют, а все не в ту степь.
(1) Diflock,
May 11 2019, 08:05:38 Zad - Followers Of Tann (2019)
Мне больше по вкусу такой ZAD, чем этот израиловский
http://perfection-pleasure.ru/c8bebf/9045239.jpg
Хотя если быть честными то альбом вовсе неплох, два раза прогнал, остались только приятные впечатления.
(3) AHBAnep, LazarShadow, RUSP73,
May 5 2019, 22:48:58 Stillness - L'uomo Che Creava Le Nuvole [ep] (2019)
ЦИТАТА(krotovich @ May 5 2019, 22:10:29) *
Atmospheric/Epic Metal
Акуенно..
Как можно было пройти мимо полноформатника?
Stillness - Glory Of The Nord (2019)


Петросян что ли зарегался? 25.gif
(1) krotovich,
May 5 2019, 22:46:59 Enemy Awake - The Enemy (2019)
Тут уж точно третьесорт, причем протухший.
(1) DenisKov,
Apr 25 2019, 13:19:58 Eugenic Death - Under The Knife (2019)
Один из лучших альбомов стиля за первое полугодие 2019.
Тут нравится абсолютно все.
(1) insufferable,
Apr 25 2019, 11:15:57 Sinful - Crucify The Universe (2019)
Боже, как можно было скатиться до такого убожества, ни одна нотка альбома не зацепила.
Альбом не то что просто "никакущий", он отвратительный. 22.gif
(2) Fess, infiltrator,
Apr 23 2019, 16:37:35 Стахановцы - Ниже Ада Уголь Есть..! (2017)


*Artist: Стахановцы
*Album: Ниже Ада Уголь Есть..!
*Year: 2017
*Genre: Thrash Metal
*Country: Russian Federation
*Format: mp3@CBR320kbps
*Size: 77MB

Tracklist:
01. Шахтёр-метал
02. Иван (feat Марат (Хёнир))
03. Несчастье (feat Бельф (Изморозь))
04. Аццкий углекоп ( feat Сергей Сорокин (Гробовая доска))
05. Стаханов (feat Виталий Новожилов (Manic depression))
06. Ниже ада уголь есть
07. День Шахтёра
08. Плохой шахтёр
09. Призрак шахты
10. История о Тимофее
11. Начальник шахты
12. Аццкий углекоп (feat Кувалда)
******************************
Total playing time: 36:10

[more=Extended info]Re-recorded version of the 2007 demo, released as a full-length album.[/more]

[more=Technical info]
Input File: 01. Шахтёр-метал.mp3
Channels : 2
Sample Rate : 44100
Precision : 16-bit
Duration : 00:02:57.82 = 7841774 samples = 13336.4 CDDA sectors
File Size : 7.14M
Bit Rate : 321k
Sample Encoding: MPEG audio (layer I, II or III)
Comments :
Title=Øàõò¸ð-ìåòàë
Artist=Ñòàõàíîâöû
Album=Íèæå àäà óãîëü åñòü..!
Tracknumber=01
Year=2017
Genre=Thrash Metal

[/more]

Register
(15) akym, apostol_13, boby9052, cesar, DarkHorde, gwar, infiltrator, METALHUNTER, oldvarg, Olethros, pichileon, Rosen, stumpheavyrock, varlam4, Сварог Барг,
Apr 21 2019, 09:14:04 Костяной Дом - Белые Тропы (2019)
А так и хочется прочитать как Белые Трупы
(3) Chasm, FullofHate, infiltrator,
Apr 19 2019, 18:46:38 Eugenic Death - Under The Knife (2019)
Поперло, зло и напористо 20.gif
(1) pichileon,
Apr 15 2019, 16:24:16 До Скону - Black Asceticism (2019)
Местами музыкой и вокалом IMMORTAL напоминает.
(1) BERZERK,
Apr 13 2019, 16:48:09 Grob - Metanoia (2018)
Забавная гробятинка 18.gif
(1) grobator,
Apr 11 2019, 17:42:48 Skald In Veum - Stridslysten (2019)
ЦИТАТА(RUSP73 @ Apr 11 2019, 18:00:23) *

Крайний справа Никита "Satanic Crazy" Джигурда 25.gif
(1) nsk2008,

17 Pages V   1 2 3 > » 
- Lo-Fi Version Support form
Copyrights and abuse reports form
Time is now: 18th June 2019 - 09:55:55