Welcome Guest ( Log In | Register )

История благодарностей участнику isvili ::: Спасибо сказали: 831 раз(а)
Дата поста: В теме: За сообщение: Спасибо сказали:
Oct 12 2019, 18:16:11 Wolfanger - Ancients Call (2019)
Не плохой альбом, да и запись в норме.
(2) infiltrator, SnaP,
Oct 12 2019, 18:02:19 Gruzja - Jeszcze Nie Mamy Na Was Pomysłu (2019)
польская ГРУЗИЯ 13.gif , на гитаре Rumiński 15.gif
(1) vosmidesijatye,
Oct 10 2019, 13:39:28 Shrine Of Insanabilis - Vast Vortex Litanies (2019)
ЦИТАТА(Dmitry1977 @ Oct 10 2019, 13:37:22) *
Блэчок такой беззубый, но засасывает от души :-)

Блэчок отсасывает от души? 1488.gif Порнограинд есть, а по чему нет порноблэка 13.gif
(1) vosmidesijatye,
Oct 10 2019, 13:37:57 Thrashfire - Into The Armageddon (2019)
Эти чуваки дерьма не делают. 2011 у них был просто чумовой.
(1) russ777,
Oct 10 2019, 13:30:47 Singularity - Place Of Chains (2019)
ЦИТАТА(vosmidesijatye @ Oct 10 2019, 12:13:30) *
На обложке - корабль Хищников, которые почему то без дредов 15.gif

Это скинхэды-хищники 25.gif
(1) vosmidesijatye,
Oct 10 2019, 12:47:01 N█O - Isolates [ep] (2019)
ЦИТАТА(Kwaad @ Oct 6 2019, 23:57:12) *
Шикарно! Но мало.
Dreamcatcher выше всяких похвал.
Так послушай предыдущий полноформат, он шикарен.


ЦИТАТА(aleon @ Oct 8 2019, 13:09:56) *
не вставило nono.gif

Давай вставлю, может протащит. 1488.gif
(2) Kwaad, vosmidesijatye,
Oct 10 2019, 12:34:30 Azoth - Magnitude Of Extinction (2019)
ЦИТАТА(RUSP73 @ Oct 5 2019, 09:54:05) *
Название навеяло ассоциации с химическим элементом)

Мы им дышим. 23.gif химический состав воздуха: кислород – 20,93%, углекислый газ – 0,03-0,04%, азот – 78,1%
(1) vosmidesijatye,
Oct 10 2019, 12:26:02 Gaslarm - Human Decay (2019)
ЦИТАТА(vosmidesijatye @ Oct 8 2019, 13:37:29) *
Рогга от трэша smile1.gif

Это его внебрачный отпрыск 1488.gif
(1) vosmidesijatye,
Oct 2 2019, 10:56:19 Ypericon - Monsters (2019)
[youtube]8O8Ziq9M-Rc[/youtube]
(2) AHBAnep, artscald,
Oct 2 2019, 10:55:36 Ypericon - Piecemeal (2019)
[youtube]9dJ_vH2ubGU[/youtube]
(2) AHBAnep, artscald,
Oct 2 2019, 10:51:06 Μπατουσκα - Spiritual Rebel Propaganda (2019)
Работать ни кто не хочет, все хотят Батюшками быть 15.gif
(4) Orkkh, RUSP73, suseka, vosmidesijatye,
Sep 27 2019, 16:40:10 Freakings - Rise Of Violence (2019)
Швейцарский трэшак практически всегда очень хорош. 20.gif
(1) Samaritianin,
Sep 26 2019, 16:20:39 In The Abyss - The Promethean Principle (2019)
Первым альбомом Graveworm попахивает слегка.
(1) SnaP,
Sep 22 2019, 16:07:51 Империя - Наёмники (2019)
Ржачный стёб 15.gif Сука чики брыки!!!! God save Babushka!!! 19.gif
Обязательно скачаю)))))
[youtube]9S7viJ_Lfxc[/youtube]
(1) russ777,
Sep 20 2019, 07:07:47 Mystery Blue - 8Red (2019)
ЦИТАТА(avather @ Sep 20 2019, 00:40:16) *
Мало кому известные, но годные ребята
И девочки 25.gif Тут тетка на вокале, причем поет не очень.
(1) Andrew,
Sep 18 2019, 12:38:08 Wind's Lord - El Portador De Luz (2019)
Латинос, скорей всего низкорослые мексикосы 25.gif
https://f4.bcbits.com/img/0016951058_10.jpg
(1) SSWolf88,
Sep 16 2019, 12:16:49 Weeping Sores - False Confession (2019)
Тут еще и скрипки чумовые.
(1) Ghostb,
Sep 13 2019, 11:51:38 Weeping Sores - False Confession (2019)


*Artist: Weeping Sores
*Album: False Confession
*Year: 2019
*Genre: Death/Doom Metal
*Country: United States
*Format: mp3@CBR192kbps
*Size: 78MB

Tracklist:
01. Scars Whispering Secret Tongues 10:41
02. Song of Embers 09:05
03. Transfiguration of Flesh into Dreams 09:09
04. The Leech Called Shame 07:49
05. Valediction Prayer 10:08
06. Sink Beneath the Waves 09:18
******************************
Total playing time: 56:10

[more=Extended info]Label:I, Voidhanger Records[/more]

[more=Technical info]
Input File: 02. Song Of Embers.mp3
Channels : 2
Sample Rate : 44100
Precision : 16-bit
Duration : 00:09:05.75 = 24067751 samples = 40931.5 CDDA sectors
File Size : 13.3M
Bit Rate : 194k
Sample Encoding: MPEG audio (layer I, II or III)
Comments :
Title=Song Of Embers
Artist=Weeping Sores
Album=False Confession
Year=2019
Genre=Doom/Death Metal

[/more]

Register
(6) infiltrator, Olethros, Rosen, Spork, yuratroll, Язва,
Sep 13 2019, 07:46:07 Eradikator - Obscura (2019)
ЦИТАТА(kessler @ Sep 13 2019, 09:16:52) *
Какой-то хевиметал. С таким названием и облогой ждешь чего-то не менее трясучего, чем Violator)

Так они всегда такими и были, с достаточной примесью хэви.
Да и облога под суровый трэшак не катит, больше на heavy power смахивает.
(2) infiltrator, kessler,
Sep 13 2019, 07:28:56 Formicarius - Rending The Veil Of Flesh (2019)
Послушаем, предыдущий был практически отличным.
По сути Melodic Black Metal

(1) d0zer,
Sep 13 2019, 07:13:10 Hammerschmitt - Dr.Evil (2019)
ЦИТАТА(Deze @ Sep 12 2019, 16:33:20) *
Но штука в том, что Хаммершмидт к таким никаким боком не относится.
Но штука в том, что явно не тебе определять легендарность и что к чему относится, видимо ты еще на горшок гадил (вернее тебя тогда вообще еще не существовало) когда этот винил у нас на балке даже на Iron Maiden менять не хотели, считалось что Hammerschmitt 1985 года куда более крутая пластинка.
(1) Eisbar,
Sep 13 2019, 06:56:34 Darkend (2) sabbracadabra, thenecromancer,
Sep 12 2019, 12:37:49 Purasangre - Abducidos De La Realidad (2019)
ЦИТАТА(Satanspell @ Sep 12 2019, 12:04:23) *
Альбом хорош. Энергичный, немного уругвайский не втыкает, а так то что надо. Олдскульно и задорно.

Нет такого языка как уругвайский bye.gif Чему тебя только в школе учили 15.gif
(1) Diflock,
Sep 11 2019, 12:53:48 Centenary - Into The Graveless Beyond (2019)
ЦИТАТА(AHBAnep @ Sep 11 2019, 08:43:57) *
Garage Records
точнее Podval Garage Records 1488.gif
(1) Deze,
Sep 11 2019, 12:24:07 Corpse Grinder - Into The Coffin (2018)
Просто отлично, бальзам на душу.
(2) DarkHorde, Leshiy666,

20 Pages V   1 2 3 > » 
- Lo-Fi Version Support form
Copyrights and abuse reports form
Time is now: 16th October 2019 - 05:36:54