Welcome Guest ( Log In | Register )

История благодарностей участнику isvili ::: Спасибо сказали: 1120 раз(а)
Дата поста: В теме: За сообщение: Спасибо сказали:
Sep 19 2020, 12:51:00 Mørkt Tre - Земля Забута Богом І Людьми (2020)
Разве плохой альбом? По моему вполне прилично играют. 13.gif
Кстати тут чуваки из Kroda, Zgard, Reusmarkt и тд.
Я бы сказал это типичный украинский блэк сегодняшнего времени.
(3) Daale, Samaritianin, suseka,
Sep 17 2020, 15:56:37 Plague Years - Circle Of Darkness (2020)
ЦИТАТА(metalboll @ Sep 17 2020, 17:21:07) *
музыка супер , вокал подкачал .
Хороший олдскульный вокал
(4) DarkHorde, Diflock, infiltrator, Samaritianin,
Sep 12 2020, 17:59:12 Frowning - Death Requiem (2020)
ЦИТАТА(vosmidesijatye @ Sep 12 2020, 14:36:22) *
Стоит сказать, что коллектив с самого начала творчества установил самые высокие стандарты качества, которым с тех пор продолжает неизменно следовать.

Есть такое дело, вот тут ты прав на все 100% 9.gif
(1) vosmidesijatye,
Sep 10 2020, 06:59:36 Raventale - Planetarium II (2020)
А как на счет лося? smile3.gif

(3) infiltrator, Ingvar, VLADISLAV_V_K,
Sep 8 2020, 12:44:14 Vacant Eyes - A Somber Preclusion Of Being (2020)
ЦИТАТА(Samaritianin @ Sep 4 2020, 21:09:34) *
Альбом вчера при повторном прослушивании реально вдавил в кресло и чуть не расплющил нах.
Отличная порция тяжелой меланхолии! 20.gif

Мало того, он еще и чертовски мелодичен 20.gif
(3) infiltrator, krotovich, Samaritianin,
Sep 8 2020, 11:54:29 Land Of Fog - Morbid Enigmas (2020)
ЦИТАТА(Samaritianin @ Sep 6 2020, 21:40:59) *
FLAC (Tracks) 349 mb

Принимай,коллега!)))

Да это просто праздник какой то pray.gif Ты как добрый волшебник 9.gif
(1) Samaritianin,
Sep 6 2020, 15:50:21 Land Of Fog - Morbid Enigmas (2020)
Коллеги по цеху, часом лося не имеется? Нужен, тема то что надо 20.gif
(1) Samaritianin,
Sep 4 2020, 18:05:10 Vacant Eyes - A Somber Preclusion Of Being (2020)
ЦИТАТА(Samaritianin @ Sep 4 2020, 17:18:35) *
FLAC (Tracks) 485 mb

Благодарю! 9.gif
(2) infiltrator, Samaritianin,
Sep 4 2020, 08:33:50 Vacant Eyes - A Somber Preclusion Of Being (2020)
Земляк, а лося не подкинешь часом? smile3.gif
Уж очень зачетная тема, слежу за ними еще со времен епишки 2014 года.
(3) infiltrator, krotovich, Samaritianin,
Aug 29 2020, 11:59:46 Seven Chains - Thus She Speaks, The Spiraling Maranatha (2020)
Psychedelic Black Metal
(1) Occultas,
Aug 23 2020, 14:52:16 Land Of Fog - Morbid Enigmas (2020)
ЦИТАТА(Phlebotomized @ Aug 21 2020, 14:37:27) *
Всё бы хорошо но как то странно записано.

По крайней мере звук лучше чем у 90% бразильских блэкарей
(1) krotovich,
Aug 23 2020, 14:48:23 Verikyyneleet - Ilman Kuolemaa (2020)
ЦИТАТА(sethurius @ Aug 20 2020, 20:07:01) *
Какой же это конченный порожняк, диву даешься 22.gif

I, Voidhanger Records, паражняк не выпускает 23.gif
(1) kranger,
Aug 23 2020, 14:46:17 Final Blast - Interplanetary War (2020)
ЦИТАТА(krotovich @ Aug 22 2020, 20:59:36) *
дискотека
На Ace of Base похоже? Если да, то забираю 1488.gif
(3) infiltrator, krotovich, Samaritianin,
Aug 19 2020, 14:09:00 Scent Of Darkness - Insanitude (2020)
ЦИТАТА(krotovich @ Aug 16 2020, 20:15:51) *
Читай DISCOGS

А что дискогс это безупречная библия? 1488.gif Там инфу пишут такие же пользователи сети как ты и я.
При этом там куча ошибок и неточностей.
(1) krotovich,
Aug 13 2020, 08:20:56 Scent Of Darkness - Insanitude (2020)


*Artist: Scent Of Darkness
*Album: Insanitude
*Year: 2020
*Genre: Funeral Doom/Death/Black Metal
*Country: Italy
*Format: mp3@CBR320kbps
*Size: 70MB

Tracklist:
01. Reborn 05:45
02. Trust Issues 07:41
03. Crowded Solitude 06:26
04. Whispers From Nowhere 10:04
******************************
Total playing time: 29:56



[more=Extended info]Не EP, полноформат (Full-length)
https://www.metal-archives.com/albums/Scent_of_Darkness/Insanitude/857114[/more]

[more=Technical info]
Input File: 01. Reborn.mp3
Channels : 2
Sample Rate : 44100
Precision : 16-bit
Duration : 00:05:45.83 = 15251015 samples = 25937.1 CDDA sectors
File Size : 13.9M
Bit Rate : 321k
Sample Encoding: MPEG audio (layer I, II or III)
Comments :
Title=Reborn
Artist=Scent Of Darkness
Album=Insanitude
Tracknumber=1
Year=2020
Genre=Funeral Doom/Death Metal

[/more]

Register
(22) AlexSmith, Bloodn Lord, Hell_Is_Here, infiltrator, Korpse, krotovich, LEGION69, metala, Olethros, rammstein888, randumbum, Reverend, robertho777, Rosen, Sanctus, sergsazan, serjred, Shadechaser, supremo, VALERY, varlam4, vyacheslav,
Aug 5 2020, 15:56:46 Onslaught - Generation Antichrist (2020)
О-о-о!!! Диды воевали 19.gif
(2) infiltrator, kessler,
Aug 1 2020, 12:27:50 Starblind - Black Bubbling Ooze (2020)
почти как Iron Maiden 25.gif
(1) smes,
Aug 1 2020, 11:00:11 Immorium - This Too Shall Pass (2020)
Достойный альбом, мощный и без соплей.
(1) Metalass,
Aug 1 2020, 10:40:29 Super Satan - Menetekel (2020)
DC comics представляет! Скоро на экранах "Supergirl and Superman против SUPER SATAN!"
(2) infiltrator, metala,
Aug 1 2020, 10:34:33 Brotthogg - The Die Is Cast (2020)
Это зачетные чуваки, прошлый полноформат просто на ура.
(1) Samaritianin,
Aug 1 2020, 10:30:38 Molde Volhal - Into The Cave Of Ordeals... [ep] (2020)


*Artist: Molde Volhal
*Album: Into The Cave Of Ordeals... [ep]
*Year: 2020
*Genre: Melodic Black Metal
*Country: Norway
*Format: mp3@CBR192kbps
*Size: 40MB

Tracklist:
01. Into the Cave of Ordeals... 07:00
02. Beyond the Red Horizons of a Thousand Battles 05:51
03. Through Everlasting Halls (Triumphant Return to The Keep of Moldé Volhal) 05:57
04. In the Land Where Frozen Rivers Meet.. 02:46
05. Moldé Volhal 06:31
******************************
Total playing time: 28:05



[more=Extended info]Обязателен к ознакомлению для всех поклонников стиля Melodic Black Metal[/more]

[more=Technical info]
Input File: 02. Beyond The Red Horizons of a Thousand Battles.mp3
Channels : 2
Sample Rate : 44100
Precision : 16-bit
Duration : 00:05:51.62 = 15506442 samples = 26371.5 CDDA sectors
File Size : 8.63M
Bit Rate : 196k
Sample Encoding: MPEG audio (layer I, II or III)
Comments :
Title=Beyond The Red Horizons of a Thousand Battles
Artist=Molde Volhal
Album=Into the Cave of Ordeals​.​.​
Year=2020
Genre=Black Metal

[/more]

Register
(25) 1968_janeart, ahp, Andrew, djsema4, infiltrator, kim666, kryptor, Ludwig Hagen, Mogozoz, Olethros, Olguard, Olrak, orgondnor, Ostinato, randumbum, robertho777, Rosen, satanist666, sergsazan, SilentNidhogg, Sjelekval, VALERY, wreak, zargonath, zhol,
Jul 28 2020, 10:19:33 Felgrave - A Waning Light (2020)
ЦИТАТА(GRAF @ Jul 27 2020, 17:31:22) *
Пока тупое примитивное "молотилово" по кастрюлям не начинается - вполне не плохо.

Kastrulian Death/Doom Metal??? 1488.gif
(5) infiltrator, ingram, Samaritianin, scorn33, woldemort,
Jul 22 2020, 14:15:04 Apathetic - Infurnose (2020)
ЦИТАТА(6666666 @ Jul 22 2020, 15:32:49) *
Ну так не бурчи.

Бурчу так сильно что аж кричу
На мокрый носик нажать хочу 1488.gif bye.gif
(4) Bloodn Lord, infiltrator, skidnik, vosmidesijatye,
Jul 19 2020, 07:19:00 Havukruunu - Uinuos Syömein Sota (2020)
ЦИТАТА(Old Vyaine @ Jul 18 2020, 23:41:40) *
Финны жгут в этом году.

Так финны уже лет как 25 жгут 25.gif
(2) infiltrator, rimfrost,
Jul 12 2020, 14:23:07 Moon - Saturn Exerzitium [demo] (2020)
Не funeral doom, atmospheric black metal
(1) Occultas,

25 Pages V   1 2 3 > » 
- Lo-Fi Version Support form
Copyrights and abuse reports form
Time is now: 23rd September 2020 - 17:07:37