Welcome Guest ( Log In | Register )

История благодарностей участнику isvili ::: Спасибо сказали: 753 раз(а)
Дата поста: В теме: За сообщение: Спасибо сказали:
Yesterday, 17:57:48 Flavros - Det Svarta Riket (2016)
ЦИТАТА(Krosis @ Aug 25 2019, 09:00:29) *
Неплохой альбом, можно погонять.

Да можно и без альбома погонять 1488.gif
(1) RUSP73,
Aug 22 2019, 07:51:21 Gorebringer - A Craving For Flesh (2019)
Практически клоны The Black Dahlia Murder
(1) fateefffddd,
Aug 18 2019, 09:34:03 Darker Mysteria - Arcana Luna Funeral (2014)


*Artist: Darker Mysteria
*Album: Arcana Luna Funeral
*Year: 2014
*Genre: Black Metal
*Country: Argentina
*Format: mp3@CBR192kbps
*Size: 81MB

Tracklist:
1. Luna de invierno 01:30
2. Dramática sombra de un errático presagio 05:03
3. Bajo un aspecto lunar siniestro 06:51
4. Demonizada profecía invernal 07:56
5. Liturgia de oscuras místicas 05:28
6. Fantasmas de la niebla nocturna 07:28
7. A través de un velo de viudez 05:36
8. Difunta sed de la noche poderosa 06:13
9. Velos de antigua oscuridad 05:43
10. De Mysteriis Dom Sathanas (Mayhem cover) 06:35
******************************
Total playing time: 58:23



[more=Extended info]По сути практически Melodic Black Metal[/more]

[more=Technical info]
Input File: 03. Bajo un Aspecto Lunar Siniestro.mp3
Channels : 2
Sample Rate : 44100
Precision : 16-bit
Duration : 00:06:54.27 = 18269175 samples = 31070 CDDA sectors
File Size : 10.0M
Bit Rate : 194k
Sample Encoding: MPEG audio (layer I, II or III)
Comments :
Title=Bajo un Aspecto Lunar Siniestro
Artist=Darker Mysteria
Album=Arcana Luna Funeral
Year=2014
Genre=Black Metal

[/more]

Register
(3) Olethros, Rosen, thenecromancer,
Aug 17 2019, 17:10:31 As The Palaces Burn - End´evour (2019)
[youtube]h0D9yzTh_YI[/youtube]

[youtube]SjLBlrKce1M[/youtube]
(2) AHBAnep, infiltrator,
Aug 17 2019, 16:58:27 Wraith - Absolute Power (2019)
Отличная вещь и ноль комментов, странно 13.gif
(1) Samaritianin,
Aug 13 2019, 15:59:08 Moriandum - Stronghold Of Evil (2019)
Очень достойно и очень мелодично 20.gif
(1) Shadechaser,
Aug 7 2019, 08:24:21 Ecatonia - Tales From The Old Graveyard [ep] (2019)


*Artist: Ecatonia
*Album: Tales From The Old Graveyard [ep]
*Year: 2019
*Genre: Doom/Death Metal
*Country: Italy
*Format: mp3@CBR320kbps
*Size: 50MB

Tracklist:
01. The Old Graveyard (04:31)
02. Clouds of Thorns (02:05)
03. Epitaph (05:16)
04. Crimson Twilight (01:21)
05. Nebula Noctis (05:22)
******************************
Total playing time: 18:35



[more=Technical info]
Input File: 02. Clouds of Thorns.mp3
Channels : 2
Sample Rate : 44100
Precision : 16-bit
Duration : 00:02:04.59 = 5494331 samples = 9344.1 CDDA sectors
File Size : 6.04M
Bit Rate : 388k
Sample Encoding: MPEG audio (layer I, II or III)
Comments :
Title=Clouds of Thorns
Artist=Ecatonia
Album=Tales from the old Graveyard
Tracknumber=2
Year=2019
Genre=Doom/Death Metal

[/more]

Register
(14) artscald, Geisteswaffe, Ice Gnoll, nsk2008, Ostin Devil, robertho777, Rosen, russ777, sergsazan, Shadechaser, stumpheavyrock, TeamatSE, vyacheslav, Герб,
Aug 3 2019, 10:35:39 Explosion - Источник Заразы (2019)
ЦИТАТА(Hellraiser @ Aug 2 2019, 13:58:11) *
Странно. А я в этой толпе никого не узнал. :-)

Да тут конкретно на облоге ни кто и не персонифицирован, дается общность сегодняшней реальности, продажные политики, зажравшиеся армейские чины, обнаглевшие попы на мерседесах и джипах, потерявшие совесть и страх мусора, упоротая нынешняя молодежь, ну и зомбак с наколкой на лбу АУЕ, все само за себя говорит.
(4) hammer, infiltrator, Phantom_Voodoo, Samaritianin,
Aug 3 2019, 10:27:02 Brotthogg - Echoes Of The Past (2019)
ЦИТАТА(Луч @ Aug 2 2019, 08:41:11) *
В шапке файлы все битые.

Кем битые? 1488.gif
(1) Samaritianin,
Aug 1 2019, 23:29:44 Brotthogg - Echoes Of The Past (2019)
Помню что епишку ихнюю The Last Traveler до дыр загонял, угарнейшая вещь 20.gif
Тут чуваки из известной банды Subliritum
(3) infiltrator, RENыч, Samaritianin,
Jul 29 2019, 10:06:23 Ravenpath - The Raven's Wisdom (2019)


*Artist: Ravenpath
*Album: The Raven's Wisdom
*Year: 2019
*Genre: Melodic Death/Black Metal
*Country: Germany
*Format: mp3@CBR192kbps
*Size: 78MB

Tracklist:
01. Intro 02:21
02. Harbinger 04:49
03. MyPrivacy.com 04:51
04. No Warning 05:04
05. Is It Worth 06:14
06. Left Behind Massive Walls 05:32
07. The Tale of Spectator and Conspiracy 05:35
08. The Raven's Wisdom 06:22
9. A Change in the Darkness 03:19
10. Ray of Hope 05:08
11. Past of the Future 06:53
******************************
Total playing time: 56:08



[more=Extended info]Black Metal практически нет, чистый Melodic Death Metal иногда с вкраплениями клавишных.[/more]

[more=Technical info]
Input File: 02. Harbinger.mp3
Channels : 2
Sample Rate : 44100
Precision : 16-bit
Duration : 00:04:49.76 = 12778240 samples = 21731.7 CDDA sectors
File Size : 7.09M
Bit Rate : 196k
Sample Encoding: MPEG audio (layer I, II or III)
Comments :
Title=Harbinger
Artist=Ravenpath
Album=The Raven´s Wisdom
Year=2019
Genre=Melodic Death/Black Metal

[/more]

Register
(13) ahp, infiltrator, Korpse, metala, metalwoman, Olethros, Orgasmik, Rosen, sergsazan, SnaP, sok, zhol, Сварог Барг,
Jul 29 2019, 10:05:13 Ravenpath - The Voices In The Winds (2015)


*Artist: Ravenpath
*Album: The Voices In The Winds
*Year: 2015
*Genre: Melodic Death/Black Metal
*Country: Germany
*Format: mp3@CBR192kbps
*Size: 60MB

Tracklist:
01. The Voices... 00:38
02. ...in the Winds 04:49
03. Fall of Humanity 05:00
04. Wrong Blame 04:39
05. Armageddon 04:33
06. Crusaders 05:08
07. Agitate 02:32
08. Hope 05:27
09. The Enemy Next Door 06:17
10. The Anthem of the Endtime 03:55
******************************
Total playing time: 42:58



[more=Extended info]Black Metal практически нет, чистый Melodic Death Metal иногда с вкраплениями клавишных.[/more]

[more=Technical info]
Input File: 02. in the Winds.mp3
Channels : 2
Sample Rate : 44100
Precision : 16-bit
Duration : 00:04:49.91 = 12785163 samples = 21743.5 CDDA sectors
File Size : 7.06M
Bit Rate : 195k
Sample Encoding: MPEG audio (layer I, II or III)
Comments :
Title=... in the Winds
Artist=Ravenpath
Album=The Voices in the Winds
Year=2015
Genre=Melodic Death Metal

[/more]

Register
(7) infiltrator, Korpse, metalwoman, Olethros, Rosen, sergsazan, zhol,
Jul 28 2019, 16:48:20 Ancient Hostility - Ancient Hostility (2019)
ЦИТАТА(koc1 @ Jul 28 2019, 15:37:07) *
спасибо за релиз,раздавил скуку.

Лучше бы ты бутылочку раздавил от скуки bye.gif
(5) infiltrator, ingram, rimfrost, RUSP73, vosmidesijatye,
Jul 28 2019, 16:15:42 Wounds Of Recollection - You Were A Garden Of Empyrean Light (2019)
ЦИТАТА(Nemez @ Jul 27 2019, 08:07:10) *
откуда фюнерал хз, средней руки абм\блэкгейз

Он затаился, за могильным надгробием 1488.gif
(1) vosmidesijatye,
Jul 28 2019, 14:58:45 Hatriot - From Days Unto Darkness (2019)
ЦИТАТА(sta1081 @ Jul 25 2019, 17:14:01) *
На этом альбоме,на вокале не Стив,однако....

Внесу ясность, на этом альбоме поет Cody Souza родной сын Steve "Zetro" Souza, а на ударных рубит его родной брат Nick Souza.
(1) vosmidesijatye,
Jul 28 2019, 14:53:46 Wormwood - Nattarvet (2019)
ЦИТАТА(russ777 @ Jul 28 2019, 10:00:22) *
Альбом действительно хорош ... "зашёл" , как говорится.. metaler.gif
- spitggis0.gif а не поделитесь ссылочкой на предыдущий, а то я чёт не найду ?

А шо там искать то? Все на виду:
https://rutracker.org/forum/viewtopic.php?t=5366520
(1) russ777,
Jul 26 2019, 07:42:07 Wormwood - Nattarvet (2019)
ЦИТАТА(andeimon @ Jul 25 2019, 20:32:42) *
Отличный альбом выдали парни. Видел их живьем на концерте, огонь. Альбом однозначно в топик года. Респект раздающему 9.gif 9.gif 9.gif

Ты предыдущий их альбом послушай, он шедевральный.
Послушал пару раз, вроде не плохо, но реально хуже предыдущего.
(2) andeimon, russ777,
Jul 25 2019, 13:29:07 Dimmen - I Am Hate (2019)
ЦИТАТА(AHBAnep @ Jul 25 2019, 11:19:24) *
А где блэк и дес? Прогрессивный мелодик с харшем.

Может и нету, но все равно звучит симпатично.
(1) Samaritianin,
Jul 18 2019, 10:23:28 Endark The Brightness - Cycle (2019)
В начале кажется что дерьмо, но после 3-4 минут прослушивания понимаешь, что это отличная атмосферная музыка.
Уместны сравнения с Люстре и Суммонингом.
(1) Samaritianin,
Jul 16 2019, 16:52:57 Lands Of Memories - Silly Things (2019)
Silly Things Full Album
https://www.youtube.com/watch?v=RvTLnJZfmuM...ndex=2&t=0s
[youtube]Dw37KHLAHoU[/youtube]
(2) Altkiller, sok,
Jul 13 2019, 07:16:14 Fire Wheel - Ignited (2019)
Блэка тупо не услышал, грувистый пластиковый мелодик death, причем низкокачественный.
(2) DenisKov, Metalass,
Jul 9 2019, 07:29:20 Fanatic Attack - Waiting To Rot (2014)
[youtube]BqhHUpi4PZM[/youtube]
(1) Diflock,
Jul 8 2019, 17:37:15 Yuzukingdom - Dadaism (2019)
В целом даже не плохо, но все равно однотипный японский mdm, узнаваемый с первых аккордов.
Про вокал вообще разговора нет - True Japan Style 1488.gif
(1) wn129aa,
Jul 4 2019, 09:34:20 Impavida - Antipode (2019)
[youtube]9Bn10H0bCo8[/youtube]
(1) artscald,
Jul 2 2019, 12:19:35 Протидія - Тягар Страждання (2019)
Облога на тему "Найди на картинке 8 человек и 7 ворон" 15.gif
Как для оne man band вполне достойно.
(1) nsk2008,

18 Pages V   1 2 3 > » 
- Lo-Fi Version Support form
Copyrights and abuse reports form
Time is now: 26th August 2019 - 01:26:17