Welcome Guest ( Log In | Register )

История благодарностей участнику RUSP73 ::: Спасибо сказали: 3733 раз(а)
Дата поста: В теме: За сообщение: Спасибо сказали:
Nov 26 2021, 22:36:19 Servant - Blessed By The Light Of A Thousand Stars (2021)
(3) AlexSmith, bowelled, nsk2008,
Nov 18 2021, 23:25:41 Exodus - Persona Non Grata (2021)
Никогда не любил эту группу и не понимаю восторгов их творчества, но это ИМХО
(1) BleedingSun,
Nov 17 2021, 00:49:36 Archgoat - Worship The Eternal Darkness (2021)
Конечно для многих честный битрейт очень важен, но подумайте, сколько вливает релизов Самара и сколько большинство из нас. Уважайте релизеров - это бесплатный труд на наше благо. И, если честно мне по[мат->бан] на битрейт в мп3. Как уже писал - хочешь качества, купи себя носитель, а не на мп3 слушай.
(8) Anarhist815, HviteGuden, Infidel, Leshiy666, ondrazevsi, Qliphoth, sabr, Samaritianin,
Nov 16 2021, 16:02:02 Archgoat - Worship The Eternal Darkness (2021)
Archgoat правильная козлятина, которую не каждому дано уметь играть. Большинство групп такого направления просто не умеют играть и банально скучны. Был давно на их концерте, где их вокалиста вусмерть напоили нашей водкой с пивом(еле стоял) - оторвались знатно! Даже фоткнулся с ними в гримерке и вообще , что они , что Morbosidad не звездились и тусовались со всеми в зале! pray.gif
(2) Kurhan, Samaritianin,
Nov 11 2021, 23:21:38 200 Stab Wounds - Slave To The Scalpel (2021)
Был норвежский 122 Stab Wounds, теперь вот этот)
(2) Chasm, UlvhedinGrom,
Nov 6 2021, 19:44:52 Gutalax - The Shitpendables (2021)
О,да бэйби! pray.gif Сразу лайк!
Одни из лучших!
(2) DarkHorde, judaz,
Nov 4 2021, 21:31:04 Sarke - Allsighr (2021)
Нет здесь блэка, что-то попсовенькое тренькают потихоньку. На любителя
(1) DarkHorde,
Nov 3 2021, 14:34:22 Goat - Collapse [ep] (2021)
Не всем дано играть хороший козлоблэк/дэт, здесь лишь жалкие потуги
(1) Hexer,
Nov 1 2021, 14:41:10 Mordhell - Chainsaw Cuts [demo] (2016)
20-й есть у кого?
[youtube]ewaO0qp60Es[/youtube]
Шикарная группа в духе Carpathian Forest/Nattefrost
(1) Occultas,
Oct 27 2021, 23:19:22 Graveland - The Celtic Winter [demo] (1994)
ЦИТАТА(AlexCrazy @ Oct 27 2021, 07:09:12) *
если это вариант 96 года от No Colours, то должен быть другой треклист:
1. Intro 03:16
2. Call of the Black Forest 04:22
3. Hordes of Empire 04:41
4. The Night of Full Moon 05:32
5. Prolog 03:17
6. The Gates to the Kingdom of Darkness 06:42
7. The Return of Funeral Winds 08:25

Да, да ты прав - видимо не тот треклист скопировал (или модератор какой-то накосячил?). Исправил) Там в сканах и при прослушке все как положено)
И почему-то облога набок) Брал со своего скана - там все норм) Мистика) Хотя, когда нажал на увеличить - вылезла норм 1488.gif
(1) Occultas,
Oct 26 2021, 15:59:55 Graveland - The Celtic Winter [demo] (1994)


*Artist: Graveland
*Album: The Celtic Winter [demo]
*Year: 1994
*Genre: Black Metal
*Country: Poland
*Format: mp3@CBR320kbps
*Size: 77MB

Tracklist:
1.Intro 03:16 instrumental
2.Call of the Black Forest 04:22
3.Hordes of Empire 04:41
4.The Night of Full Moon 05:32
5.Prolog 03:17 instrumental
6.The Gates to the Kingdom of Darkness 06:42
7.The Return of Funeral Winds 08:25
******************************
Total playing time: 36:15

[more=Extended info]Странно, но не нашел на форуме. Мой релиз с родного диска со сканами. Переиздание 1996 года от No Colours Records. Может кому и надо.[/more]

[more=Technical info]
Input File: 02 Call Of The Black Forest.mp3
Channels : 2
Sample Rate : 44100
Precision : 16-bit
Duration : 00:04:23.33 = 11612985 samples = 19750 CDDA sectors
File Size : 10.5M
Bit Rate : 320k
Sample Encoding: MPEG audio (layer I, II or III)
Comments :
Title=Call Of The Black Forest
Artist=Graveland
Album=The Celtic Winter
Tracknumber=2
Year=1993
Genre=Metal & Hard Rock

[/more]

Register
(26) Antichrist, artscald, caro, ChaosArcana, Femto, Hell_Is_Here, helvetestoner, homelike, julianotidre, Ludwig Hagen, Mannard, Moonshtook, Occultas, Olethros, sethurius, SilentNidhogg, Storky, stormhatt, stumpheavyrock, supremo, Svafrlami, thenecromancer, UlvhedinGrom, VALERY, wgs73, wreak,
Oct 26 2021, 14:15:09 Besatt - Besatt (2021)
Авангардная хрень, на вкус и цвет. Сначала подумал про поляков, но и тех не особо жалую)
(1) thenecromancer,
Oct 21 2021, 22:59:45 Caveman Cult - Blood And Extinction (2021)
Отличный образец Козлоблэкдэта, примитивный и бескомпромисный true_black.gif pray.gif
(1) judaz,
Oct 17 2021, 16:55:13 Sethulum - Ominous Presence Of The Perverse Goat (2021)
Гаражная самодеятельность, но облога норм
(1) SaintVitus,
Oct 14 2021, 18:35:17 Turbo - Last Warrior (1988)
ЦИТАТА(Old Vyaine @ Oct 14 2021, 20:34:13) *
а я тоже, и из другого места тоже, на всякий случай 1488.gif

Людей попросил - вот и подкинули дровишек)
(1) Old Vyaine,
Oct 14 2021, 18:30:02 Turbo - Last Warrior (1988)
ЦИТАТА(Old Vyaine @ Oct 14 2021, 20:22:39) *
Та же фигня 1488.gif

Скачал - скину!
Flac
Register

мп3, если кто сделает - спасибо!
(2) death77, Old Vyaine,
Oct 13 2021, 20:47:47 Massacre - Dead Beyond Death [single] (2021)
Ничего так - подожду выхода полноформатника Resurgence
(1) Occultas,
Oct 13 2021, 20:44:22 Bergtatt - Lagnadsoger (2013)
Не Unformat разве?
(1) babanguida,
Oct 12 2021, 15:10:34 Nocturnal Wanderer - Gift Of The Night (2021)
Мужик на фотке видимо этой дубиной по фэйсу и получил 1488.gif
Тыц
(1) Occultas,
Oct 5 2021, 22:35:39 Putrevore - Miasmal Monstrosity (2021)
ЦИТАТА(WOLAND @ Oct 5 2021, 23:19:35) *
А кто же его заразил. dwarf-1.gif

Нулевой пациент)
А вообще,сам себя , наверное)

Музыка неинтересная, вокал натужный какой-то, да еще и Рогга - прям как анти, для меня лично
(2) ingram, judaz,
Sep 27 2021, 21:30:09 Mammoth Cave Burial - Three Silver Swords III (2021)
7 полноформатников за 2021, ну да, ну да 25.gif
(2) satanist666, Storky,
Sep 22 2021, 15:35:40 Kvele - Konge [ep] (2021)
Ничем непримечательная группа, стер их старые релизы
(1) Hexer,
Sep 16 2021, 15:58:56 Funeral Winds - Gruzelementen (2021)
Вполне себе стандартный тру-блэк ничем особенным не выделяющийся на фоне кучи такого плана групп. Послушал и забыл. А у Голландии реально мало стОящих групп, для меня лично
(1) HviteGuden,
Aug 24 2021, 20:59:42 Helwetti - Helwetti (2021)
Наконец-то в сонме серостей БМ появился достойный релиз! pray.gif
Вокалу отдельный респект! true_black.gif
(4) Hexer, lopuh21, mondblut, Абигор,
Jun 21 2021, 21:02:29 Ulvehyrde - Englemakersken [single] (2021)
Архивы пишут норги
(1) NachtWulf,

42 Pages V   1 2 3 > » 
- Lo-Fi Version Support form
Copyrights and abuse reports form
Time is now: 29th November 2021 - 07:54:31