Welcome Guest ( Log In | Register )

История благодарностей участнику dagger666 ::: Спасибо сказали: 3149 раз(а)
Дата поста: В теме: За сообщение: Спасибо сказали:
Jun 29 2017, 14:33:38 Vampyric Blood - Vampires Of The Bleeding Moon [ep] (2016)


*Artist: Vampyric Blood
*Album: Vampires Of The Bleeding Moon [ep]
*Year: 2016
*Genre: Black Metal
*Country: Finland
*Format: mp3@CBR320kbps
*Size: 23MB

Tracklist:
1. Towards The Moon... 2:37
2. Vampires Of The Bleeding Moon 3:11
3. Strigoi 4:19
******************************
Total playing time: 10:07



[more=Technical info]
Input File: 02-Vampires of the Bleeding Moon.mp3
Channels : 2
Sample Rate : 48000
Precision : 16-bit
Duration : 00:03:10.75 = 9156096 samples ~ 14306.4 CDDA sectors
File Size : 7.63M
Bit Rate : 320k
Sample Encoding: MPEG audio (layer I, II or III)
Comments :
Title=Vampires of the Bleeding Moon
Artist=Vampyric Blood
Album=Vampires of the Bleeding Moon
Tracknumber=2
Year=2016
Genre=Black Metal

[/more]

Register
(37) 1968_janeart, andivi, artscald, Blut aus Nord, Boozer, cuervopagano, Daale, ddarkthrone, deadterror, giger13, Hell_Is_Here, Ildjarn, kim666, Krosis, legion01, lestllk, NachtWulf, Oath19, Occultas, OnlyDeathisReal, Ostinato, Raw1488, rom666, Rosen, RUSP73, satanist666, serg1349, Skog1349, stub888, VALERY, varlam4, vasiljev_sergej, VECTOR, Vidder242, wgs73, Zaephar, Абигор,
Nov 2 2014, 17:17:18 Qui Incenditur - Doctrine Of The Six Regions (2013)


*Artist: Qui Incenditur
*Album: Doctrine Of The Six Regions
*Year: 2013
*Genre: Black Metal
*Country: Portugal
*Format: mp3@CBR320kbps
*Size: 97MB

Tracklist:
1. Infinitas 08:04
2. Genesis 08:26
3. Evolutio 07:14
4. Decadentia 07:48
5. Terra 08:56
6. Finis Temporis 08:06
******************************
Total playing time: 48:34



[more=Technical info]
Input File: 02 Genesis.mp3
Channels : 2
Sample Rate : 44100
Precision : 16-bit
Duration : 00:08:26.00 = 22314600 samples = 37950 CDDA sectors
File Size : 20.2M
Bit Rate : 320k
Sample Encoding: MPEG audio (layer I, II or III)
Comments :
Title=Genesis
Artist=Qui Incenditur
Album=Doctrine Of The Six Regions
Tracknumber=2
Year=2013
Genre=Black Metal

[/more]

Register
(32) 0x13, 1968_janeart, bka, blacky66, Boozer, Buregon, Constantinus I, Darkthronefoad, Doooomed, Eichmann, homelike, Ildjarn, lestllk, Luminous, Moonshtook, murian, Necromag, princeshr, Razorbladeswaltz, Rosen, sethurius, stub888, supremo, toly1917, tont, VALERY, varg-38ru, varlam4, vasiljev_sergej, vov7609, wreak, Абигор,
Jun 14 2014, 15:26:03 Emerald Weapon - Emerald Weapon [ep] (2014)
Изумрудный х12.gif? fear.gif
(1) General,
Mar 24 2014, 00:28:29 Vothana - Trên Con Ðuòng Danh Vong [demo] (2007)
Register
(5) 666days, olav, RUSP73, sumostig, Zaephar,
Mar 24 2014, 00:17:06 Tyrant - Legend (2002)
Register
(3) DarkHorde, Luminous, thenecromancer,
Mar 24 2014, 00:02:40 Lament Configuration - Demonic Incantations (2005)
Register
(2) Constantinus I, rom666,
Mar 23 2014, 23:01:42 Smohalla - Nova Persei [ep] (2007)
Register
(2) Kazoth, rom666,
Mar 23 2014, 22:53:30 Rot - Mau Cua Tui Bay Se Do [demo] (2007)
Register
(1) dermarsoran,
Dec 19 2013, 16:10:12 Barbaros - Amalu N' Zik (2009)
Register
(2) Deathbringer, kim666,
Dec 8 2013, 04:26:50 Taarma & Dér - Ceremony Of Self Sacrifice [split] (2007)
Register
(7) artscald, ddarkthrone, dermarsoran, Ezra, Lanceatum, Nadja, RUSP73,
Nov 27 2013, 04:37:06 Season's End - The Falling Light (2004)
Register
(3) socrates9, Spunkynut, varlam4,
Nov 19 2013, 12:45:49 Maniak & Korihor - From Death...Rising! [split] (2008)
Register
(6) artscald, rickzammuto, rom666, sethurius, varlam4, Wail,
Nov 15 2013, 09:43:27 Unholy Cross - Daemon's Hammer [demo] (2004)
Register
(3) lawronchik, mordesag, shurup5,
Nov 4 2013, 00:56:52 Belkardt - Tearing The Heavens [demo] (1997)
Register
(8) dermarsoran, dvlz, lawronchik, sethurius, ssturm88, vasiljev_sergej, Velkaarn, Лед,
Nov 4 2013, 00:56:40 Belkardt - To Reach The Silent Black Monolit [demo] (1996)
Register
(6) dermarsoran, dvlz, sethurius, ssturm88, vasiljev_sergej, Лед,
Oct 23 2013, 01:40:36 Underdark - Правда Та, Что Живёт [demo] (2005)
Register
(2) artscald, AwaitingDawn,
Oct 23 2013, 01:19:46 Tanat & Briargh - Funeral Howls / A Black Mark Over The Land [split] (2005)
Register
(10) artscald, Borderline1991, ddarkthrone, dermarsoran, Lanceatum, lawronchik, morbidangelo, Ratibor366, varlam4, vasiljev_sergej,
Jan 3 2011, 23:06:27 Magwi - Magwi (2004)
reuploaded
(1) Нигилист,
Oct 21 2010, 01:54:24 Pagan Lorn - Nihillenium (1998)
Register
(2) DaylightSound, Vincent,
Oct 21 2010, 01:54:02 Pagan Lorn - Black Wedding (1996)
Register
(2) DaylightSound, Vincent,
Oct 4 2010, 11:31:25 Angest Herre & Hordah Blaästhiir - Suite Neurasthénique Pour La Pendaison [split] (2009)
Register
(6) Algis, deathtroll, Okkultis, the_cleanser, Абигор, Келебрин,
Sep 16 2010, 03:16:27 Alchemist - Solarburn [studio clip] (2003)
Register
(5) --AK--, BioMax, dorn1, NorskBjorn, Нигилист,
Sep 16 2010, 03:05:45 Pest - Wikinger/Feuer Der Nacht [ep] (1998)
Register
(3) Constantinus I, umnaxtet, varg-38ru,
Aug 26 2010, 22:09:09 Bezna Tvci - Noaptea Valpurgiei [demo] (2007)
Мне одному в логотипе группы видится русское слово из трёх букв? fear.gif
(1) Абигор,
Jul 1 2010, 00:10:08 Mistress Of The Dead - Beneath Funeral Flowers [demo] (2005)
Перезалито.
(2) LoveTarja, thate_topa,

19 Pages V   1 2 3 > » 
- Lo-Fi Version Support form
Copyrights and abuse reports form
Time is now: 11th July 2020 - 11:42:17