Welcome Guest ( Log In | Register )

История благодарностей участнику Абигор ::: Спасибо сказали: 111317 раз(а)
Дата поста: В теме: За сообщение: Спасибо сказали:
Sep 23 2019, 21:12:05 Inferno Requiem - Shanhai (2019)


*Artist: Inferno Requiem
*Album: Shanhai
*Year: 2019
*Genre: Black Metal
*Country: Taiwan | Japan
*Format: mp3@CBR320kbps
*Size: 91MB

Tracklist:
1. Lost Clan, Wrath Of Forsaken Beast 05:15
2. Shanhai (Grand Rage From Mountain And Sea) 04:46
3. Toward The Mystic Gate Of The Sun 04:53
4. Sacred Throne With Serpent Totem 04:38
5. The Investiture II; Spear Of Anarchy 04:12
6. Ghost Of Coldness And Despair 04:08
7. Shadow Lurking In Obscured Ruin 04:24
8. Dying Star - The Villains Elegy 07:00
******************************
Total playing time: 39:16



[more=Extended info]Elderblood Productions[/more]

[more=Technical info]
Input File: 02 Shanhai (Grand Rage from Mountain and Sea).mp3
Channels : 2
Sample Rate : 44100
Precision : 16-bit
Duration : 00:04:46.11 = 12617363 samples = 21458.1 CDDA sectors
File Size : 11.4M
Bit Rate : 320k
Sample Encoding: MPEG audio (layer I, II or III)
Comments :
Title=Shanhai (Grand Rage from Mountain and Sea)
Artist=Inferno Requiem
Album=SHANHAI
Tracknumber=2
Year=2019

[/more]

Register
(25) 1968_janeart, ahp, alikkon, artscald, atavist, Forest Silence, horss, infiltrator, kim666, legion01, LEGION69, maringlen, nemx, Olethros, Ostinato, randumbum, Razorbladeswaltz, robertho777, Rosen, satanist666, SilentNidhogg, VALERY, vasiljev_sergej, wreak, Авел,
Sep 19 2019, 21:29:39 Blut Aus Nord - Hallucinogen (2019)
ЦИТАТА(mardak666 @ Sep 19 2019, 23:01:43) *
Залейте на нормальный обменник

Пожалуйста,
Register

no limits
(4) Golodomor, infernallord, infiltrator, mardak666,
Sep 15 2019, 16:03:26 Flail - Flail [ep] (2019)


*Artist: Flail
*Album: Flail [ep]
*Year: 2019
*Genre: Black Metal
*Country: Finland
*Format: mp3@VBR312kbps
*Size: 29MB

Tracklist:
1. Silent Depths
2. Darkened Morrow Of The Cold Marsh
******************************
Total playing time: 12:52



[more=Extended info]Avgrundsklanger,
limited to 200 copies.[/more]

[more=Technical info]
Input File: 01 - Silent Depths.mp3
Channels : 2
Sample Rate : 44100
Precision : 16-bit
Duration : 00:06:32.28 = 17299548 samples = 29421 CDDA sectors
File Size : 15.2M
Bit Rate : 310k
Sample Encoding: MPEG audio (layer I, II or III)
Comments :
Title=Silent Depths
Artist=Flail
Album=Flail
Tracknumber=01/2
Year=2019
Genre=Black Metal

[/more]

Register
(28) 1968_janeart, ahp, artscald, Ildjarn, infiltrator, Kalnasra, kim666, lestllk, lucifix, MAMARINA, Mannard, marilin, maringlen, mondblut, NachtWulf, nemx, Olethros, Ostinato, randumbum, robertho777, Rosen, satanist666, SilentNidhogg, stub888, thenecromancer, VALERY, vasiljev_sergej, wreak,
Sep 13 2019, 21:06:09 Vinterriket - Nachtfülle (2019)


*Artist: Vinterriket
*Album: Nachtfülle
*Year: 2019
*Genre: Ambient
*Country: Germany
*Format: mp3@CBR320kbps
*Size: 138MB

Tracklist:
1. I 10:54
2. II 12:12
3. III 11:59
4. IV 11:22
5. V 13:53
******************************
Total playing time: 1:00:20



[more=Extended info]Aphelion Productions

Спектр - обычный для ambient-записей.[/more]

[more=Technical info]
Input File: 03 - Vinterriket - Nachtfülle III.mp3
Channels : 2
Sample Rate : 44100
Precision : 16-bit
Duration : 00:11:58.58 = 31689202 samples = 53893.2 CDDA sectors
File Size : 28.7M
Bit Rate : 320k
Sample Encoding: MPEG audio (layer I, II or III)
Comments :
Title=Nachtfülle III
Artist=Vinterriket
Album=Nachtfülle
Tracknumber=03
Year=2019
Genre=Ambient

[/more]

Register
(42) A.L.Rapsod, ahp, BERZERK, BleedingSun, Boozer, cancer1974, dromord, Forest Silence, fylopaloma, garmonbozia, Grimmsberg, Infidel, Jackyl, juanguillermo13, kim666, KKK1488, Konst, Krosis, Leiche, lucifix, Luminous, NappyRob, nsmetalhead, oldvarg, Olethros, recber, ripper33, scorn33, sethurius, Sternennacht, stone88, stub888, TemnyLes, thenecromancer, the_cleanser, tOmV, wtk.412, yuratroll, ZA670, Zahrim, zargonath, zoog,
Sep 11 2019, 20:07:59 Melancholie - Agonie (2019)
В шапку добавил ссылку на альтернативный хостинг.
(2) 4ernoknignik, infiltrator,
Sep 11 2019, 17:09:53 Melancholie - Agonie (2019)


*Artist: Melancholie
*Album: Agonie
*Year: 2019
*Genre: Black Metal/Shoegaze/Depressive Rock
*Country: Netherlands
*Format: mp3@VBR260kbps
*Size: 106MB

Tracklist:
1. The Marching Beneath 06:11
2. Abject 02:20
3. Rain 04:28
4. Stress And Fear 05:37
5. Forbidden Longing 07:33
6. Distance 05:00
7. Your Retribution 05:43
8. Your Passing 03:46
9. My Last Goodbye 05:50
10. L'homme Et La Mer 09:45
11. Closure 00:50
******************************
Total playing time: 57:03



[more=Extended info]The Throat ‎– KEEL160[/more]

[more=Technical info]
Input File: 05 Forbidden Longing.mp3
Channels : 2
Sample Rate : 44100
Precision : 16-bit
Duration : 00:07:33.09 = 19981401 samples = 33982 CDDA sectors
File Size : 15.7M
Bit Rate : 277k
Sample Encoding: MPEG audio (layer I, II or III)
Comments :
Title=Forbidden Longing
Artist=Melancholie
Album=Agonie
Tracknumber=05/11
Year=2019

[/more]

Register
(29) artscald, Bob, craP_cillA, FuneralWolf, infiltrator, kauyumari, Kehl05, kim666, lucifix, Maximvs, oldvarg, Olethros, Ostinato, popen13, randumbum, robertho777, Romanza, Rosen, SatanicPanzer, satanist666, stone88, stub888, TAKATAEL, thenecromancer, tOmV, Tyrone, VALERY, vasiljev_sergej, wreak,
Sep 10 2019, 21:11:05 Fever Nest - A Circle Of Pain, A Circle Of Suffering [demo] (2019)


*Artist: Fever Nest
*Album: A Circle Of Pain, A Circle Of Suffering [demo]
*Year: 2019
*Genre: Black Metal
*Country: United States
*Format: mp3@VBR263kbps
*Size: 49MB

Tracklist:
1. Circle Of Suffering 03:52
2. Twelve Candles 01:57
3. Singed And Black 03:09
4. Behold The Pale Horse 01:48
5. Deathbag 02:45
6. No Prayer Dare Penetrate 03:10
7. Deep In The Woods (The Birthday Party Cover) 04:40
8. Holiday In Cambodia (Dead Kennedys Cover) 04:31
******************************
Total playing time: 25:52



[more=Extended info]Knife Vision,
limited to 50 copies.

Неизданный материал, датированный 2014 годом. Дикий, грязный и сырой.[/more]

[more=Technical info]
Input File: 03 Singed And Black.mp3
Channels : 2
Sample Rate : 44100
Precision : 16-bit
Duration : 00:03:08.89 = 8330093 samples = 14166.8 CDDA sectors
File Size : 5.75M
Bit Rate : 243k
Sample Encoding: MPEG audio (layer I, II or III)
Comments :
Title=Singed And Black
Artist=Fever Nest
Album=A Circle Of Pain, A Circle Of Suffering
Tracknumber=03/8
Year=2019
Genre=Black Metal

[/more]

Register
(18) 1968_janeart, artscald, FUDEDOR, Hell_Is_Here, kim666, maringlen, nemx, Olethros, Ostinato, Razorbladeswaltz, Rosen, satanist666, SilentNidhogg, stub888, thenecromancer, vasiljev_sergej, Wizard_in_Black, wreak,
Sep 1 2019, 21:51:05 Nordreich - Blutstarre (2018)
ЦИТАТА(vosmidesijatye @ Sep 1 2019, 23:41:20) *
Он еще недоволен тем что кто то якобы подтер его каменты

Предыдущий комментарий, который он оставил, не нёс определённой смысловой нагрузки, а выступал в качестве иронического совета, призывающего загружать альбомы Division Hagal, Absurd и других НС-ориентированных проектов, чтобы укрепить позиции портала как "нацистского музыкального сайта":

ЦИТАТА(Kvlt @ Sep 1 2019, 17:24:57) *
After that please also upload albums from Division Hagal, Absurd and many more NS (national socialistic) Metal bands, so we can make Metalarea great, as a nazi music site.


Естественно, комментарий был удалён.
(7) Borderline1991, Eisbar, FlammenTod666, Ildjarn, LVXXVL, princeshr, Winter Funeral,
Sep 1 2019, 21:39:40 Nordreich - Blutstarre (2018)
ЦИТАТА(Kvlt @ Sep 1 2019, 23:10:06) *
Since your trying to hide obvious things by deleting my comments and breaking rule 1.7 over and over again (without giving a fuck), i decided to delete all 100+ (re)uploads i have made the last 10 years here (with this and other accounts) and stop uploading definitely (promised future punk uploads are also canceled).

Thanks goes to every stupid fuckhead here.

Дядь, тебя чего припекло так? Никто никакие правила не нарушает, я выложил альбом, который никоим образом не противоречит пункту 1.7. Теперь каждый проект из Германии причислять к NSBM что ли? На форуме была дискография этого проекта, альбом висел в реквестах - я выложил его для полноты дискографии и не понимаю, почему от вас последовали столь эмоциональные в своём тоне пасквили и решительно-скорые действия по удалению всех своих загрузок?
(10) Borderline1991, Eisbar, LVXXVL, princeshr, Razorbladeswaltz, rimfrost, suseka, UlvhedinGrom, Winter Funeral, wolverine,
Aug 31 2019, 21:47:16 Nordreich - Blutstarre (2018)


*Artist: Nordreich
*Album: Blutstarre
*Year: 2018
*Genre: Black Metal
*Country: Germany
*Format: mp3@VBR260kbps
*Size: 102MB

Tracklist:
1. Erinnerung 05:08
2. Starre 06:43
3. Der Elende 04:57
4. Zerschnitten Mannaz 05:13
5. Dorn des Halbmondes 05:02
6. Gnadenlos geistig Dickicht 03:31
7. Der Weg ins Moor - Ingwaz 08:42
8. Zeiten des Surt 04:37
9. Der Sturm 03:25
10. Das Valkyrenlied 06:41
******************************
Total playing time: 53:59




[more=Extended info]Christhunt Productions[/more]

[more=Technical info]
Input File: 03. Der Elende.mp3
Channels : 2
Sample Rate : 44100
Precision : 16-bit
Duration : 00:04:56.70 = 13084382 samples = 22252.4 CDDA sectors
File Size : 9.42M
Bit Rate : 254k
Sample Encoding: MPEG audio (layer I, II or III)
Comments :
Title=03. Der Elende
Artist=Nordreich
Album=Blutstarre
Tracknumber=3/10
Year=2018
Genre=Black Metal
Discnumber=1/1

[/more]

Register
(82) -=Hass=-, 1968_janeart, aimtoknow, andeimon, artscald, Ash_1980, Asle, atavist, Bekkerev, BERZERK, caro, craP_cillA, CRUNCH, CultMetalSerge, dalex, DarkHorde, dermarsoran, DowntownGsus, Eisbar, Evgen79, Fess, FlammenTod666, Hell_Is_Here, Ildjarn, Indamage, infiltrator, isvili, kim666, kimkayoung, Korpse, lestllk, LVXXVL, maringlen, metalwoman, MMMMM, mondblut, Moonshtook, MortSathynr, murian, neoatheist, Nerevar, oldvarg, Olethros, Ostinato, princeshr, rabindranad, randumbum, Razorbladeswaltz, RENыч, Reverend, rimfrost, ripper33, robertho777, Rosen, Rover, RUDACHUR, satanist666, sethurius, SilentNidhogg, Skog1349, stub888, Stutthof, Surt, suseka, thenecromancer, tim47, Tino, toly1917, UlvhedinGrom, VALERY, vasiljev_sergej, Vidder242, V_H_H_V, wolverine, Wotanwatch, wreak, yarrsuaa, ZambuL, zhol, Авел, добрыйКот, Сварог Барг,
Aug 31 2019, 21:33:09 Pa Vesh En - Pyrefication (2019)


*Artist: Pa Vesh En
*Album: Pyrefication
*Year: 2019
*Genre: Raw Black Metal
*Country: Belarus
*Format: mp3@CBR320kbps
*Size: 90MB

Tracklist:
1. ...in the Ghostly Haze 03:32
2. Wastelands of Plague 07:05
3. Call of the Dead 04:03
4. A Cacophony of Spiritual Transition 04:11
5. Grotesque Abomination 04:10
6. With Splendor of the Night 04:26
7. Fog of Death 05:37
8. Pyre of the Forgotten 06:06
******************************
Total playing time: 39:10



[more=Extended info]Iron Bonehead Productions, August 23rd

320 настоящие, срез на 16 кГц в оригинале.[/more]

[more=Technical info]
Input File: 05 Grotesque Abomination.mp3
Channels : 2
Sample Rate : 44100
Precision : 16-bit
Duration : 00:04:09.70 = 11011550 samples = 18727.1 CDDA sectors
File Size : 9.99M
Bit Rate : 320k
Sample Encoding: MPEG audio (layer I, II or III)
Comments :
Title=Grotesque Abomination
Artist=Pa Vesh En
Album=Pyrefication
Tracknumber=5
Year=2019

[/more]

Register
(67) 1968_janeart, acerbus, aimtoknow, andeimon, artscald, Ash_1980, barzuk74, Bekkerev, BERZERK, Boozer, cist, CRUNCH, d0zer, Daale, dermarsoran, Doooomed, Evgen79, Evilded, Fess, FUDEDOR, garmonbozia, gena, Haunting, Hell_Is_Here, Ildjarn, infiltrator, judaz, kim666, Krosis, lestllk, maringlen, Moonshtook, nemx, nikolay81, NOMIDIMON, Olethros, Ostinato, peppuzzo, princeshr, rammmirez, randumbum, Razorbladeswaltz, RENыч, rimfrost, Rosen, Rover, sacrut, satanist666, sethurius, SilentNidhogg, Skog1349, smysl, suseka, thenecromancer, tim47, Tular, Tyrone, undeadlich, VALERY, Vardlokkur, vasiljev_sergej, Wizard_in_Black, Wotanwatch, wreak, ZambuL, Авел, Сварог Барг,
Aug 23 2019, 15:44:50 Horthodox - Horthodox (2019)
[more=Богоугодное оформление]














[/more]
(2) sethurius, Sickrites,
Aug 23 2019, 13:50:43 Лютомысл - De Profundis (2008)


Лютомысл - 2008 - De Profundis (Reissue 2018, Digipak)
Drakkar Productions ‎– DKCD120
CD-Rip + Scans

Register
(11) acerbus, aimtoknow, Black Cat, kim666, Moonshtook, princeshr, recber, RENыч, sethurius, technoboy69, vasiljev_sergej,
Aug 23 2019, 13:49:38 Лютомысл - Catharsis (2006)


Лютомысл - 2006 - Катарсис/Catharsis (Reissue 2018, Digipak)
Drakkar Productions ‎– DKCD119
CD-Rip + Scans

Register

(10) acerbus, aimtoknow, Black Cat, kim666, Moonshtook, princeshr, recber, RENыч, sethurius, vasiljev_sergej,
Aug 23 2019, 13:48:17 Лютомысл - Decadence (2005)


Лютомысл - 2005 - Decadence (Reissue 2018, Digipak)
Drakkar Productions ‎– DKCD118
CD-Rip + Scans

Register
(11) acerbus, aimtoknow, Black Cat, kim666, Moonshtook, princeshr, recber, RENыч, rickzammuto, sethurius, vasiljev_sergej,
Aug 18 2019, 10:50:11 Łatanu - Eon Hora (2019)
Немного народного творчества... 25.gif

Осанну поем Немарач Клану:
Гимн Pestilentia, оду Łatanu.
Золотом выведу на постаменте я:
Łatanu, Niemaracz, Pestilentia.

Слушать безудержно сутками стану
Я Pestilentia и Łatanu.
И, угорев, напишу всей френдленте я -
Łatanu, Niemaracz, Pestilentia. ©
(1) Hostis,
Aug 18 2019, 09:24:43 Odiosior - Odiosior [demo] (2019)
Отражение -
Register
(3) horss, thenecromancer, VALERY,
Aug 18 2019, 09:23:57 Wald Krypta - Nature Enigma (2018)
Отражение -
Register
(9) -=Hass=-, 1968_janeart, Hell_Is_Here, horss, infiltrator, suseka, thenecromancer, VALERY, Vitald,
Aug 15 2019, 22:13:29 Łatanu - Eon Hora (2019)
Мой обзор на новую работу представителей Niemaracz Clan:

Ветхозаветный великий и пространный "Алтарь Океана" – отвёрстое и осквернённое погребение и в то же время жуткое обиталище форм, отвергающих жизнь. Страшно и больно – кричать, выталкивая воздух из рваных лёгких, захлебываясь собственной кровью, чтобы через пространства услышать "Абсолютный призыв Хаоса, предвещающий триумфальное начало Конца". Повсюду – погибельный ритуальный мир Латану, символа Нового Обретённого Тёмного Эона, в котором "поверхности планет кровоточащих" "задушены Тьмой", основы мироздания вязнут в "хрипящих трупных пятнах жерл опустевших вулканов".

Тёмная хроматическая практика Инициации Вездесущего Духа, обрётшего благодать и подлинно-божественное Величие в момент восхождения "Новой Зарницы над миром". Оккультный ритуал, активно взывающий "крушить затворы телесной тюрьмы". Пакт, заключённый с тёмными силами в утверждении аутопсии ложных моделей профанической жизни. "Аспид, что занял Чёрный трон", не хочет повиноваться Тёмному Богу, но сам желает стать Началом. В этом стремлении он отвергает традиции, законы, выбирая Путь Высвобождения... Формула тайного учения Eon Hora, катализирующая начало растлённого пути в Тёмное Царство За-Предела в поисках понимания и приближения "Господства Его Зодиака". Таково Господствующее Знание. Концентрированная энергия Сгущения и Разрушения, высвобождённая на пути к Новому Эону, пробуждает силу Латану изнутри, чтобы Великий яростный Змей мог стать Творцом Нового Мира: "Вгрызётся в земные тверди, / Собой приумножит воды, / В каждый камень вопьётся жалом, / Зальёт ядро планеты, / Её мантию себе возьмёт, / Пожрёт без остатка окружающую среду". Отринув любые субстанции жизни, внимающий откроет внутренние Врата борьбы с чуждым настоящей личности псевдопорядком. Чёрный Эзотерический Змей – Начало и конец Времён, символ Триумфа над слепорождённым бессильным порядком. Он – предвечное и бесконечное Зло, поскольку он единственный, кто существовал до всего сотворённого, и он тот, кто останется после того, как всё созданное ранее будет уничтожено. Начало было заложено Чёрным Монолитом, "гвоздём в гроб поникшего существования" – в основание Пульсирующей Пылающей Звезды, и второй альбом был неотвратим: Узурпатор Бытия "сквозь толщи вод взирал холодными глазами Смерти".

Ведущие апологеты из Niemaracz Clan записали альбом с единой концепцией, моноцелевой, монолитный, дающий достаточную дозу фиксации в подсознании, однако не переходящей в пресыщение. Он похож на кипучую и "неугасимо сверкающую" Бездну, претворённую Бесстрашным Чёрным Змеем в сплочённые меж собою ацербические мышцы. Вдохновенный материал, усиленный мраком своего же уверенного дебюта "Čorny Manalit". Отлаженное звучание изгибающихся гитарных ритмов напоминает лихой "неоглядный водоворот в небесах", в котором всё оживает, воспламеняется и закручивается. Техничные и разнообразные партии ударных неумолимы в своей броскости. Дрейфующие вокальные партии транслируются из звуков триумфа, преисполненного "ненавистью солнцу", в "последний исторгнутый вопль" отчаяния, и это чувство совпадает с переменами в музыке: позади плотного звука есть ощущение дыхания Чёрного Змея, "стирающего в пыль остатки жизни", предчувствие расплаты в преддверии Конца. Набухающий гневный вокал практически не достигает резких максимумов, потому что базовой ритмической фактуры музыкального произведения и звукорежиссёрского таланта Садиста вполне достаточно для сияния "Нового Эона". Весь альбом составляет единое смысловое полотно, рассказывая о жизни. Начало восстаёт из Пепла, а заканчивается всё тем же Пеплом, лишённым слов. Прах. Тлен. "Плоть, пришитая к зловонному флагу". Вечное безмолвие. Зарождение, Смерть, а между ними – жизнь. Жизнь через осмысление себя – как музыкантов, как личностей и, наконец, как обособленного сознания на Пути Перехода – так происходит Инициация. Музыка многолика и завораживающе прекрасна в своей мстительной динамике. Black Metal Łatanu пробуждает ярость и опустошает, наркотизирует и пугает, согревает теплом "Любви в соответствии с Волей" и погружает в убийственный холод, простирая свои "щупальца в Космос". Садист, проводивший мастеринг записи, широко использовал возможности профессиональной студийной записи: наложение дезориентирующих сэмплов, изменение уровня сигнала, обуздание спиралевидного буйства ударных, которые, к слову, были записаны в 17 (!) каналов – в общем, всё работает не на угнетение, а культивацию предельно плотности материала. Плотнее, продуманнее, злее – на этом альбоме музыканты не побоялась развиваться, сделав упор на наполненные глубоким смыслом угрожающие "заклинания, излагаемые Бездне чёрной пастью", консолидированные продуманными музыкальными ходами и деструктивными гармониями, – что напоминает диалог с Мёртвыми на их же языке, в котором вершатся вечные принципы Смерти и Разрушения. Навязчивые, фанатичные вокабулы Nihilation, уподоблённые апокалипсическим пророчествам, мечутся между миром живых и мёртвых; его голос обладает силой, которая без потери остроты и ядовитости на спирали усиливает общую тяжесть звука, полностью растворяясь в окружающей мелодии. Хладнокровный Дух Отрицания, шипя, "криками вечности" изрекает Имена, через пространства вторя голосам Тёмных Богов, которые отвечают зову тех, кто "коленом своим коснулся Земли Демиурга". Шесть зловещих оккультных гимнов – метафорическое орудие неповиновения и разочарованности, – без сомнения, будут неоднократно использованы последователями при обращении к Тёмным Богам. "Сожги без остатка мосты к жизни", чтобы войти в Эру Нового Эона, найти последнее пристанище в "Цитадели, что возвышается на костях".
Созерцайте новый воссозданный Эон глазами Латану, Проводника Бездны, и ощущайте мир его обострёнными чувствами, которые не ограничены никакими физическими и ментальными обструкциями. Мир Нового Эона существует в момент Интенсификации и постоянной Экспансии, когда "Низгаль крыльями Солнце вокруг объял", индуцируя "конвульсии, содрогающие тела вселенной". Лишь поступательными движениями Вовнутрь происходит нисхождение во Тьму, в потоки Первостихии, в океан Тёмных Сил. Eon Hora – тёмная манифестация Перехода, отправной точкой которой станет яростный в своей неуклонности призыв войти Первобытному Хаосу в ваше сознание.

Оригинал поста в социальной сети
(23) andeimon, babanguida, Bloodn Lord, Daale, DarkHorde, defamer666, draht, dsp, Hostis, infiltrator, KVRT, Legacy100, Orkkh, RENыч, Sacrim, Sangreal, sethurius, smysl, suseka, thenecromancer, Vardlokkur, VerminGhost, vosmidesijatye,
Aug 15 2019, 22:10:31 SS-18 - Brighter Than A Thousand Suns [mcd] (2019)
Мой обзор на новую работу ставропольцев:

Ярче тысяч солнц в небе Свет разольётся –
будто Всевышний прорвётся необъятным сиянием полн!


Махабхарата

Если сияние тысячи солнц вспыхнуло бы в небе, это было бы подобно блеску Всемогущего… Я – Смерть, Разрушитель Миров.

Роберт Оппенгеймер


Ядерный Феникс пресечёт "серую осень индустриального пространства" беспощадными потоками всепроникающей радиации – невидимыми потоками гамма-квантов и нейтронов. Огнекрылый Провозвестник Реакторной Аннигиляции распространит отравленную скверну, изуродовав фальшиво-светозарный многомиллиардный лик Земли. Индустриальный глас Демонов Великого Всеочищающего Огня, облекающий Вселенную какофонией монстрозных хроматизмов: "лязгом ржавого колокола, / стуком в склепа закрытую дверь, / звуками взрывов, загоняющими в клетку, / частотой нулевых колебаний, / тяжёлым лязгом бункерных дверей бомбоубежищ, / стоном уродцев, / "хором костей". Музыка, позволяющая увидеть мир не таким, какой он есть на самом деле, а "насмешливым взором Зверя" – то есть таким, каким "пропахший кровью" мир станет, когда Тьма и Огонь падут на него. Адский огонь, сжигающий изнутри, приводящий к распаду "обугленных пятен" на молекулы и потворствующий диалогу с шёпотом Постапокалипсической Вечности.

Если бы фотографии пустынных прибежищ Атомных Провидцев – Хиросимы и активной зоны реактора Чернобыльской АЭС в момент аварии – преобразовать в музыку, то звучала бы она, на мой взгляд, именно так: обдуваемая вихрем чёрного пепла, покрытая "покрытая липким ядерным инеем" поверхность планеты, свободный горизонт для нахмуренного взгляда Каина, и мёртвая тишина, сопровождающая шеренги мертвецов, которые "бредут в пасть голодных гробов": "под ударами хлыста мёртвое отправляется в века"… "Те, кто встретят завтрашний день, унаследуют пепел и дым" топок печей урановых концлагерей.

Чёрное колесо бифуркации жизни, обращённое "в петлю забвения", подавляет каждое ничтожное проявление. Огонь просветляет материю: "покинутый, брошенный мир" требует дезинфекции в утверждении непреложности сотрудничества миров, наполнения жизнь метами Высших Пониманий. Садисту сотоварищи удалось записать сверхвизуализированную и футуристичную музыку, которая возвещает близость Света. Ядерный Феникс – символ Огня – прошёл все Учения, чтобы вдохнуть в контуры Вечности "гневное дыхание горящих миров" и взойти до начала Новой Эры "на Огненный Ядерный Трон". Явление Огня приблизилось, Пламенеющее "Дитя заложено во чрево Огня" – и все стихии заменились Огнём.

В творчестве SS-18 проявляются устремления к созиданию более совершенных форм. Каждый новый релиз ставропольских ядерных боеголовок индивидуального наведения производил своеобразный фурор в отечественной экстремальной музыке и задавал довольно высокую планку собственного музыкального развития. Насыщенность аранжировок инструментами и индустриальными эффектами не создаёт столпотворения звуков, где партии становятся неразличимыми в общем гвалте, а даже наоборот – облегчает восприятие пластинки, из удельно возникающего напряжения легко выделить доминирующую искру. Звук в целом не перегружен деталями, жёсток и довольно динамичен и в то же время является достаточно сложным. На стадии сведения Садистом проделана колоссальная работа: треки пластинки замиксованы таким образом, что деление на отдельные композиции весьма условно, слушать их обособленно – значит просто вырывать из контекста общего дуализма работы. Выбранная последовательность треков хорошо ложится на слух и создаёт впечатление концептуальной цельности пластинки – шесть пылающих огненных знаков воплощают стадии Познания – ступеней к ассимиляции Пламени Обновления. Мощнейший гитарный саунд на записи играет ведущую роль: возникнув из бездны, в эту бездну он погружает и слушателя. Техничный, преисполненный взрывной металлической яростью, умело искажённый, сочащийся злобой и "эякулирующий желчью на пепел", сэмплированный и вариативный вокал подобен божественному безудержному гласу в Момент Наития: как только удастся постичь смысл жизни – надлежит в одночасье вскрыться, полоснув бритвой, или вздёрнуться на лоскуте белого погребального савана!.. При этом характерный стиль SS-18 никуда не делся. Все фирменные элементы присутствуют. Есть даже отсылки к прошлым номерным релизам проекта, которые не педалируются, поэтому и ощущения вторичности при прослушивании не возникает. Кроме того, слушателя ждёт множество запоминающихся моментов, самым ярким из которых станет обращение к классике мировой экстремальной музыки – Von, Voivod и Gehenna. Для профессиональных музыкантов нет особой сложности в качественном исполнении давно известных композиций. Однако точное и детализированное исполнение старых хитов не вызывает у слушателя вообще никаких эмоций. Садист сотоварищи подошли к интерпретации классики со знанием дела: после прослушивания вообще создаётся ощущение, что играть данные композиции никому, кроме непосредственных авторов и собственно обратившихся к их наследию SS-18, не нужно – отпавшие от "безбожных богов" ангелы громко и уверенно вострубили заветную Симфонию Тепловой Сегрегации. Видимо, в самом деле, лидеры Stavropol NecroDivision являются частью Космического Разума, в них заложены обогащённые Божественные частицы, что и позволяет им иметь постоянный контакт с Создателями. Ставропольским Носителей Синтеза удалось филигранно соединить и вокальные, и технические умения, и явить душевное богатство: адаптированные к современным условиям и музыкальным законам нового тысячелетия (индустриальному звучанию SS-18) треки невозможно слушать без эмоций – звучат композиции искренне, свежо и незаурядно. Поистине завораживающее огненное действие, открывающее новые творческие возможности на пути к Пылающему Миру, в пале которого торжествует Великое Служение Сферам Обновляющего Света.

"Brighter Than Thousand Suns" – музыкальный ритуал, преисполненный символами прямого Восхождения и обращённый к силе мысли тех, кто Свет познал и неустанно противится вечному заблуждению. Торжество Новой Эры Огня, в котором бриллиант в короне Огненного Феникса подобен предвечному сиянию чистого индивидуального Я, не замутненному ложными откровениями "акафистов бессильных святых" и "беспомощными свидетельствами новых мессий". Кто противится Радиоактивной Конфирмации, тот последует в хаос разложения, "в грязные подземелья гнетущие". Лишь Мир, что "ярче тысячи солнц" ниспошлёт Очищение… Очищение огнём, "бета-частицами, лучевой болезнью, радиоактивным заражением, гамма-распадом, рассеянным импульсом, нейтронным потоком".

Оригинал поста в социальной сети
(24) andeimon, andivi, babanguida, Daale, DarkHorde, defamer666, dsp, Evilded, FullofHate, infiltrator, KVRT, Leshiy666, Moonshtook, Nerevar, Radwind, recber, RENыч, Sacrim, Sangreal, sethurius, spazm, VerminGhost, vosmidesijatye, Xor,
Aug 15 2019, 21:47:44 Łatanu - Eon Hora (2019)


*Artist: Łatanu
*Album: Eon Hora
*Year: 2019
*Genre: Black Metal
*Country: Belarus
*Format: mp3@CBR320kbps
*Size: 71MB

Tracklist:
1. Amiń! 05:05
2. Uračystaść Tvajoj pieramohi 05:10
3. Suprać sonca 04:45
4. Śmierć idzie nasustrač 05:35
5. Pakul nia budzie zachoplena nieba 04:37
6. Eon Hora 05:48
******************************
Total playing time: 31:00



[more=Extended info]Thou Shalt Kill! Records, August 11th[/more]

[more=Technical info]
Input File: 06 - Eon Hora.mp3
Channels : 2
Sample Rate : 44100
Precision : 16-bit
Duration : 00:05:48.36 = 15362764 samples = 26127.1 CDDA sectors
File Size : 13.9M
Bit Rate : 320k
Sample Encoding: MPEG audio (layer I, II or III)
Comments :
Title=Eon Hora
Artist=Łatanu
Album=Eon Hora
Tracknumber=06
Year=2019
Genre=Black Metal

[/more]

Register
(106) 1968_janeart, acerbus, ahp, aimtoknow, andeimon, argh!, arkaik, artscald, Ash_1980, babanguida, Beazth, Bekkerev, BERZERK, Boozer, Borderline1991, caro, CRUNCH, DarkHorde, Doooomed, dromord, Emhyr var Emreis, Evilded, Fatalist77791, Femto, Forest Silence, garmonbozia, gena, grobator, Hadelik, Hell_Is_Here, Hostis, Ildjarn, Indamage, infiltrator, isvili, judaz, kauyumari, kim666, Krosis, KVRT, Legacy100, lestllk, lordbathor, lucifix, Ludwig Hagen, LVXXVL, maringlen, milosdjor, MMMMM, Moonshtook, nadin85, Nerevar, nikolay81, nsk2008, Old Vyaine, Olethros, Orkkh, Ostinato, peppuzzo, Premature_Devotion, rabindranad, randumbum, Razorbladeswaltz, RENыч, ripper33, robertho777, Rosen, Ruben, Saalingurth, Sacrim, sacrut, sandr666, Sangreal, satanist666, sethurius, SilentNidhogg, skeletron215, Skog1349, smysl, Surt, suseka, SyncestrA, system36, TDM, thenecromancer, the_cleanser, The_Kold, tim47, Tino, toly1917, Torlof, VALERY, vasiljev_sergej, VECTOR, VerminGhost, vovenom, wendigo, wn129aa, Wolfera, wreak, Xor, xska, Авел, Волос, металлист, Сварог Барг,
Aug 15 2019, 21:39:25 SS-18 - Brighter Than A Thousand Suns [mcd] (2019)


*Artist: SS-18
*Album: Brighter Than A Thousand Suns [mcd]
*Year: 2019
*Genre: Black Metal
*Country: Russian Federation
*Format: mp3@CBR320kbps
*Size: 73MB

Tracklist:
1. Brighter Than A Thousand Suns 05:03
2. Lead Sarcophagi 05:47
3. Killing Cold 07:38
4. Devil Pig (Von Cover) 02:24
5. Overreaction (Voivod Cover) 04:55
6. Eater Of The Dead (Gehenna Cover) 05:55
******************************
Total playing time: 31:42



[more=Extended info]Thou Shalt Kill! Records, August 11th

По вопросам приобретения обращаться напрямую к менеджерам S.N.D. на почту: svartsamler@yandex.ru[/more]

[more=Technical info]
Input File: SS-18 - 01 - Brighter Than A Thousand Suns.mp3
Channels : 2
Sample Rate : 44100
Precision : 16-bit
Duration : 00:05:03.53 = 13385805 samples = 22765 CDDA sectors
File Size : 12.1M
Bit Rate : 320k
Sample Encoding: MPEG audio (layer I, II or III)
Comments :
Title=Brighter Than A Thousand Suns
Artist=SS-18
Album=Brighter Than A Thousand Suns
Tracknumber=01
Year=2019
Genre=Black Metal

[/more]

Register
(102) -=Hass=-, acerbus, aimtoknow, andeimon, Aresson, arkaik, artscald, babanguida, Beazth, Bekkerev, BERZERK, Boozer, Branis, caro, Chasm, CRUNCH, dalex, DarkHorde, deadterror, dermarsoran, Evgen79, Evilded, Forest Silence, Fryz, FullofHate, garmonbozia, Hadelik, Hell_Is_Here, HviteGuden, Ildjarn, Indamage, Infidel, infiltrator, isvili, judaz, kauyumari, Kazoth, kefka, kim666, kooongg, Krosis, KVRT, lestllk, lordbathor, Ludwig Hagen, Lux, LVXXVL, milosdjor, mirotvorets, Mist13Signifier, Moonshtook, morve, NecroButcher, Nerevar, nsk2008, Oath19, oldvarg, Olethros, Ostinato, Pinhead666, Premature_Devotion, Radwind, randumbum, Razorbladeswaltz, recber, RENыч, ripper33, robertho777, Rosen, Saalingurth, Sacrim, Sangreal, satanist666, sethurius, SHADOW148814, SilentNidhogg, Skog1349, SortVokter, spazm, Surt, suseka, SyncestrA, technoboy69, Terry, thenecromancer, the_cleanser, Tino, VALERY, vasiljev_sergej, VerminGhost, Vitald, vovenom, WarmasterChorus, Wolfera, wreak, Xor, xska, Авел, Варяг, Волос, Герб, металлист,
Aug 13 2019, 20:31:14 Pénombre - Live À La Messe Des Morts MMXVIII [demo] (2019)


*Artist: Pénombre
*Album: Live À La Messe Des Morts MMXVIII [demo]
*Year: 2019
*Genre: Black Metal
*Country: Canada
*Format: mp3@VBR266kbps
*Size: 43MB

Tracklist:
1. Méphistophélès 05:33
2. Révélations 04:09
3. 1000 Ans De Chaos 04:08
4. Paradis Perdu 04:14
5. Pénombre 04:34
******************************
Total playing time: 22:38

[more=Extended info]Enregistré à la Masse Mes morts 8 le 22 novembre 2018 avec Negative Plane, Gevurah, Sortilegia & Trenchant[/more]

[more=Technical info]
Input File: 01 Méphistophélès.mp3
Channels : 2
Sample Rate : 44100
Precision : 16-bit
Duration : 00:05:32.70 = 14671850 samples = 24952.1 CDDA sectors
File Size : 10.9M
Bit Rate : 261k
Sample Encoding: MPEG audio (layer I, II or III)
Comments :
Title=Méphistophélès
Artist=Pénombre
Album=Live à la Messe Des Morts 8
Tracknumber=01
Year=2019
Genre=Black Metal

[/more]

Register
(30) ambre, artscald, ChaosArcana, Dripfeeder, Evgen79, Fryz, FUDEDOR, garmonbozia, Hell_Is_Here, infiltrator, LEGION69, LVXXVL, maringlen, Moonshtook, Olethros, Ostinato, Razorbladeswaltz, RENыч, Rosen, Sangreal, satanist666, sethurius, smysl, stub888, suseka, thenecromancer, VALERY, vasiljev_sergej, wreak, zhol,
Aug 13 2019, 20:30:37 Withering Moon - Withering Moon [demo] (2019)


*Artist: Withering Moon
*Album: Withering Moon [demo]
*Year: 2019
*Genre: Black Metal
*Country: United States
*Format: mp3@VBR315kbps
*Size: 41MB

Tracklist:
1. My Veins Will Forever Burn For You 06:48
2. Poisoned By The Animosity Of Abstemiousness 04:25
3. Convulvulus 07:02
******************************
Total playing time: 18:15

[more=Extended info]Perverse Homage[/more]

[more=Technical info]
Input File: 02 Poisoned By The Animosity Of Abstemiousness.mp3
Channels : 2
Sample Rate : 44100
Precision : 16-bit
Duration : 00:04:25.27 = 11698539 samples = 19895.5 CDDA sectors
File Size : 10.3M
Bit Rate : 311k
Sample Encoding: MPEG audio (layer I, II or III)
Comments :
Title=Poisoned By The Animosity Of Abstemiousness
Artist=Withering Moon
Album=Withering Moon
Tracknumber=02
Year=2019

[/more]

Register
(30) 1968_janeart, ambre, artscald, ChaosArcana, craP_cillA, FUDEDOR, heinz88, Hell_Is_Here, HviteGuden, infiltrator, kim666, Ludwig Hagen, maringlen, nsk2008, Olethros, Ostinato, Razorbladeswaltz, RENыч, Rosen, satanist666, sethurius, SilentNidhogg, stub888, suseka, thenecromancer, VALERY, vasiljev_sergej, wreak, zhol, Авел,
Aug 13 2019, 20:30:12 Hail Conjurer - Heaven Piercing Phallos/Manifests Of Will [compilation] (2018)


*Artist: Hail Conjurer
*Album: Heaven Piercing Phallos/Manifests Of Will [compilation]
*Year: 2018
*Genre: Black Metal
*Country: Finland
*Format: mp3@CBR320kbps
*Size: 90MB

Tracklist:
1. Heaven Piercing Phallos 09:01
2. Planetary Forces 05:22
3. LUX 04:59
4. Petroglyphimagia 05:53
5. Outbreak Of Unholy 07:11
6. Belonging 06:26
******************************
Total playing time: 38:53



[more=Extended info]Bestial Burst,
limited to 100 copies.[/more]

[more=Technical info]
Input File: 01_-_Hail_Conjurer_-_Heaven_Piercing_Phallos_-_Manifests_of_Will_-_Heaven_Piercing_Phallos.mp3
Channels : 2
Sample Rate : 44100
Precision : 16-bit
Duration : 00:09:01.05 = 23860393 samples = 40578.9 CDDA sectors
File Size : 21.8M
Bit Rate : 322k
Sample Encoding: MPEG audio (layer I, II or III)
Comments :
Title=Heaven Piercing Phallos
Artist=Hail Conjurer
Album=Heaven Piercing Phallos / Manifests of Will
Tracknumber=1
Year=2018
Genre=Metal
Discnumber=1

[/more]

Register
(29) 1968_janeart, ambre, artscald, bobo66, Evgen79, FUDEDOR, Hell_Is_Here, infiltrator, kim666, Ludwig Hagen, maringlen, Moonshtook, Olethros, Ostinato, Razorbladeswaltz, RENыч, Rosen, satanist666, sethurius, SilentNidhogg, smysl, stub888, suseka, thenecromancer, VALERY, vasiljev_sergej, wreak, zhol, Авел,

273 Pages V   1 2 3 > » 
- Lo-Fi Version Support form
Copyrights and abuse reports form
Time is now: 16th October 2019 - 05:41:09