Welcome Guest ( Log In | Register )

История благодарностей участнику Абигор ::: Спасибо сказали: 110497 раз(а)
Дата поста: В теме: За сообщение: Спасибо сказали:
Aug 23 2019, 13:50:43 Лютомысл - De Profundis (2008)


Лютомысл - 2008 - De Profundis (Reissue 2018, Digipak)
Drakkar Productions ‎– DKCD120
CD-Rip + Scans

Register
(9) acerbus, aimtoknow, Black Cat, Moonshtook, recber, RENыч, sethurius, technoboy69, vasiljev_sergej,
Aug 23 2019, 13:49:38 Лютомысл - Catharsis (2006)


Лютомысл - 2006 - Катарсис/Catharsis (Reissue 2018, Digipak)
Drakkar Productions ‎– DKCD119
CD-Rip + Scans

Register

(8) acerbus, aimtoknow, Black Cat, Moonshtook, recber, RENыч, sethurius, vasiljev_sergej,
Aug 23 2019, 13:48:17 Лютомысл - Decadence (2005)


Лютомысл - 2005 - Decadence (Reissue 2018, Digipak)
Drakkar Productions ‎– DKCD118
CD-Rip + Scans

Register
(9) acerbus, aimtoknow, Black Cat, Moonshtook, recber, RENыч, rickzammuto, sethurius, vasiljev_sergej,
Aug 18 2019, 10:50:11 Łatanu - Eon Hora (2019)
Немного народного творчества... 25.gif

Осанну поем Немарач Клану:
Гимн Pestilentia, оду Łatanu.
Золотом выведу на постаменте я:
Łatanu, Niemaracz, Pestilentia.

Слушать безудержно сутками стану
Я Pestilentia и Łatanu.
И, угорев, напишу всей френдленте я -
Łatanu, Niemaracz, Pestilentia. ©
(1) Hostis,
Aug 18 2019, 09:24:43 Odiosior - Odiosior [demo] (2019)
Отражение -
Register
(3) horss, thenecromancer, VALERY,
Aug 18 2019, 09:23:57 Wald Krypta - Nature Enigma (2018)
Отражение -
Register
(8) -=Hass=-, 1968_janeart, horss, infiltrator, suseka, thenecromancer, VALERY, Vitald,
Aug 15 2019, 22:13:29 Łatanu - Eon Hora (2019)
Мой обзор на новую работу представителей Niemaracz Clan:

Ветхозаветный великий и пространный "Алтарь Океана" – отвёрстое и осквернённое погребение и в то же время жуткое обиталище форм, отвергающих жизнь. Страшно и больно – кричать, выталкивая воздух из рваных лёгких, захлебываясь собственной кровью, чтобы через пространства услышать "Абсолютный призыв Хаоса, предвещающий триумфальное начало Конца". Повсюду – погибельный ритуальный мир Латану, символа Нового Обретённого Тёмного Эона, в котором "поверхности планет кровоточащих" "задушены Тьмой", основы мироздания вязнут в "хрипящих трупных пятнах жерл опустевших вулканов".

Тёмная хроматическая практика Инициации Вездесущего Духа, обрётшего благодать и подлинно-божественное Величие в момент восхождения "Новой Зарницы над миром". Оккультный ритуал, активно взывающий "крушить затворы телесной тюрьмы". Пакт, заключённый с тёмными силами в утверждении аутопсии ложных моделей профанической жизни. "Аспид, что занял Чёрный трон", не хочет повиноваться Тёмному Богу, но сам желает стать Началом. В этом стремлении он отвергает традиции, законы, выбирая Путь Высвобождения... Формула тайного учения Eon Hora, катализирующая начало растлённого пути в Тёмное Царство За-Предела в поисках понимания и приближения "Господства Его Зодиака". Таково Господствующее Знание. Концентрированная энергия Сгущения и Разрушения, высвобождённая на пути к Новому Эону, пробуждает силу Латану изнутри, чтобы Великий яростный Змей мог стать Творцом Нового Мира: "Вгрызётся в земные тверди, / Собой приумножит воды, / В каждый камень вопьётся жалом, / Зальёт ядро планеты, / Её мантию себе возьмёт, / Пожрёт без остатка окружающую среду". Отринув любые субстанции жизни, внимающий откроет внутренние Врата борьбы с чуждым настоящей личности псевдопорядком. Чёрный Эзотерический Змей – Начало и конец Времён, символ Триумфа над слепорождённым бессильным порядком. Он – предвечное и бесконечное Зло, поскольку он единственный, кто существовал до всего сотворённого, и он тот, кто останется после того, как всё созданное ранее будет уничтожено. Начало было заложено Чёрным Монолитом, "гвоздём в гроб поникшего существования" – в основание Пульсирующей Пылающей Звезды, и второй альбом был неотвратим: Узурпатор Бытия "сквозь толщи вод взирал холодными глазами Смерти".

Ведущие апологеты из Niemaracz Clan записали альбом с единой концепцией, моноцелевой, монолитный, дающий достаточную дозу фиксации в подсознании, однако не переходящей в пресыщение. Он похож на кипучую и "неугасимо сверкающую" Бездну, претворённую Бесстрашным Чёрным Змеем в сплочённые меж собою ацербические мышцы. Вдохновенный материал, усиленный мраком своего же уверенного дебюта "Čorny Manalit". Отлаженное звучание изгибающихся гитарных ритмов напоминает лихой "неоглядный водоворот в небесах", в котором всё оживает, воспламеняется и закручивается. Техничные и разнообразные партии ударных неумолимы в своей броскости. Дрейфующие вокальные партии транслируются из звуков триумфа, преисполненного "ненавистью солнцу", в "последний исторгнутый вопль" отчаяния, и это чувство совпадает с переменами в музыке: позади плотного звука есть ощущение дыхания Чёрного Змея, "стирающего в пыль остатки жизни", предчувствие расплаты в преддверии Конца. Набухающий гневный вокал практически не достигает резких максимумов, потому что базовой ритмической фактуры музыкального произведения и звукорежиссёрского таланта Садиста вполне достаточно для сияния "Нового Эона". Весь альбом составляет единое смысловое полотно, рассказывая о жизни. Начало восстаёт из Пепла, а заканчивается всё тем же Пеплом, лишённым слов. Прах. Тлен. "Плоть, пришитая к зловонному флагу". Вечное безмолвие. Зарождение, Смерть, а между ними – жизнь. Жизнь через осмысление себя – как музыкантов, как личностей и, наконец, как обособленного сознания на Пути Перехода – так происходит Инициация. Музыка многолика и завораживающе прекрасна в своей мстительной динамике. Black Metal Łatanu пробуждает ярость и опустошает, наркотизирует и пугает, согревает теплом "Любви в соответствии с Волей" и погружает в убийственный холод, простирая свои "щупальца в Космос". Садист, проводивший мастеринг записи, широко использовал возможности профессиональной студийной записи: наложение дезориентирующих сэмплов, изменение уровня сигнала, обуздание спиралевидного буйства ударных, которые, к слову, были записаны в 17 (!) каналов – в общем, всё работает не на угнетение, а культивацию предельно плотности материала. Плотнее, продуманнее, злее – на этом альбоме музыканты не побоялась развиваться, сделав упор на наполненные глубоким смыслом угрожающие "заклинания, излагаемые Бездне чёрной пастью", консолидированные продуманными музыкальными ходами и деструктивными гармониями, – что напоминает диалог с Мёртвыми на их же языке, в котором вершатся вечные принципы Смерти и Разрушения. Навязчивые, фанатичные вокабулы Nihilation, уподоблённые апокалипсическим пророчествам, мечутся между миром живых и мёртвых; его голос обладает силой, которая без потери остроты и ядовитости на спирали усиливает общую тяжесть звука, полностью растворяясь в окружающей мелодии. Хладнокровный Дух Отрицания, шипя, "криками вечности" изрекает Имена, через пространства вторя голосам Тёмных Богов, которые отвечают зову тех, кто "коленом своим коснулся Земли Демиурга". Шесть зловещих оккультных гимнов – метафорическое орудие неповиновения и разочарованности, – без сомнения, будут неоднократно использованы последователями при обращении к Тёмным Богам. "Сожги без остатка мосты к жизни", чтобы войти в Эру Нового Эона, найти последнее пристанище в "Цитадели, что возвышается на костях".
Созерцайте новый воссозданный Эон глазами Латану, Проводника Бездны, и ощущайте мир его обострёнными чувствами, которые не ограничены никакими физическими и ментальными обструкциями. Мир Нового Эона существует в момент Интенсификации и постоянной Экспансии, когда "Низгаль крыльями Солнце вокруг объял", индуцируя "конвульсии, содрогающие тела вселенной". Лишь поступательными движениями Вовнутрь происходит нисхождение во Тьму, в потоки Первостихии, в океан Тёмных Сил. Eon Hora – тёмная манифестация Перехода, отправной точкой которой станет яростный в своей неуклонности призыв войти Первобытному Хаосу в ваше сознание.

Оригинал поста в социальной сети
(23) andeimon, babanguida, Bloodn Lord, Daale, DarkHorde, defamer666, draht, dsp, Hostis, infiltrator, KVRT, Legacy100, Orkkh, RENыч, Sacrim, Sangreal, sethurius, smysl, suseka, thenecromancer, Vardlokkur, VerminGhost, vosmidesijatye,
Aug 15 2019, 22:10:31 SS-18 - Brighter Than A Thousand Suns [mcd] (2019)
Мой обзор на новую работу ставропольцев:

Ярче тысяч солнц в небе Свет разольётся –
будто Всевышний прорвётся необъятным сиянием полн!


Махабхарата

Если сияние тысячи солнц вспыхнуло бы в небе, это было бы подобно блеску Всемогущего… Я – Смерть, Разрушитель Миров.

Роберт Оппенгеймер


Ядерный Феникс пресечёт "серую осень индустриального пространства" беспощадными потоками всепроникающей радиации – невидимыми потоками гамма-квантов и нейтронов. Огнекрылый Провозвестник Реакторной Аннигиляции распространит отравленную скверну, изуродовав фальшиво-светозарный многомиллиардный лик Земли. Индустриальный глас Демонов Великого Всеочищающего Огня, облекающий Вселенную какофонией монстрозных хроматизмов: "лязгом ржавого колокола, / стуком в склепа закрытую дверь, / звуками взрывов, загоняющими в клетку, / частотой нулевых колебаний, / тяжёлым лязгом бункерных дверей бомбоубежищ, / стоном уродцев, / "хором костей". Музыка, позволяющая увидеть мир не таким, какой он есть на самом деле, а "насмешливым взором Зверя" – то есть таким, каким "пропахший кровью" мир станет, когда Тьма и Огонь падут на него. Адский огонь, сжигающий изнутри, приводящий к распаду "обугленных пятен" на молекулы и потворствующий диалогу с шёпотом Постапокалипсической Вечности.

Если бы фотографии пустынных прибежищ Атомных Провидцев – Хиросимы и активной зоны реактора Чернобыльской АЭС в момент аварии – преобразовать в музыку, то звучала бы она, на мой взгляд, именно так: обдуваемая вихрем чёрного пепла, покрытая "покрытая липким ядерным инеем" поверхность планеты, свободный горизонт для нахмуренного взгляда Каина, и мёртвая тишина, сопровождающая шеренги мертвецов, которые "бредут в пасть голодных гробов": "под ударами хлыста мёртвое отправляется в века"… "Те, кто встретят завтрашний день, унаследуют пепел и дым" топок печей урановых концлагерей.

Чёрное колесо бифуркации жизни, обращённое "в петлю забвения", подавляет каждое ничтожное проявление. Огонь просветляет материю: "покинутый, брошенный мир" требует дезинфекции в утверждении непреложности сотрудничества миров, наполнения жизнь метами Высших Пониманий. Садисту сотоварищи удалось записать сверхвизуализированную и футуристичную музыку, которая возвещает близость Света. Ядерный Феникс – символ Огня – прошёл все Учения, чтобы вдохнуть в контуры Вечности "гневное дыхание горящих миров" и взойти до начала Новой Эры "на Огненный Ядерный Трон". Явление Огня приблизилось, Пламенеющее "Дитя заложено во чрево Огня" – и все стихии заменились Огнём.

В творчестве SS-18 проявляются устремления к созиданию более совершенных форм. Каждый новый релиз ставропольских ядерных боеголовок индивидуального наведения производил своеобразный фурор в отечественной экстремальной музыке и задавал довольно высокую планку собственного музыкального развития. Насыщенность аранжировок инструментами и индустриальными эффектами не создаёт столпотворения звуков, где партии становятся неразличимыми в общем гвалте, а даже наоборот – облегчает восприятие пластинки, из удельно возникающего напряжения легко выделить доминирующую искру. Звук в целом не перегружен деталями, жёсток и довольно динамичен и в то же время является достаточно сложным. На стадии сведения Садистом проделана колоссальная работа: треки пластинки замиксованы таким образом, что деление на отдельные композиции весьма условно, слушать их обособленно – значит просто вырывать из контекста общего дуализма работы. Выбранная последовательность треков хорошо ложится на слух и создаёт впечатление концептуальной цельности пластинки – шесть пылающих огненных знаков воплощают стадии Познания – ступеней к ассимиляции Пламени Обновления. Мощнейший гитарный саунд на записи играет ведущую роль: возникнув из бездны, в эту бездну он погружает и слушателя. Техничный, преисполненный взрывной металлической яростью, умело искажённый, сочащийся злобой и "эякулирующий желчью на пепел", сэмплированный и вариативный вокал подобен божественному безудержному гласу в Момент Наития: как только удастся постичь смысл жизни – надлежит в одночасье вскрыться, полоснув бритвой, или вздёрнуться на лоскуте белого погребального савана!.. При этом характерный стиль SS-18 никуда не делся. Все фирменные элементы присутствуют. Есть даже отсылки к прошлым номерным релизам проекта, которые не педалируются, поэтому и ощущения вторичности при прослушивании не возникает. Кроме того, слушателя ждёт множество запоминающихся моментов, самым ярким из которых станет обращение к классике мировой экстремальной музыки – Von, Voivod и Gehenna. Для профессиональных музыкантов нет особой сложности в качественном исполнении давно известных композиций. Однако точное и детализированное исполнение старых хитов не вызывает у слушателя вообще никаких эмоций. Садист сотоварищи подошли к интерпретации классики со знанием дела: после прослушивания вообще создаётся ощущение, что играть данные композиции никому, кроме непосредственных авторов и собственно обратившихся к их наследию SS-18, не нужно – отпавшие от "безбожных богов" ангелы громко и уверенно вострубили заветную Симфонию Тепловой Сегрегации. Видимо, в самом деле, лидеры Stavropol NecroDivision являются частью Космического Разума, в них заложены обогащённые Божественные частицы, что и позволяет им иметь постоянный контакт с Создателями. Ставропольским Носителей Синтеза удалось филигранно соединить и вокальные, и технические умения, и явить душевное богатство: адаптированные к современным условиям и музыкальным законам нового тысячелетия (индустриальному звучанию SS-18) треки невозможно слушать без эмоций – звучат композиции искренне, свежо и незаурядно. Поистине завораживающее огненное действие, открывающее новые творческие возможности на пути к Пылающему Миру, в пале которого торжествует Великое Служение Сферам Обновляющего Света.

"Brighter Than Thousand Suns" – музыкальный ритуал, преисполненный символами прямого Восхождения и обращённый к силе мысли тех, кто Свет познал и неустанно противится вечному заблуждению. Торжество Новой Эры Огня, в котором бриллиант в короне Огненного Феникса подобен предвечному сиянию чистого индивидуального Я, не замутненному ложными откровениями "акафистов бессильных святых" и "беспомощными свидетельствами новых мессий". Кто противится Радиоактивной Конфирмации, тот последует в хаос разложения, "в грязные подземелья гнетущие". Лишь Мир, что "ярче тысячи солнц" ниспошлёт Очищение… Очищение огнём, "бета-частицами, лучевой болезнью, радиоактивным заражением, гамма-распадом, рассеянным импульсом, нейтронным потоком".

Оригинал поста в социальной сети
(24) andeimon, andivi, babanguida, Daale, DarkHorde, defamer666, dsp, Evilded, FullofHate, infiltrator, KVRT, Leshiy666, Moonshtook, Nerevar, Radwind, recber, RENыч, Sacrim, Sangreal, sethurius, spazm, VerminGhost, vosmidesijatye, Xor,
Aug 15 2019, 21:47:44 Łatanu - Eon Hora (2019)


*Artist: Łatanu
*Album: Eon Hora
*Year: 2019
*Genre: Black Metal
*Country: Belarus
*Format: mp3@CBR320kbps
*Size: 71MB

Tracklist:
1. Amiń! 05:05
2. Uračystaść Tvajoj pieramohi 05:10
3. Suprać sonca 04:45
4. Śmierć idzie nasustrač 05:35
5. Pakul nia budzie zachoplena nieba 04:37
6. Eon Hora 05:48
******************************
Total playing time: 31:00



[more=Extended info]Thou Shalt Kill! Records, August 11th[/more]

[more=Technical info]
Input File: 06 - Eon Hora.mp3
Channels : 2
Sample Rate : 44100
Precision : 16-bit
Duration : 00:05:48.36 = 15362764 samples = 26127.1 CDDA sectors
File Size : 13.9M
Bit Rate : 320k
Sample Encoding: MPEG audio (layer I, II or III)
Comments :
Title=Eon Hora
Artist=Łatanu
Album=Eon Hora
Tracknumber=06
Year=2019
Genre=Black Metal

[/more]

Register
(90) 1968_janeart, acerbus, ahp, aimtoknow, andeimon, argh!, arkaik, artscald, Ash_1980, babanguida, Beazth, Bekkerev, BERZERK, caro, CRUNCH, Doooomed, dromord, Evilded, Fatalist77791, Femto, Forest Silence, garmonbozia, gena, grobator, Hostis, Indamage, infiltrator, isvili, judaz, kauyumari, kim666, Krosis, KVRT, Legacy100, lestllk, lucifix, Ludwig Hagen, LVXXVL, maringlen, milosdjor, Moonshtook, nadin85, Nerevar, nikolay81, nsk2008, Old Vyaine, Olethros, Orkkh, Ostinato, peppuzzo, Premature_Devotion, rabindranad, Razorbladeswaltz, RENыч, ripper33, robertho777, Rosen, Saalingurth, Sacrim, sacrut, sandr666, Sangreal, sethurius, SilentNidhogg, skeletron215, Skog1349, smysl, suseka, SyncestrA, TDM, thenecromancer, the_cleanser, The_Kold, tim47, Tino, toly1917, Torlof, VALERY, vasiljev_sergej, VECTOR, VerminGhost, wendigo, wn129aa, Wolfera, Xor, xska, Авел, Волос, металлист, Сварог Барг,
Aug 15 2019, 21:39:25 SS-18 - Brighter Than A Thousand Suns [mcd] (2019)


*Artist: SS-18
*Album: Brighter Than A Thousand Suns [mcd]
*Year: 2019
*Genre: Black Metal
*Country: Russian Federation
*Format: mp3@CBR320kbps
*Size: 73MB

Tracklist:
1. Brighter Than A Thousand Suns 05:03
2. Lead Sarcophagi 05:47
3. Killing Cold 07:38
4. Devil Pig (Von Cover) 02:24
5. Overreaction (Voivod Cover) 04:55
6. Eater Of The Dead (Gehenna Cover) 05:55
******************************
Total playing time: 31:42



[more=Extended info]Thou Shalt Kill! Records, August 11th

По вопросам приобретения обращаться напрямую к менеджерам S.N.D. на почту: svartsamler@yandex.ru[/more]

[more=Technical info]
Input File: SS-18 - 01 - Brighter Than A Thousand Suns.mp3
Channels : 2
Sample Rate : 44100
Precision : 16-bit
Duration : 00:05:03.53 = 13385805 samples = 22765 CDDA sectors
File Size : 12.1M
Bit Rate : 320k
Sample Encoding: MPEG audio (layer I, II or III)
Comments :
Title=Brighter Than A Thousand Suns
Artist=SS-18
Album=Brighter Than A Thousand Suns
Tracknumber=01
Year=2019
Genre=Black Metal

[/more]

Register
(88) -=Hass=-, acerbus, aimtoknow, andeimon, arkaik, artscald, babanguida, Beazth, Bekkerev, BERZERK, Branis, caro, Chasm, CRUNCH, dalex, DarkHorde, deadterror, dermarsoran, Evgen79, Evilded, Forest Silence, Fryz, FullofHate, garmonbozia, HviteGuden, Indamage, Infidel, infiltrator, isvili, judaz, kauyumari, Kazoth, kefka, kim666, kooongg, Krosis, KVRT, lestllk, Ludwig Hagen, Lux, LVXXVL, milosdjor, mirotvorets, Moonshtook, morve, NecroButcher, Nerevar, nsk2008, Oath19, Olethros, Ostinato, Pinhead666, Premature_Devotion, Radwind, Razorbladeswaltz, recber, RENыч, ripper33, robertho777, Rosen, Saalingurth, Sacrim, Sangreal, sethurius, SHADOW148814, SilentNidhogg, Skog1349, spazm, suseka, SyncestrA, technoboy69, Terry, thenecromancer, the_cleanser, Tino, VALERY, vasiljev_sergej, VerminGhost, Vitald, WarmasterChorus, Wolfera, Xor, xska, Авел, Варяг, Волос, Герб, металлист,
Aug 13 2019, 20:31:14 Pénombre - Live À La Messe Des Morts MMXVIII [demo] (2019)


*Artist: Pénombre
*Album: Live À La Messe Des Morts MMXVIII [demo]
*Year: 2019
*Genre: Black Metal
*Country: Canada
*Format: mp3@VBR266kbps
*Size: 43MB

Tracklist:
1. Méphistophélès 05:33
2. Révélations 04:09
3. 1000 Ans De Chaos 04:08
4. Paradis Perdu 04:14
5. Pénombre 04:34
******************************
Total playing time: 22:38

[more=Extended info]Enregistré à la Masse Mes morts 8 le 22 novembre 2018 avec Negative Plane, Gevurah, Sortilegia & Trenchant[/more]

[more=Technical info]
Input File: 01 Méphistophélès.mp3
Channels : 2
Sample Rate : 44100
Precision : 16-bit
Duration : 00:05:32.70 = 14671850 samples = 24952.1 CDDA sectors
File Size : 10.9M
Bit Rate : 261k
Sample Encoding: MPEG audio (layer I, II or III)
Comments :
Title=Méphistophélès
Artist=Pénombre
Album=Live à la Messe Des Morts 8
Tracknumber=01
Year=2019
Genre=Black Metal

[/more]

Register
(27) ambre, artscald, ChaosArcana, Dripfeeder, Evgen79, Fryz, FUDEDOR, garmonbozia, infiltrator, LEGION69, LVXXVL, maringlen, Moonshtook, Olethros, Ostinato, Razorbladeswaltz, RENыч, Rosen, Sangreal, sethurius, smysl, stub888, suseka, thenecromancer, VALERY, vasiljev_sergej, zhol,
Aug 13 2019, 20:30:37 Withering Moon - Withering Moon [demo] (2019)


*Artist: Withering Moon
*Album: Withering Moon [demo]
*Year: 2019
*Genre: Black Metal
*Country: United States
*Format: mp3@VBR315kbps
*Size: 41MB

Tracklist:
1. My Veins Will Forever Burn For You 06:48
2. Poisoned By The Animosity Of Abstemiousness 04:25
3. Convulvulus 07:02
******************************
Total playing time: 18:15

[more=Extended info]Perverse Homage[/more]

[more=Technical info]
Input File: 02 Poisoned By The Animosity Of Abstemiousness.mp3
Channels : 2
Sample Rate : 44100
Precision : 16-bit
Duration : 00:04:25.27 = 11698539 samples = 19895.5 CDDA sectors
File Size : 10.3M
Bit Rate : 311k
Sample Encoding: MPEG audio (layer I, II or III)
Comments :
Title=Poisoned By The Animosity Of Abstemiousness
Artist=Withering Moon
Album=Withering Moon
Tracknumber=02
Year=2019

[/more]

Register
(27) 1968_janeart, ambre, artscald, ChaosArcana, craP_cillA, FUDEDOR, heinz88, HviteGuden, infiltrator, kim666, Ludwig Hagen, maringlen, nsk2008, Olethros, Ostinato, Razorbladeswaltz, RENыч, Rosen, sethurius, SilentNidhogg, stub888, suseka, thenecromancer, VALERY, vasiljev_sergej, zhol, Авел,
Aug 13 2019, 20:30:12 Hail Conjurer - Heaven Piercing Phallos/Manifests Of Will [compilation] (2018)


*Artist: Hail Conjurer
*Album: Heaven Piercing Phallos/Manifests Of Will [compilation]
*Year: 2018
*Genre: Black Metal
*Country: Finland
*Format: mp3@CBR320kbps
*Size: 90MB

Tracklist:
1. Heaven Piercing Phallos 09:01
2. Planetary Forces 05:22
3. LUX 04:59
4. Petroglyphimagia 05:53
5. Outbreak Of Unholy 07:11
6. Belonging 06:26
******************************
Total playing time: 38:53



[more=Extended info]Bestial Burst,
limited to 100 copies.[/more]

[more=Technical info]
Input File: 01_-_Hail_Conjurer_-_Heaven_Piercing_Phallos_-_Manifests_of_Will_-_Heaven_Piercing_Phallos.mp3
Channels : 2
Sample Rate : 44100
Precision : 16-bit
Duration : 00:09:01.05 = 23860393 samples = 40578.9 CDDA sectors
File Size : 21.8M
Bit Rate : 322k
Sample Encoding: MPEG audio (layer I, II or III)
Comments :
Title=Heaven Piercing Phallos
Artist=Hail Conjurer
Album=Heaven Piercing Phallos / Manifests of Will
Tracknumber=1
Year=2018
Genre=Metal
Discnumber=1

[/more]

Register
(26) 1968_janeart, ambre, artscald, bobo66, Evgen79, FUDEDOR, infiltrator, kim666, Ludwig Hagen, maringlen, Moonshtook, Olethros, Ostinato, Razorbladeswaltz, RENыч, Rosen, sethurius, SilentNidhogg, smysl, stub888, suseka, thenecromancer, VALERY, vasiljev_sergej, zhol, Авел,
Aug 13 2019, 20:29:42 Egyptian Ropes - Burning Death Impulse [demo] (2018)


*Artist: Egyptian Ropes
*Album: Burning Death Impulse [demo]
*Year: 2018
*Genre: Black Metal
*Country: United States
*Format: mp3@VBR245kbps
*Size: 10MB

Tracklist:
1. Rumination 01:49
2. Burning Death Impulse 01:40
3. Unknown 02:18
******************************
Total playing time: 5:47

[more=Extended info]Lampshade Tapes ‎– LST17[/more]

[more=Technical info]
Input File: 01 Rumination.mp3
Channels : 2
Sample Rate : 44100
Precision : 16-bit
Duration : 00:01:49.06 = 4809590 samples = 8179.57 CDDA sectors
File Size : 3.34M
Bit Rate : 245k
Sample Encoding: MPEG audio (layer I, II or III)
Comments :
Title=Rumination
Artist=Egyptian Ropes
Album=Burning Death Impulse
Tracknumber=01
Year=2018
Genre=Black Metal

[/more]

Register
(22) ambre, artscald, ChaosArcana, FUDEDOR, HviteGuden, infiltrator, Ludwig Hagen, maringlen, Olethros, Ostinato, Razorbladeswaltz, RENыч, Rosen, sethurius, SilentNidhogg, stub888, suseka, thenecromancer, vasiljev_sergej, Wotanwatch, zhol, Авел,
Aug 12 2019, 21:09:57 Likferd - Naar Skyggerne Tar Oss [demo] (2015)


*Artist: Likferd
*Album: Naar Skyggerne Tar Oss [demo]
*Year: 2015
*Genre: Black Metal
*Country: Norway
*Format: mp3@CBR320kbps
*Size: 60MB

Tracklist:
1. Djevelnatt 05:21
2. Inn i evighetens taake 09:15
3. Stemmer fra en aapen grav 06:30
4. Nattferd 05:01
******************************
Total playing time: 26:07



[more=Extended info]Bylec-Tum Productions

Limited to 333 handnumbered copies.

Lossy-mastered[/more]

[more=Technical info]
Input File: 01 Djevelnatt.mp3
Channels : 2
Sample Rate : 44100
Precision : 16-bit
Duration : 00:05:21.48 = 14177268 samples = 24111 CDDA sectors
File Size : 12.9M
Bit Rate : 320k
Sample Encoding: MPEG audio (layer I, II or III)
Comments :
Title=Djevelnatt
Artist=Likferd
Album=Naar skyggerne tar oss
Tracknumber=1
Year=2015

[/more]

Register
(49) 1968_janeart, andeimon, andivi, artscald, BERZERK, Boozer, cancer1974, craP_cillA, Daale, dromord, FUDEDOR, garmonbozia, igore2911, Infidel, infiltrator, kim666, KKK1488, kryptor, maringlen, Moonshtook, NappyRob, nord6666, nsk2008, Olethros, Ostinato, peppuzzo, Premature_Devotion, princeshr, Qliphoth, Razorbladeswaltz, rimfrost, ripper33, Rosen, Sangreal, sethurius, Sickrites, SilentNidhogg, Sjelekval, Skog1349, smysl, stub888, suseka, thenecromancer, VALERY, Vardlokkur, vasiljev_sergej, ZA670, zargonath, Волос,
Aug 8 2019, 10:06:05 Hod - Cry And Piss Yourself [demo] (2007)


*Artist: Hod
*Album: Cry And Piss Yourself [demo]
*Year: 2007
*Genre: Black/Death Metal
*Country: United States
*Format: mp3@CBR320kbps
*Size: 39MB

Tracklist:
1. Nine Days 05:45
2. Demoralizer 04:37
3. God Of Darkness And Winter 06:32
******************************
Total playing time: 16:54

[more=Extended info]CD-R[/more]

[more=Technical info]
Input File: 01 - Nine Days.mp3
Channels : 2
Sample Rate : 44100
Precision : 16-bit
Duration : 00:05:47.32 = 15316636 samples = 26048.7 CDDA sectors
File Size : 13.9M
Bit Rate : 320k
Sample Encoding: MPEG audio (layer I, II or III)
Comments :
Title=Nine Days
Artist=Hod
Album=You Cry And Piss Yourself
Tracknumber=1
Year=2007
Genre=Black Metal

[/more]

Register
(19) artscald, FUDEDOR, infiltrator, marilin, maringlen, Olethros, Ostinato, Pinhead666, princeshr, Razorbladeswaltz, Rosen, sacrut, SilentNidhogg, stumpheavyrock, Svafrlami, thenecromancer, VALERY, vasiljev_sergej, Wolfmirovich,
Aug 8 2019, 09:52:35 Gröbatard - Medieval Black Merdal [ep] (2013)


*Artist: Gröbatard
*Album: Medieval Black Merdal [ep]
*Year: 2013
*Genre: Raw Black Metal
*Country: France
*Format: mp3@CBR320kbps
*Size: 28MB

Tracklist:
1. Intro 01:00
2. Les Chants De Maldoror 04:57
3. Joyeuse, Libre Peste 02:45
4. Apéro Keupön 03:38
******************************
Total playing time: 12:20

[more=Extended info]CD-R

Limited to 40 copies.[/more]

[more=Technical info]
Input File: 02 Les Chants De Maldoror.mp3
Channels : 2
Sample Rate : 44100
Precision : 16-bit
Duration : 00:04:57.16 = 13104844 samples = 22287.1 CDDA sectors
File Size : 11.9M
Bit Rate : 320k
Sample Encoding: MPEG audio (layer I, II or III)
Comments :
Title=Les Chants De Maldoror
Artist=Gröbatard
Album=Medieval Black Merdal
Tracknumber=02
Year=2013
Genre=Black Metal

[/more]

Register
(20) aleon, Alexis The Best, artscald, craP_cillA, Femto, FUDEDOR, infiltrator, kim666, maringlen, Moonshtook, Olethros, Ostinato, princeshr, Razorbladeswaltz, Rosen, SilentNidhogg, stub888, thenecromancer, VALERY, VECTOR,
Aug 8 2019, 09:32:47 Cage Of Creation - I Am The Void [ep] (2019)


*Artist: Cage Of Creation
*Album: I Am The Void [ep]
*Year: 2019
*Genre: Black Metal
*Country: Russian Federation
*Format: mp3@CBR320kbps
*Size: 41MB

Tracklist:
1. I Am The Void 07:05
2. Beyond The Line 05:33
3. Pappa Satan (Woods Of Infinity Cover) 04:34
******************************
Total playing time: 17:12



[more=Extended info]Devoted Art Propaganda – NMS 025,
12" vinyl

BUY LP[/more]

[more=Technical info]
Input File: 01 - I Am The Void.mp3
Channels : 2
Sample Rate : 48000
Precision : 16-bit
Duration : 00:07:05.54 = 20426112 samples ~ 31915.8 CDDA sectors
File Size : 17.0M
Bit Rate : 320k
Sample Encoding: MPEG audio (layer I, II or III)
Comments :
Title=I Am The Void
Artist=Cage Of Creation
Album=I Am The Void
Tracknumber=01
Year=2019
Genre=Black Metal

[/more]

Register
(31) acerbus, ahp, aleon, artscald, Boozer, Brann, Daale, Evgen79, infiltrator, kim666, lestllk, maringlen, mizantrophist, Moonshtook, oLdBoy, Olethros, Ostinato, Premature_Devotion, princeshr, RADeus, robertho777, Rosen, Saalingurth, scorpionmk, sethurius, SilentNidhogg, thenecromancer, VALERY, vasiljev_sergej, V_H_H_V, yuratroll,
Aug 7 2019, 09:03:38 Нужно добавить разрешённых обменников
Итак, господа, в список обязательных обменников добавил бесплатный сервис My-Files.RU. Файлы можно размещать с прямыми ссылками, без ожиданий и рекламы. Есть поддержка докачки файлов, если вдруг произошёл обрыв связи, то можно догрузить файл позже, если использовать менеджер загрузок. Файлы до 5 Гб хранятся до 3 месяцев после последнего скачивания, файлы свыше 5 Гб хранятся до 20 дней после последнего скачивания. Размер загружаемого файла - до 100 Гб! Скорость скачивания не ограничена.

Также у проекта имеется форум, куда можно писать с просьбами/предложениями/возникающими жалобами. Как и на самом файлообменнике, на форуме регистрация не требуется.

Enjoy! smile3.gif
(1) vosmidesijatye,
Aug 7 2019, 09:00:25 Обязательные обменники [обновлено 2017-07-30]
+
my-files.ru
(1) vosmidesijatye,
Aug 6 2019, 21:39:01 Impavida - Antipode (2019)
Reuploaded for now.
Register
(2) deathic, rimfrost,
Aug 6 2019, 16:43:29 地 獄 鬼 - Servant Demon Of The Evil... [demo] (2016)


*Artist: 地 獄 鬼
*Album: Servant Demon Of The Evil... [demo]
*Year: 2016
*Genre: Raw Black Metal
*Country: Japan
*Format: mp3@VBR282kbps
*Size: 13MB

Tracklist:
1. Untitled 02:34
2. Untitled 03:45
******************************
Total playing time: 6:19

[more=Extended info]Этот релиз никогда не планировался быть общедоступным. Кассета была добавлена лейблом к случайным заказам.

О художественной и концептуальной ценности данного материала судить вам.

С японского название можно перевести как "Демон Ада".[/more]

[more=Technical info]
Input File: 地 獄 鬼 - 02 - Untitled.mp3
Channels : 2
Sample Rate : 44100
Precision : 16-bit
Duration : 00:03:45.52 = 9945212 samples = 16913.6 CDDA sectors
File Size : 7.88M
Bit Rate : 280k
Sample Encoding: MPEG audio (layer I, II or III)
Comments :
Title=Untitled
Artist=地 獄 鬼
Album=Servant Demon Of The Evil...
Tracknumber=02
Year=2016
Genre=Black Metal

[/more]

Register
(23) -=Hass=-, ambre, artscald, ChaosArcana, FUDEDOR, infiltrator, marilin, maringlen, mizantrophist, Olethros, princeshr, Razorbladeswaltz, RENыч, Rosen, sacrut, sethurius, SilentNidhogg, smysl, thenecromancer, VALERY, vasiljev_sergej, Wotanwatch, Авел,
Aug 6 2019, 16:43:13 地 獄 鬼 - 地 獄 鬼 [demo] (2014)


*Artist: 地 獄 鬼
*Album: 地 獄 鬼 [demo]
*Year: 2014
*Genre: Raw Black Metal
*Country: Japan
*Format: mp3@VBR253kbps
*Size: 7MB

Tracklist:
1. Untitled 00:24
2. Untitled 02:27
3. Untitled 01:17
******************************
Total playing time: 4:08

[more=Extended info]Этот релиз никогда не планировался быть общедоступным. Кассета была добавлена лейблом к случайным заказам.

О художественной и концептуальной ценности данного материала судить вам.

С японского название можно перевести как "Демон Ада".[/more]

[more=Technical info]
Input File: 地 獄 鬼 - 02 - Untitled.mp3
Channels : 2
Sample Rate : 44100
Precision : 16-bit
Duration : 00:02:26.83 = 6475379 samples = 11012.5 CDDA sectors
File Size : 4.56M
Bit Rate : 249k
Sample Encoding: MPEG audio (layer I, II or III)
Comments :
Title=Untitled
Artist=地 獄 鬼
Album=地 獄 鬼
Tracknumber=02
Year=2014
Genre=Black Metal

[/more]

Register
(24) -=Hass=-, ambre, artscald, ChaosArcana, FUDEDOR, infiltrator, marilin, maringlen, mizantrophist, Olethros, princeshr, Razorbladeswaltz, RENыч, Rosen, sacrut, sethurius, SilentNidhogg, smysl, thenecromancer, The_Kold, VALERY, vasiljev_sergej, Wotanwatch, Авел,
Aug 6 2019, 16:42:49 Elw - Elw III [demo] (2016)


*Artist: Elw
*Album: Elw III [demo]
*Year: 2016
*Genre: Raw Black Metal
*Country: Netherlands
*Format: mp3@VBR310kbps
*Size: 31MB

Tracklist:
1. Devout Blood 03:09
2. Christ Impaled 03:36
3. Skinned Alive And Thrown On The Stake 02:05
4. Elw's Hell 02:19
5. Return To The Castle 02:50
******************************
Total playing time: 13:59

[more=Extended info]Limited to 20 hand-numbered copies.[/more]

[more=Technical info]
Input File: Elw - 02 - Christ Impaled.mp3
Channels : 2
Sample Rate : 44100
Precision : 16-bit
Duration : 00:03:36.45 = 9545445 samples = 16233.8 CDDA sectors
File Size : 8.29M
Bit Rate : 306k
Sample Encoding: MPEG audio (layer I, II or III)
Comments :
Title=Christ Impaled
Artist=Elw
Album=Elw III
Tracknumber=02
Year=2016
Genre=Black Metal

[/more]

Register
(24) -=Hass=-, Alexis The Best, ambre, artscald, ChaosArcana, EvgeniusLongus, FUDEDOR, INDARKNESS, infiltrator, kim666, maringlen, Olethros, RENыч, Rosen, sacrut, sethurius, SilentNidhogg, stub888, suseka, thenecromancer, VALERY, vasiljev_sergej, zhol, Авел,
Aug 6 2019, 16:42:15 Egoism - Demo II [demo] (2014)


*Artist: Egoism
*Album: Demo II [demo]
*Year: 2014
*Genre: Raw Black Metal
*Country: Netherlands
*Format: mp3@VBR313kbps
*Size: 29MB

Tracklist:
1. Ejaculating On Your Funeral 02:31
2. Addicted To Sluts 02:28
3. Twisted And Vile 02:22
4. Open Your Mouth 01:53
5. Ik Vereer De Duivel 03:38
******************************
Total playing time: 12:52

[more=Extended info]Limited to 20 hand-numbered copies.[/more]

[more=Technical info]
Input File: Egoism - 01 - Ejaculating On Your Funeral.mp3
Channels : 2
Sample Rate : 44100
Precision : 16-bit
Duration : 00:02:30.86 = 6652794 samples = 11314.3 CDDA sectors
File Size : 5.96M
Bit Rate : 316k
Sample Encoding: MPEG audio (layer I, II or III)
Comments :
Title=Ejaculating On Your Funeral
Artist=Egoism
Album=Demo II
Tracknumber=01
Year=2014
Genre=Black Metal

[/more]

Register
(23) Alexis The Best, ambre, artscald, ChaosArcana, FUDEDOR, infiltrator, kim666, maringlen, Olethros, Razorbladeswaltz, RENыч, Rosen, sacrut, sethurius, SilentNidhogg, smysl, stub888, suseka, thenecromancer, VALERY, vasiljev_sergej, Wotanwatch, Авел,

273 Pages V   1 2 3 > » 
- Lo-Fi Version Support form
Copyrights and abuse reports form
Time is now: 26th August 2019 - 01:29:53