Welcome Guest ( Log In | Register )

История благодарностей участнику Абигор ::: Спасибо сказали: 113279 раз(а)
Дата поста: В теме: За сообщение: Спасибо сказали:
Mar 29 2020, 20:22:42 Arcada

Genre:
Black Metal
Lyrical Theme(s):
Philosophy, Black Magic, Occultism
Origin:
Peru (Lima)
Formed In:
2012
Status:
Active
Current Line-Up:
Iniquiator A.D. - Vocals (Evoked Terror, Iniquitatem, Evil Spectrum)
B. Maiestas D. - Guitars (Beheaded Saints, Evil Spectrum)
Ult - Bass (Purgatorio)
Onryo - Drums (Enygma, Morbid Slaughter, Argul, Crown of Worms (Live))

Former/Past Member(s):
V. - Bass, Vocals (Schizofreni, Two Face Sinner, Nostalgia)
D. - Bass (Nekromantik, Morbid Slaughter, Evil Spectrum)

Discography:
Arcada - Aeon Ov Lucifer [demo] - 2013
Arcada - Serpent's Void [demo] - 2014
Arcada - Promo MMXV [compilation] - 2015
Arcada - Infernis Ardentis Monarcha [ep] - 2017
Arcada - Hierophany [demo] - 2018
Arcada - Projections [full-length] - 2020

*****
Official Site:
Encyclopaedia Metallum
(4) abob, rickzammuto, sethurius, thenecromancer,
Mar 29 2020, 19:49:35 Arcada - Hierophany [demo] (2018)


*Artist: Arcada
*Album: Hierophany [demo]
*Year: 2018
*Genre: Black Metal
*Country: Peru
*Format: mp3@CBR320kbps
*Size: 63MB

Tracklist:
1. Lunar Possession 06:03
2. E.S.L 05:01
3. Ignis 07:08
4. Ascensionem 03:55
5. Ritual Of Evocation 05:20
******************************
Total playing time: 27:27



[more=Technical info]
Input File: 01 - Lunar Possession.mp3
Channels : 2
Sample Rate : 44100
Precision : 16-bit
Duration : 00:06:02.91 = 16004375 samples = 27218.3 CDDA sectors
File Size : 14.5M
Bit Rate : 320k
Sample Encoding: MPEG audio (layer I, II or III)
Comments :
Title=Lunar Possession
Artist=Arcada
Album=Hierophany
Tracknumber=01
Year=2017
Genre=Black Metal

[/more]

Register
(11) 1968_janeart, infiltrator, kim666, kimkayoung, morbidangelo, Ostinato, sacrut, thenecromancer, VALERY, varlam4, vasiljev_sergej,
Mar 29 2020, 19:49:12 Arcada - Infernis Ardentis Monarcha [ep] (2017)


*Artist: Arcada
*Album: Infernis Ardentis Monarcha [ep]
*Year: 2017
*Genre: Black Metal
*Country: Peru
*Format: mp3@CBR320kbps
*Size: 61MB

Tracklist:
1. Infernis Ardentis Monarcha 07:56
2. Ascensionem 04:47
3. Ignis 06:44
4. XIII 07:10
******************************
Total playing time: 26:37



[more=Extended info]lossy mastered[/more]

[more=Technical info]
Input File: 03 - Ignis.mp3
Channels : 2
Sample Rate : 44100
Precision : 16-bit
Duration : 00:06:51.02 = 18125806 samples = 30826.2 CDDA sectors
File Size : 16.4M
Bit Rate : 320k
Sample Encoding: MPEG audio (layer I, II or III)
Comments :
Title=Ignis
Artist=Arcada
Album=Infernis Ardentis Monarcha
Tracknumber=03
Year=2017
Genre=Black Metal

[/more]

Register
(12) 1968_janeart, infiltrator, kim666, kimkayoung, morbidangelo, Olethros, Ostinato, sacrut, thenecromancer, VALERY, varlam4, vasiljev_sergej,
Mar 29 2020, 19:48:40 Arcada - Serpent's Void [demo] (2014)


*Artist: Arcada
*Album: Serpent's Void [demo]
*Year: 2014
*Genre: Black Metal
*Country: Peru
*Format: mp3@CBR320kbps
*Size: 40MB

Tracklist:
1. Prophet 03:36
2. Luciferi Reditu 05:11
3. Lux ov Eternity 04:23
4. Serpent's Void 04:29
******************************
Total playing time: 17:39



[more=Extended info]lossy mastered[/more]

[more=Technical info]
Input File: 03 - Lux Ov Eternity.mp3
Channels : 2
Sample Rate : 44100
Precision : 16-bit
Duration : 00:04:22.01 = 11554685 samples = 19650.8 CDDA sectors
File Size : 10.5M
Bit Rate : 320k
Sample Encoding: MPEG audio (layer I, II or III)
Comments :
Title=Lux Ov Eternity
Artist=Arcada
Album=Serpent's Void
Tracknumber=03
Year=2014
Genre=Black Metal

[/more]

Register
(12) 1968_janeart, infiltrator, kim666, kimkayoung, maringlen, morbidangelo, Olethros, Ostinato, thenecromancer, VALERY, varlam4, vasiljev_sergej,
Mar 29 2020, 19:06:39 Absurd - Promo 11/2019 A.Y.P.S. [demo] (2019)


*Artist: Absurd
*Album: Promo 11/2019 A.Y.P.S. [demo]
*Year: 2019
*Genre: Black Metal
*Country: Germany
*Format: mp3@CBR320kbps
*Size: 21MB

Tracklist:
1. Innenschau 04:18
2. Pure Darkness 04:48
******************************
Total playing time: 9:06



[more=Extended info]Без нарушения п. 1.7[/more]

[more=Technical info]
Input File: 01 - Innenschau.mp3
Channels : 2
Sample Rate : 44100
Precision : 16-bit
Duration : 00:04:18.02 = 11378902 samples = 19351.9 CDDA sectors
File Size : 10.3M
Bit Rate : 320k
Sample Encoding: MPEG audio (layer I, II or III)
Comments :
Title=Innenschau
Artist=Absurd
Album=Promo 11.20.19 A.Y.P.S.
Tracknumber=1
Year=2019
Genre=Black Metal

[/more]

Register
(20) cancer1974, Der_Hexer, Fryz, infiltrator, maringlen, Moonshtook, morbidangelo, Mortuusinfernus, Olethros, Orkkh, Ostinato, pestpogrom, recber, soulskinner681, stub888, suseka, thenecromancer, varlam4, vasiljev_sergej, wolverine,
Feb 14 2020, 20:19:14 Bhereg - Arcane Doctrine [demo] (2012)


*Artist: Bhereg
*Album: Arcane Doctrine [demo]
*Year: 2012
*Genre: Black Metal
*Country: United States
*Format: mp3@CBR320kbps
*Size: 34MB

Tracklist:
1. Mystery Initiation 03:50
2. Arcane Doctrine 03:35
3. Noumena 04:46
4. In Satanic Nature 02:27
******************************
Total playing time: 14:38



[more=Extended info]Было в лоу.[/more]

[more=Technical info]
Input File: 02 Arcane Doctrine.mp3
Channels : 2
Sample Rate : 44100
Precision : 16-bit
Duration : 00:03:35.21 = 9490673 samples = 16140.6 CDDA sectors
File Size : 8.62M
Bit Rate : 320k
Sample Encoding: MPEG audio (layer I, II or III)
Comments :
Title=Arcane Doctrine
Artist=Bhereg
Album=Arcane Doctrine
Tracknumber=02/4
Year=2012

[/more]

Register
(18) 1968_janeart, ASkyThatBurns, caro, craP_cillA, Ildjarn, infiltrator, kim666, maringlen, Olethros, Ostinato, Rosen, Rudolfo_Metal, satanist666, SilentNidhogg, stub888, thenecromancer, varlam4, vasiljev_sergej,
Jan 28 2020, 20:45:24 Black Goat - Wrath Of The Damned​/​Fallen Angel [single] (2020)


*Artist: Black Goat
*Album: Wrath Of The Damned​/​Fallen Angel [single]
*Year: 2020
*Genre: Black Metal
*Country: Russian Federation
*Format: mp3@CBR320kbps
*Size: 19MB

Tracklist:
1. Wrath Of The Damned 04:08
2. Fallen Angel 04:00
******************************
Total playing time: 8:08



[more=Extended info]Официальный сингл, выпущенный в преддверии нового номерного альбома.[/more]

[more=Technical info]
Input File: 01 - Wrath Of The Damned.mp3
Channels : 2
Sample Rate : 44100
Precision : 16-bit
Duration : 00:04:08.10 = 10941122 samples = 18607.4 CDDA sectors
File Size : 9.92M
Bit Rate : 320k
Sample Encoding: MPEG audio (layer I, II or III)
Comments :
Title=Wrath Of The Damned
Artist=Black Goat
Album=Wrath Of The Damned/Fallen Angel
Tracknumber=01
Year=2020
Genre=Black Metal

[/more]

Register
(20) 1968_janeart, ASkyThatBurns, Hell_Is_Here, infiltrator, LazarShadow, Leshiy666, lestllk, morbidangelo, Olethros, Ostinato, Pathologistov, Rodin, Rosen, satanist666, Sickrites, thenecromancer, varlam4, vasiljev_sergej, Wail, wreak,
Jan 26 2020, 16:38:10 Warloghe - Unlighted [ep] (1997)


*Artist: Warloghe
*Album: Unlighted [ep]
*Year: 1997
*Genre: Black Metal
*Country: Finland
*Format: mp3@CBR320kbps
*Size: 25MB

Tracklist:
1. Waaslandia 06:28
2. Foretold Vast Sorceries Unfold 04:30
******************************
Total playing time: 10:58

[more=Extended info]Было в лоу.

Благодарность за предоставленный Lossless камраду RADeus.[/more]

[more=Technical info]
Input File: 01 - Waaslandia.mp3
Channels : 2
Sample Rate : 44100
Precision : 16-bit
Duration : 00:06:28.46 = 17131174 samples = 29134.6 CDDA sectors
File Size : 15.5M
Bit Rate : 320k
Sample Encoding: MPEG audio (layer I, II or III)
Comments :
Title=Waaslandia
Artist=Warloghe
Album=Unlighted
Tracknumber=1
Year=1997
Genre=Black Metal

[/more]

Register

Register
(32) 1968_janeart, acerbus, BERZERK, Borderline1991, Cosmic_Sorcerer, Evilded, Frozenkult, infiltrator, lestllk, Moonshtook, morbidangelo, Namnlos, Occultas, Olethros, Ostinato, RADeus, Raw1488, rickzammuto, Rita, Rosen, RUSP73, scorpionmk, sethurius, stub888, suseka, thenecromancer, UlvhedinGrom, vasiljev_sergej, Veggr, vovenom, wolverine, zhol,
Jan 26 2020, 16:15:30 Council Daimonion - When Hell Calls... [demo] (2018)
Отражение -
Register
(4) infiltrator, rimfrost, thenecromancer, wendigo,
Dec 30 2019, 17:31:27 Haat - Haat (2019)
Отражение -
Register
(5) 1968_janeart, Chasm, infiltrator, LVXXVL, slonin,
Nov 29 2019, 19:52:55 Mantiel - Luminous Emissions On The Graveless Entities (2018)
Отражение -
Register
(7) 1968_janeart, Frozenkult, Hell_Is_Here, Occultas, Rita, VALERY, vovenom,
Nov 28 2019, 20:01:48 Леший - Червь среди червей [demo] (2019)


*Artist: Леший
*Album: Червь среди червей [demo]
*Year: 2019
*Genre: Black Metal
*Country: Russian Federation
*Format: mp3@CBR320kbps
*Size: 55MB

Tracklist:
1. Я буду молчать 02:41
2. Власяница 03:31
3. Панегирик псковскому братству 04:37
4. Тягота 04:05
5. Мёртвое небо 04:34
******************************
Total playing time: 19:28



[more=Extended info]Sombre Rituel Productions – Sombre rituel #37,
Tape limited to 35 copies.

Леший is a part of the Pleskau Brethren Circle, along with Sidekut Slave, Ógilt and Mysticité.

Моя святость — колючая проволока
Ею расшито рубище моей власяницы
Ты — божество нетварного света
Я — прах праха, я — червь червя.
[/more]

[more=Technical info]
Input File: ЛЕШИЙ - ЧЕРВЬ СРЕДИ ЧЕРВЕЙ - 02 ВЛАСЯНИЦА.mp3
Channels : 2
Sample Rate : 44100
Precision : 16-bit
Duration : 00:03:31.37 = 9321329 samples = 15852.6 CDDA sectors
File Size : 8.72M
Bit Rate : 330k
Sample Encoding: MPEG audio (layer I, II or III)
Comments :
Title=ВЛАСЯНИЦА
Artist=ЛЕШИЙ
Album=ЧЕРВЬ СРЕДИ ЧЕРВЕЙ
Tracknumber=2
Year=2019

[/more]

Register
(39) -=Hass=-, 1968_janeart, Boozer, Fess, Forest Silence, garmonbozia, Hell_Is_Here, Ildjarn, infiltrator, kim666, Krosis, lestllk, lucifix, LVXXVL, Misanthrope@, morbidangelo, Olethros, Ostinato, Razorbladeswaltz, rickzammuto, Rosen, Rudolfo_Metal, RUSP73, SaintVitus, satanist666, senecazm, sethurius, SilentNidhogg, Surt, TAKATAEL, thenecromancer, undertrykkelse, VALERY, varlam4, vasiljev_sergej, vovenom, wanderer73, wreak, Сварог Барг,
Nov 28 2019, 19:21:50 Saatkrähe - Les Mémoires D'un Corbeau Mort I [compilation] (2019)


*Artist: Saatkrähe
*Album: Les Mémoires D'un Corbeau Mort I [compilation]
*Year: 2019
*Genre: Black Metal
*Country: France
*Format: mp3@CBR320kbps
*Size: 202MB

Tracklist:
1. Ravens Fly Over The Lands 05:12
2. Sleeping With Ravens 07:32
3. Vlad's Tomb 06:50
4. The Light Of A Crow 05:53
5. In The Graveyard Mist 08:12
6. Open Portal 07:58
7. Quintessence 12:13
8. Funérailles 12:18
9. Aux Alentours 09:05
10. Le Culte Du Passé 13:55
******************************
Total playing time: 1:29:08

[more=Extended info]Skjold,
2 x 12" vinyls

KVLT![/more]

[more=Technical info]
Input File: Saatkrähe - 05 - In The Graveyard Mist.mp3
Channels : 2
Sample Rate : 44100
Precision : 16-bit
Duration : 00:08:11.60 = 21679516 samples = 36869.9 CDDA sectors
File Size : 19.7M
Bit Rate : 320k
Sample Encoding: MPEG audio (layer I, II or III)
Comments :
Title=In The Graveyard Mist
Artist=Saatkrähe
Album=Les Mémoires d'un Corbeau Mort I
Tracknumber=05/10
Year=2019
Genre=Black Metal

[/more]

Register
(47) 1968_janeart, acerbus, Alexis The Best, alikkon, andivi, Andr, ChaosArcana, dagger666, durandal, Evilded, Fess, FlammenTod666, Frozenkult, FUDEDOR, Ildjarn, infiltrator, kim666, lestllk, morbidangelo, Nicrophorus, nord6666, nsk2008, Olethros, Orkkh, Ostinato, peppuzzo, Qliphoth, Razorbladeswaltz, Reverend, Rita, robertho777, Rosen, sethurius, SilentNidhogg, stub888, supremo, suseka, TAKATAEL, thenecromancer, the_cleanser, VALERY, varlam4, vasiljev_sergej, vovenom, Wail, wreak, ZambuL,
Nov 28 2019, 18:59:36 Mausoleum - Gospel Of The Soil (2018)


*Artist: Mausoleum
*Album: Gospel Of The Soil
*Year: 2018
*Genre: Black Metal
*Country: Canada
*Format: mp3@CBR320kbps
*Size: 81MB

Tracklist:
1. Host 06:23
2. Soil 09:15
3. Servant 07:35
4. Blight 04:59
5. Soul 07:04
******************************
Total playing time: 35:16



[more=Extended info]Murder On Ponce[/more]

[more=Technical info]
Input File: 02 Soil.mp3
Channels : 2
Sample Rate : 44100
Precision : 16-bit
Duration : 00:09:14.58 = 24457154 samples = 41593.8 CDDA sectors
File Size : 22.2M
Bit Rate : 320k
Sample Encoding: MPEG audio (layer I, II or III)
Comments :
Title=Soil
Artist=Mausoleum
Album=Gospel Of The Soil
Tracknumber=2
Year=2019

[/more]

Register
(30) 1968_janeart, atavist, Bunzlywotter, FlammenTod666, Frozenkult, FUDEDOR, Hell_Is_Here, infiltrator, kim666, morbidangelo, nord6666, nsmetalhead, Olethros, Ostinato, Rita, Rosen, satanist666, sethurius, SilentNidhogg, stub888, suseka, thenecromancer, tim47, VALERY, varlam4, vasiljev_sergej, Velmi, vovenom, wreak, yuratroll,
Nov 27 2019, 19:10:40 Throne Of Evil - Conocimiento Oculto [ep] (2017)


*Artist: Throne Of Evil
*Album: Conocimiento Oculto [ep]
*Year: 2017
*Genre: Black Metal
*Country: Chile
*Format: mp3@CBR320kbps
*Size: 69MB

Tracklist:
1. Bajando De La Montaña 09:10
2. New Shadows In The Cave 05:07
3. Liber Al Vel Vegis 05:52
4. Grito De Odio Ahogado En El Bosque 05:20
5. Himno A Satanás (Emperor Cover) 04:20
******************************
Total playing time: 29:49



[more=Extended info]Schattenkult Produktionen[/more]

[more=Technical info]
Input File: 02 - New Shadows In The Cave.mp3
Channels : 2
Sample Rate : 44100
Precision : 16-bit
Duration : 00:05:07.09 = 13542493 samples = 23031.5 CDDA sectors
File Size : 12.3M
Bit Rate : 320k
Sample Encoding: MPEG audio (layer I, II or III)
Comments :
Title=New Shadows In The Cave
Artist=Throne Of Evil
Album=Conocimiento Oculto
Tracknumber=02/05
Year=2017
Genre=Black Metal

[/more]

Register
(41) -=Hass=-, 1968_janeart, craP_cillA, Fess, FlammenTod666, Frozenkult, garmonbozia, Ildjarn, infiltrator, kauyumari, kim666, Legacy100, lestllk, lopuh21, Lunaris, marilin, maringlen, Maximvs, nsk2008, Occultas, Olethros, Ostinato, Qliphoth, RADeus, Razorbladeswaltz, Rita, Rosen, RUSP73, SaintVitus, satanist666, sethurius, SilentNidhogg, Styx, suseka, thenecromancer, VALERY, varlam4, vasiljev_sergej, vovenom, wreak, Авел,
Nov 27 2019, 18:58:36 Fiend - Misanthropic Flesh Experiences [compilation] (2018)


*Artist: Fiend
*Album: Misanthropic Flesh Experiences [compilation]
*Year: 2018
*Genre: Black Metal
*Country: Germany
*Format: mp3@CBR320kbps
*Size: 60MB

Tracklist:
1. Prelude To The End 01:31
2. Misanthropic Flesh Experience 04:48
3. Tunguska 03:28
4. Scorning The Nazarene 03:53
5. Until Death 06:34
6. Arctic Night 04:19
7. Blutmond 01:55
******************************
Total playing time: 26:28



[more=Extended info]Schattenkult Produktionen[/more]

[more=Technical info]
Input File: Fiend - 05 - Until Death.mp3
Channels : 2
Sample Rate : 44100
Precision : 16-bit
Duration : 00:06:34.05 = 17377693 samples = 29553.9 CDDA sectors
File Size : 15.8M
Bit Rate : 320k
Sample Encoding: MPEG audio (layer I, II or III)
Comments :
Title=Until Death
Artist=Fiend
Album=Misanthropic Flesh Experiences
Tracknumber=05/07
Year=2018
Genre=Black Metal

[/more]

Register
(35) -=Hass=-, 1968_janeart, Borderline1991, craP_cillA, dermarsoran, FlammenTod666, Frozenkult, Ildjarn, infiltrator, kauyumari, kim666, Legacy100, lestllk, maringlen, multizwilling, Necromag, Occultas, Olethros, Ostinato, Razorbladeswaltz, Rita, Rosen, satanist666, sethurius, SilentNidhogg, stub888, supremo, suseka, thenecromancer, VALERY, varlam4, vasiljev_sergej, vovenom, wreak, Авел,
Nov 24 2019, 12:59:09 Vestibulum Vacuüi - Wie Leeft, Zal De Dood Nooit En Te Nimmer Kennen (2019)
Fast link -
Register
(8) dan22, ErikGoth, Hell_Is_Here, lopuh21, Necromag, nikolay81, suseka, thenecromancer,
Nov 24 2019, 12:56:33 Celestial Conjuration - Demo I [demo] (2019)
Fast link -
Register
(6) 1968_janeart, blacky66, Hell_Is_Here, luxxul, nikolay81, thenecromancer,
Nov 24 2019, 12:53:45 Ruho - The Devout Thrum (2019)
Fast link -
Register
(15) atavist, Chasm, Frozenkult, gena, Hell_Is_Here, Krosis, Necromag, Olethros, rimfrost, Rita, sabr, suseka, thenecromancer, the_cleanser, дивин,
Nov 14 2019, 18:51:23 Marras - Where Light Comes To Die (2019)
Отражение -
Register
(12) Beazth, gena, Moonshtook, nemx, older68, rimfrost, ripper33, Rita, suseka, Torlof, vovenom, дивин,
Nov 14 2019, 18:49:26 Apognosis - Dominion In Polarity (2019)
Отражение -
Register
(2) Indamage, Rita,
Nov 14 2019, 18:43:30 Ragnarok - Non Debellicata (2019)
Отражение -
Register
(25) BERZERK, Brann, cesar, DOKTORBLACK88, Evgundel, Golodomor, Indamage, Infidel, mardak666, nadin85, oldvarg, rimfrost, Rita, robertho777, sandr666, senecazm, Shadechaser, smes, thenecromancer, Torlof, undeadlich, Vardlokkur, vov7609, xska, ZambuL,
Nov 14 2019, 18:37:46 The Deathtrip - Demon Solar Totem (2019)
Отражение -
Register
(24) andivi, arkaik, BERZERK, Boozer, Chasm, dma-09, DOKTORBLACK88, milosdjor, Olethros, peppuzzo, rammmirez, ripper33, Rita, robertho777, RUSP73, smes, system36, Torlof, undeadlich, VerminGhost, vov7609, xska, ZambuL, дивин,
Nov 5 2019, 21:09:01 Hertogenwald - Esprit Tellurique Primitif [demo] (2019)


*Artist: Hertogenwald
*Album: Esprit Tellurique Primitif [demo]
*Year: 2019
*Genre: Black Metal
*Country: France | Belgium
*Format: mp3@CBR320kbps
*Size: 76MB

Tracklist:
1. Purification (Introduction) 01:04
2. L'Haleine Du Marais 06:54
3. L'Oeil De L'Arbre 06:32
4. Anamnèse (Interlude) 02:14
5. L'Avertissement Du Crapaud 04:54
6. Réminiscence 08:09
7. Le Noir Chemin De L'Erèbe (Fin) 03:13
******************************
Total playing time: 33:00



[more=Extended info]France D'Oïl Productions,
September 21st.

CD-rip.
Exclusively for metalarea.[/more]

[more=Technical info]
Input File: 03 L'oeil de l'arbre.wav
Channels : 2
Sample Rate : 44100
Precision : 16-bit
Duration : 00:06:32.00 = 17287200 samples = 29400 CDDA sectors
File Size : 69.1M
Bit Rate : 1.41M
Sample Encoding: 16-bit Signed Integer PCM

[/more]

Register
(30) 1968_janeart, ahp, argh!, Beazth, Fatalist77791, Hell_Is_Here, Ildjarn, kim666, Krosis, lestllk, Ludwig Hagen, milosdjor, Moonshtook, NBM82855, NecroButcher, Olethros, Ostinato, RADeus, Rosen, satanist666, sethurius, SilentNidhogg, stub888, suseka, thenecromancer, VALERY, varlam4, vasiljev_sergej, vovenom, Авел,
Nov 2 2019, 11:55:23 Occelensbrigg - Glacial Conjuration (2019)


*Artist: Occelensbrigg
*Album: Glacial Conjuration
*Year: 2019
*Genre: Raw Black Metal
*Country: Portugal
*Format: mp3@CBR320kbps
*Size: 92MB

Tracklist:
1. Glacial Conjuration 07:15
2. Bloodshed For The Rise Of Icelands 11:25
3. Pantheon Nemesis 12:40
4. Morwccelensbrigga 08:49
******************************
Total playing time: 40:09



[more=Extended info]Harvest Of Death,
November 1st.[/more]

[more=Technical info]
Input File: 03 Pantheon Nemesis.mp3
Channels : 2
Sample Rate : 44100
Precision : 16-bit
Duration : 00:12:39.11 = 33476795 samples = 56933.3 CDDA sectors
File Size : 30.4M
Bit Rate : 320k
Sample Encoding: MPEG audio (layer I, II or III)
Comments :
Title=Pantheon Nemesis
Artist=Occelensbrigg
Album=Glacial Conjuration
Tracknumber=3
Year=2019
Genre=Black Metal

[/more]

Register
(39) -=Hass=-, 1968_janeart, Alexis The Best, alikkon, Beazth, Boozer, cist, Evilded, Fryz, FUDEDOR, garmonbozia, Hell_Is_Here, Ildjarn, infiltrator, kauyumari, kim666, Korpse, luxxul, morbidangelo, multizwilling, nemx, Olethros, Ostinato, Pinhead666, Rosen, satanist666, sethurius, SilentNidhogg, stub888, supremo, suseka, thenecromancer, VALERY, varlam4, vasiljev_sergej, Vidder242, vovenom, wtk.412, Авел,

275 Pages V   1 2 3 > » 
- Lo-Fi Version Support form
Copyrights and abuse reports form
Time is now: 31st March 2020 - 14:13:56