Welcome Guest ( Log In | Register )

История благодарностей участнику Абигор ::: Спасибо сказали: 106160 раз(а)
Дата поста: В теме: За сообщение: Спасибо сказали:
Yesterday, 17:43:32 LVTHN - The Spider Goddess [ep] (2017)
reupload 320 kb/s
Register
(2) Deathconnect, thenecromancer,
Jun 15 2019, 19:05:58 Yellow Eyes - Rare Field Ceiling (2019)
[youtube]E_c4pmv2_80[/youtube] [youtube]gkSmFcou0sU[/youtube]
(1) suseka,
Jun 14 2019, 16:51:52 Bloodsoaked Necrovoid - The Apocryphal Paths Of The Ancient 8Th Vitriolic Transcendence [compilation] (2019)


*Artist: Bloodsoaked Necrovoid
*Album: The Apocryphal Paths Of The Ancient 8Th Vitriolic Transcendence [compilation]
*Year: 2019
*Genre: Doom/Death Metal
*Country: Costa Rica
*Format: mp3@CBR320kbps
*Size: 95MB

Tracklist:
1. Quintessence Of The Colossal Cosmic Entity 04:07
2. Metaphysical Prolapse Through Purulent Detaching Nightmares 06:15
3. Dismal Catacombs Of Eternal Astral Flagellating Torment 03:16
4. Consuming Darkness Of Void Towards Inconceivably Vast Insanity 05:26
5. Flesh Divinations For The Ego-Plundered Psyche 04:31
6. Vortex Extracting Putrid Disembodied Beings 04:09
7. Substance Conceiled In Opened Conduit Discharging Flesh - Penetrating Agony 07:55
8. Sempiternal Gravitational Pull Of The Massive Cosmic Cauldron 06:06
******************************
Total playing time: 41:45



[more=Extended info]Iron Bonehead Productions[/more]

[more=Technical info]
Input File: 02 Metaphysical Prolapse Through Purulent Detaching Nightmares.mp3
Channels : 2
Sample Rate : 44100
Precision : 16-bit
Duration : 00:06:14.59 = 16519551 samples = 28094.5 CDDA sectors
File Size : 15.0M
Bit Rate : 320k
Sample Encoding: MPEG audio (layer I, II or III)
Comments :
Title=Metaphysical Prolapse Through Purulent Detaching Nightmares
Artist=Bloodsoaked Necrovoid
Album=The Apocryphal Paths of the Ancient 8th Vitriolic Transcendence
Tracknumber=2
Year=2019
Genre=Metal

[/more]

Register
(14) Dmitry1977, Doooomed, Evilded, FUDEDOR, GorAtheist, ingram, metala, Mist13Signifier, Olethros, Ostinato, Rosen, smysl, VALERY, Герб,
Jun 14 2019, 14:26:52 Panzerfaust - The Suns Of Perdition - Chapter I: War, Horrid War (2019)
Прямой линк -
Register
(19) -=Hass=-, 1968_janeart, 666days, ahp, BERZERK, Chasm, Fryz, goxther, nemx, Ostinato, Reverend, ripper33, sacrut, stub888, VALERY, Vardlokkur, vasiljev_sergej, vov7609, Волос,
Jun 14 2019, 14:22:18 Panzerfaust

Genre:
Black Metal
Lyrical Theme(s):
Darkness, War, Anti-Religion
Origin:
Canada (Mississauga, Ontario)
Formed In:
2005
Status:
Active
Current Line-Up:
Goliath - Vocals
Kaizer - Guitars
Morbid - Bass (Razorwire, Blackened)
Lord Baphomet - Drums
Andrew Chalmers - Drums (Live) (Hexenklad, Pagan Ritual)
Former/Past Member(s):
Azathoth - Guitars
Orcus - Bass (Operus, Eclipse Eternal)
Anastasia - Viola (Sortilegia, Sylvus)

Discography:
Panzerfaust - The Winds Will Lead Us... [full-length] - 2006
Panzerfaust & Totalus Necrum - Panzerfaust/Totalus Necrum [split] - 2007
Panzerfaust - The Dark Age Of Militant Paganism [full-length] - 2008
Panzerfaust - Bythos - Proarkhe [ep] - 2010
Panzerfaust - Ephphatha [ep] - 2011
Panzerfaust - Jehovah-Jireh: The Divine Anti-logos [full-length] - 2013
Panzerfaust - The Lucifer Principle [ep] - 2016
Panzerfaust - The Suns Of Perdition - Chapter I: War, Horrid War [full-length] - 2019

*****
Official Site:
Encyclopaedia Metallum
(5) BERZERK, Borderline1991, DarkHorde, kim666, thenecromancer,
Jun 12 2019, 21:57:07 Wolfenburg - Wolfenburg (2017)
Register
(2) NachtWulf, suseka,
Jun 12 2019, 13:03:06 Black Stench - Shapeless Spectres Gathering (Reissue 2019) [demo] (2004)
Register
(4) Alexis The Best, rimfrost, smysl, thenecromancer,
Jun 12 2019, 10:51:27 Kvelgeyst - Alkahest (2019)
Register
(8) ahp, Beazth, NachtWulf, rimfrost, sandr666, suseka, tormoz, yuratroll,
Jun 12 2019, 10:37:18 The Last Seed - Hellboy (2018)
Добавлена ссылка на rghost:
Register
(1) rimfrost,
Jun 12 2019, 09:37:19 Setherial - Firestorms [ep] (2013)
Register
(7) andivi, NachtWulf, Occultas, peppuzzo, rimfrost, sacrut, thenecromancer,
Jun 11 2019, 13:36:05 Мор - Пламя [compilation] (2018)
ЦИТАТА(Aresson @ Jun 11 2019, 09:16:43) *
А это не тот Мор, который приProgованный Black лабают? И почему компиляция? Объясните.

Это компиляция, содержащая композиции разных периодов творчества мурманской формации. Во-первых, первая часть – это считавшаяся утерянной на протяжении более 20 лет инструментальная версия культовой "Lesomorie", записанной вживую в марте 1996 года на репетиции DP. Вторая глава компиляции – два трека, как ты верно выразился, приProgованного периода (2008 год), записанные при поддержке War-M (гитары) и Damien T.G. (ударные). И финальная часть – это кавер-версия композиции из творческого наследия Bathory "Blood. Fire. Death.", увидевшая свет летом прошлого года. Роскошный дигипак, мастерски оформленный Владимиром Прокофьевым, вышел тиражом 104 экземпляра и доступен для приобретения. Кстати, при заказе, как утверждает официальный сайт
Assault, вы можете запросить макет оформления для широкоформатной печати по всем требованиям ISO.
(4) Aresson, infiltrator, sacrut, sethurius,
Jun 11 2019, 06:47:54 Sect - Anaθema [ep] (2019)
По заявлениям издателя, на осень запланирован выход полноформатного альбома.
(5) -=Hass=-, DarkHorde, infiltrator, technoboy69, thenecromancer,
Jun 10 2019, 22:08:28 Мор - Murmanblick [demo] (2019)
ЦИТАТА(isvili @ Jun 10 2019, 23:52:42) *
В последней песне ошибся немного: Murmanblick правильно будет.

На диске значится так, как я указал выше:
(3) -=Hass=-, Evilded, recber,
Jun 10 2019, 21:20:18 Sect - Anaθema [ep] (2019)


*Artist: Sect
*Album: Anaθema [ep]
*Year: 2019
*Genre: Black Metal
*Country: Russian Federation
*Format: mp3@CBR320kbps
*Size: 92MB

Tracklist:
1. Начало... Не Конец 04:21
2. Из Света В Смерть 06:28
3. Рабский Пожизненный Церемониал 05:39
4. Ядерная Война (Voïvod Cover) 07:30
5. Хлеб, Вода, Реки Крови 07:06
6. Anaθema 06:59
7. Апокалипсис (Full Decay Cover) 02:44
******************************
Total playing time: 40:47



[more=Extended info]Assault Records

Как всегда, эксклюзивно для металарии.

KVLT![/more]

[more=Technical info]
Input File: 06. Anaθema.mp3
Channels : 2
Sample Rate : 44100
Precision : 16-bit
Duration : 00:06:59.34 = 18492894 samples = 31450.5 CDDA sectors
File Size : 16.8M
Bit Rate : 320k
Sample Encoding: MPEG audio (layer I, II or III)
Comments :
Title=Anaθema
Artist=Sect
Album=Anaθema EP
Tracknumber=06
Year=2019
Genre=Black Metal

[/more]

Register
(77) -=Hass=-, 1968_janeart, acerbus, ahp, andeimon, Aphrax, beast666, Beazth, Bekkerev, blacky66, Boozer, Borderline1991, bowelled, burzum1983, Chasm, DarkHorde, dermarsoran, elsunga, Evgen79, Evilded, Fatalist77791, Fess, Fryz, FullofHate, garmonbozia, Glioma, GorAtheist, Hadelik, HviteGuden, Indamage, Infidel, infiltrator, isvili, kauyumari, Kazoth, kim666, KKK1488, Krosis, lestllk, lopuh21, maringlen, milosdjor, Moonshtook, nadin85, neoatheist, nsk2008, Olethros, Ostinato, recber, Requiescat, ripper33, robertho777, Rosen, Sacrim, SameMan, satanist666, sethurius, SilentNidhogg, Skog1349, smysl, snorr, suseka, SyncestrA, targonium, technoboy69, thenecromancer, Thunderbird, Torlof, undeadlich, VALERY, vasiljev_sergej, V_H_H_V, Waam, Winter Funeral, yarrsuaa, ZambuL, Варяг,
Jun 10 2019, 21:19:59 Мор - Murmanblick [demo] (2019)


*Artist: Мор
*Album: Murmanblick [demo]
*Year: 2019
*Genre: Black Metal
*Country: Russian Federation
*Format: mp3@CBR320kbps
*Size: 85MB

Tracklist:
1. Лесоморие.ч2 08:26
2. Ведьмы 05:57
3. Мертвецы 05:38
4. Пересекая Северное Море 09:31
5. Murmanbleak 08:13
******************************
Total playing time: 37:45



[more=Extended info]Assault Records ‎– A0319B026

Как всегда, эксклюзивно для металарии.

"Murmanblick" был создан в 2007 году (некоторые части записи и того раньше). В том же году было записано первое рабочее демо для фиксации идей. Работа над материалом была возобновлена летом 2013, когда была записана вторая версия, доработанная и преисполненная характерной для МОР атмосферой.

Кстати, за время работы над вторым полноформатным альбомом, хоть и в демонстрационном варианте, поменялся и формат реализации: вместо 40 запланированных кассет издатель выпустил 66 Digisleeve CD.

KVLT![/more]

[more=Technical info]
Input File: 05. Murmanbleak.mp3
Channels : 2
Sample Rate : 44100
Precision : 16-bit
Duration : 00:08:12.72 = 21729040 samples = 36954.1 CDDA sectors
File Size : 19.7M
Bit Rate : 320k
Sample Encoding: MPEG audio (layer I, II or III)
Comments :
Title=Murmanbleak
Artist=Мор
Album=Murmanblick
Tracknumber=05
Year=2019
Genre=Black Metal

[/more]

Register
(77) -=Hass=-, 1968_janeart, abob, acerbus, ahp, andeimon, Aphrax, beast666, Bekkerev, blacky66, Bolitho, Boozer, Borderline1991, bowelled, Brutal, Bulldozzzzzzer, burzum1983, DarkHorde, dermarsoran, dsp, Evgen79, Evilded, Fatalist77791, Fess, Fryz, FullofHate, garmonbozia, Glioma, Hadelik, HviteGuden, Indamage, infiltrator, isvili, Kazoth, kim666, KKK1488, Krosis, lestllk, lopuh21, Mist13Signifier, Moonshtook, NachtWulf, nadin85, neoatheist, nsk2008, nsmetalhead, Olethros, Ostinato, Razorbladeswaltz, recber, Requiescat, ripper33, robertho777, Rosen, sacrut, SameMan, satanist666, sethurius, Shadechaser, Shub, SilentNidhogg, Skog1349, smysl, spiritualdecay666, suseka, SyncestrA, technoboy69, thenecromancer, Thunderbird, VALERY, vasiljev_sergej, V_H_H_V, Waam, yarrsuaa, ZambuL, Варяг, Сварог Барг,
Jun 10 2019, 21:19:40 Мор - Пламя [compilation] (2018)


*Artist: Мор
*Album: Пламя [compilation]
*Year: 2018
*Genre: Black Metal
*Country: Russian Federation
*Format: mp3@CBR320kbps
*Size: 107MB

Tracklist:
1. Лесоморие 1 02:27
2. Лесоморие 2 07:15
3. Лесоморие 3 05:03
4. Лесоморие 4 01:04
5. Мурманблик 1 10:03
6. Мурманблик 2 11:21
7. Кровь. Пламя. Смерть. (Bathory Cover) 09:59
******************************
Total playing time: 47:12



[more=Extended info]Assault Records – A1018B014

Как всегда, эксклюзивно для металарии.

KVLT![/more]

[more=Technical info]
Input File: 07. Кровь. Пламя. Смерть. (Bathory Cover).mp3
Channels : 2
Sample Rate : 44100
Precision : 16-bit
Duration : 00:09:59.15 = 26422559 samples = 44936.3 CDDA sectors
File Size : 24.0M
Bit Rate : 320k
Sample Encoding: MPEG audio (layer I, II or III)
Comments :
Title=Кровь. Пламя. Смерть. (Bathory Cover)
Artist=Мор
Album=Пламя
Tracknumber=07
Year=2018

[/more]

Register
(73) -=Hass=-, abob, acerbus, andeimon, Aresson, beast666, Boozer, Borderline1991, bowelled, Brutal, Bulldozzzzzzer, burzum1983, DarkHorde, dsp, Evgen79, Evilded, Fatalist77791, Fess, Fryz, FullofHate, garmonbozia, Glioma, Hadelik, HviteGuden, Indamage, Infidel, infiltrator, isvili, kauyumari, Kazoth, kim666, KKK1488, Krosis, lestllk, lopuh21, maringlen, Mist13Signifier, NachtWulf, nadin85, neoatheist, nsk2008, nsmetalhead, Olethros, Ostinato, Premature_Devotion, Qliphoth, Razorbladeswaltz, recber, Requiescat, ripper33, Rosen, sacrut, SameMan, satanist666, sethurius, Shub, SilentNidhogg, Skog1349, smysl, snorr, spiritualdecay666, suseka, SyncestrA, technoboy69, thenecromancer, VALERY, vasiljev_sergej, V_H_H_V, Waam, yarrsuaa, ZambuL, Варяг, Сварог Барг,
Jun 9 2019, 19:29:34 Revenant Marquis - Pitiless Black Emphasis (2018)
Register


[youtube]ZYCl1y7nSrY[/youtube]
(4) 1968_janeart, sacrut, suseka, TodesGott,
Jun 8 2019, 17:59:54 Vampyric Bvrial - Rites Ov Gloriovs Heretical Exhvmation [demo] (2019)


*Artist: Vampyric Bvrial
*Album: Rites Ov Gloriovs Heretical Exhvmation [demo]
*Year: 2019
*Genre: Raw Black Metal
*Country: United States
*Format: mp3@CBR320kbps
*Size: 40MB

Tracklist:
1. Ominous Howls From A Desecrated Forlorn Castle 04:58
2. Drowning In Hideous Lupine Shadows 05:34
3. Waning Bloodmoon 01:52
4. Storm Recalls The Blood Of The Wolf 06:04
******************************
Total playing time: 18:28



[more=Extended info]Limited to 50 copies.[/more]

[more=Technical info]
Input File: 03 Waning Bloodmoon.mp3
Channels : 1
Sample Rate : 44100
Precision : 16-bit
Duration : 00:01:52.99 = 4982639 samples = 8473.88 CDDA sectors
File Size : 4.52M
Bit Rate : 320k
Sample Encoding: MPEG audio (layer I, II or III)
Comments :
Title=Waning Bloodmoon
Artist=Vampyric Bvrial
Album=Rites ov Gloriovs Heretical Exhvmation
Tracknumber=3
Year=2019

[/more]

Register
(21) 1968_janeart, Beazth, craP_cillA, dermarsoran, Evgen79, FUDEDOR, heinz88, kim666, kkrrizzzzz, nemx, Olethros, Ostinato, Rosen, sethurius, SilentNidhogg, Skog1349, smysl, stub888, thenecromancer, VALERY, vasiljev_sergej,
Jun 7 2019, 15:44:07 Vortex Of End

Genre:
Black/Death Metal
Lyrical Theme(s):
Death, Occultism, Evil, Revelation
Origin:
France
Formed In:
2005
Status:
Active
Current Line-Up:
PRZ - Vocals, Guitars (Morzhol)
NGH - Vocals, Guitars (Anus Mundi)
HRS - Bass
NKR - Drums (Disgraseed)

Discography:
Vortex Of End - Satanik Nuklear-Engined Turbodefekator [demo] - 2006
Vortex Of End - In Satan And Plutonium We Trust [full-length] - 2007
Vortex Of End - Fanatik Spiritual Devotion [ep] - 2008
Vortex Of End & Morzhol - Morzhol/Vortex Of End [split] - 2011
Vortex Of End - Fvlgvr.Lvx.Terror [full-length] - 2015
Vortex Of End - Transvbstantiation [demo] - 2018
Vortex Of End - Ardens Fvror [full-length] - 2019

*****
Official Site:
Encyclopaedia Metallum
(5) Borderline1991, DarkHorde, kim666, sethurius, thenecromancer,
Jun 7 2019, 09:52:43 Corpusculum - Saducismus Triumphatus [demo] (1991)


*Artist: Corpusculum
*Album: Saducismus Triumphatus [demo]
*Year: 1991
*Genre: Black Metal
*Country: Netherlands
*Format: mp3@CBR320kbps
*Size: 52MB

Tracklist:
1. Prophency Acatholicus 00:48
2. Saducismus Triumphatus 02:41
3. Insania Dementia 02:58
4. Vinum Sabbatti 03:35
5. Invocation Ashtaroth 02:44
6. Anubis Osculum 03:30
7. Grangredine Consumptus 02:22
8. In Articulo Mortis 05:04
******************************
Total playing time: 23:42




[more=Extended info]Kaladruna,
April 9th, 2015.

Reissue of the 1991 demo. Limited to 50 copies.

Featuring members of Inverted Pentagram.[/more]

[more=Technical info]
Input File: 02 - Saducismus Triumphatus.mp3
Channels : 2
Sample Rate : 44100
Precision : 16-bit
Duration : 00:02:41.45 = 7119725 samples = 12108.4 CDDA sectors
File Size : 6.46M
Bit Rate : 320k
Sample Encoding: MPEG audio (layer I, II or III)
Comments :
Title=Saducismus Triumphatus
Artist=Corpusculum
Album=Saducismus Triumphatus
Tracknumber=02
Year=1991
Genre=Black Metal

[/more]

Register
(25) 1968_janeart, ahp, Evilded, FUDEDOR, garmonbozia, infiltrator, LVXXVL, maringlen, Olethros, Ostinato, Qliphoth, Razorbladeswaltz, RENыч, Rosen, SilentNidhogg, stub888, stumpheavyrock, Svafrlami, thenecromancer, the_cleanser, Tino, VALERY, vasiljev_sergej, wgs73, zhol,
Jun 6 2019, 09:52:29 Гетьман

Genre:
Pagan Black Metal
Lyrical Theme(s):
History, Folklore, Heritage, Ukrainian Patriotism
Origin:
Ukraine (Kherson)
Formed In:
2006
Status:
Active
Current Line-Up:
Cerberus - Everything (Demonium, Echalon)
Storm - Drums (Demonium)

Discography:
Гетьман - Вітер З Гаєм Pозмовляє [full-length] - 2012
Гетьман - Матiр [full-length] - 2013
Гетьман & Gjallarhorn - Іван Підкова [split] - 2014
Гетьман - Зшита З Попелу Книга [full-length] - 2017
Гетьман - Стискаючи Зуби [full-length] - 2019

*****
Official Site:
Encyclopaedia Metallum
(2) Borderline1991, infiltrator,
Jun 4 2019, 14:05:39 Orlok & Wampyr Dungeon - The Carpathian Plague [split] (2016)


*Artist: Orlok & Wampyr Dungeon
*Album: The Carpathian Plague [split]
*Year: 2016
*Genre: Raw Black Metal | Raw Black Metal
*Country: Finland | France | Portugal
*Format: mp3@CBR320kbps
*Size: 55MB

Tracklist:
Orlok:
1. When Evil Returns... 11:59
Wampyr Dungeon:
2. Blood Drinkers Of Satan 08:04
3. Hantises 04:34
******************************
Total playing time: 24:37

[more=Extended info]Features members of Krüel Kömmando and Vetala.[/more]

[more=Technical info]
Input File: 02 - Wampyr Dungeon - Blood Drinkers Of Satan.mp3
Channels : 2
Sample Rate : 44100
Precision : 16-bit
Duration : 00:08:04.16 = 21351324 samples = 36311.8 CDDA sectors
File Size : 19.4M
Bit Rate : 320k
Sample Encoding: MPEG audio (layer I, II or III)
Comments :
Title=Blood Drinkers of Satan
Artist=Wampyr Dungeon
Album=The Carpathian Plague
Tracknumber=2

[/more]

Register
(32) 1968_janeart, Alexis The Best, ambre, Boozer, ChaosArcana, Constantinus I, deadterror, Fryz, FUDEDOR, garmonbozia, heinz88, kim666, LEGION69, lestllk, maringlen, Moonshtook, Occultas, Ostinato, Razorbladeswaltz, rimfrost, Rosen, RUSP73, satanist666, sethurius, SilentNidhogg, Skog1349, stub888, thenecromancer, the_cleanser, VALERY, vasiljev_sergej, wolverine,
Jun 4 2019, 13:02:01 Krüel Kömmando

Genre:
Black Metal
Lyrical Theme(s):
Genocide, Satanism, Sadism
Origin:
France/Finland
Formed In:
2009
Status:
Active
Current Line-Up:
Graf Wampyr Arkäatakörvkre - Vocals, Guitars (Wampyr Dungeon)
Vaërlv - Vocals, Drums (Gestapo 666, Heavy Cross, Infernal Darkness, Knife, Orlok, Satanael, Satanic Warmaster, Satanist Terrorist, The True Werwolf, Vritrahn-Werwolf, White Death, Warloghe (Live), Armour, Blasphemous Evil, Blutrache, Incriminated, Pest, Shatargat, Skullcrusher, Bestial Noise, Vomitfago, Horna, Krieg, Mental Terror, Goatmoon (Live))
Former/Past Member(s):
Vereörmihi - Drums (Voltaic Omen, Serpula)

Discography:
Krüel Kömmando - Infanticide [demo] - 2009
Krüel Kömmando & Total Genocide - Kamp Satan [split] - 2009
Krüel Kömmando & Appalachian Winter - Satansmörder [split] - 2011
Krüel Kömmando & Forbidden Citadel Of Spirits - Forbidden Citadel Of Spirits/Krüel Kömmando [split] - 2012
Krüel Kömmando & Vetala - Vetala/Krüel Kömmando [split] - 2014
Krüel Kömmando - Synagoga Satanæ [full-length] - 2017

*****
Official Site:
Encyclopaedia Metallum
(7) Alexis The Best, Borderline1991, DarkHorde, kim666, satanist666, sethurius, thenecromancer,
Jun 4 2019, 12:42:51 Turia

Genre:
Atmospheric Black Metal
Lyrical Theme(s):
Modernity, Desolation, Melancholy
Origin:
Netherlands (Amsterdam, North Holland/Nijmegen, Gelderland)
Formed In:
2014
Status:
Active
Current Line-Up:
T - Vocals (Nusquama)
O - Guitars (Galg, Iskandr, Lubbert Das, Nusquama, Solar Temple, Heaven Denies)
J - Drums (Lubbert Das)

Discography:
Turia - Dor [full-length] - 2015
Turia - Dede Kondre [full-length] - 2017
Turia & Vilkacis - Vilkacis/Turia [split] - 2018
Turia & Fluisteraars - De Oord [split] - 2018
Turia & Fyrnask & Mosaic & Nahtrunar & Aether & Fyrnask & Mosaic & Apoptose - Samhain Celebration MMXVIII [split] - 2018

*****
Official Site:
Encyclopaedia Metallum
(4) Borderline1991, DarkHorde, kim666, satanist666,
Jun 4 2019, 12:29:09 Meslamtaea

Genre:
Black Metal
Lyrical Theme(s):
Paganism, Heritage, Battles
Origin:
Netherlands
Formed In:
1998
Status:
Active
Current Line-Up:
Floris Velthuis - All Instruments (Asgrauw, Sagenland, Deifecation, Annwfyn, Escutcheon)
Kaos - Vocals (Asgrauw)

Discography:
Meslamtaea - Illusion [demo] - 2004
Meslamtaea - New Era [full-length] - 2005
Meslamtaea & Cultus - De Dodenstoet/Klaagzang [split] - 2005
Meslamtaea & Cultus - Tussen Werelden/Gedachten [split] - 2008
Meslamtaea & Asgrauw - Utopia [split] - 2017
Meslamtaea - Niets En Niemendal [full-length] - 2019

*****
Official Site:
Encyclopaedia Metallum
(5) Borderline1991, DarkHorde, kim666, satanist666, Skog1349,

267 Pages V   1 2 3 > » 
- Lo-Fi Version Support form
Copyrights and abuse reports form
Time is now: 18th June 2019 - 10:00:04