Welcome Guest ( Log In | Register )

История благодарностей участнику Абигор ::: Спасибо сказали: 116928 раз(а)
Дата поста: В теме: За сообщение: Спасибо сказали:
Jan 18 2021, 20:58:36 Urghar Moork - Begeesterd Door Den Bozen [demo] (1998)
Там фигурирует другое демо:

https://www.metal-archives.com/albums/Urgha...Menschdom/75711

А на архивах в Additional discography значится это демо 1998 года.
(2) INDARKNESS, thenecromancer,
Dec 24 2020, 20:15:11 Hate Forest - Hour Of The Centaur (2020)
Відображення -

Register
(22) andeimon, boby9052, carla667, Daale, DMIYUR, Femto, Fess, Forest Silence, infiltrator, KKK1488, Moonshtook, multizwilling, MushroomGoat, Occultas, Ostinato, recber, Shadechaser, suseka, system36, thenecromancer, Torlof, WOLAND,
Dec 20 2020, 13:23:05 Коса - Rehearsal 19.06.19 [demo] (2020)
Added links by Cramloth
(2) Cramloth, WOLAND,
Dec 6 2020, 21:06:03 Рекорды очереди премодерации релизов
as71, подправил стиль и перенес в Unformat.
(2) as71, WOLAND,
Nov 22 2020, 15:17:56 Circle Of Ouroborus - Viimeinen Juoksu (2020)


Circle Of Ouroborus - 2020 - Viimeinen Juoksu (Digipak CD)
New Era Productions

BUY CD

CD-Rip (Lame 3.93.1 Stereo)
Register


CD-Rip (FLAC)
Register
(9) acerbus, BelfegoR13, diablo_vtx, ent404, eternald, kimkayoung, makkara123, r721, Rudolfo_Metal,
Nov 22 2020, 10:01:57 Ogof - Full Moon Black Shadow (2020)


*Artist: Ogof
*Album: Full Moon Black Shadow
*Year: 2020
*Genre: Raw Black Metal
*Country: United Kingdom
*Format: mp3@CBR320kbps
*Size: 100MB

Tracklist:
1. The Spectre 01:38
2. Source Of All Ecclesiastical Evil 03:12
3. Bringer Of Sacred Offensive 05:15
4. Altar Of The Sacrifice Cavens 03:42
5. Darkness Provoked 05:36
6. Devil's Flock Devil's Rituals 00:32
7. Talismans Of Diobology 00:54
8. Manifestations And Torment 05:28
9. Candles 04:43
10. Poisoning Wlls 03:50
11. Blood Cosmology 01:35
12. Satan 05:04
******************************
Total playing time: 41:29



[more=Extended info]Death Kvlt Productions[/more]

[more=Technical info]
Input File: 05 - Darkness Provoked.mp3
Channels : 2
Sample Rate : 44100
Precision : 16-bit
Duration : 00:05:36.40 = 14835108 samples = 25229.8 CDDA sectors
File Size : 13.5M
Bit Rate : 320k
Sample Encoding: MPEG audio (layer I, II or III)
Comments :
Title=Darkness Provoked
Artist=Ogof
Album=Full Moon Black Shadow
Tracknumber=5
Year=2020

[/more]

Register
(27) 1968_janeart, Bekkerev, BelfegoR13, DarkHorde, infiltrator, kim666, legion01, Marek, Morgoth, multizwilling, Olethros, Ostinato, randumbum, Razorbladeswaltz, recber, Rosen, SilentNidhogg, smysl, stub888, supremo, VALERY, varlam4, vasiljev_sergej, Velmi, Vidder242, Wail, wreak,
Nov 22 2020, 10:01:24 Unbegotten - Manifestion (2019)


*Artist: Unbegotten
*Album: Manifestion
*Year: 2019
*Genre: Black Metal
*Country: Spain
*Format: mp3@VBR267kbps
*Size: 80MB

Tracklist:
1. Unbegotten 06:54
2. Memory & Misery 08:05
3. Ruined Existence, Cursed Heritage 06:13
4. If I Fall 05:47
5. Gradients Of Infinity 05:58
6. Abysses Of Existence 06:00
7. Dormancy 02:02
******************************
Total playing time: 40:59



[more=Extended info]Altare Productions/Nebular Carcoma[/more]

[more=Technical info]
Input File: 01 Unbegotten.mp3
Channels : 2
Sample Rate : 44100
Precision : 16-bit
Duration : 00:06:54.35 = 18273011 samples = 31076.5 CDDA sectors
File Size : 13.8M
Bit Rate : 266k
Sample Encoding: MPEG audio (layer I, II or III)
Comments :
Title=Unbegotten
Artist=Unbegotten
Album=Manifestion
Tracknumber=01/7
Year=2019
Genre=Black Metal

[/more]

Register
(22) 1968_janeart, BelfegoR13, Constantinus I, El_Chibo, IncendiaryMight, infiltrator, judaz, kim666, Marek, Olethros, randumbum, Razorbladeswaltz, robertho777, Rosen, SilentNidhogg, stub888, VALERY, varlam4, vasiljev_sergej, Wail, wreak, ZambuL,
Nov 21 2020, 16:14:41 Коса - Rehearsal 19.06.19 [demo] (2020)


*Artist: Коса
*Album: Rehearsal 19.06.19 [demo]
*Year: 2020
*Genre: Black Metal
*Country: Russian Federation
*Format: mp3@CBR320kbps
*Size: 38MB

Tracklist:
1. Spring Is Inevitable 04:39
2. Ugly 03:23
3. The Light Is Not Eternal 04:11
4. Black Goat 03:49
******************************
Total playing time: 16:02



[more=Extended info]Дебютное демо проекта из Уфы. Смерти Коса была взведена в рамках репетиционной сессии вживую на кассету. Для поклонников "клаксонщины".

Вышло ограниченным тиражом в 13 копий.[/more]

[more=Technical info]
Input File: 02 - Ugly.mp3
Channels : 2
Sample Rate : 44100
Precision : 16-bit
Duration : 00:03:23.35 = 8967647 samples = 15251.1 CDDA sectors
File Size : 8.13M
Bit Rate : 320k
Sample Encoding: MPEG audio (layer I, II or III)
Comments :
Title=Ugly
Artist=Kocа
Album=Rehearsal 19.06.19
Tracknumber=02/04
Year=2020
Genre=Black Metal

[/more]

Register

Register
(25) 1968_janeart, AlexHellhammer1602, Borderline1991, Cramloth, deadterror, eguk, Hell_Is_Here, INDARKNESS, infiltrator, kim666, noxspiritus, Olethros, randumbum, robertho777, Rosen, RUSP73, sacrut, sethurius, smes, thenecromancer, VALERY, varlam4, vasiljev_sergej, Wail, wreak,
Nov 9 2020, 15:39:57 -S- - Zabijanie Czasu I [ep] (2020)


*Artist: -S-
*Album: Zabijanie Czasu I [ep]
*Year: 2020
*Genre: Occult Krautrock/Doom Jazz
*Country: Poland
*Format: mp3@CBR320kbps
*Size: 61MB

Tracklist:
1. Zabijanie Czasu
******************************
Total playing time: 26:02



[more=Extended info]Zajebiste! Genialna black poezja śpiewana, której dostaje ciarek!

Patyr: Vocals, Bass (Licho)
Grzegorz: Drums (Licho)

[/more]

[more=Technical info]
Input File: 01 - Zabijanie czasu.mp3
Channels : 2
Sample Rate : 44100
Precision : 16-bit
Duration : 00:26:02.00 = 68884200 samples = 117150 CDDA sectors
File Size : 62.5M
Bit Rate : 320k
Sample Encoding: MPEG audio (layer I, II or III)
Comments :
Title=Zabijanie czasu
Artist=-S-
Album=Zabijanie czasu I
Tracknumber=01
Year=2020
Genre=Experimental Rock / Jazz

[/more]

Register
(44) -=Hass=-, A.L.Rapsod, acerbus, as71, Ash_1980, Borderline1991, Chasm, CryptOn, Daale, DeamonRed, dromord, emogrinder, ent404, Forest Silence, gena, Ghostb, Hell_Is_Here, INDARKNESS, infiltrator, kimkayoung, lucifix, marilin, metala, Occultas, oldvarg, Olethros, Ostinato, Premature_Devotion, RENыч, skidnik, Sylvi, SyncestrA, tamerz, thenecromancer, Tino, tOmV, VALERY, Vardlokkur, varlam4, Wail, Woosad, xska, yuratroll, некрософ,
Nov 9 2020, 15:19:42 Новости Black-направления
Sarvekas "Of Atavistic Fury & Visions" EP

Lyrical themes: Scandinavian mythology, devotion to the Dark.

[youtube]OE08o1OpyW4[/youtube]

[youtube]Br_MgRCAcJo[/youtube]
(4) andivi, infiltrator, Occultas, thenecromancer,
Oct 27 2020, 20:14:56 13th Temple - Sol Mortuus (2020)


*Artist: 13th Temple
*Album: Sol Mortuus
*Year: 2020
*Genre: Black/Doom Metal
*Country: Chile
*Format: mp3@CBR320kbps
*Size: 116MB

Tracklist:
1. Flames Across The Cenotaph 01:37
2. Revenant Above The Saturnean Veils 07:24
3. Manuscript Of Hysterical Ascension 06:53
4. Aeshma Ha Dammarhu 09:32
5. Eosphoras Aurae Lunae 09:02
6. Encircling The Enochian Seven Daggers 06:29
7. Twofold Entities Of Attraction (Lucid Dream Of Sethian Tunnels) 10:01
******************************
Total playing time: 50:58



[more=Extended info]Black Hearts Records,
September 22nd.[/more]

[more=Technical info]
Input File: 13th Temple - 02 - Revenant Above The Saturnean Veils .mp3
Channels : 2
Sample Rate : 48000
Precision : 16-bit
Duration : 00:07:24.17 = 21320064 samples ~ 33312.6 CDDA sectors
File Size : 17.8M
Bit Rate : 320k
Sample Encoding: MPEG audio (layer I, II or III)
Comments :
Title=Revenant Above The Saturnean Veils
Artist=13th Temple
Album=Sol Mortuus
Tracknumber=2
Year=2020
Genre=Black Metal

[/more]

Register
(51) alikkon, BelfegoR13, Bzth, Daale, Doooomed, El_Chibo, foreverisforgotten, gena, Hell_Is_Here, HMHamster, HviteGuden, infiltrator, judaz, kim666, korovakaska, Korpse, Krosis, LVXXVL, marilin, metala, metaljosue, MMMMM, Morgoth, nadin85, noxspiritus, nsk2008, Occultas, Ostinato, Purestenchkvlt, RADeus, randumbum, ripper33, Rosen, sacrut, SaintVitus, satanist666, sethurius, SilentNidhogg, squall8fr, suseka, thenecromancer, Tino, VALERY, varlam4, Veggr, vosmidesijatye, Wail, wreak, wtk.412, yuratroll, Сварог Барг,
Oct 19 2020, 19:26:37 LIK - Avgrundspoetens Flamma (2020)
ЦИТАТА(milosdjor @ Oct 18 2020, 22:34:39) *
Anyone have Graavehlder?

Есть и этот CD, но сделать рип получится не раньше выходных.
(2) milosdjor, thenecromancer,
Oct 18 2020, 13:03:11 Molassess - Through The Hollow (2020)


*Artist: Molassess
*Album: Through The Hollow
*Year: 2020
*Genre: Psychedelic Rock
*Country: Netherlands
*Format: mp3@CBR320kbps
*Size: 153MB

Tracklist:
1. Through The Hollow 11:05
2. Get Out From Under 06:50
3. Formless Hands 10:54
4. Corpse Of Mind 04:57
5. The Maze Of Stagnant Time 04:02
6. I Am No Longer 06:20
7. Death Is 04:55
8. Tunnel 05:20
9. The Devil Lives 10:28
******************************
Total playing time: 1:04:51



[more=Extended info]Season Of Mist ‎– SOM 567LP[/more]

[more=Technical info]
Input File: 01 Through the Hollow.mp3
Channels : 2
Sample Rate : 44100
Precision : 16-bit
Duration : 00:11:05.56 = 29351108 samples = 49916.9 CDDA sectors
File Size : 26.6M
Bit Rate : 320k
Sample Encoding: MPEG audio (layer I, II or III)
Comments :
Title=Through the Hollow
Artist=Molassess
Album=Through the Hollow
Tracknumber=1
Year=2020
Genre=126

[/more]

Register
(29) acerbus, as71, Black Cat, BlackTroll, Boozer, Diflock, Froze, infiltrator, kolar666, Kuratsu, Leshiy666, marilin, metaljosue, MikaelBox, milosdjor, multizwilling, nadin85, oldvarg, Olethros, PossessedMg412, smes, soulskinner681, thenecromancer, Velmi, Wail, wolverine, xska, yuratroll, Варяг,
Oct 18 2020, 12:06:37 LIK - Avgrundspoetens Flamma (2020)
CD-Rip 320 kbps [Lame 3.93.1 Stereo]
Register
(10) acerbus, ambre, CelticSPB, Chasm, comradEnemy, frituz3, lestllk, Mencae77, milosdjor, thenecromancer,
Oct 17 2020, 19:35:58 LIK - Avgrundspoetens Flamma (2020)
Имеется данный CD в фонотеке. При случае рипану.
(5) acerbus, ambre, Chasm, Haunting, Moonshtook,
Oct 10 2020, 10:58:22 Gjendød & Múspellzheimr - Ferske Lik/Elde [split] (2020)


*Artist: Gjendød & Múspellzheimr
*Album: Ferske Lik/Elde [split]
*Year: 2020
*Genre: Black Metal | Black Metal
*Country: Norway | Denmark
*Format: mp3@CBR320kbps
*Size: 27MB

Tracklist:
Gjendød:
1. Ferske Lik 05:42
Múspellzheimr:
2. Elde 05:38
******************************
Total playing time: 11:20

[more=Extended info]Vinyl-Rip

Неистовый порыв в момент Исхода. Размен, обращённый в пепел. Воздаяние за немое покаяние...[/more]

[more=Technical info]
Input File: Múspellzheimr - 02 - Elde.mp3
Channels : 2
Sample Rate : 44100
Precision : 16-bit
Duration : 00:05:38.10 = 14909990 samples = 25357.1 CDDA sectors
File Size : 13.5M
Bit Rate : 320k
Sample Encoding: MPEG audio (layer I, II or III)
Comments :
Title=Elde
Artist=Múspellzheimr
Album=Ferske Lik / Elde
Tracknumber=02
Genre=Black Metal

[/more]

Register
(78) 1968_janeart, acerbus, alikkon, Altkiller, ambre, Andr, atavist, blacky66, Boozer, Borderline1991, Bzth, cancer1974, caro, Chasm, dermarsoran, Dmitry1977, dsp, El_Chibo, ent404, Evilded, Froze, grimoir, Hefir, Hell_Is_Here, HMHamster, Ildjarn, infiltrator, Kazoth, kim666, Kodel, Krosis, kryptor, Lanceatum, Marek, mondblut, Moonshtook, morbidangelo, MorsPulchra, nadin85, noxspiritus, nsk2008, Ostinato, peppuzzo, Premature_Devotion, raattent, RADeus, rammmirez, randumbum, Razorbladeswaltz, rimfrost, Rosen, RUSP73, sabr, sagratan, SaintVitus, satanist666, sethurius, SilentNidhogg, Sjelekval, smes, smysl, stub888, Surt, suseka, thenecromancer, VALERY, Vardlokkur, varlam4, vasiljev_sergej, Velmi, Vidder242, Vitald, vitaminoid, Wail, wreak, yuratroll, ZA670, zhol,
Aug 24 2020, 20:45:00 Precambrian - Tectonics (2020)
Отражение -
Register
(19) Black Cat, Bolitho, comradEnemy, El_Chibo, ent404, Femto, Froze, Fryz, Gurgles, infiltrator, LexMortis, Mencae77, Occultas, Olethros, robertho777, StabWound, suseka, WolfFenrir, Авел,
Aug 22 2020, 12:59:56 Vorkuta - ...Where Still Darkness Dwells [compilation] (2018)


*Artist: Vorkuta
*Album: ...Where Still Darkness Dwells [compilation]
*Year: 2018
*Genre: Black Metal
*Country: Hungary
*Format: mp3@CBR320kbps
*Size: 120MB

Tracklist:
1. I Am The Warrior Of Past 04:27
2. Remords Posthume 03:04
3. Cryptstench 03:47
4. When The Ravens Dance In The Nightsky 04:05
5. Seeds Of Storm 06:59
6. Malicious Winds 07:57
7. Black Winter 05:20
8. Journey In The Night 07:11
9. Prophecies 06:25
10. Warriors Of Past 01:44
******************************
Total playing time: 50:59



[more=Extended info]Metal Ör Die,
February 18th.

Компиляция выпущена в ознаменование 15-й годовщины дебютной демозаписи Vorkuta "...Where Only Darkness Dwells".

Ремастеринг записи выполнил WL Rabenaas, бессменный гитарист венгерского культа Witchcraft. Рекомендации![/more]

[more=Technical info]
Input File: Vorkuta - ...Where Still Darkness Dwells - 03 Cryptstench.mp3
Channels : 2
Sample Rate : 44100
Precision : 16-bit
Duration : 00:03:46.57 = 9991825 samples = 16992.9 CDDA sectors
File Size : 9.06M
Bit Rate : 320k
Sample Encoding: MPEG audio (layer I, II or III)
Comments :
Title=Cryptstench
Artist=Vorkuta
Album=...Where Still Darkness Dwells
Tracknumber=3
Year=2018

[/more]

Register
(77) -=Hass=-, 1968_janeart, aimtoknow, Alpha_Prime, andeimon, Ash_1980, atavist, Bekkerev, BERZERK, canadaspaceman, cesar, ChaosArcana, chipsgott, Constantinus I, dermarsoran, ent404, Evilded, Hefir, Hell_Is_Here, Ildjarn, Infidel, infiltrator, Ingvar, kauyumari, kim666, Korpse, kranger, KVRT, Leolomb, maringlen, MikaelBox, mirotvorets, Moonshtook, morbidangelo, multizwilling, Nerevar, nsk2008, Occultas, Olethros, Ostinato, Pinhead666, randumbum, Raw1488, Razorbladeswaltz, recber, RENыч, Reverend, ripper33, Rosen, Rudolfo_Metal, sacrut, SaintVitus, satanist666, scorn33, sethurius, Skog1349, Slavas, SS2998, stub888, supremo, Surt, suseka, Terrorizer, thenecromancer, the_cleanser, VALERY, varlam4, vasiljev_sergej, Velmi, Vitald, vovenom, Wail, wanderer73, wreak, ZambuL, Авел, Нигилист,
Aug 22 2020, 12:38:54 Oldowan Gash - Hubris Unchained (2020)


*Artist: Oldowan Gash
*Album: Hubris Unchained
*Year: 2020
*Genre: Black Metal
*Country: United States
*Format: mp3@CBR320kbps
*Size: 99MB

Tracklist:
1. Mysteries Of Our Redemption 06:10
2. Blinding Moon 05:32
3. Inventing Armageddon 06:09
4. Feral Heart 06:25
5. Lasso Of Fate 05:37
6. Baffling Territory 04:47
7. Fortress Of Ignorance 07:27
******************************
Total playing time: 42:06



[more=Extended info]Drakkar Productions,
July 31st.[/more]

[more=Technical info]
Input File: 03 - Inventing Armageddon.mp3
Channels : 2
Sample Rate : 44100
Precision : 16-bit
Duration : 00:06:08.77 = 16262669 samples = 27657.6 CDDA sectors
File Size : 14.8M
Bit Rate : 320k
Sample Encoding: MPEG audio (layer I, II or III)
Comments :
Title=Inventing Armageddon
Artist=Oldowan Gash
Album=Hubris Unchained
Tracknumber=3/7
Year=2020
Genre=Black Metal

[/more]

Register
(79) 1968_janeart, acerbus, aimtoknow, AlexSmith, alikkon, Alpha_Prime, Ash_1980, atavist, Bekkerev, BERZERK, caro, cesar, Chasm, Constantinus I, Coroner, dermarsoran, El_Chibo, ent404, Evilded, grimoir, Grogro, Hefir, Infidel, infiltrator, Ingvar, judaz, kauyumari, kim666, kranger, KVRT, Leolomb, Mares, maringlen, mirotvorets, Moonshtook, morbidangelo, multizwilling, Nerevar, nsk2008, Occultas, oldvarg, Olethros, Ostinato, Pinhead666, randumbum, Raw1488, Razorbladeswaltz, recber, RENыч, ripper33, robertho777, Rosen, RUDACHUR, sacrut, SaintVitus, satanist666, scorn33, sethurius, Shadechaser, SilentNidhogg, Skog1349, Slavas, squall8fr, SS2998, stub888, supremo, Surt, suseka, Taragorm, thenecromancer, VALERY, varlam4, vasiljev_sergej, Vitald, vovenom, Wail, wreak, Авел, Нигилист,
Aug 19 2020, 08:13:30 Sørgelig

Genre:
Black Metal
Lyrical Theme(s):
Darkness, Misanthropy, Nihilism
Origin:
Greece (Volos, Thessaly)
Formed In:
2017
Status:
Active
Current Line-Up:
Odious - Vocals (Isolert)
Έκπτωτος - Guitars (Insanity Cult)
NCRVZRS - Guitars
Reactive - Bass (Isolert, Leeches, Human Serpent (Live), Betrayed, Voidness, Frigidum Lacrima)
N.D. - Drums, Guitars, Additional Vocals (Dødsferd, Grab, Isolert, Leeches, Nihilsect, Sores, Insanity Cult (Live), Sordid Dogs, Voidness, Belief, Convicted, Nefarious Dusk, Y)

Discography:
Sørgelig - Forever Lost [ep] - 2017
Sørgelig - Apostate [full-length] - 2018
Sørgelig - Devoted To Nothingness [ep] - 2019
Sørgelig - We, The Oblivious [full-length] - 2019
Sørgelig - Sørgelig [ep] - 2020
Sørgelig & Akantha & Nimbifer & Hajduk - Ruins Of Humanity [split] - 2020

*****
Official Site:
Encyclopaedia Metallum
(3) Borderline1991, judaz, thenecromancer,
Aug 18 2020, 14:37:08 Ieschure - Cold Stars Of Eternity [ep] (2020)
ЦИТАТА(garmonbozia @ Aug 18 2020, 16:23:39) *
Sortilegia?

Конечно, демо-записями и "Arcane Death Ritual" не грешно обмазываться периодически. 25.gif
(2) infiltrator, Occultas,
Aug 18 2020, 14:14:25 Ieschure - Cold Stars Of Eternity [ep] (2020)
Непревзойдёнными образцами эталонных One-woman Project в Black Metal останутся финский Anguished и шведский Turdus Merula (особенно альбом "Herbarium").
(3) Alexis The Best, infiltrator, Occultas,
Aug 9 2020, 13:26:56 Käärmekristus (7) Borderline1991, DarkHorde, infiltrator, Necromag, satanist666, Tarkron, thenecromancer,
Jul 23 2020, 16:39:47 Ayr - The Dark (2020)
Отражение -
Register
(11) 1968_janeart, comradEnemy, Hell_Is_Here, infiltrator, rimfrost, SilentNidhogg, suseka, system36, thenecromancer, Veggr, ZambuL,
Jul 23 2020, 16:35:47 Spirit Possession - Spirit Possession (2020)
Отражение -
Register
(24) 1968_janeart, boby9052, Bzth, DarkHorde, desekrator, Hell_Is_Here, infiltrator, Konst, kozura, madera, marilin, nadin85, Occultas, Olethros, pahail, PIOJANK, rabindranad, robertho777, Rudolfo_Metal, Spork, supremo, suseka, thenecromancer, troll_swamp,

278 Pages V   1 2 3 > » 
- Lo-Fi Version Support form
Copyrights and abuse reports form
Time is now: 24th January 2021 - 00:20:32