Welcome Guest ( Log In | Register )

История благодарностей участнику nomadgg1 ::: Спасибо сказали: 352 раз(а)
Дата поста: В теме: За сообщение: Спасибо сказали:
Jan 16 2020, 17:44:37 Elfika - Secretum Secretorum (2020)
[youtube]GHViJIEsEoI[/youtube]
Эльфийка...
(1) ace73pq,
Jan 16 2020, 17:14:02 Beastial Piglord - Pulling A Thread From The Fabric Of The Universe (2019)
что это? и главное, зачем?
(1) FlammenTod666,
Dec 13 2019, 13:55:53 Unreality In One's Self - A Man In Shadows (2019)


*Artist: Unreality In One's Self
*Album: A Man In Shadows
*Year: 2019
*Genre: Atmospheric Black Metal
*Country: Greece
*Format: mp3@VBR245kbps
*Size: 72MB

Tracklist:
1. A Man In Shadows 04:00
2. Lovers In The Dark 04:44
3. Somewhere I've Buried My Soul 08:01
4. The Old Bar 02:35
5. Every Tomorrow It's Getting Darker 07:02
6. Hater Of The Sun 05:25
7. Bleak 05:58
8. Another Gray Day Of Winter 04:30
******************************
Total playing time: 42:15



[more=Technical info]
Input File: 06 Hater Of The Sun.mp3
Channels : 2
Sample Rate : 44100
Precision : 16-bit
Duration : 00:05:25.96 = 14374616 samples = 24446.6 CDDA sectors
File Size : 10.8M
Bit Rate : 265k
Sample Encoding: MPEG audio (layer I, II or III)
Comments :
Title=06 Hater Of The Sun
Artist=Unreality In One's Self
Album=A Man In Shadows (2019)
Tracknumber=6
Year=2019

[/more]

Register
(17) aleon, ASkyThatBurns, kim666, metala, morbidangelo, Olethros, Rosen, senecazm, sergsazan, SilentNidhogg, tim47, tOmV, VALERY, varlam4, vasiljev_sergej, ZloY_GreY, Например,
Dec 13 2019, 13:39:50 Hollowing - Havenless [ep] (2019)


*Artist: Hollowing
*Album: Havenless [ep]
*Year: 2019
*Genre: Progressive Black Metal
*Country: South Africa
*Format: mp3@CBR320kbps
*Size: 69MB

Tracklist:
1. Flood 07:21
2. Chaos Bolt 06:07
3. Hound 04:31
4. The Dark World 06:14
5. Indelible 05:54
******************************
Total playing time: 30:07




[more=Technical info]
Input File: 01. Flood.mp3
Channels : 2
Sample Rate : 44100
Precision : 16-bit
Duration : 00:07:21.81 = 19483689 samples = 33135.5 CDDA sectors
File Size : 17.7M
Bit Rate : 321k
Sample Encoding: MPEG audio (layer I, II or III)
Comments :
Title=Flood
Artist=Hollowing
Album=Havenless
Tracknumber=1
Year=2019

[/more]

Register
(10) ASkyThatBurns, metala, morbidangelo, Olethros, robertho777, Rosen, satanist666, SilentNidhogg, VALERY, vasiljev_sergej,
Dec 13 2019, 13:14:00 Ganondorf - Ancient Ruins (2019)


*Artist: Ganondorf
*Album: Ancient Ruins
*Year: 2019
*Genre: Black Metal
*Country: Italy
*Format: mp3@CBR320kbps
*Size: 58MB

Tracklist:
1. He Who Walks Through The Ruins... 00:57
2. Ancient Ruin 03:05
3. Cursed Bells 03:03
4. Ancestral Journey 03:34
5. Primordial Scream 04:35
6. Thousand Holocausts 01:59
7. Ganondorf 07:08
******************************
Total playing time: 24:21




[more=Technical info]
Input File: 02 - Ancient Ruin.mp3
Channels : 2
Sample Rate : 44100
Precision : 16-bit
Duration : 00:03:05.87 = 8197043 samples = 13940.5 CDDA sectors
File Size : 7.75M
Bit Rate : 334k
Sample Encoding: MPEG audio (layer I, II or III)
Comments :
Title=Ancient Ruin
Artist=Ganondorf
Album=Ancient Ruins
Tracknumber=2
Year=2019
Genre=Black Metal

[/more]

Register
(14) ASkyThatBurns, atavist, Ildjarn, isvili, kim666, morbidangelo, Olethros, Ostinato, Rosen, satanist666, SilentNidhogg, stub888, VALERY, vasiljev_sergej,
Dec 10 2019, 18:14:21 Fiat Noctum - Från Forna Minnen (2019)
Register
(2) Evilded, SilentNidhogg,
Dec 10 2019, 11:09:50 Fiat Noctum - Från Forna Minnen (2019)


*Artist: Fiat Noctum
*Album: Från Forna Minnen
*Year: 2019
*Genre: Black Metal
*Country: Sweden
*Format: mp3@VBR245kbps
*Size: 60MB

Tracklist:
1. Ett Vintrarike Fött 04:36
2. Där Skymning Råder 06:20
3. Lida 05:52
4. Visdom Av Mörkrets Arv 06:40
5. As The Deathvoid Speaks 05:37
6. Of Human Flesh And Devils Blood 05:04
******************************
Total playing time: 34:09




[more=Technical info]
Input File: 01 - Ett vintrarike fott.mp3
Channels : 2
Sample Rate : 44100
Precision : 16-bit
Duration : 00:04:36.58 = 12197354 samples = 20743.8 CDDA sectors
File Size : 9.24M
Bit Rate : 267k
Sample Encoding: MPEG audio (layer I, II or III)
Comments :
Title=Ett vintrarike fött
Artist=Fiat Noctum
Album=Från Forna Minnen
Tracknumber=01
Year=2019
Genre=Black Metal

[/more]

Register
(23) alikkon, craP_cillA, Hell_Is_Here, Ildjarn, infiltrator, kim666, Korpse, Occultas, Olethros, Ostinato, Rosen, satanist666, Sjelekval, stub888, suseka, tim47, VALERY, varlam4, vasiljev_sergej, Victim of fate, vovenom, wreak, zhol,
Dec 8 2019, 16:24:02 Sxwxp - Trans Am Jams (2019)
[youtube]hia3rJ-HiIg[/youtube]
(1) boby9052,
Dec 2 2019, 12:54:00 Redscale - Under The Spell [ep] (2016)


*Artist: Redscale
*Album: Under The Spell [ep]
*Year: 2016
*Genre: Heavy/Stoner Rock
*Country: Germany
*Format: mp3@CBR320kbps
*Size: 24MB

Tracklist:
1. Mojo
2. Black Heart
3. The Tome
******************************
Total playing time: 10:28



[more=Technical info]
Input File: 01 - Mojo.mp3
Channels : 2
Sample Rate : 44100
Precision : 16-bit
Duration : 00:03:38.08 = 9617416 samples = 16356.1 CDDA sectors
File Size : 8.82M
Bit Rate : 324k
Sample Encoding: MPEG audio (layer I, II or III)
Comments :
Title=Mojo
Artist=Redscale
Album=Under the Spell EP
Tracknumber=1
Year=2016

[/more]

Register
(1) Olethros,
Dec 2 2019, 12:01:48 Redscale - Set In Stone (2017)


*Artist: Redscale
*Album: Set In Stone
*Year: 2017
*Genre: Heavy/Stoner Rock
*Country: Germany
*Format: mp3@CBR320kbps
*Size: 75MB

Tracklist:
1. The Ascent
2. Olympus
3. False Light
4. Atlas
5. The Collapse
6. Hypnos
7. Prometheus
8. The Descent
9. Beast from Below
******************************
Total playing time: 32:25



[more=Technical info]
Input File: 08 - The Descent.mp3
Channels : 2
Sample Rate : 44100
Precision : 16-bit
Duration : 00:01:45.38 = 4647170 samples = 7903.35 CDDA sectors
File Size : 4.27M
Bit Rate : 324k
Sample Encoding: MPEG audio (layer I, II or III)
Comments :
Title=The Descent
Artist=Redscale
Album=Set In Stone
Tracknumber=8
Year=2017
Genre=Heavy Rock/Stoner

[/more]

Register
(1) Olethros,
Dec 2 2019, 11:45:14 Redscale - Feed Them To The Lions (2019)


*Artist: Redscale
*Album: Feed Them To The Lions
*Year: 2019
*Genre: Heavy/Stoner Rock
*Country: Germany
*Format: mp3@CBR320kbps
*Size: 106MB

Tracklist:
1. Feed Them to the Lions
2. Hydra
3. Unstuck in Time
4. The Hard Rain
5. Bells of War
6. Cold Dawn
7. Ashes
8. Phoenix
******************************
Total playing time: 46:17



[more=Technical info]
Input File: 03 - Unstuck in Time.mp3
Channels : 2
Sample Rate : 44100
Precision : 16-bit
Duration : 00:02:34.60 = 6818036 samples = 11595.3 CDDA sectors
File Size : 6.24M
Bit Rate : 323k
Sample Encoding: MPEG audio (layer I, II or III)
Comments :
Title=Unstuck in Time
Artist=Redscale
Album=Feed Them to the Lions
Tracknumber=03/08
Year=2019
Genre=79

[/more]

Register
(2) avkruchinin, Olethros,
Nov 22 2019, 19:17:41 Shadecrown - Riven (2019)
[youtube]-XU37KYbBxs[/youtube]
(1) KVRT,
Nov 22 2019, 18:20:41 Battlesword - And Death Cometh Upon Us (2019)
клип лучше не смотреть, смешно становится
(1) FlammenTod666,
Mar 13 2019, 16:52:59 Csejthe - L'horreur De Čachtice (2019)
Slamming Black
(1) garmonbozia,
Mar 1 2019, 08:54:54 Käärmekristus - Venite Ad Me, Satanas (2017)
[youtube]xZdnKn4_PaU[/youtube]
(1) Orkkh,
Jan 20 2019, 18:50:04 Immense Suffering - A Disgusting Return (2019)
[youtube]xkWUB17KVEo[/youtube]
(1) artscald,
Jan 6 2019, 18:11:13 Megalith Grave - Invocations In Black Nostalgia (2018)
[youtube]gqdpdyNxVUE[/youtube]
(3) Necromag, suseka, vovenom,
Mar 23 2018, 14:17:28 Profane Burial - The Rosewater Park Legend (2018)
[youtube]Q6iqlW3rGU0[/youtube]
(3) MMMMM, Sanc, Sanctus,
Mar 23 2018, 14:11:03 Desdemonia - Anguish (2018)
[youtube]BvfV52b1v1o[/youtube]
(1) nunim,
Mar 22 2018, 16:53:10 Freedom Hawk - Beast Remains (2018)
[youtube]Y0w2wGWpfz0[/youtube]
(1) djsema4,
Mar 22 2018, 16:42:54 Ungfell - Mythen, Mären, Pestilenz (2018)
[youtube]V7QzcLqs4vQ[/youtube]
(1) artscald,
Mar 22 2018, 16:37:09 Cardinal Roark - Tales From The Darkside (2018)
[youtube]graA5PzQDAk[/youtube]

[youtube]kr67jCQ8B4c[/youtube]
(2) AHBAnep, artscald,
Mar 22 2018, 16:26:30 Chainwreck - Fire Walks The Water (2018)
[youtube]regOryk8w_U[/youtube]
(1) djsema4,
Mar 22 2018, 16:24:28 Nale - Death. Skulls. Satan. (2018)
[youtube]xgKMmXVhgDI[/youtube]
(3) -=Lion=-, AHBAnep, DenisKov,
Mar 22 2018, 16:16:52 Anima - Anima (2018)
[youtube]fa4QW7huMyA[/youtube]
(1) AHBAnep,

9 Pages V   1 2 3 > » 
- Lo-Fi Version Support form
Copyrights and abuse reports form
Time is now: 21st February 2020 - 13:43:59