Welcome Guest ( Log In | Register )

История благодарностей участнику dasein9 ::: Спасибо сказали: 19369 раз(а)
Дата поста: В теме: За сообщение: Спасибо сказали:
Dec 23 2012, 08:23:44 Обсуждаем скоростной Thrash Metal
Bulldozer
Voor
Damnation (Can)
Voivod - Rrröööaaarrr (1986)
Exodus
Morbid Saint
(1) Anhra Mainyu,
Dec 19 2012, 17:25:23 Avsked - Livets Ironi (2010)


*Artist: Avsked
*Album: Livets Ironi
*Year: 2010
*Genre: Raw Depressive Black Metal
*Country: Germany
*Format: mp3@CBR320kbps
*Size: 95MB

Tracklist:
1. Untitled 00:34
2. Untitled 09:10
3. Untitled 05:00
4. Untitled 07:50
5. Untitled 11:32
6. Untitled 07:35
******************************
Total playing time: 41:41

[more=Extended info]


Input File: 05 - Untitled.mp3
Channels : 2
Sample Rate : 44100
Precision : 16-bit
Duration : 00:11:32.04 = 30518832 samples = 51902.8 CDDA sectors
File Size : 27.7M
Bit Rate : 320k
Sample Encoding: MPEG audio (layer I, II or III)
Comments :
Title=Untitled
Artist=Avsked
Album=Livets Ironi
Tracknumber=5
Year=2010
Genre=Raw Depressive Black

[/more]

Register
(39) 0x13, 1984, AwaitingDawn, Battaleon, Blut aus Nord, Constantinus I, craP_cillA, DarkHorde, ddarkthrone, exeyer, kefka, kim666, Koscheyushka, Lena, lestllk, NachtWulf, princeshr, QoroXx, RUSP73, Sathana, severina, shial, SIAVASH, Sjelekval, SSBandera, stone88, stub888, the_cleanser, Thunderbird, tont, VALERY, varlam4, vasiljev_sergej, Wotanwatch, ZA670, ZambuL, Абигор, Госпромнадзор, металлист,
Dec 11 2012, 16:47:52 Furia - Grudzień Za Grudniem (2009)
CD-rip 320kbps lame 3.93.1 + scans
Register

(5) acerbus, Black Cat, Foghead, Kazoth, vasiljev_sergej,
Dec 10 2012, 14:16:08 InThyFlesh - Claustrophobia (2011)
CD-rip 320kbps lame 3.93.1
Register
(17) Alexis The Best, artscald, AwaitingDawn, cesar, ddarkthrone, GAS, gusto24191, KKK1488, LastSupper, lestllk, rimfrost, RUSP73, satanist666, sethurius, Taragorm, valafar, varlam4,
Dec 10 2012, 09:25:38 Буйство смерти, преподносит скорбь
Unholy Finland

Unholy

[youtube]Nf_VMxuKj1E[/youtube]
(2) Alex5, dantist,
Dec 9 2012, 17:54:48 Christicide - Christicide (2007)
CD-rip 320kbps lame 3.93.1 + covers (re-release 2010)
Register
(7) fftn, milosdjor, Nefastvm, Spunkynut, varlam4, vov7609, zlvd,
Dec 1 2012, 21:33:02 Urfaust - Ritual Music For The True Clochard [best of/compilation] (2012)
320kbps lame 3.93.1 + scans
Register
(19) Blackknot, Chasm, current, DarkHorde, DERANGED, Forest Silence, GoatFucker, Lord Noctua, metalfanatic666, milosdjor, Razorbladeswaltz, rom666, Sarcis, ShmiT, svndvst, Tha, Ulver1488, varg-38ru, varlam4,
Nov 27 2012, 18:30:23 Winter Of Apokalypse - Solitary Winter Night (2005)
CD-rip 320kbps lame 3.93.1 + scans
Register

(3) dermarsoran, nsmetalhead, toly1917,
Nov 25 2012, 17:11:12 Angantyr - Forvist (2012)
заменил на 320 lame 3.93.1 flac-rip
(1) andeimon,
Nov 24 2012, 14:55:07 Angantyr - Forvist (2012)


*Artist: Angantyr
*Album: Forvist
*Year: 2012
*Genre: Black Metal
*Country: Denmark
*Format: mp3@CBR320kbps
*Size: 129MB

Tracklist:
1. Lænket 11:28
2. I Forfædres Fodspor 06:07
3. Vemods Hjemstavn 07:40
4. Forvist 06:30
5. Fælles Fjende 07:08
6. Stille Skarpe Knive 09:06
7. Skovens Egne Våben 09:15
******************************
Total playing time: 57:14



Register
(149) 0x13, 1691577, A.L.Rapsod, a1241861, An225, andeimon, andivi, Anhra Mainyu, aorta2, arioch82, artscald, asgaroth, assoass, Atrus, AvantKitty, Barricade, Beazth, berserkr, bka, Blut aus Nord, Buregon, cancer1974, CelticSPB, Constantinus I, Corpse_Of_The_Christ, crackedbrain, craP_cillA, CRUNCH, CryptOn, Daarkan, DarkHorde, Darkthrone85, Darkthronefoad, ddarkthrone, demether, demonosz, DERANGED, doomTemplar, Dr.Grind Oim, Emhyr var Emreis, Eugenio, Evrom, fabeldyr, featb, Fess, Frees, Fryz, fuck3r, GAS, gena, gusto24191, Hadelik, Hell_Is_Here, Hroedmar, Hswhhh, igore2911, Ildjarn, infiltrator, IzverGOD, Jurmagund, kasart, kefka, Koscheyushka, Kwaad, Langemark, lestllk, Lord Noctua, LordSancho666, lucifix, MEmethuselah, metalfanatic666, Mirddin, MMMMM, Molotov, Moonshtook, morum, murian, nannoblack, NappyRob, neoatheist, nofate, Novemberrr, nsmetalhead, Olguard, Ominus_Nergal, Orgasmik, Peikko, Premature_Devotion, princeshr, QuadenThyrane, qzmit4, raaf, Radwind, rammmirez, rammstein888, Razorbladeswaltz, RENыч, rimfrost, Roman26, Ruben, RUDACHUR, RUSP73, sandr666, satanist666, Sathana, ShmiT, SIAVASH, Sjelekval, skeletron215, smes, sperminator, spiritualdecay666, SS2998, Strygaldwir, stub888, Taragorm, targonium, tephros_76, Thunderbird, Tiwaz, toly1917, tont, Typhoid, Typhon88, v.v.m, VALERY, varg-38ru, varlam4, vasiljev_sergej, VECTOR, Vidder242, vobiscum, waldemardr, Wormtongue, Wotanwatch, wreak, xska, Xzor69, ZambuL, zemlemer, zlvd, Zoloft, Абигор, Варонъ, Госпромнадзор, Лед, СВК, Смусмумбрик, Шанкара,
Nov 24 2012, 13:53:09 Finsterforst - Rastlos (2012)


*Artist: Finsterforst
*Album: Rastlos
*Year: 2012
*Genre: Folk/Viking Metal
*Country: Germany
*Format: mp3@VBR265kbps
*Size: 151MB

Tracklist:
1. Nichts als Asche 13:45
2. Fremd 12:46
3. Am Scheideweg 01:30
4. Stirbt Zuletzt 10:41
5. Ein Lichtschein 14:09
6. Rast 02:02
7. Flammenrausch 22:57
******************************
Total playing time: 1:17:50



Register
(98) -=Lion=-, 0x13, A.L.Rapsod, aaaaaaaaaaaz, andreylogan, aorta2, Bas®, Blackor, Boozer, Buregon, Cartman223, chon, DAGHIANUS, demether, designratc, Devildance, Dim@, Dragde, Dunkelgrafen, Emhyr var Emreis, Fatalv, Fess, Feuerrader, Flipjack, fuck3r, garretje, GAS, gwar, Hadelik, Hedgehog666, Hunnerkongen, Indamage, ironyserg, ivreactor, IzverGOD, johnbutoff, Jurmagund, kakha_k, Kwaad, lawronchik, matias, Mogozoz, Moonshtook, Mplast, nannoblack, NappyRob, neoatheist, Old Vyaine, oldvarg, QuadenThyrane, Radek, Raziel, Reverend, ripper33, Ruben, RUDACHUR, RUSP73, SAPOGi, satanist666, Sathana, savatage13, Scuns, Sethan, Shadowcry, simonitro, spiritualdecay666, spldead, SS2998, StabWound, Sterh, StoneTemple, tamerz, TeamatSE, Thunderbird, toboo, tont, Typhoid, v.v.m, VALERY, varlam4, varyag, vasilisk, Victim of fate, Virgil, vobiscum, wanderer73, waryag, Wolfera, wreak, Xor, xska, ZambuL, zhw8tz1, Варонъ, Госпромнадзор, Луч, скептик, Смусмумбрик,
Oct 31 2012, 16:40:51 Hell Militia - Jacob's Ladder (2012)
FLAC-rip 320kbps lame 3.93.1
Register
(74) 1691577, acerbus, andeimon, Bashful, Black Cat, Chasm, Constantinus I, D.D.A.M.M., DarkHorde, ddarkthrone, Dominuse, dsp, egor_aka_vile, Eichmann, Eugenio, Fess, GrindCrusher, Growlpapa, Hell_Is_Here, Hostis, Igor Filth, ironman2002, johnbutoff, kefka, Konst, Lcfiend, Lena, lestllk, Lord Noctua, lordsloth, lucifix, masdad, neoatheist, nsmetalhead, Occultas, Poison666, Premature_Devotion, RADeus, raincatz, rammstein888, ripper33, RUSP73, sandr666, Sarcis, satanist666, Sathana, sethurius, ShmiT, SilentNidhogg, sperminator, spiritualdecay666, stone88, stub888, svndvst, Thunderbird, Tino, Typhoid, Ugly13, Urfeuer, varlam4, vasiljev_sergej, Virgil, vosmidesijatye, vov7609, Vrolok, Winter Funeral, Xor, xska, yuratroll, Абигор, Варонъ, добрыйКот, Лед, Шанкара,
Oct 31 2012, 04:58:28 Ofermod - Thaumiel (2012)


*Artist: Ofermod
*Album: Thaumiel
*Year: 2012
*Genre: Black Metal
*Country: Sweden
*Format: mp3@VBR262kbps
*Size: 92MB

Tracklist:
1. Sisters of Rapture and Pestilence 07:42
2. Black Gate 05:40
3. Calling of Setnacht: Twofold Triunity 06:33
4. Undead Moon 05:17
5. Prayers Unto Warped Eternities 05:15
6. Chôshekh Ên Sôf 06:05
7. Chained to Redemption 06:09
8. Via Noctis: Veil of Gargophias 05:04
******************************
Total playing time: 47:45



Register
(118) 0x13, 1691577, Abomin, andrey010577, aorta2, aosoth, arioch82, Atr, Barricade, bka, bologn, Chasm, Constantinus I, crackedbrain, craP_cillA, CUNToos, D.D.A.M.M., Daemoniacus, DarkHorde, Darkthrone85, Darkthronefoad, Darth Alvasarra, ddarkthrone, DOKTORBLACK88, doomTemplar, Emhyr var Emreis, Fess, fuck3r, furia666, GTrooper, Hadelik, Hell_Is_Here, Helvete666, Henmik, Ildjarn, Infidel, iriktaru, johnbutoff, kefka, killboyhead, Kwaad, kyrkovisan, LastSupper, lexuz88, madcags, marilin, MEmethuselah, MMMMM, mondblut, NachtWulf, nannoblack, Narasimha, neoatheist, nsmetalhead, nugorod, Orgasmik, Poison666, Premature_Devotion, princeshr, Psychostatusrem, QoroXx, QuadenThyrane, Radwind, rammstein888, RENыч, Reverend, ripper33, Robert0815, Rootwen, RUSP73, sandr666, Saretth, satanist666, Sathana, Scuns, Sethan, sethurius, ShmiT, SIAVASH, SilentNidhogg, Sjelekval, smes, soulskinner681, spiritualdecay666, StabWound, Stringer, Strygaldwir, stub888, Taragorm, thornfields, Thunderbird, Tino, tont, Typhoid, Typhon88, Ugly13, Urfeuer, User123, VALERY, varg-38ru, varlam4, vasiljev_sergej, Vidder242, voldemar13, vov7609, waldemardr, Wolftribes, wreak, wtk.412, xska, Xzor69, yuratroll, ZA670, zlvd, Абигор, Варяг, Келебрин, Лед,
Oct 30 2012, 22:07:04 Upir - Possession [ep] (2012)


*Artist: Upir
*Album: Possession [ep]
*Year: 2012
*Genre: Black Metal
*Country: Poland
*Format: mp3@CBR224kbps
*Size: 36MB

Tracklist:
1. Ritual I 02:14
2. The Blinds of Winter Storems 04:03
3. Rats 04:36
4. Satanic Curse 04:21
5. Possession 04:45
6. Ritual II 02:13
******************************
Total playing time: 22:12

Register
(28) 0x13, artscald, avantgardx, Boozer, cesar, Darkthrone85, Darkthronefoad, Fess, Forrrrest, Hell_Is_Here, Helvete666, Ildjarn, kefka, Koscheyushka, lestllk, milosdjor, Reverend, satanist666, Sathana, SIAVASH, Thunderbird, tont, VALERY, varlam4, vasiljev_sergej, Wolftribes, wreak, Абигор,
Oct 30 2012, 21:57:10 Witchcraft - Hegyek Felettem (2012)


*Artist: Witchcraft
*Album: Hegyek Felettem
*Year: 2012
*Genre: Black Metal
*Country: Hungary
*Format: mp3@CBR320kbps
*Size: 81MB

Tracklist:
01. Istentelen 03:49
02. Megittam A Vért 04:14
03. Arcomon Gyűlölettel 04:28
04. Hegyek Felettem 04:27
05. Összeesküvés 04:04
06. Fekete És Hideg 05:11
07. Csak A Fagy 03:51
08. Vörös Köd 02:42
******************************
Total playing time: 32:46



[more=Extended info]FLAC-rip lame 3.93.1


Input File: 01.Istentelen.mp3
Channels : 2
Sample Rate : 44100
Precision : 16-bit
Duration : 00:03:49.33 = 10113321 samples = 17199.5 CDDA sectors
File Size : 9.18M
Bit Rate : 320k
Sample Encoding: MPEG audio (layer I, II or III)
Comments :
Title=Istentelen
Artist=Witchcraft
Album=Hegyek felettem
Tracknumber=1

[/more]

Register
(63) 0x13, Anhra Mainyu, artscald, Barricade, Blut aus Nord, Borderline1991, burzum1983, Constantinus I, DarkHorde, Darkthronefoad, ddarkthrone, demonosz, diment_al, Dunkelgrafen, Eichmann, Emhyr var Emreis, Fess, Forrrrest, fuck3r, garml2, GAS, Haunting, Hell_Is_Here, igore2911, Ildjarn, ironyserg, kefka, kim666, Koscheyushka, lestllk, mondblut, Nerevar, nsmetalhead, Ostinato, PoohCunt, QoroXx, raaf, RADeus, Reverend, RUDACHUR, RUSP73, sandr666, Sathana, Scuns, SIAVASH, smes, Spunkynut, stub888, svargodin, the_cleanser, Thunderbird, tont, Typhoid, VALERY, varg-38ru, varlam4, vasiljev_sergej, Vidder242, waldemardr, Wolftribes, wreak, Абигор, Антихрист,
Oct 28 2012, 09:38:10 Manzer - Pictavian Invasion In Asia [live] (2012)


*Artist: Manzer
*Album: Pictavian Invasion In Asia [live]
*Year: 2012
*Genre: Black/Thrash Metal
*Country: France
*Format: mp3@VBR218kbps
*Size: 125MB

Tracklist:
01. Hell Zheimer 04:03
02. Scatological Eschatology 04:20
03. Tarze A crvàe 03:27
04. Attack With Spell (Abigail cover) 04:32
05. Tuour De Draules 04:12
06. Fiendish Detestation 03:05
07. Come To The Sabbath (Mercyful Fate cover) 05:18
08. Demoure enfrnàu 03:32
09. Analcoholic Rage 04:56
10. Acid Queen (Venom cover) 03:19
11. Pictavian Bastards 03:13
12. Scatological Eschatology 03:50
13. Tarze A crvàe 03:16
14. Chétie Jhenope 03:19
15. Prowler From Hell 03:16
16. Attack With Spell (Abigail cover) 03:48
17. Tuour De Draules 04:07
18. The Metal Side 04:06
19. Acid Queen (Venom cover) 02:14
20. Ace Of Spades (Motörhead cover) 02:50
21. Pictavian Bastards 03:21
******************************
Total playing time: 1:18:04

[more=Extended info]This record is a selection of songs that MANZER performed during an Asian tour in November 2010 (Thailand, Bangladesh, Sri Lanka). 21 tracks, 80 minutes playing time. In Bangkok, the Abigail one was performed by Yasuyuki (Abigail) himself on vocals. The 16 pages booklet shows many photos from the trip and gigs. The cover art has been designed by Sickness666. Limited to 500 copies.[/more]
Register
(11) acerbus, artscald, ddarkthrone, infiltrator, marilin, MEmethuselah, Pinhead666, RUSP73, satanas189, uk82, varlam4,
Oct 26 2012, 17:08:11 Fornicatus - Razorsunday [best of/compilation] (2012)
ЦИТАТА(shadow666 @ Oct 26 2012, 19:57:52) *
а это точно компиляция? вроде как все треки новые...на полноформат похоже) или это странная компиляшка такая...

на Misanthropic Art написано "Unreleased old Stuff Compilation album"
короче прежде неизданный материал
(1) shadow666,
Oct 25 2012, 08:57:11 Fornicatus - Razorsunday [best of/compilation] (2012)


*Artist: Fornicatus
*Album: Razorsunday [best of/compilation]
*Year: 2012
*Genre: Depressive Black Metal
*Country: Finland
*Format: mp3@CBR320kbps
*Size: 132MB

Tracklist:
1. Razorsunday (Part I) 09:40
2. Razorsunday (Part II) 10:54
3. Lifeless 06:06
4. Winternight Depression 06:15
5. For I Am Nailed 05:26
6. Under The Banners of Misery 07:33
7. I Walk The Life In Depression 10:26
******************************
Total playing time: 56:20



[more=Extended info]lame 3.93.1 + scans


Input File: 03.Lifeless.mp3
Channels : 2
Sample Rate : 44100
Precision : 16-bit
Duration : 00:06:06.61 = 16167633 samples = 27496 CDDA sectors
File Size : 14.7M
Bit Rate : 320k
Sample Encoding: MPEG audio (layer I, II or III)
Comments :
Title=Lifeless
Artist=Fornicatus
Album=Razorsunday
Tracknumber=3

[/more]
Register
(54) Akbarz, andivi, Aphrax, artscald, autumnplanet7, AwaitingDawn, bka, blacky66, craP_cillA, ddarkthrone, doomTemplar, Endymion, exeyer, foad, GAS, Ildjarn, Indamage, infiltrator, Kazoth, kefka, komornik797, lestllk, marilin, Metalostalin, Misanthrope@, NachtWulf, Nadja, Nefastvm, princeshr, redp, Reverend, rom666, RUSP73, SAEIDPARVANEH, satanist666, Sathana, shadow666, SIAVASH, simvolist777, spiritualdecay666, SSBandera, stub888, Sylvi, the_cleanser, Thunderbird, tont, TREVAS, VALERY, varlam4, vasiljev_sergej, Wolftribes, Абигор, Вкустах, Госпромнадзор,
Oct 24 2012, 07:22:25 Ulfsdalir & Hrimthursen - Ulfsdalir/Hrimthursen [split] (2008)


*Artist: Ulfsdalir & Hrimthursen
*Album: Ulfsdalir/Hrimthursen [split]
*Year: 2008
*Genre: Black Metal | Black Metal
*Country: Germany | Germany
*Format: mp3@CBR320kbps
*Size: 99MB

Tracklist:
Ulfsdalir:
1. Totenheer 03:26
2. Folge dem Ruf der Eule 07:16
3. Berkano 08:07
Hrimthursen:
4. Reise in die Unendlichkeit 06:34
5. Hrimthursen - Eisnacht 08:03
6. Bruder Tod 04:26
7. Bestie Mensch 05:26
******************************
Total playing time: 43:18

[more=Extended info]lame 3.93.1 + scans


Input File: 02.Ulfsdalir - Folge dem Ruf der Eule.mp3
Channels : 2
Sample Rate : 44100
Precision : 16-bit
Duration : 00:07:14.17 = 19147073 samples = 32563 CDDA sectors
File Size : 17.4M
Bit Rate : 320k
Sample Encoding: MPEG audio (layer I, II or III)
Comments :
Title=Folge dem Ruf der Eule
Artist=Ulfsdalir
Album=Ulfsdalir / Hrimthursen
Tracknumber=2

[/more]

Register
(21) andivi, dalex, DarkHorde, Darkthronefoad, ddarkthrone, fuck3r, Hell_Is_Here, kefka, Koscheyushka, Langemark, RUSP73, satanist666, SIAVASH, Thunderbird, tont, VALERY, varg-38ru, varlam4, vasiljev_sergej, waldemardr, Госпромнадзор,
Oct 21 2012, 21:26:11 Decline Of The I - Inhibition (2012)


*Artist: Decline Of The I
*Album: Inhibition
*Year: 2012
*Genre: Post-Black Metal
*Country: France
*Format: mp3@VBR266kbps
*Size: 111MB

Tracklist:
1. Où se trouve la mort? 02:57
2. The End of a Sub-Elitist Addiction 10:46
3. Art or Cancer? 07:02
4. The Other Rat 07:32
5. Mother and Whore 07:57
6. Static Involution 07:55
7. L'indécision d'être 05:04
8. Keeping the Structure 09:02
******************************
Total playing time: 58:15



[more=Extended info]
A.K. Vocals, Guitars, Keyboards, Programming
See also: Merrimack, Vorkreist, Malhkebre, Eros Necropsique, ex-Epic, ex-Love Lies Bleeding, ex-Corpus Christii (live)
N. Drums
See also: ex-Merrimack, ex-Purge
G. Vocals
See also: Drowning, Eibon, ex-Næphragorius
S. Vocals
See also: ex-Olc Sinnsir, ex-Vorkreist
[/more]

Register
(44) 0x13, 666BlackDeath, AnciantSatan, bka, Buregon, craP_cillA, ddarkthrone, demonosz, Emhyr var Emreis, Endymion, Frees, fuck3r, GAS, gena, graham, hellbibber, Hell_Is_Here, kefka, kim666, marilin, MeatKnife, metala, Mihelj, MMMMM, Mo-Ha, Occultas, Ostinato, RUSP73, satanist666, smes, stub888, Tino, tont, Typhoid, v.v.m, VALERY, varg-38ru, varlam4, vasiljev_sergej, vosmidesijatye, vov7609, WinterSoul, yuratroll, ZloY_GreY,
Oct 20 2012, 15:27:41 Cosmic Church - Absoluutin Lävistämä (2010)


*Artist: Cosmic Church
*Album: Absoluutin Lävistämä
*Year: 2010
*Genre: Black Metal
*Country: Finland
*Format: mp3@CBR320kbps
*Size: 109MB

Tracklist:
1. Alkusoitto - Kultaisen Avaimen Portti 03:28
2. Osa I - Mestarin Liekin Paratiisi 09:43
3. Osa II - Kaikkinäkevän Silmän Pyhättö 10:47
4. Välisoitto - Lävistettynä Maailman Pilareihin 02:05
5. Osa III - Valonkantajan Timanttinen Kruunu 06:51
6. Osa IV - Salaisen Tiedon Hehku 07:00
7. Loppusoitto - Nousu Kaaoksen Vesistä 02:52
******************************
Total playing time: 42:46

[more=Extended info]FLAC-rip lame 3.93.1 + scans[/more]

Register
(76) 0x13, 2563842756, acerbus, Alexis The Best, Ambercandle, andivi, Aphrax, AwaitingDawn, Buregon, Constantinus I, CRUNCH, D.D.A.M.M., Daale, DarkHorde, Darkthrone85, Darkthronefoad, Darth Alvasarra, ddarkthrone, Eichmann, Emhyr var Emreis, Endymion, Forrrrest, Fryz, fuck3r, GoatFucker, HA7tur, Hell_Is_Here, kefka, kolar666, Koscheyushka, legion01, lestllk, marilin, maringlen, Mich, Necroeire, nsmetalhead, Premature_Devotion, princeshr, raincatz, RajvsarN, rimfrost, satanist666, Sathana, sethurius, ShmiT, SIAVASH, SilentNidhogg, Sky7Daemon, smes, sperminator, spiritualdecay666, SSBandera, stone88, stub888, svndvst, Sylvi, Taragorm, the_cleanser, Thunderbird, tont, Typhoid, v.v.m, VALERY, varlam4, varyag, vasiljev_sergej, vosmidesijatye, vov7609, waldemardr, Winter Funeral, Wolftribes, wreak, ZambuL, Абигор, Госпромнадзор,
Oct 18 2012, 17:03:32 Mortify - The Way Of All Flesh [best of/compilation] (2011)


*Artist: Mortify
*Album: The Way Of All Flesh [best of/compilation]
*Year: 2011
*Genre: Black Metal
*Country: Greece
*Format: mp3@CBR320kbps
*Size: 105MB

Tracklist:
1. Nocturne of Souls 06:04
2. The Occult 03:33
3. Schizoid Redeemer 04:05
4. The Awakening and the Triumph 03:29
5. Paroxysm 05:14
6. Gazing in a God's Dream 07:17
7. Of Blood and Ashes (Outro) 01:43
8. Serpentine Moon 04:53
9. Ulterior Quest 05:07
******************************
Total playing time: 41:25

[more=Extended info]lame 3.93.1 + scans


[/more]

Register
(22) abob, dermarsoran, dimissak, Fenrirsson, Hell_Is_Here, kim666, komhs, lordbathor, LordDark, milosdjor, Mist13Signifier, Proteus_666, Reverend, sacrut, Spork, sumostig, suseka, thenecromancer, Tino, Velkaarn, wolverine, Абигор,
Sep 23 2012, 18:29:35 Audiopain - Contagious [ep] (2000)
320kbps lame 3.93.1 + scans
Register
(2) gorim, kryptor,
Aug 30 2012, 16:56:35 Bekhira - L' Elu Du Mal (2005)
CD-rip 320kbps lame 3.93.1 + scans
Register
(4) Filosofem91, lestllk, spiritualdecay666, Witchlord,
Aug 29 2012, 14:11:56 Morbid Yell - The First Desecration [best of/compilation] (2006)
Register
(3) fticek, Patrick, Pinhead666,

30 Pages V   1 2 3 > » 
- Lo-Fi Version Support form
Copyrights and abuse reports form
Time is now: 19th July 2019 - 08:58:44