Welcome Guest ( Log In | Register )

История благодарностей участнику Hroedmar ::: Спасибо сказали: 11700 раз(а)
Дата поста: В теме: За сообщение: Спасибо сказали:
Jul 30 2019, 16:57:19 Cuarzo - Cuarzo (2017)


*Artist: Cuarzo
*Album: Cuarzo
*Year: 2017
*Genre: Psychedelic Stoner/Doom Metal
*Country: Peru
*Format: mp3@CBR320kbps
*Size: 108MB

Tracklist:
1. Sintiendo El Éter 04:50
2. Valhalla 07:14
3. Orgia En Acido 06:03
4. Nympho 04:02
5. Duna Inhóspita 06:07
6. Humo Rojo 07:25
7. Absenta Negra 05:20
8. Energúmeno 03:57
******************************
Total playing time: 44:58




[more=Technical info]
Input File: 08. Energumeno.mp3
Channels : 2
Sample Rate : 44100
Precision : 16-bit
Duration : 00:03:57.18 = 10459726 samples = 17788.6 CDDA sectors
File Size : 9.55M
Bit Rate : 322k
Sample Encoding: MPEG audio (layer I, II or III)
Comments :
Title=Energumeno
Artist=Cuarzo
Album=Cuarzo
Tracknumber=8
Year=2017
Genre=Stoner Rock

[/more]

Register
(8) artscald, KVRT, marilin, Olethros, Rosen, Sabbathian, TAKATAEL, VALERY,
Jul 14 2019, 14:56:00 Neolithic - Born To Suffer [ep] (2014)


*Artist: Neolithic
*Album: Born To Suffer [ep]
*Year: 2014
*Genre: Drone/Sludge/Doom Metal
*Country: United Kingdom
*Format: mp3@CBR320kbps
*Size: 59MB

Tracklist:
1. Born To Suffer 24:28
******************************
Total playing time: 24:28



[more=Technical info]
Input File: Neolithic - Born To Suffer - 01 Born to Suffer.mp3
Channels : 2
Sample Rate : 44100
Precision : 16-bit
Duration : 00:24:28.14 = 64744798 samples = 110110 CDDA sectors
File Size : 58.8M
Bit Rate : 320k
Sample Encoding: MPEG audio (layer I, II or III)
Comments :
Title=Born to Suffer
Artist=Neolithic
Album=Born To Suffer
Tracknumber=1
Year=2014

[/more]

Register
(7) artscald, marilin, Olethros, Ostinato, Rosen, stub888, wreak,
Jul 12 2019, 10:28:53 Mortier - Trauma [ep] (2019)


*Artist: Mortier
*Album: Trauma [ep]
*Year: 2019
*Genre: Sludge/Doom Metal
*Country: France
*Format: mp3@CBR320kbps
*Size: 60MB

Tracklist:
1. Trauma 08:42
2. ...Of Lead And Steel 08:32
3. Downfall 07:30
******************************
Total playing time: 24:44



[more=Technical info]
Input File: Mortier - Trauma - 03 Downfall.mp3
Channels : 2
Sample Rate : 44100
Precision : 16-bit
Duration : 00:07:30.58 = 19870754 samples = 33793.8 CDDA sectors
File Size : 18.2M
Bit Rate : 323k
Sample Encoding: MPEG audio (layer I, II or III)
Comments :
Title=Downfall
Artist=Mortier
Album=Trauma
Tracknumber=3
Year=2019

[/more]

Register
(9) artscald, marilin, Olethros, robertho777, Rosen, stub888, stumpheavyrock, VALERY, wreak,
May 16 2019, 08:41:40 Khemmis - Absolution (2015)
ЦИТАТА(Ash_1980 @ May 16 2019, 09:40:37) *
Не пререзальёт никто? Буду очень благодарен.

Держи, уругвайский дядя)
Register
(2) Ash_1980, vosmidesijatye,
May 10 2019, 12:05:06 Martyrdöd - Hexhammaren (2019)
ЦИТАТА(Velmi @ May 9 2019, 18:03:47) *
*Genre: Crust Metal

bye.gif (clickable)
(1) Arseniy,
May 6 2019, 12:59:13 Serpent Venom - Carnal Altar (2011)
Reuploaded (new Mediafire link in first post)
(2) LuGaL, thenecromancer,
Apr 9 2019, 20:43:27 Purify - The Grief (2019)


*Artist: Purify
*Album: The Grief
*Year: 2019
*Genre: Blackened Post-Metal/Hardcore
*Country: United States
*Format: mp3@CBR320kbps
*Size: 94MB

Tracklist:
01. Pallor Mortis
02. Livor Mortis
03. Senescence Flesh
04. Wandering Soul
05. You Are Now Bones And Ashes
06. Vultures Upon Your Head
07. Coward’s Funeral (feat. Sven from Aborted)
08. Hellion’s Paradise
09. Upon Your Grave
10. The Grief
******************************
Total playing time: 37:51



[more=Technical info]
Input File: 06 - Vultures Upon Your Head.mp3
Channels : 2
Sample Rate : 44100
Precision : 16-bit
Duration : 00:02:48.06 = 7411358 samples = 12604.4 CDDA sectors
File Size : 7.00M
Bit Rate : 333k
Sample Encoding: MPEG audio (layer I, II or III)
Comments :
Title=Vultures Upon Your Head
Artist=Purify
Album=The Grief
Tracknumber=6/10
Year=2019
Genre=Post-Metal

[/more]

Register
(7) 0x13, Ash_1980, comradEnemy, Olethros, Ostinato, Rosen, Whitefish,
Feb 28 2019, 19:06:59 Heráldica De Mandrake - No Hay Caminos Cortos A La Libertad (2017)


*Artist: Heráldica De Mandrake
*Album: No Hay Caminos Cortos A La Libertad
*Year: 2017
*Genre: Doom Metal
*Country: Chile
*Format: mp3@CBR320kbps
*Size: 193MB

Tracklist:
1. No Me Inclino Ante Nadie 13:52
2. Mil Noches De Insomnio 14:26
3. El Temple Para Dejar Todo Atrás 10:41
4. La Doctrina De Los Saqueos 19:54
******************************
Total playing time: 58:53



[more=Extended info]Спектр .wav

[/more]

[more=Technical info]
Input File: Heráldica de Mandrake - No hay caminos cortos a la libertad - 03 El temple para dejar todo atrás.mp3
Channels : 2
Sample Rate : 44100
Precision : 16-bit
Duration : 00:10:41.97 = 28310789 samples = 48147.6 CDDA sectors
File Size : 25.8M
Bit Rate : 321k
Sample Encoding: MPEG audio (layer I, II or III)
Comments :
Title=El temple para dejar todo atrás
Artist=Heráldica de Mandrake
Album=No hay caminos cortos a la libertad
Tracknumber=3
Year=2017

[/more]

Register
(8) artscald, Ash_1980, Christfukk, metala, Olethros, Rosen, stumpheavyrock, wreak,
Feb 25 2019, 13:13:26 Womb & Disciples Of Mockery - Split [split] (2001)
From the Net, 320kbps:
Register
(3) Ostinato, Pinhead666, Герб,
Feb 22 2019, 14:39:05 Palace In Thunderland - The King Of The Empty Aeon (2019)


Эх, вот бы ещё новый Black Pyramid вернувшийся "Берёзка" запилил...
(2) artscald, Дерсу Узала,
Feb 21 2019, 14:46:32 Dead Witches - The Final Exorcism (2019)
[youtube]Mi66e2dGOzM[/youtube]

Да уж, слава и фирменный саунд EW не дают покоя многим последователям)
(1) artscald,
Feb 18 2019, 12:32:07 Tankograd - Totalitarian (2019)


*Artist: Tankograd
*Album: Totalitarian
*Year: 2019
*Genre: Doom Metal
*Country: Poland
*Format: mp3@CBR320kbps
*Size: 126MB

Tracklist:
1. Ostatni Sen Joachima 05:35
2. Arkhangelsk 09:31
3. Lot Do Kraju 07:08
4. Żelazne Trumny 10:55
5. Mir 10:49
******************************
Total playing time: 43:58



[more=Extended info]Dopelord & Major Kong members[/more]

[more=Technical info]
Input File: Tankograd - Totalitarian - 01 Ostatni Sen Joachima.mp3
Channels : 2
Sample Rate : 44100
Precision : 16-bit
Duration : 00:05:35.09 = 14777513 samples = 25131.8 CDDA sectors
File Size : 13.6M
Bit Rate : 324k
Sample Encoding: MPEG audio (layer I, II or III)
Comments :
Title=Ostatni Sen Joachima
Artist=Tankograd
Album=Totalitarian
Tracknumber=1
Year=2019

[/more]

Register
(16) 0x13, aesteticvice, artscald, Ash_1980, BERZERK, BlazonStone, marilin, metala, metaljosue, Nattfodd, Olethros, Rosen, RUDACHUR, Tino, VALERY, wreak,
Feb 18 2019, 10:29:38 Marécages - Marais Juana - Une Ode Cannabique [ep] (2019)


*Artist: Marécages
*Album: Marais Juana - Une Ode Cannabique [ep]
*Year: 2019
*Genre: Stoner/Sludge/Doom Metal
*Country: Canada
*Format: mp3@CBR320kbps
*Size: 53MB

Tracklist:
1. Marais Juana 04:20
2. Nauséabong 05:04
3. Cannabysse - Entourbé 04:37
4. Krokodil - Valse Morbide 03:53
5. Sabbouettage, Le Dernier Balbutiement 03:56
******************************
Total playing time: 21:50



[more=Technical info]
Input File: 04. Krokodil - Valse Morbide.mp3
Channels : 2
Sample Rate : 44100
Precision : 16-bit
Duration : 00:03:53.21 = 10284473 samples = 17490.6 CDDA sectors
File Size : 9.49M
Bit Rate : 325k
Sample Encoding: MPEG audio (layer I, II or III)
Comments :
Title=Krokodil - Valse Morbide
Artist=Marécages
Album=Marais Juana - Une Ode Cannabique (EP)
Tracknumber=4
Year=2019
Genre=Doom/Sludge Metal

[/more]

Register
(15) artscald, Ash_1980, Boozer, denver, djsema4, gena, marilin, Moonshtook, Olethros, Ostinato, Rosen, Sabbathian, stub888, VALERY, wreak,
Feb 9 2019, 13:24:11 Wulfhound - Wulfhound [ep] (2019)


*Artist: Wulfhound
*Album: Wulfhound [ep]
*Year: 2019
*Genre: Stoner/Doom Metal
*Country: United States
*Format: mp3@CBR320kbps
*Size: 82MB

Tracklist:
1. Introduction 01:19
2. Riddles In The Dark 06:04
3. Death From The West 06:53
4. Nyxborn 05:16
5. Arctic Howls 06:15
6. The Tower 08:14
******************************
Total playing time: 34:01



[more=Technical info]
Input File: Wulfhound - EP - 04 Nyxborn.mp3
Channels : 2
Sample Rate : 44100
Precision : 16-bit
Duration : 00:05:16.83 = 13972203 samples = 23762.2 CDDA sectors
File Size : 12.7M
Bit Rate : 322k
Sample Encoding: MPEG audio (layer I, II or III)
Comments :
Title=Nyxborn
Artist=Wulfhound
Album=EP
Tracknumber=4
Year=2019

[/more]

Register
(7) artscald, djsema4, krmu2, Ostinato, Rosen, SatanicPanzer, VALERY,
Jan 31 2019, 19:06:40 Dorre - Fall River [ep] (2019)
(1) artscald,
Nov 9 2018, 14:12:18 Hot Ram - Where Light Goes To Die (2018)
ЦИТАТА(necroscum @ 9th November 2018 - 07:32:20) *
Sludge Metal

Grindcore Metal, Crust Metal, Drone Metal... m1234.gif
(2) KVRT, vosmidesijatye,
Nov 7 2018, 13:20:50 Leonov - Wake (2018)
А ещё, альбом навевает воспоминания о ранних The 3rd And The Mortal.
Очень достойное продолжение их идей тех времён на современный лад/манер, и схожая атмосфера!
(1) Ash_1980,
Nov 1 2018, 08:31:11 Rituals Of The Dead Hand - Blood Oath (2018) (2) artscald, KVRT,
Sep 19 2018, 18:55:08 Demonauta - Part 2: Temaukel, The Spirit Before Time (2018)


*Artist: Demonauta
*Album: Part 2: Temaukel, The Spirit Before Time
*Year: 2018
*Genre: Stoner Metal/Psychedelic Rock
*Country: Chile
*Format: mp3@CBR320kbps
*Size: 101MB

Tracklist:
1. Sons Of Black Sun 04:59
2. Blues Para Angela Loij 05:49
3. Temaukel 08:20
4. Psilocybeat 04:45
5. Planeta Muerto 05:02
6. Summer Hell 04:58
7. Death As An Advisor 07:28
******************************
Total playing time: 41:21



[more=Technical info]
Input File: 04. Psilocybeat.mp3
Channels : 2
Sample Rate : 44100
Precision : 16-bit
Duration : 00:04:45.59 = 12594475 samples = 21419.2 CDDA sectors
File Size : 11.6M
Bit Rate : 326k
Sample Encoding: MPEG audio (layer I, II or III)
Comments :
Title=Psilocybeat
Artist=Demonauta
Album=Part 2: Temaukel, the Spirit Before Time
Tracknumber=4/7
Year=2018
Genre=Psychedelic Rock
Discnumber=1/1

[/more]

Register
(6) Ash_1980, gena, marilin, Sabbathian, SatanicPanzer, VALERY,
Aug 15 2018, 09:45:54 Tõll - MMXVIII [demo] (2018)


*Artist: Tõll
*Album: MMXVIII [demo]
*Year: 2018
*Genre: Stoner/Doom Metal
*Country: Russian Federation
*Format: mp3@CBR320kbps
*Size: 57MB

Tracklist:
1. Капитан Зелёный 06:37
2. Огонь 06:06
3. В Пепел 08:33
******************************
Total playing time: 21:16



[more=Technical info]
Input File: Tõll - MMXVIII DEMO - 02 Огонь - The Fire.mp3
Channels : 2
Sample Rate : 44100
Precision : 16-bit
Duration : 00:06:06.49 = 16162297 samples = 27486.9 CDDA sectors
File Size : 14.8M
Bit Rate : 323k
Sample Encoding: MPEG audio (layer I, II or III)
Comments :
Title=Огонь | The Fire
Artist=Tõll
Album=MMXVIII DEMO
Tracknumber=2
Year=2018

[/more]

Register
(7) Deada, denver, gena, marilin, marrtins, Rosen, VALERY,
Aug 6 2018, 19:22:53 Abysmal Growls Of Despair - Conversation With Earth (2018)
ЦИТАТА
это дрон - на всякий случай


(2) Hell_Is_Here, vosmidesijatye,
Aug 1 2018, 13:59:22 Hazemaze - Hazemaze (2018)


*Artist: Hazemaze
*Album: Hazemaze
*Year: 2018
*Genre: Stoner/Doom Metal/Psychedelic Rock
*Country: Sweden
*Format: mp3@CBR320kbps
*Size: 100MB

Tracklist:
1. Wall Of Confusion 06:27
2. Lord Cubensis 04:06
3. Black Mamba Pt. I 05:24
4. Black Mamba Pt. II 05:16
5. Minds Abyss 05:29
6. Lies 06:37
7. Beast And Prey 04:04
8. Searching 05:46
******************************
Total playing time: 43:09



[more=Technical info]
Input File: 07 Beast and Prey.mp3
Channels : 2
Sample Rate : 44100
Precision : 16-bit
Duration : 00:04:04.16 = 10767324 samples = 18311.8 CDDA sectors
File Size : 9.77M
Bit Rate : 320k
Sample Encoding: MPEG audio (layer I, II or III)
Comments :
Title=Beast and Prey
Artist=Hazemaze
Album=Hazemaze
Tracknumber=07/08
Year=2018
Genre=Bluesy Stoner Doom

[/more]

Register
(12) boba, infiltrator, marilin, Ostinato, Rosen, s810ic1, SatanicPanzer, scorn33, Spunkynut, stub888, terron, VALERY,
Jul 28 2018, 16:55:46 My Lonely Sea - The Lost Scraps (2018)


*Artist: My Lonely Sea
*Album: The Lost Scraps
*Year: 2018
*Genre: Post-Black Metal/Post-Rock
*Country: Russian Federation
*Format: mp3@CBR320kbps
*Size: 97MB

Tracklist:
1. The Time Has Come 06:50
2. The Lost Scraps Pt.1 (Worst Enemy) 08:49
3. The Lost Scraps Pt.2 (Frozen Inside) 04:49
4. Hope Dies Last 07:17
5. This Is War! 11:22
******************************
Total playing time: 39:07



[more=Technical info]
Input File: My Lonely Sea - The Lost Scraps - 03 The Lost Scraps Pt.2 (Frozen Inside).mp3
Channels : 2
Sample Rate : 44100
Precision : 16-bit
Duration : 00:04:49.45 = 12764833 samples = 21708.9 CDDA sectors
File Size : 11.7M
Bit Rate : 323k
Sample Encoding: MPEG audio (layer I, II or III)
Comments :
Title=The Lost Scraps Pt.2 (Frozen Inside)
Artist=My Lonely Sea
Album=The Lost Scraps
Tracknumber=3
Year=2018

[/more]

Register
(5) Ostinato, Rosen, stone88, tOmV, vasiljev_sergej,
Jul 26 2018, 12:18:32 Wicked Wizzard - Wicked Wizzard (2018)


*Artist: Wicked Wizzard
*Album: Wicked Wizzard
*Year: 2018
*Genre: Stoner Metal/Rock
*Country: Spain
*Format: mp3@CBR320kbps
*Size: 95MB

Tracklist:
1. Intro 00:20
2. Witchstone 04:16
3. Sin City 05:36
4. Swamp 06:00
5. Rainy Sabbath 03:30
6. The Wizzard 07:02
7. Earthquake 04:14
8. Rednecks From Hell 03:52
9. Hills Of Madness 07:34
******************************
Total playing time: 42:24



[more=Technical info]
Input File: 05. Rainy Sabbath.mp3
Channels : 2
Sample Rate : 44100
Precision : 16-bit
Duration : 00:03:30.93 = 9301881 samples = 15819.5 CDDA sectors
File Size : 8.66M
Bit Rate : 329k
Sample Encoding: MPEG audio (layer I, II or III)
Comments :
Title=Rainy Sabbath
Artist=Wicked Wizzard
Album=Wicked Wizzard
Tracknumber=05/09
Year=2018
Genre=Rock

[/more]

Register
(10) Emhyr var Emreis, gena, infiltrator, marilin, Mogozoz, Ostinato, Rosen, Sabbathian, stub888, VALERY,
Jul 23 2018, 22:00:34 Lesser Glow - Ruined (2018)


*Artist: Lesser Glow
*Album: Ruined
*Year: 2018
*Genre: Sludge/Doom/Post-Metal
*Country: United States
*Format: mp3@CBR320kbps
*Size: 61MB

Tracklist:
1. Ruined 06:02
2. Vacant Throne 04:30
3. Tel Meggido 03:04
4. Empty Eyes 03:53
5. Fall On Mortal Decay 01:37
6. Under The Polar Share 06:05
******************************
Total playing time: 25:11



[more=Technical info]
Input File: 03. Tel Meggido.mp3
Channels : 2
Sample Rate : 44100
Precision : 16-bit
Duration : 00:03:04.57 = 8139449 samples = 13842.6 CDDA sectors
File Size : 7.38M
Bit Rate : 320k
Sample Encoding: MPEG audio (layer I, II or III)
Comments :
Title=Tel Meggido
Artist=Lesser Glow
Album=Ruined
Tracknumber=03
Year=2018
Genre=Doom / Post-Metal / Sludge

[/more]

Register
(11) chickenfucker, denver, fishish, gena, infiltrator, marilin, Ostinato, Rosen, Sabbathian, SatanicPanzer, VALERY,

55 Pages V   1 2 3 > » 
- Lo-Fi Version Support form
Copyrights and abuse reports form
Time is now: 20th August 2019 - 23:34:11