Welcome Guest ( Log In | Register )

История благодарностей участнику AlexStorm ::: Спасибо сказали: 6310 раз(а)
Дата поста: В теме: За сообщение: Спасибо сказали:
Mar 2 2019, 14:19:01 Сатурналии (Антипопсовая голосовалка) Часть 10 - 2015-2017, тур 2
Morgoth - Ungod +3
(1) mirotvorets,
Jan 19 2019, 15:11:51 Сатурналии (Антипопсовая голосовалка) Часть 9 - 2012-2014, тур 2
Сто лет не голосовал, но отдам за
Mekong Delta - In A Mirror Darkly
Максимум +3
(2) Alexis The Best, Deze,
Nov 21 2018, 14:09:35 Metallica - Master Of Puppets (Remastered Deluxe Boxset) [boxed set] (2017)
Cassette - Live At Solnahallen, Stockholm, Sweden - September 26th, 1986 (Fan Recording)
Хм , а на следующий день Клифф погиб.Это его последнее выступление получается?
(1) slack,
Aug 25 2018, 16:34:08 Sepultura - Arise (1991)
Эх, умели же черти играть...
(1) Thrashman,
Apr 22 2018, 05:37:18 Сатурналии (Антипопсовая голосовалка) Часть 1 - 1981-1990
1988 - Mekong Delta "Music of Erich Zann"
1990 - Mekong Delta "Dances Of Death"
(3) Alexis The Best, Mplast, Thrashman,
Jan 12 2018, 18:52:37 Morbid Angel - Kingdoms Disdained (2017)
ЦИТАТА(vosmidesijatye @ Jan 12 2018, 20:07:11) *
Отличный альбом 666

Именно 666!
(2) BERZERK, infiltrator,
Oct 6 2017, 13:14:34 Morbid Angel
Молодца vosmidesijatye!Хорошая новость
(1) vosmidesijatye,
Oct 6 2017, 12:40:08 Ленинград - Дачники (2000)
Хех , особенно "не забудь полить помидоры" с песни дачники.Мне жена тоже самое мне трындела все лето, хотя эту композицию она не слушала.Правдивая вещица.
(1) Penetralia,
Sep 22 2017, 16:35:35 Carcass - Surgical Steel (2013)
Фанат, уважаю.Здесь про Carcass разговоры ведут родной smile3.gif
(1) maxmagmas,
Jul 23 2017, 08:51:48 Thorn - Whenever... (2002)
По просьбе BlackArrow.Параметры те же.
Register

(1) BlackArrow,
Apr 21 2017, 13:53:55 Terrorizer - Live At Deathfest II, Tilburg, Netherlands, 03.03.2017 [bootleg] (2017)


*Artist: Terrorizer
*Album: Live At Deathfest II, Tilburg, Netherlands, 03.03.2017 [bootleg]
*Year: 2017
*Genre: Death Metal/Grindcore
*Country: United States
*Format: mp3@CBR320kbps
*Size: 116MB

Tracklist:
1. After World Obliteration 03:59
2. Storm of Stress 01:47
3. Fear of Napalm 03:15
4. Human Prey 02:08
5. Corporation Pull-In 02:34
6. Strategic Warheads 02:27
7. Ripped To Shreds 02:48
8. Injustice 02:16
9. Whirlwind Struggle 02:08
10. Infestation 03:03
11. Condemned System 01:22
12. Resurrection 02:54
13. Enslaved by Propaganda 02:20
14. Crematorium 04:25
15. State of Mind 04:07
16. Dead Shall Rise 03:09
17. World Downfall 05:34
******************************
Total playing time: 50:16

Storm of Stress
Crematorium

[more=Extended info]Terrorizer 2017.03.03 Deathfest II,Tilburg,Netherlands - Live!
Качество хорошее.[/more]

[more=Technical info]
Input File: 01-After World Obliteration.mp3
Channels : 2
Sample Rate : 44100
Precision : 16-bit
Duration : 00:03:59.18 = 10547662 samples = 17938.2 CDDA sectors
File Size : 9.57M
Bit Rate : 320k
Sample Encoding: MPEG audio (layer I, II or III)
Comments :
Artist=Terrorizer
Album=Terrorizer 2017.03.03 Deathfest II,Tilburg,Netherlands
Year=2017
Genre=Death Metal/Grindcore

[/more]

Register
(5) ddarkthrone, Hell_Is_Here, Pinhead666, Rosen, zorn666,
Apr 20 2017, 15:14:41 Ecferus - Shadow Projection [ep] (2016)


*Artist: Ecferus
*Album: Shadow Projection [ep]
*Year: 2016
*Genre: Black Metal
*Country: United States
*Format: mp3@CBR128kbps
*Size: 27MB

Tracklist:
01.Alchemical Moon 05:10
02.Howling Canyons in the Sulcus 06:49
03.Intro 00:42
04.Deceiving Bloody Masks 05:27
05.Battlebrain 03:38
06.Reduced to Cosmic Shreds 07:04
******************************
Total playing time: 28:50



Register
(6) marilin, Rosen, satanist666, varlam4, vasiljev_sergej, yuratroll,
Apr 20 2017, 15:00:10 Repulsion - Repulsion 2017.03.03 Deathfest II,Tilburg,Netherlands [bootleg] (2017)


*Artist: Repulsion
*Album: Repulsion 2017.03.03 Deathfest II,Tilburg,Netherlands [bootleg]
*Year: 2017
*Genre: Grindcore/Death Metal
*Country: United States
*Format: mp3@CBR320kbps
*Size: 106MB

Tracklist:
01.The Stench of Burning Death 2:29
02.Bodily Dismemberment 1:58
03.Splattered Cadavers 2:07
04.Slaughter of the Innocent 1:34
05.Acid Bath 1:44
06.Decomposed 2:40
07.Radiation Sickness 2:18
08.Festering Boils 1:57
09.Pestilent Decay 1:50
10.Death Dealer (Slaughter cover) 3:18
11.Repulsion 2:04
12.Driven to Insanity 1:50
13.Eaten Alive 3:11
14.Crematorium 2:21
15.Schizo (Venom cover) 4:15
16 Six Feet Under 1:50
17.Black Breath 3:39
18.Maggots in Your Coffin 2:21
19.Horrified 2:28
******************************
Total playing time: 45:54

Festering Boils
Schizo

[more=Extended info]Repulsion 2017.03.03 Deathfest II,Tilburg,Netherlands - Live!
Качество хорошее.[/more]

[more=Technical info]
Input File: 03-Splattered Cadavers.mp3
Channels : 2
Sample Rate : 44100
Precision : 16-bit
Duration : 00:02:07.68 = 5630468 samples = 9575.63 CDDA sectors
File Size : 5.11M
Bit Rate : 320k
Sample Encoding: MPEG audio (layer I, II or III)
Comments :
Artist=Repulsionж Ђ
Album=Repulsion 2017.03.03 Deathfest II,Tilburg,Netherlands
Year=2017
Genre=Grindcore/Death Metal

[/more]

Register
(3) Hell_Is_Here, Rosen, wgs73,
Apr 20 2017, 14:03:17 Napalm Death - Napalm Death 2017.04.16 Volta Club,Moscow,Russia [bootleg] (2017)


*Artist: Napalm Death
*Album: Napalm Death 2017.04.16 Volta Club,Moscow,Russia [bootleg]
*Year: 2017
*Genre: Grindcore/Death Metal
*Country: United Kingdom
*Format: mp3@CBR320kbps
*Size: 161MB

Tracklist:
01.Apex Predator – Easy Meat 1:08
02.Evolved as One 2:09
03.It's a M.A.N.S. World! 1:12
04.Necessary Evil 4:01
05.Smash a Single Digit 2:06
06.Stunt Your Growth 2:14
07.When All Is Said and Done 3:27
08.Stubborn Stains 3:49
09.Scum 2:29
10.The Kill 0:22
11.Deceiver 0:39
12.You Suffer 0:31
13.From Enslavement to Obliteration 2:32
14.The Code Is Red... Long Live the Code 4:07
15.Twist the Knife (Slowly) 3:23
16.Quarantined 3:55
17.Dear Slum Landlord... 2:07
18.Christening of the Blind 4:11
19.How the Years Condemn 3:32
20.Suffer the Children 5:21
21.If the Truth Be Known 3:45
22.Face Down in the Dirt (Offenders cover) 1:52
23.Hate, Fear and Power (Hirax cover) 1:02
24.Nazi Punks Fuck Off (Dead Kennedys cover) 2:21
25.Adversarial/Copulating Snakes 7:42
******************************
Total playing time: 1:09:57

Evolved as One
The Kill
Deceiver
You Suffer

[more=Extended info]Napalm Death 2017.04.16 Volta Club,Moscow,Russia - Live!
Качество хорошее.[/more]

[more=Technical info]
Input File: 04-A Necessary Evil.mp3
Channels : 2
Sample Rate : 44100
Precision : 16-bit
Duration : 00:04:01.79 = 10662895 samples = 18134.2 CDDA sectors
File Size : 9.67M
Bit Rate : 320k
Sample Encoding: MPEG audio (layer I, II or III)
Comments :
Artist=Napalm Death
Album=Napalm Death 2017.04.16 Volta Club,Moscow,Russia
Year=2017
Genre=Grindcore/Death Metal

[/more]

Register
(6) Hell_Is_Here, Pinhead666, popen13, Rosen, wreak, Варонъ,
Apr 20 2017, 01:23:56 Einsamtod - Einsamkeit [ep] (2015)


*Artist: Einsamtod
*Album: Einsamkeit [ep]
*Year: 2015
*Genre: Atmospheric/Depressive Black Metal
*Country: Slovakia
*Format: mp3@CBR128kbps
*Size: 21MB

Tracklist:
01.I 12:09
02.II 09:50
******************************
Total playing time: 21:59



Register
(5) 1968_janeart, Rosen, satanist666, TREVAS, vasiljev_sergej,
Apr 19 2017, 14:14:50 Death Power - Mixed Rehearsal [demo] (1989)


*Artist: Death Power
*Album: Mixed Rehearsal [demo]
*Year: 1989
*Genre: Thrash Metal
*Country: France
*Format: mp3@CBR192kbps
*Size: 46MB

Tracklist:
01.March of the Dead 03:37
02.Paranoiac Symptoms 02:12
03.Satan's Litanies 03:09
04.Necrology 05:50
05.Begin the Sacrifice/Vivisection 08:06
06.Hard Core Copulation 02:13
******************************
Total playing time: 25:07

Register
(8) Alfredoelruso, ExeThrash, METALHUNTER, potap03020100, Rosen, varlam4, wgs73, wreak,
Apr 19 2017, 13:03:40 Défaillance - Delivrance (2016)


*Artist: Défaillance
*Album: Delivrance
*Year: 2016
*Genre: Depressive Black Metal
*Country: France
*Format: mp3@CBR128kbps
*Size: 26MB

Tracklist:
01.Chapter I 12:52
02.Chapter II 08:23
03.Chapter III 06:15
******************************
Total playing time: 27:30



Register
(14) 1968_janeart, artscald, Gylve, Ildjarn, Immortality, Kazoth, murian, rammmirez, Rosen, satanist666, stone88, Unscarted, vasiljev_sergej, Спектр,
Apr 18 2017, 15:36:50 Dark Funeral - Dark Funeral 2017.04.15 Volta Club,Moscow,Russia [bootleg] (2017)
ЦИТАТА(vosmidesijatye @ Apr 18 2017, 17:33:11) *
Сет лист очень так неплох, The Arrival of Satan's Empire и Ravenna Strigoi Mortii это культовые вещи!

А мне Goddess of Sodomy очень нравится.
(1) vosmidesijatye,
Apr 18 2017, 13:31:06 Metallica
ЦИТАТА(avkruchinin @ Apr 18 2017, 15:17:58) *
И записанные только в гараже, только на магнитофон "Весна" и только через микрофон.
и Лулу 2011 25.gif

Единственное творение Металлики(или с участием Металлики - незнаю как правильно) которое я не слушал.Надеюсь немного потерял?
(1) vosmidesijatye,
Apr 18 2017, 11:59:41 D.R.I. - Live At The Ritz [live] (2017)


*Artist: D.R.I.
*Album: Live At The Ritz [live]
*Year: 2017
*Genre: Thrash Metal/Crossover
*Country: United States
*Format: mp3@CBR320kbps
*Size: 108MB

Tracklist:
01.Five Year Plan 04:04
02.Redline 03:03
03.The Explorer 01:36
04.Karma 02:01
05.Soup Kitchen 01:57
06.Mad Man 00:49
07.Couch Slouch 01:27
08.Fun 'n Games 02:11
09.Yes Ma'am 01:51
10.Reaganomics 00:44
11.Commuter Man 00:54
12.Tear It Down 03:59
13.No Religion 03:10
14.Probation 03:56
15.Oblivion 04:09
16.Go Die! 03:41
17.Argument Then War 03:22
18.Nursing Home Blues 03:58
******************************
Total playing time: 46:52

The Five Year Plan

[more=Extended info]Professionally recorded show D.R.I. on their Crossover tour back in June 27th 1987 at the Ritz in NY.
Sound was restored and remastered by Shawn Franklin of TDX.

Info from metal-archives.com[/more]

[more=Technical info]
Input File: 08. Fun & Games (Live).mp3
Channels : 2
Sample Rate : 44100
Precision : 16-bit
Duration : 00:02:08.77 = 5678845 samples = 9657.9 CDDA sectors
File Size : 5.24M
Bit Rate : 326k
Sample Encoding: MPEG audio (layer I, II or III)
Comments :
Title=Fun & Games (Live)
Artist=D.R.I.
Album=Live at the Ritz, 1987
Tracknumber=8
Genre=Metal
Discnumber=1

[/more]

Register
(18) Aresson, artscald, cancer1974, Diflock, fabriziomagno, infozahist, jano14ale, khestanow3001, killingod, lyukon, respect, Reverend, Rosen, varlam4, wgs73, wreak, WX419, ZA670,
Apr 18 2017, 11:02:31 Fever Nest - Black Carrion Fowl [ep] (2017)


*Artist: Fever Nest
*Album: Black Carrion Fowl [ep]
*Year: 2017
*Genre: Black Metal/Punk
*Country: United States
*Format: mp3@CBR128kbps
*Size: 19MB

Tracklist:
01.Slave To Living, Born To Die 04:49
02.Provocation Of Doom 03:00
03.Forked Tongue Gospel 03:59
04.Charred Black Remains 04:36
05.I Will Show You The Abyss 04:15
******************************
Total playing time: 20:39



Register
(6) Immortality, kim666, marilin, Rosen, sksxxx, wgs73,
Apr 18 2017, 09:15:21 Dark Funeral - Dark Funeral 2017.04.15 Volta Club,Moscow,Russia [bootleg] (2017)


*Artist: Dark Funeral
*Album: Dark Funeral 2017.04.15 Volta Club,Moscow,Russia [bootleg]
*Year: 2017
*Genre: Black Metal
*Country: Sweden
*Format: mp3@CBR320kbps
*Size: 201MB

Tracklist:
01.Intro 2:40
02.Unchain My Soul 5:28
03.The Secrets of the Black Arts 4:30
04.666 Voices Inside 5:02
05.The Arrival of Satan's Empire 4:01
06.Stigmata 5:43
07.As I Ascend 6:17
08.The Eternal Eclipse 5:02
09.Ravenna Strigoi Mortii 5:06
10.Open the Gates 4:34
11.As One We Shall Conquer 5:08
12.Goddess of Sodomy 4:08
13.Thy Legions Come 4:31
14.My Funeral 8:19
Encore:
15.Nail Them to the Cross 5:13
16.Atrum Regina 5:39
17.Where Shadows Forever Reign 5:54
******************************
Total playing time: 1:27:15

666 Voices Inside
The Eternal Eclipse
Goddess of Sodomy

[more=Extended info]Dark Funeral 2017.04.15 Volta Club,Moscow,Russia - Live!
Качество на 3+ по пятибалльной.[/more]

[more=Technical info]
Input File: 05.The Arrival of Satan\'s Empire.mp3
Channels : 2
Sample Rate : 44100
Precision : 16-bit
Duration : 00:04:02.00 = 10672112 samples = 18149.9 CDDA sectors
File Size : 9.68M
Bit Rate : 320k
Sample Encoding: MPEG audio (layer I, II or III)
Comments :
Artist=Dark Funeral
Album=Dark Funeral 2017.04.15 Volta Club,Moscow,Russia
Year=2017
Genre=Black metal

[/more]

Register
(10) 1968_janeart, caro, craP_cillA, Hell_Is_Here, rom666, Rosen, thenecromancer, varlam4, vosmidesijatye, wreak,
Apr 17 2017, 12:39:17 Top of the Top
Ну в могилу не собираюсь а в космос или на остров взял бы вот эти:

Celtic Frost - Morbid Tales / Emperor's Return 1986
Celtic Frost - To Mega Therion 1985
Celtic Frost - Into the Pandemonium 1987
Celtic Frost - Monotheist 2006
Hellhammer - Apocalyptic Raids 1990 A.D.
Apollyon Sun - Sub 2000
Triptykon - Eparistera Daimones 2010
Triptykon - Melana Chasmata 2014
Napalm Death - Scum 1987
Deicide - Legion 1992
Entombed - Left Hand Path 1990
Kreator - Pleasure to Kill 1986
Carcass - Symphonies of Sickness 1989
Slayer - South of Heaven 1988
Death - Leprosy 1988
(1) AB5,
Apr 17 2017, 12:34:50 Napalm Death - Napalm Death 2017.04.11, Legendos Club, Vilnius, Lithuania [bootleg] (2017)


*Artist: Napalm Death
*Album: Napalm Death 2017.04.11, Legendos Club, Vilnius, Lithuania [bootleg]
*Year: 2017
*Genre: Grindcore/Death Metal
*Country: United Kingdom
*Format: mp3@CBR320kbps
*Size: 165MB

Tracklist:
01.Apex Predator – Easy Meat 0:45
02.Evolved as One 2:14
03.It's a M.A.N.S. World! 0:53
04.The Wolf I Feed 4:12
05.Smash A Single Digit 1:32
06.Stunt Your Growth 2:34
07.On the Brink of Extinction 4:14
08.Stubborn Stains 4:42
09.Scum 2:27
10.The Kill 0:29
11.Deceiver 0:38
12.You Suffer 0:32
13.From Enslavement to Obliteration 2:26
14.The Code Is Red... Long Live the Code 4:16
15.Twist the Knife (Slowly) 3:20
16.Quarantined 3:30
17.Dear Slum Landlord... 2:03
18.I Abstain 4:14
19.How The Years Condemn 3:42
20.Suffer The Children 4:18
21.If the Truth Be Known 4:49
22.Face Down in the Dirt (Offenders cover) 1:53
23.Hate, Fear and Power (Hirax cover) 0:57
24.Nazi Punks Fuck Off (Dead Kennedys cover) 2:23
25.Persona Non Grata 2:48
26.Smear Campaign 4:40
******************************
Total playing time: 1:10:31

Scum
From Enslavement to Obliteration

[more=Extended info]Napalm Death 2017.04.11, Legendos Club, Vilnius, Lithuania - Live!
Качество на 3 по пятибалльной.[/more]

[more=Technical info]
Input File: 04-The Wolf I Feed.mp3
Channels : 2
Sample Rate : 44100
Precision : 16-bit
Duration : 00:04:12.89 = 11152537 samples = 18966.9 CDDA sectors
File Size : 10.2M
Bit Rate : 323k
Sample Encoding: MPEG audio (layer I, II or III)
Comments :
Title=The Wolf I Feed
Artist=Napalm Death
Album=2017-04-11 - Legendos Club - Vilnius, Lithuania
Tracknumber=4
Year=2017

[/more]

Register
(7) Baracuda, craP_cillA, Hell_Is_Here, Rosen, uk82, wreak, Варонъ,
Apr 15 2017, 17:21:15 Suicidal Tendencies - Suicidal Tendencies 2017.04.06 Bordeaux,Krakatoa. [bootleg] (2017)


*Artist: Suicidal Tendencies
*Album: Suicidal Tendencies 2017.04.06 Bordeaux,Krakatoa. [bootleg]
*Year: 2017
*Genre: Thrash Metal/Crossover
*Country: United States
*Format: mp3@CBR320kbps
*Size: 248MB

Tracklist:
01.Intro 2:17
02.You Can't Bring Me Down 7:42
03.I Shot Reagan 2:25
04.Clap Like Ozzy 4:21
05.Freedumb 5:00
06.Trip At The Brain 6:54
07.Impro With Local Drummer 1:51
08.Get Your Fight On 6:06
09.War Inside My Head 7:27
10.Subliminal 4:20
11.Impro with Local Musicians 5:46
12.Send Me Your Money (Part One) 1:53
13.Send Me Your Money (Part Two) 2:25
14.Possessed To Skate 8:28
15.I Saw Your Mommy 5:05
16.Cyco Vision 6:32
17.How Will I Laugh Tomorrow (Part One) 7:00
18.How Will I Laugh Tomorrow (Part Two)/Pledge Your Allegiance 12:40
19.(encore) 2:48
20.Living for Life 5:23
21.Outro Audience 1:32
******************************
Total playing time: 1:47:55

You Can't Bring Me Down
Send Me Your Money

[more=Extended info]Suicidal Tendencies 2017.04.06 Bordeaux,Krakatoa-Live!.
Качество хорошее.На 4 по пятибалльной.[/more]

[more=Technical info]
Input File: 03 I Shot Reagan.mp3
Channels : 2
Sample Rate : 44100
Precision : 16-bit
Duration : 00:02:25.96 = 6436924 samples = 10947.1 CDDA sectors
File Size : 5.84M
Bit Rate : 320k
Sample Encoding: MPEG audio (layer I, II or III)
Comments :
Artist=Suicidal Tendencies
Album=Suicidal Tendencies 2017.04.06 Bordeaux,Krakatoa.
Year=2017
Genre=Thrash Metal/Crossover

[/more]

Register
(5) Diflock, Rosen, uk82, varlam4, wreak,

50 Pages V   1 2 3 > » 
- Lo-Fi Version Support form
Copyrights and abuse reports form
Time is now: 20th October 2019 - 22:38:02