Welcome Guest ( Log In | Register )

История благодарностей участнику abob ::: Спасибо сказали: 899 раз(а)
Дата поста: В теме: За сообщение: Спасибо сказали:
Apr 5 2020, 11:46:54 Nirriti - অসূর্যস্পর্শা (Asuryasparsha) ep (Black/Death)
Плюсую.
(1) babanguida,
Mar 22 2020, 15:29:59 The Body - Remixed (2019)
Register
(1) Chasm,
Mar 14 2020, 18:12:01 Today Needed
INDARKNESS, премного благодарен 9.gif
(2) INDARKNESS, infiltrator,
Jan 17 2020, 20:02:34 Новости Black-направления
ЦИТАТА(gena @ Jan 17 2020, 16:42:44) *
Ride For Revenge - Nightmare Disturbances...

Ютуб четко сработал, послушал превьюшку, а он мне хоп:

[youtube]hO8ELj0ugk4[/youtube]
(2) DarkHorde, infiltrator,
Jan 4 2020, 17:55:21 Новости Black-направления
Kestrel - Primordial Remembrance. Recorded between 2010 and 2017...

(3) acerbus, Daale, infiltrator,
Dec 30 2019, 05:32:37 Новости Black-направления
Новость от 18 ноября, просто на форуме этого нет. К слову индийцы, можно потихоньку начинать писать про переоцененную индийскую сцену 1488.gif

[youtube]_aaA06d9gkI[/youtube]

(2) infiltrator, Occultas,
Dec 12 2019, 14:47:53 Antediluvian - λόγος (2013)
[youtube]2zDxUN6P1Q0[/youtube]
(4) infiltrator, mirotvorets, Occultas, Фо,
Dec 10 2019, 12:44:33 [Amatory] - Doom (2019)
[more="Тест - узнал людей на фотках - поклонник хрени fear.gif "][youtube]sD21fOxt2FM[/youtube] [youtube]tEGQUKii_lI[/youtube][/more]
(1) Bloodn Lord,
Dec 4 2019, 12:23:21 Leviathan - Verrater (2002)
Крутой артворк с переиздания.

(1) Фо,
Oct 18 2019, 10:26:29 Teitanblood - The Baneful Choir (2019)
01. интро
02. интро
03. альбом начинается
04. норм
05. норм
06. инт...
07. ...ро
08. нечто с одним рифом на весь трек
09. альбом продолжается
10. альбом заканчивается
11. аутро

В целом же понравилось, без неприятных сюрпризов.
(8) acerbus, Ainar, Bekkerev, Ghostb, infiltrator, mirotvorets, Shadechaser, vosmidesijatye,
Aug 5 2019, 14:38:19 Father Befouled - Holy Rotten Blood [ep] (2019)
Залейте пожалуйста компиляцию Enthroning Desolation: A Collection of Demos, Live, & Rare Tracks
(1) FlammenTod666,
Jul 12 2019, 07:57:24 Новости Black-направления
Shrine of Insanabilis - pray.gif
(5) biroutios, Daale, infiltrator, rimfrost, suseka,
May 7 2019, 15:04:00 Vitriol - Pain Will Define Their Death [ep] (2017)
Посоветуйте похожей музыки 9.gif
(1) POMAHOB,
May 3 2019, 11:11:15 Nuclear Magick - Priests Of The Bomb [demo] (2010)
320
Register

(1) Wail,
May 3 2019, 11:09:30 Nuclear Magick - Mutual Retaliation [ep] (2012)
320
Register
(2) stumpheavyrock, wendigo,
Apr 30 2019, 11:45:57 Oaken Tower - Ancestral Star [demo] (2013)
Ров шит, как говорится. Одно время искал эту демку, а щас уже и не интересно.

[youtube]5VJ1oHYfBnI[/youtube]
(1) rickzammuto,
Apr 29 2019, 17:00:25 Новости Death Metal направления
Может было...

Father Befouled -

Encoffination -

Комбо, альбомы выходят 17 мая, причем на разных лейблах.
(2) infiltrator, Occultas,
Jan 14 2019, 15:32:56 Новости Black-направления
Вот это вот неожиданно и интересно.
(1) acerbus,
Dec 24 2018, 17:58:53 Oppression - Silence! [demo] (2013)
Вот это крутые чуваки, рекомендую, но не эту демку, а все что дальше, новый альбом уже на бендкампе. Блекенед панк вполне себе сформировавшееся ответвление - не успело зародиться, как в скором времени и выродилось, превратившись в безликое одно и то же раз за разом. И под ним обычно понимает нечто Bone Awl – подобное, но тут черный панк, как он есть.
(2) Borderline1991, Orkkh,
Dec 9 2018, 19:16:01 Медленный,Оккультный,мрачный Death Metal,Blackened Death Metal
Swallowed и Mefitic попробуй.
(1) Anhra Mainyu,
Nov 16 2018, 13:06:42 The Korea - Calypso Act Ii (2018)
Люблю эту группу, слушаю начиная с первой демки. Но новые альбомы тяжело воспринимать, музыка уже малоинтересна, а после ухода вокалиста - основателя вообще связь потерялась.

[youtube]3voyYW184cM[/youtube]
(1) DenisKov,
Nov 3 2018, 08:47:14 Father Befouled - Sacrificing Oblivion [demo] (2008)
ЦИТАТА(SIG @ Oct 19 2014, 20:00:27) *
vbr

Register
(2) nord6666, Pinhead666,
Oct 6 2018, 08:58:57 Circle Of Ouroborus - MatterEther [ep] (2010)
320
Register
(3) ambre, garmonbozia, Авел,
Jul 18 2018, 20:12:55 Elder Charon - Silentium [ep] (2017)


*Artist: Elder Charon
*Album: Silentium [ep]
*Year: 2017
*Genre: Deathcore
*Country: Russian Federation
*Format: mp3@CBR320kbps
*Size: 31MB

Tracklist:
01. Инферно
02. Подчинение
03. Безмолвие
04. Жатва
05. Скорбь
******************************
Total playing time: 13:21

Preview 1

[more=Extended info]Дезкор не слушаю, а тут прям понравилось. Атмосферно так и в меру пафосно.

[youtube]j3zijBMmmkg[/youtube][/more]

[more=Technical info]
Input File: 1 Инферно.mp3
Channels : 2
Sample Rate : 44100
Precision : 16-bit
Duration : 00:01:25.66 = 3777606 samples = 6424.5 CDDA sectors
File Size : 3.43M
Bit Rate : 320k
Sample Encoding: MPEG audio (layer I, II or III)
Comments :
Title=Инферно
Artist=Elder Charon
Album=Silentium
Tracknumber=1

[/more]

Register
(2) infiltrator, Rosen,
Jul 9 2018, 21:44:53 Black Witchery - Inferno Of Sacred Destruction (2010)
320
Register

(3) babanguida, infiltrator, Tino,

14 Pages V   1 2 3 > » 
- Lo-Fi Version Support form
Copyrights and abuse reports form
Time is now: 7th April 2020 - 11:38:01