Welcome Guest ( Log In | Register )

История благодарностей участнику abob ::: Спасибо сказали: 862 раз(а)
Дата поста: В теме: За сообщение: Спасибо сказали:
Oct 18 2019, 10:26:29 Teitanblood - The Baneful Choir (2019)
01. интро
02. интро
03. альбом начинается
04. норм
05. норм
06. инт...
07. ...ро
08. нечто с одним рифом на весь трек
09. альбом продолжается
10. альбом заканчивается
11. аутро

В целом же понравилось, без неприятных сюрпризов.
(7) acerbus, Ainar, Bekkerev, infiltrator, mirotvorets, Shadechaser, vosmidesijatye,
Aug 5 2019, 14:38:19 Father Befouled - Holy Rotten Blood [ep] (2019)
Залейте пожалуйста компиляцию Enthroning Desolation: A Collection of Demos, Live, & Rare Tracks
(1) FlammenTod666,
Jul 12 2019, 07:57:24 Новости Black-направления
Shrine of Insanabilis - pray.gif
(5) biroutios, Daale, infiltrator, rimfrost, suseka,
May 7 2019, 15:04:00 Vitriol - Pain Will Define Their Death [ep] (2017)
Посоветуйте похожей музыки 9.gif
(1) POMAHOB,
May 3 2019, 11:09:30 Nuclear Magick - Mutual Retaliation [ep] (2012)
320
Register
(2) stumpheavyrock, wendigo,
Apr 30 2019, 11:45:57 Oaken Tower - Ancestral Star [demo] (2013)
Ров шит, как говорится. Одно время искал эту демку, а щас уже и не интересно.

[youtube]5VJ1oHYfBnI[/youtube]
(1) rickzammuto,
Apr 29 2019, 17:00:25 Новости Death Metal направления
Может было...

Father Befouled -

Encoffination -

Комбо, альбомы выходят 17 мая, причем на разных лейблах.
(2) infiltrator, Occultas,
Jan 14 2019, 15:32:56 Новости Black-направления
Вот это вот неожиданно и интересно.
(1) acerbus,
Dec 24 2018, 17:58:53 Oppression - Silence! [demo] (2013)
Вот это крутые чуваки, рекомендую, но не эту демку, а все что дальше, новый альбом уже на бендкампе. Блекенед панк вполне себе сформировавшееся ответвление - не успело зародиться, как в скором времени и выродилось, превратившись в безликое одно и то же раз за разом. И под ним обычно понимает нечто Bone Awl – подобное, но тут черный панк, как он есть.
(2) Borderline1991, Orkkh,
Dec 9 2018, 19:16:01 Медленный,Оккультный,мрачный Death Metal,Blackened Death Metal
Swallowed и Mefitic попробуй.
(1) Anhra Mainyu,
Nov 16 2018, 13:06:42 The Korea - Calypso Act Ii (2018)
Люблю эту группу, слушаю начиная с первой демки. Но новые альбомы тяжело воспринимать, музыка уже малоинтересна, а после ухода вокалиста - основателя вообще связь потерялась.

[youtube]3voyYW184cM[/youtube]
(1) DenisKov,
Nov 3 2018, 08:47:14 Father Befouled - Sacrificing Oblivion [demo] (2008)
ЦИТАТА(SIG @ Oct 19 2014, 20:00:27) *
vbr

Register
(2) nord6666, Pinhead666,
Oct 6 2018, 08:58:57 Circle Of Ouroborus - MatterEther [ep] (2010)
320
Register
(2) ambre, garmonbozia,
Jul 18 2018, 20:12:55 Elder Charon - Silentium [ep] (2017)


*Artist: Elder Charon
*Album: Silentium [ep]
*Year: 2017
*Genre: Deathcore
*Country: Russian Federation
*Format: mp3@CBR320kbps
*Size: 31MB

Tracklist:
01. Инферно
02. Подчинение
03. Безмолвие
04. Жатва
05. Скорбь
******************************
Total playing time: 13:21

Preview 1

[more=Extended info]Дезкор не слушаю, а тут прям понравилось. Атмосферно так и в меру пафосно.

[youtube]j3zijBMmmkg[/youtube][/more]

[more=Technical info]
Input File: 1 Инферно.mp3
Channels : 2
Sample Rate : 44100
Precision : 16-bit
Duration : 00:01:25.66 = 3777606 samples = 6424.5 CDDA sectors
File Size : 3.43M
Bit Rate : 320k
Sample Encoding: MPEG audio (layer I, II or III)
Comments :
Title=Инферно
Artist=Elder Charon
Album=Silentium
Tracknumber=1

[/more]

Register
(2) infiltrator, Rosen,
Jul 9 2018, 21:44:53 Black Witchery - Inferno Of Sacred Destruction (2010)
320
Register

(2) babanguida, Tino,
Jul 9 2018, 21:33:59 Antichrist - Sacrament Of Blood (2011)
Вроде бы на nwn писали, что они альбом записывают.
(1) babanguida,
Jun 6 2018, 09:59:07 Nuctemeron - Procreator Of Sin [best of/compilation] (2007)
320 вроде.
Register
(8) Alfredoelruso, dermarsoran, FUDEDOR, lawronchik, morbidangelo, taufan99, thenecromancer, WX419,
May 30 2018, 04:38:18 Antediluvian - Watchers' Reign [best of/compilation] (2010)
Register
(1) Goatrex,
May 18 2018, 21:18:35 Akrabu - Ziggurat Ascension (2015)
Register
(2) bvedargh, thenecromancer,
Mar 17 2018, 12:03:07 Тибетские духовые трубы и длинные рожки в BM
ЦИТАТА(Qliphoth @ Feb 27 2009, 01:21:50) *
Вроде бы не упоминался проект SVASTI-AYANAM - "Sanklesa". Весьма в тему я считаю будет.

Первое впечатление - очень круто. Побежал качать...
[youtube]7CfWu1lhWtA[/youtube]
(1) Ulfhethnaar,
Mar 1 2018, 17:11:23 Leviathan & Crawl - Leviathan/Crawl [split] (2018)
А мне его блек не нравится, слушаю только альбом с амбиентом, а этот трек понравился, такой альбом я бы послушал.
(1) Anataas,
Feb 20 2018, 20:10:05 Агата Кристи - Опиум (1994)
ЦИТАТА(Vastich @ Feb 20 2018, 21:56:53) *
Может даже скачаю и послушаю))

Я уже несколько лет собираюсь нормально послушать 1488.gif Тоже ни одного альбома целиком не слушал, знаю только песни, которые по радио раньше часто крутили.
(1) vosmidesijatye,
Feb 14 2018, 09:26:29 Новости Black-направления
[youtube]fzB-Mol6I1g[/youtube]

ЦИТАТА
This piece is taken from the upcoming album "Mythen, Mären, Pestilenz" which will be released March 23rd.

(2) garmonbozia, infiltrator,
Dec 15 2017, 09:20:44 Prurient - Rainbow Mirror (2017)
Раз такое дело, то может кто-нибудь зальет Genocide Organ - Civilization?

garmonbozia, я недавно как раз накачал их дискографию, в основном из вк все, если надо...
(1) garmonbozia,
Nov 21 2017, 14:06:45 Today Needed (2) infiltrator, thenecromancer,

14 Pages V   1 2 3 > » 
- Lo-Fi Version Support form
Copyrights and abuse reports form
Time is now: 22nd October 2019 - 15:00:06