Welcome Guest ( Log In | Register )

История благодарностей участнику TubusTD ::: Спасибо сказали: 18 раз(а)
Дата поста: В теме: За сообщение: Спасибо сказали:
Mar 28 2015, 14:42:52 Triple Dewormint - Uretro FM (2015)


*Artist: Triple Dewormint
*Album: Uretro FM
*Year: 2015
*Genre: Cybergoregrind/Groovy Goregrind/Gabber/EBM
*Country: Russian Federation
*Format: mp3@CBR320kbps
*Size: 69MB

Tracklist:
01. Hydrospiridon Village 01:13
02. Pipe Fluids 01:34
03. Anal Manual 01:08
04. Testicles Mighty Slam 00:51
05. Rectal Deratisation 01:40
06. Bestial Time O Cock 01:51
07. The Bitch Pit 00:58
08. Pee Like Laser Poo Like Bomb 00:52
09. Enema Inside You 01:17
10. Reeking Mush Beneath Each Cavity (Ldoh Cover)00:52
11. Twat Insertion In Gabber 01:08
12. No Limits (2 Unlimited Cover) 01:13
13. Arachnotron Goes To First Grade 01:32
14. Toilet Possession 01:22
15. Vomitopisikakie 01:07
16. Ancient Anuscripts 00:35
17. Go Get Busy (Dj Weirdo & Dj Slim Cover) 01:05
18. Drop It (3 Steps Ahead Cover) 02:07
19. H. Bomb (Business Cover) 01:07
20. Acab (4 Skins Cover) 00:40
21. Pessa Pessa (Masoko Solo Cover) 02:23
22. Flipper The Latex Ruffneck 01:04
23. Hey Nooby Uboo! 02:17
******************************
Total playing time: 29:56

vk wall

[more=Extended info]TD-07[/more]

[more=Technical info]
Input File: 09_ENEMA!!!.wav
Channels : 2
Sample Rate : 44100
Precision : 24-bit
Duration : 00:01:17.22 = 3405535 samples = 5791.73 CDDA sectors
File Size : 20.4M
Bit Rate : 2.12M
Sample Encoding: 24-bit Signed Integer PCM

[/more]

Register
(5) ddarkthrone, morbidangelo, Rosen, wreak, Герб,
Sep 24 2014, 20:15:08 Triple Dewormint & Bodily Wastes & Lymphoma & Phyllomedusa & Anal Bag - R.A.W. #1 (Regressive Ass Welding) [split] (2011)


*Artist: Triple Dewormint & Bodily Wastes & Lymphoma & Phyllomedusa & Anal Bag
*Album: R.A.W. #1 (Regressive Ass Welding) [split]
*Year: 2011
*Genre: Gorenoise | Gorenoise | Gorenoise | Gorenoise | Gorenoise
*Country: Russian Federation | Russian Federation | Sweden | United States | Bulgaria
*Format: mp3@CBR320kbps
*Size: 41MB

Tracklist:
Bodily Wastes:
01. Delicate Process Of Gathering Solid Stool Fragments From The Prolapsed Rectum By Means Of Disconnecting Them From The Tissue With The Forceps
02. Performing Anterior Vitrectomy To Replace Vitreous Humour With Thick Fecal Substance For Checking The Functions Of The Eye In This Unusual Condition
03. Constant Sense Of Orchialgia Caused By The Protrusion Of Abdominal Contents Into The Spermatic Cord Through The Internal Inguinal Ring
Lymphoma:
04. Genetic Predisposition Of Tumours
Triple Dewormint:
05. Trolls From The Prostokwashino
06. Mamila Stapler
07. Mogulio The Mexican Guy
08. Paravozik Swamp Swamp Swamp
09. Lazy Booger
10. Scan Kakashkio Trest
11. I Have No Sex With Cornstars
12. Raskopka Jop
Phyllomedusa:
13. Carbamiclike Diurent Droplet / Stimulating Malfollisecretion
14. Silurana Epitropicalis
Anal Bag:
15. Cum Eruption
16. Decomposition
17. Hard And Deep
18. Ptomaphila
19. Pus Tornado
20. Underwater Party
******************************
Total playing time: 21:54

[more=Extended info]BB - 008: Bodily Wastes & Lymphoma & Triple Dewormint & Phyllomedusa & Anal Bag - Regressive Ass Welding # 1 (R.A.W. #1) [split 2011][/more]

[more=Technical info]
Input File: 09 - Triple Dewormint - Lazy Booger.mp3
Channels : 2
Sample Rate : 44100
Precision : 16-bit
Duration : 00:00:43.03 = 1897535 samples = 3227.1 CDDA sectors
File Size : 1.38M
Bit Rate : 256k
Sample Encoding: MPEG audio (layer I, II or III)
Comments :
Title=Lazy Booger
Artist=Triple Dewormint
Album=R.A.W.1
Tracknumber=09/20
Genre=Gorenoise

[/more]

Register
(3) ddarkthrone, Lanceatum, spiritualdecay666,
Sep 22 2014, 19:43:54 Triple Dewormint & Bodiliy Wastes & Spermorrhoea & Biliary Sludge & Spitting Womb & Circliquetois - Spermatographic Hallucinations [split] (2012)


*Artist: Triple Dewormint & Bodiliy Wastes & Spermorrhoea & Biliary Sludge & Spitting Womb & Circliquetois
*Album: Spermatographic Hallucinations [split]
*Year: 2012
*Genre: Gorenoise | Gorenoise | Gorenoise | Gorenoise | Gorenoise | Gorenoise
*Country: Russian Federation | Russian Federation | France | Russian Federation | Belarus | Mexico
*Format: mp3@CBR320kbps
*Size: 102MB

Tracklist:
Bodiliy Wastes:
01. Delicious Contents Of The Juicy Hookworm-Infested Fecaloma
02. Coprocannibalistic Devourment Of The Anally Born Shit Covered Infant
03. Pieces Of Rotten Brain Got Stuck Beneath My Foreskin During The Intracranial Intercourse With A Decomposing Corpse
04. Chewing On The Crunchy Dried Up Mass Of Mucopurulent Sputum Which Was Orally Discharged By A Sick Whore
05. Mixture Of Cum And Vomit Gushes From Her Nostrils While Her Mouth Is Plugged With My Dirty Bloater-Smelling Smegma Covered Dick
06. Biting Through The Subconjunctival Tissue Of The Loiasis Victim's Removed Eyeball To Suck Out The Tasty Nematodes
07. Causing Lethal Trauma To The Fetus With My Deadly Pulsating Phallus By Sticking It Deep Inside The Pregnant Crackwhore's Syphilitic Cunt
08. Festering Wounds Are Easier To Use For Sexual Purpose Because Pus Serves As Lubrication
Spermorrhoea:
09. Horrible Stench Of Penis Necrosis
10. Swamped In Infectious Medical Waste
11. Hermaphrodit Orchidovulvitis
12. Experimental Procedures Of Colostomy Enema Through Catheter
13. Masturbating In Mastectomy Remanants
14. Bathing In Fermented Urinary Dejections
15. Vaginal Suture As Perpetual Chastety Punishment
16. Necrotic Expulsion Of Seminal Juices
Triple Dewormint:
17. Popurins
Biliary Sludge:
18. Untitled
19. Untitled
20. Untitled
21. Untitled
Spitting Womb:
22. Scatological Bitch Decomposition
23. Congenital Desire To Observe Defecation Process
24. Mutations In Nuclear Dna
25. Prostatitis With Hemorrhagico-Purulent Emanation Through The Urethra
26. Head Overflowed Stale Excrements
27. Congenital Cyst Of The Larynx
28. Spinocerebellar Ataxia
29. P.U.S. (Putrid Utera Shredder)
30. Spermatocystectomy
31. Torso Explosion
32. Disgusting Rotten Bowels
33. Toilet And Other Good Places For Visiting
34. Traumatic Hemorrhages
35. Inserting A Frozen Turd In A Body Of A Defecated Victim
36. Sharp Radiation Sickness
37. Autopsy Findings
Circliquetois:
38. Bug Light
39. Choose Your Poison
40. Death Sentence
41. Enter The Graveyard
42. The Horror
43. You Got A Problem
******************************
Total playing time: 44:48

[more=Extended info]Realised by TaDa records (TD-01) at 15.10.2012[/more]

[more=Technical info]
Input File: 41.mp3
Channels : 2
Sample Rate : 44100
Precision : 16-bit
Duration : 00:01:09.96 = 3085324 samples = 5247.15 CDDA sectors
File Size : 1.40M
Bit Rate : 160k
Sample Encoding: MPEG audio (layer I, II or III)
Comment : 'Artist=Circliquetois'

[/more]

Register
(5) ddarkthrone, Lanceatum, randumbum, spiritualdecay666, xxdarkmanxx,
Jan 26 2014, 01:42:40 Triple Dewormint & The Castrull Of Borsch - Digestion Industry [split] (2014)


*Artist: Triple Dewormint & The Castrull Of Borsch
*Album: Digestion Industry [split]
*Year: 2014
*Genre: Gorenoise | Gorenoise
*Country: Russian Federation | Ukraine
*Format: mp3@CBR320kbps
*Size: 28MB

Tracklist:
Triple Dewormint:
01.Need A Needle To Penetrate The Patella 0:34
02.Surfing Cummed Bahila 0:48
03.Padla Na Samovivoze 0:28
04.Sparging Colon 0:28
05.Poolparty Under 69 MegaVolts (Probably) 0:37
06.Incident With Two Pencils And Nose In Japanish Restaurant 0:39
The Castrull Of Borsch:
07.Nitro (The Sewerage Is My Church) 2:23
08.Pan Crown 1:27
09.Hoholocaust! 0:18
10.Varicose Gay Ortodox 0:44
11.Borsch-Aphrodisiak 0:36
12.Sip Of Train Tea And Erection With Current 0:38
13.Zaporъ 0:39
14.Mussоra (Ukrainian Pacman) 0:22
15.Cry And Nervous Rumble Of The Defrosted Refrigerator 0:31
16.Last Veteran 0:52
******************************
Total playing time: 12:04

[more=Extended info]Released by TaDa records at 25.01.2014
TD-08: Digestion Industry [2-way split][/more]

[more=Technical info]
Input File: 05_-_Poolparty_Under_69_Mega_Volts_(Probably).mp3
Channels : 2
Sample Rate : 44100
Precision : 16-bit
Duration : 00:00:36.54 = 1611458 samples = 2740.57 CDDA sectors
File Size : 1.47M
Bit Rate : 321k
Sample Encoding: MPEG audio (layer I, II or III)
Comments :
Title=Poolparty Under 69 MegaVolts (Probably)
Artist=Triple Dewormint
Album=Digestion Industry [2-way split]
Tracknumber=05/16
Genre=Gorenoise/Goregrind[/more]
Register
(4) ddarkthrone, Lanceatum, spiritualdecay666, Герб,
May 19 2009, 13:28:07 9-Way Split Cyber Shit Mutation
9-Way Split Cyber Shit Mutation





Artist: WORMxCUMxSHOT/Обруч!/Bloody Fist Jackoff Assassination/Бухой Бэтмэн/Triple Dewormint/Weekly Anal Menstruation/CYFRA/Cunt Slicing Poopy Chair/HUMAN ERROR DEFECATION
Album: 9-way Split Cyber Shit Mutation
Year: 2009
Style: goregrind/emo-grind/cybergore/cybergore/cybergore/cybergore/cybergore/cybergore/goregrind
Country: Japan/Russia/USA/Russia/Russia/Russia/Ukraine/Ukraine/Italy
Label: D.I.Y.
Format: mp3@320
Size: 84.5 Mb

Time: 37:26

Tracklist:

01 - WORMxCUMxSHOT - xxx1
02 - WORMxCUMxSHOT - xxx2
03 - WORMxCUMxSHOT - xxx3
04 - Обруч! - Чешуя И Готовальня
05 - Обруч! - Отставитьпиздеть!
06 - Обруч! - Сукитунеядцы
07 - Обруч! - Косуха
08 - Обруч! - Ебалозакрыть!
09 - Bloody Fist Jackoff Assassination - What Is Life
10 - Бухой Бэтмэн - Я Встал Слева, А Ты - Справа, Я Начал Крутить Хуём По Часовой Стрелке, А Ты - Против И Она Вошла Под Гипноз, Вырвала Себе Зубы И Засунула Себе В Анус
11 - Бухой Бэтмэн - Ты Любишь Пить Сперму Из Стакана С Впаянными В Края Рыболовными Крючками С Насаженными На Них Мужскими Яйцами.
12 - Бухой Бэтмэн - Сорокоградусный Мороз С Кактусом В Жопе Провёл 7 Часов На Своём Хую Ночью На Льдине В Сорокоградусный Мороз С Кактусом В Жопе
13 - Бухой Бэтмэн - Тебя Поймали В Ночном Переулке Два Негра, Один Трахнул Тебя В Левый Глаз И Заткнул Его Клоком Состриженных Лобковых Волос Его 90 - летнего Деда-Каннибала, А Второй Разрезал Тебе Левую Сиську И Засунул Туда Обсыпанный Красным Перцем, Обломок Ржавой Трубы
14 - Triple Dewormint - Virtual Vagina Versus Vegetables
15 - Triple Dewormint - Cybernetic Ananismus
16 - Weekly Anal Menstruation - Анальные недельные
17 - Weekly Anal Menstruation - Челка
18 - Weekly Anal Menstruation - Челка (Demo)
19 - CYFRA - Anal
20 - CYFRA - Jedna Laska
21 - CYFRA - Oral
22 - CYFRA - Utok Digitalneho Nasilnika
23 - CYFRA - Vaginal
24 - Cunt Slicing Poopy Chair - Cybernetic Violence
25 - Cunt Slicing Poopy Chair - Eternal Constipation
26 - Cunt Slicing Poopy Chair - Hatred
27 - Human Error Defecation - Nymphosaurus Sex Lobotomy
28 - Human Error Defecation - Schoolorgy Massacre
29 - Human Error Defecation - Crack Bitch Downtempo
30 - Human Error Defecation - Ebola Scat-O-Vacylum
31 - Human Error Defecation - Messa Di Sangue
32 - Human Error Defecation - Carru Gotciu Crew
33 - Human Error Defecation - PxPxP (PedoPornoPriest)

WORMxCUMxSHOT, Japan, goregrind
http://www.myspace.com/wormcumshot

Обруч!, Russia, emo-grind
http://www.myspace.com/obruch

Bloody Fist Jackoff Assassination, USA, cybergore/experimental
http://www.myspace.com/fistoff666


Бухой Бэтмэн, Russia, cybergore/experimental
http://www.myspace.com/buhoy

Triple Dewormint, Russia, cybergore/experimental
http://www.myspace.com/tripledewormint
http://www.realmusic.ru/tripledewormint/

Weekly Anal Menstruation, Russia, cybergore
http://www.myspace.com/wxaxmx

CYFRA, Ukrain, cybergore
http://myspace.com/cyfragrind
http://bandzone.cz/cyfra

Cunt Slicing Poopy Chair, Ukrain, cybergore
http://www.myspace.com/cxsxpxcx

HUMAN ERROR DEFECATION, Italy, goregrind
http://www.myspace.com/humanxerrorxdefecationx

<333 FREE DOWNLOADING HERE: <333

Links:
Register
(1) Lanceatum,

- Lo-Fi Version Support form
Copyrights and abuse reports form
Time is now: 17th October 2019 - 16:44:16