Welcome Guest ( Log In | Register )

История благодарностей участнику boba ::: Спасибо сказали: 82 раз(а)
Дата поста: В теме: За сообщение: Спасибо сказали:
Dec 20 2019, 20:13:54 Crypt Of Kerberos - Cyclone Of Insanity/Visions Beyond Darkness + Demos [compilation] (2017)
Register
(1) Morda_Morda,
Sep 3 2019, 13:23:13 Fleshmould - Fleshmould 2k (2000)
192 kbps
Register

(1) METALHUNTER,
Jun 16 2019, 09:01:48 Malicious - Black Fumes [ep] (2015)
320 kbps
Register
(1) thenecromancer,
Jun 11 2019, 13:02:32 Maple Cross - The Eighth Day Of Creation (1991)
Anyone has Sacrificed Humanity 88' demo?

320 kbps here:

Register
(1) thenecromancer,
Jun 10 2019, 15:32:08 Today Needed (1) thenecromancer,
Feb 5 2019, 21:31:16 Mephisto - Mephisto (1988)
Does anyone have the "Karthago Records" CD rip released last year?
(1) Mortul,
Oct 30 2018, 00:44:36 Savior - Exploitation (1994)
320 kbps [1995 - Fan Records]
Register
(9) Alfredoelruso, FUDEDOR, idrisnewacc, kalmametallinen, metala, pichileon, samokot, varlam4, Z28517,
Sep 23 2018, 09:21:37 Today Needed (1) thenecromancer,
Jun 21 2018, 22:08:34 Toxikhate - Black Dawn [demo] (1992)


*Artist: Toxikhate
*Album: Black Dawn [demo]
*Year: 1992
*Genre: Thrash Metal
*Country: Canada
*Format: mp3@CBR192kbps
*Size: 72MB

Tracklist:
1. Ghost of Death 05:21
2. Inside World 04:08
3. Nuclear 05:39
4. Hell On Wheels 05:52
5. Thrash Syndrome 03:31
6. Black Dawn 07:09
7. Law of Nature 05:00
8. Blood Opera 03:32
9. Genetic Retaliation 05:57
10. Near Death 05:53 (instrumental)
******************************
Total playing time: 52:02

[more=Extended info]"The band split up in 2001 after many line-up problems along with trouble finding a place for rehearsing."[/more]

[more=Technical info]
Input File: 01 - ghost of death.mp3
Channels : 2
Sample Rate : 44100
Precision : 16-bit
Duration : 00:05:21.40 = 14173696 samples = 24104.9 CDDA sectors
File Size : 7.72M
Bit Rate : 192k
Sample Encoding: MPEG audio (layer I, II or III)
Comments :
Title=Ghost of Death
Artist=Toxikhate

[/more]

Register
(19) Albert66613, Alfredoelruso, Corpuscul, Evilded, ExeThrash, FUDEDOR, gwar, maoniu08, metala, METALHUNTER, Mogozoz, pichileon, Proteus_666, Rosen, Svafrlami, traitor666, wgs73, wreak, Z28517,
May 30 2018, 21:17:23 Iconoclasm - Out For Blood [ep] (2016)


*Artist: Iconoclasm
*Album: Out For Blood [ep]
*Year: 2016
*Genre: Thrash Metal
*Country: United States
*Format: flac
*Size: 71MB

Tracklist:
1. Kingpin
2. Chained
3. Above the Law
4. Out for Blood
******************************
Total playing time: 9:23

[more=Extended info]Contact: IconoclasmATX@gmail.com <br /[/more]

Register
(5) boby9052, Olethros, Proteus_666, Rosen, Vakhangya,
May 30 2018, 21:10:19 Iconoclasm - Commence Your Fate [ep] (2014)
Register
(1) Genuine Thrashiac,
May 28 2018, 23:43:38 Zemial
QUOTE(thenecromancer @ May 28 2018, 10:25:00) *
Flac-rip, from the web, @320 (+ scans):

I don't have that compilation released in 2006, sorry... Try asking in PM to one of the moderators (Borderline1991 or DarkHorde) bye.gif

Thanks thenecromancer for the very fast return and for the references as well.
The sole reason why I'm keeping an eye on this compilation is that I read on some review that 'Necrolatry' tracks having a better sound quality to them, don't know for sure though.
(1) thenecromancer,
May 27 2018, 20:54:30 Raptor - Morbid Tactics [ep] (2012)
QUOTE(Genuine Thrashiac @ May 21 2018, 10:42:30) *

Thanks Genuine Thrashiac. Also, there is a typo in the title of the band's name.
(1) Genuine Thrashiac,
May 22 2018, 20:24:36 Nodens (us)
Hello people,

Looking for some releases by Nodens(us):

Promo 05
Army Darkestra (EP)
Below Mankind Eras (LP)


Thanks for reading.
(1) Precaria,
May 10 2018, 22:59:54 Witchaven - Totalitarian State Of War [best of/compilation] (2009)
Register
(5) artscald, dermarsoran, djurassic, RAMBLA, varlam4,
Apr 21 2018, 01:35:00 Dark Millennium
''Out of the Past'' compilation is lacking. Could anyone share it maybe?
(1) Borderline1991,
Feb 10 2018, 00:16:02 Cabal - Obsessed To Deify [demo] (1993)
reupload someone maybe? Thanks.
(1) Patrick,
Dec 26 2017, 16:06:23 Bribe - Bribed [ep] (2008)
Excellent! Hope they release some stuff soon, thank you satanist666!
(1) satanist666,
Aug 24 2017, 11:05:12 Bloodlust - Cultus Diaboli (2015)
320 kbps.
Register
(2) kim666, thenecromancer,
Feb 24 2017, 15:37:40 Sacrario - Wasted Land [demo] (1988)
Proteus_666, isnt this band the same brazilian act ? According to M-A they were formed in 1992 ?
(1) Z28517,
Feb 14 2017, 16:37:02 Equinox - As The Moon Swallows The Sun [best of/compilation] (2008)
Thanks for fulfilling my request Borderline1991 !
(2) Alfredoelruso, Borderline1991,
Dec 25 2016, 13:06:01 Spectral Incursion - Anthology [best of/compilation] (2011) (2) Spork, Z28517,
Oct 31 2016, 19:58:33 Shub Niggurath - The Black Goatlike Arise [demo] (1993)
link is dead, pls re-up !
(1) dermarsoran,
Oct 18 2016, 21:25:06 Immersed In Blood - Killing Season (2003)
192 kbps
QUOTE
(3) AHBAnep, cuimit1349, samokot,
Oct 8 2016, 12:55:22 Incubus - Incubus [ep] (1989)
Anybody has the remastered version, please share.
(1) Tino,

2 Pages V   1 2 >
- Lo-Fi Version Support form
Copyrights and abuse reports form
Time is now: 24th January 2020 - 05:51:29