Welcome Guest ( Log In | Register )

История благодарностей участнику raytoyagami ::: Спасибо сказали: 2383 раз(а)
Дата поста: В теме: За сообщение: Спасибо сказали:
Jul 8 2019, 02:13:18 Vex - The Machine Shop Sessions (2018)


*Artist: Vex
*Album: The Machine Shop Sessions
*Year: 2018
*Genre: Blackened/Death Metal
*Country: United States
*Format: mp3@CBR320kbps
*Size: 68MB

Tracklist:
01. Circular Ruins
02. Erosion
03. No Such Thing
04. Nowhere Near
******************************
Total playing time: 30:00

[more=Extended info][youtube]KV-7lzxo_Oo[/youtube][/more]

[more=Technical info]
Input File: Vex - Machine Shop Sessions - 01 - Circular Ruins.mp3
Channels : 2
Sample Rate : 44100
Precision : 16-bit
Duration : 00:04:04.15 = 10767147 samples = 18311.5 CDDA sectors
File Size : 9.77M
Bit Rate : 320k
Sample Encoding: MPEG audio (layer I, II or III)
Comments :
Title=Circular Ruins
Artist=Vex
Album=Machine Shop
Tracknumber=1

[/more]

Register
(8) AHBAnep, artscald, canadaspaceman, infiltrator, Olethros, Rosen, VALERY, wreak,
Jul 28 2017, 00:00:57 Rex Brown - Smoke On This... (2017)


*Artist: Rex Brown
*Album: Smoke On This...
*Year: 2017
*Genre: Southern Metal
*Country: United States
*Format: mp3@CBR320kbps
*Size: 101MB

Tracklist:
01. Lone Rider
02. Crossing Lines
03. Buried Alive
04. Train Song
05. Get Yourself Alright
06. Fault Line
07. What Comes Around&
08. Grace
09. So Into You
10. Best Of Me
11. One of These Days
******************************
Total playing time: 43:29



[more=Extended info]Ex: Pantera Bassist[/more]

[more=Technical info]
Input File: 02 - Crossing Lines.mp3
Channels : 2
Sample Rate : 44100
Precision : 16-bit
Duration : 00:02:55.99 = 7761335 samples = 13199.5 CDDA sectors
File Size : 7.16M
Bit Rate : 325k
Sample Encoding: MPEG audio (layer I, II or III)
Comments :
Title=Crossing Lines
Artist=Rex Brown
Album=Smoke On This...
Tracknumber=02
Year=2017
Genre=Southern Metal

[/more]

Register
(19) Anger, Ash_1980, Buregon, jpvalentim, LEGION69, Lux, marilin, Marina543, MeathookSeed, Mist13Signifier, Oskulum, Rosen, SatanicPanzer, Southern, StoneTemple, Tino, Tular, vosmidesijatye, wreak,
Jul 27 2017, 22:46:54 Shadowside - Shades Of Humanity (2017)


*Artist: Shadowside
*Album: Shades Of Humanity
*Year: 2017
*Genre: Heavy/Power Metal
*Country: Brazil
*Format: mp3@CBR320kbps
*Size: 105MB

Tracklist:
1. The Fall 03:41
2. Beast Inside 04:03
3. What If 03:39
4. Make My Fate 03:44
5. Insidious Me 03:51
6. The Crossing 03:55
7. Stream of Shame 03:36
8. Parade the Sacrifice 03:33
9. Drifter 05:41
10. Unreality 03:57
11. Alive 05:45
******************************
Total playing time: 45:25



[more=Extended info]Line Up:
Dani Nolden - Vocals, Keyboards (ex-Soulspell (live))
Raphael Mattos Guitars
Magnus Rosén Bass (Avalanch, Planet Alliance, ex-Keegan, ex-Revolution Renaissance, ex-X-World/5, Magnus Rosén, ex-Fullforce, ex-HammerFall, ex-Jorn, ex-Tony Martin, ex-Von Rosen )
Fabio Buitvidas Drums (Bulletback, Acid Storm, ex-Justness, ex-Pastore, ex-Engrave)[/more]

[more=Technical info]
Input File: 04. Make Me Fate.mp3
Channels : 2
Sample Rate : 44100
Precision : 16-bit
Duration : 00:03:43.74 = 9866758 samples = 16780.2 CDDA sectors
File Size : 9.06M
Bit Rate : 324k
Sample Encoding: MPEG audio (layer I, II or III)
Comments :
Title=Make Me Fate
Artist=Shadowside
Album=Shades of Humanity
Tracknumber=04/11
Year=2017
Genre=Metal
Discnumber=1/1

[/more]

Register
(10) ace73pq, csgmnk, JPV, MeatWolf, metala, Rosen, sadmannn, talismanFS, vir2al, wreak,
Jul 26 2017, 22:14:53 Alice Cooper - Paranormal (2017)


*Artist: Alice Cooper
*Album: Paranormal
*Year: 2017
*Genre: Hаrd Rосk
*Country: United States
*Format: mp3@CBR320kbps
*Size: 155MB

Tracklist:
01. Paranormal (4:11)
02. Dead Flies (2:22)
03. Fireball (4:49)
04. Paranoiac Personality (3:12)
05. Fallen In Love (3:34)
06. Dynamite Road (2:43)
07. Private Public Breakdown (3:26)
08. Holy Water (3:08)
09. Rats (2:39)
10. The Sound of A (4:07)
11. Genuine American Girl (4:27)
12. You And All Of Your Friends (2:42)
13. No More Mr. Nice Guy (Live in Columbus) (3:11)
14. Under My Wheels (Live in Columbus) (2:56)
15. Billion Dollar Babies (Live in Columbus) (3:39)
16. Feed My Frankenstein (Live in Columbus) (5:01)
17. Only Women Bleed (Live in Columbus) (5:08)
18. School's Out (Live in Columbus)(6:06)
******************************
Total playing time: 1:07:21



[more=Extended info]Deluxe Edition Version[/more]

[more=Technical info]
Input File: 01. Paranormal.mp3
Channels : 2
Sample Rate : 44100
Precision : 16-bit
Duration : 00:04:10.69 = 11055605 samples = 18802 CDDA sectors
File Size : 10.1M
Bit Rate : 322k
Sample Encoding: MPEG audio (layer I, II or III)
Comments :
Title=Paranormal
Artist=Alice Cooper
Album=Paranormal
Tracknumber=1
Year=2017
Genre=Glam-Rock, Hard-Rock, Rock

[/more]

Register
(34) Aresson, avkruchinin, cancer1974, caro, cesar, Decadenze, Diflock, djsema4, DMIYUR, Emhyr var Emreis, fabriziomagno, Femto, gwar, hammer, infiltrator, killingod, LEGION69, marilin, Mplast, MеtalHead, oldvarg, Paradayz, Pentium.Disel, Phlebotomized, postal67, Rosen, russ777, satanath, TeamatSE, v.v.m, vam1972, wgs73, zaqxsw, zerger,
Jul 26 2017, 04:00:53 Noturnall - 9 (2017)


*Artist: Noturnall
*Album: 9
*Year: 2017
*Genre: Progressive Metal
*Country: Brazil
*Format: mp3@CBR320kbps
*Size: 96MB

Tracklist:
1. Hey! 05:50
2. Change 04:13
3. Wake Up 05:20
4. Moving On 04:52
5. Mysterious 04:43
6. Hearts As One 03:59
7. What You Waiting For 04:34
8. Shadows 04:06
9. Pain 03:53
******************************
Total playing time: 41:30



[more=Extended info]Thiago Bianchi - vocal (ex-Shaman)
Léo Mancini - guitar (ex-Shaman)
Fernando Quesada - bass (ex-Shaman)
Júnior Carelli - keys (ex-Shaman)
Aquiles Priester - drums (Hangar, ex-Angra)[/more]

[more=Technical info]
Input File: Noturnall - 05 Mysterious.mp3
Channels : 2
Sample Rate : 44100
Precision : 16-bit
Duration : 00:04:43.30 = 12493574 samples = 21247.6 CDDA sectors
File Size : 11.3M
Bit Rate : 320k
Sample Encoding: MPEG audio (layer I, II or III)
Comments :
Title=Mysterious
Artist=Noturnall
Album=9
Tracknumber=5/9
Year=2017
Genre=Heavy Metal
Discnumber=1/1

[/more]

Register
(14) ace73pq, ALIEN25, Bloodn Lord, csgmnk, Kehl05, MeatWolf, metala, MetalW, MMMMM, Rosen, Rover, Wolfera, wreak, Yarri,
Jul 19 2017, 01:59:16 Wintersun - The Forest Seasons (2017)


*Artist: Wintersun
*Album: The Forest Seasons
*Year: 2017
*Genre: Symphonic Melodic Death Metal
*Country: Finland
*Format: mp3@CBR320kbps
*Size: 284MB

Tracklist:
Disc 1:
1. Awaken from the Dark Slumber (Spring) 14:40
2. The Forest That Weeps (Summer) 12:18
3. Eternal Darkness (Autumn) 14:08
4. Loneliness (Winter) 12:54
5. Loneliness (Winter) (Acoustic Bonus Track) 8:02
Disc 2:
1. Awaken from the Dark Slumber (Spring) (Instrumental) 14:41
2. The Forest That Weeps (Summer) (Instrumental) 12:18
3. Eternal Darkness (Autumn) (Instrumental) 14:08
4. Loneliness (Winter) (Instrumental) 12:54
5. Loneliness (Winter) (Instrumental Acoustic Bonus Track) 8:02
******************************
Total playing time: 2:04:05

Preview 1

[more=Extended info]Track 1 is divided in two parts:

Part I: "The Dark Slumber"
Part II: "The Awakening"

Track 3 is divided in 4 parts:

Part I: "Haunting Darkness"
Part II: "The Call of the Dark Dream"
Part III: "Beyond the Infinite Universe"
Part IV: "Death"[/more]

[more=Technical info]
Input File: 05. Loneliness (Winter) (Acoustic Bonus Track).mp3
Channels : 2
Sample Rate : 44100
Precision : 16-bit
Duration : 00:08:02.53 = 21279397 samples = 36189.5 CDDA sectors
File Size : 19.4M
Bit Rate : 321k
Sample Encoding: MPEG audio (layer I, II or III)
Comments :
Title=Loneliness (Winter) (Acoustic Bonus Track)
Artist=Wintersun
Album=The Forest Seasons
Tracknumber=05
Year=2017
Genre=Death Metal

[/more]

Register
(94) 0x13, ad73, Alpha_Prime, amor, Any-maL, Aresson, Bloodn Lord, BRUTAL06, Buregon, Cartman223, chon, cist, csgmnk, Dark_Viking, DenisKov, djsema4, dma-09, dulak, durimaar, Fatalv, Femto, fylopaloma, gav-gafi, Gelukas, gwar, gwynnbleid, Indamage, infiltrator, ironyserg, J0k3r, John Beak, jpvalentim, kakha_k, kalmametallinen, katalin, Kwaad, LEGION69, Lord of Isengard, Ludwig Hagen, Lugia010719d1, LupoArgenteo, MAYH, MeatWolf, Metalass, metaljan, metaljinie, MetallWarriorRus, MMMMM, morbidangelo, MеtalHead, Narasimha, Nattfodd, neoatheist, nospeedlimit, Old Vyaine, oldvarg, olegator667, orest13, Orgasmik, otyk, Paradayz, Radek, randyhermit, RedSparrow, RENыч, Rosen, Ruben, sadmannn, Sanc, SatanicPanzer, satanist666, StabWound, stone88, stormpagan, SymbyoticEntity, syntexid, talismanFS, TeamatSE, thenecromancer, Thiarnan, THROWER666, Thunderbird, varlam4, Victim of fate, Virgil, wrath082, xska, Yanek, yarrsuaa, yuratroll, ZA670, zolotoiskatel, Луч, скептик,
Jan 25 2012, 18:22:38 Swallow The Sun - Emerald Forest And The Blackbird (2012)
Mirror:
Register
(1) Hevinalle,
Nov 29 2011, 13:19:35 Royal Hunt - Show Me How To Live (2011)
Format:Mp3@Vbr V0
Size:102Mb

Register

Or
Register
(9) Any-maL, dammerung, dimitris p., Fatalv, MеtalHead, Rhoads, SAPOGi, Scuns, Virgil,
Nov 29 2011, 02:44:42 Nightwish - Imaginaerum (2011)
Format:Mp3@Cbr320Kbps [Cd-Rip]
Size:174Mb

Register

Or
Register
(2) infiltrator, Kisser,
Nov 18 2011, 23:30:41 Ancient Bards - Soulless Child (2011)
Format:Mp3@Cbr320Kbps [Cd-Rip]
Size:152Mb

Tracklist:
1. Struggle For Life 01:53
2. To The Master Of Darkness 07:33
3. Gates Of Noland 05:13
4. Broken Illusion 05:11
5. All That Is True 09:55
6. Valiant Ride 04:13
7. Dinanzi Al Flagello 01:29
8. Soulless Child 09:15
9. Through My Veins 07:19
10. Hope Dies Last 14:31

Register
(2) AHBAnep, metalboll,
Nov 18 2011, 23:29:32 Iron Savior - The Landing (2011)
Format:Mp3@Cbr320Kbps [Cd-Rip]
Size:135Mb

Tracklist:
1. Descending ( Instrumental) 01:05
2. The Savior 04:48
3. Starlight 04:51
4. March of Doom 04:43
5. Heavy Metal Never Dies 04:14
6. Moment in Time 05:07
7. Hall of the Heroes 05:39
8. R. U. Ready 04:49
9. Faster than All 05:03
10. Before the Pain 04:34
11. No Guts, No Glory 04:31

Digipak Ltd Edition Comes With Following Bonus Tracks:
12. Coming Home (re-recorded version)
13. Atlantis Falling (re-recorded version)

Register

(4) AHBAnep, fticek, satanist666, talismanFS,
Sep 22 2011, 18:13:51 White Wizzard - Flying Tigers (2011)


*Format: mp3@CBR320kbps (Rip My Flac [Lame 3.97])
*Size: 191MB (Covers Included)

Register
(2) digiEuphoria, Hector73,
Sep 20 2011, 21:16:25 Loudness - Eve To Dawn (2011)


Format:Mp3@Cbr320Kbps (Rip My Flac [Lame 3.97])
Size:225Mb (Covers Included)

Register
(3) green7272, Olrak, Re3gerator,
Sep 18 2011, 01:45:28 Almah - Motion (2011)


*Artist: Almah
*Album: Motion
*Year: 2011
*Genre: Power Metal
*Country: Brazil
*Format: mp3@CBR320kbps
*Size: 102MB

Tracklist:
1. Hypnotized
2. Living And Drifting
3. Days Of The New
4. Bullets On The Altar
5. Zombies Dictator
6. Trace Of Trait
7. Soul Alight
8. Late Night in '85
9. Daydream Lucidity
10. When And Why
******************************
Total playing time: 44:37



Register


(23) 170879, AHBAnep, anatolibugar, d-fedorr, Elfrey, Endymion, Foneg, garretje, green7272, gwynnbleid, Mogozoz, mr021ac, Nightveil, oldvarg, Prisoner, Rhoads, satanist666, Scuns, talismanFS, tomjim, varlam4, Wardaemonic, watasan,
Sep 12 2011, 20:45:47 Meliah Rage - Dead To The World (2011)
Mirror:
Register
(1) ace73pq,
Sep 9 2011, 22:56:14 Einherjer - Norrøn (2011)
Format:Mp3@Cbr320Kbps [CD-Rip]
Size:95Mb

Register
(3) GloomyDeath, metaljan, SAPOGi,
Sep 4 2011, 17:46:28 Textures - Dualism (2011)
Mirror:
Register
(2) garml2, Prisoner,
Sep 4 2011, 17:20:05 Shadowside - Inner Monster Out (2011)
[myspace]http://www.myspace.com/shadowsideband[/myspace]

Mirror:
Register
Sep 4 2011, 17:15:23 Sinner - One Bullet Left (2011)
Mirror:
Register
(1) ace73pq,
Sep 3 2011, 19:39:44 Majesty - Own The Crown [best of/compilation] (2011)
Mirror:
Register
(3) ace73pq, garretje, Емельян,
Sep 2 2011, 18:04:49 Dream Theater - A Dramatic Turn Of Events (2011)


*Format: mp3@Cbr320Kbps
*Size: 241MB [Covers Included]
Register
(5) mad, Persian Gorgrinder, Redevil, Veksha, скептик,
Sep 2 2011, 16:33:04 Opeth - Heritage (2011)


*Format: mp3@CBR320kbps
*Size: 177MB [Covers Included]


Register
(22) -=Lion=-, ace73pq, BBQ, caro, CelticSPB, Demonologist, dimitris p., donnar, GloomyDeath, green7272, hammer, InZa, June, mad, popen13, RENыч, SatanicPanzer, spiritualdecay666, TheWretched, Un4given, vkryuger, ZambuL,
Sep 1 2011, 22:40:52 Dream Theater - A Dramatic Turn Of Events (2011)
MIRROR:

Register
(2) Prisoner, watasan,
Aug 30 2011, 07:16:43 Anathema - Falling Deeper [best of/compilation] (2011)
Mirrors:
Register

Register
(2) garretje, Prisoner,
Aug 29 2011, 21:00:19 Epysode - Obsessions (2011)
Mirrors:
Register

Register


Another sample of the band
Register
(2) dimitris p., Prisoner,

9 Pages V   1 2 3 > » 
- Lo-Fi Version Support form
Copyrights and abuse reports form
Time is now: 22nd August 2019 - 14:11:22