Welcome Guest ( Log In | Register )

История благодарностей участнику VLADISLAV_V_K ::: Спасибо сказали: 5008 раз(а)
Дата поста: В теме: За сообщение: Спасибо сказали:
Yesterday, 17:17:02 Frayle - Ring Of Fire [single] (2020)
FLAC tracks
Register
(1) Olethros,
Sep 23 2020, 18:09:44 Frayle - 1692 (2020)
FLAC tracks
Register
(1) Kwaad,
Sep 23 2020, 17:50:58 Frayle - Ring Of Fire [single] (2020)


*Artist: Frayle
*Album: Ring Of Fire [single]
*Year: 2020
*Genre: Atmospheric Doom/Post-Metal
*Country: United States
*Format: mp3@CBR320kbps
*Size: 9MB

Tracklist:
01. Ring of Fire (Johnny Cash cover) 03:54
******************************
Total playing time: 3:54




[more=Extended info][youtube]X8NMhib3UsI[/youtube]

Lineup:
Eric Mzik Bass
Pat Ginley Drums
Elliot Rosen Guitars (rhythm)
Sean Bilovecky All instruments (2017-present)
Gwyn Strang Vocals (2017-present)



***FLAC-Rip***[/more]

[more=Technical info]
Input File: 01-Ring of Fire.mp3
Channels : 2
Sample Rate : 44100
Precision : 16-bit
Duration : 00:03:55.01 = 10364073 samples = 17626 CDDA sectors
File Size : 9.40M
Bit Rate : 320k
Sample Encoding: MPEG audio (layer I, II or III)
Comments :
Title=Ring of Fire
Artist=Frayle
Album=Ring of Fire (Single)
Tracknumber=1
Year=2020
Genre=Heavy Witch Doom

[/more]

Register
(2) infiltrator, Olethros,
Sep 22 2020, 11:55:27 Twilight Ophera - Shadows Embrace The Dark (1997)
FLAC img+cue+log+scans
Register
(1) Deni,
Sep 22 2020, 09:35:13 Ariah - The Spire (2020)
FLAC tracks
Register
(2) Marek, Olethros,
Sep 21 2020, 18:49:31 Ariah - The Spire (2020)


*Artist: Ariah
*Album: The Spire
*Year: 2020
*Genre: Progressive Metal/Djent
*Country: United States
*Format: mp3@CBR320kbps
*Size: 85MB

Tracklist:
01. The Spire 04:15
02. Nekyia 03:53
03. Seraph 03:37
04. The Hunt 04:01
05. Titanochamy 04:39
06. Invictus 06:02
07. Avyssos 04:45
08. Of Fire and Stone 05:21
******************************
Total playing time: 36:33


Preview 2


[more=Extended info][youtube]mMQcJlBPYyA[/youtube]

Current Members:
Ariah Alexander (Guitar, Songwriting),
Nic Lafuente (Drums),
Gage Pfister (Vocals, Lyrics)


***FLAC-Rip***[/more]

[more=Technical info]
Input File: 01-The Spire.mp3
Channels : 2
Sample Rate : 44100
Precision : 16-bit
Duration : 00:04:15.78 = 11279986 samples = 19183.6 CDDA sectors
File Size : 10.2M
Bit Rate : 320k
Sample Encoding: MPEG audio (layer I, II or III)
Comments :
Title=The Spire
Artist=Ariah
Album=The Spire
Tracknumber=1
Year=2020
Genre=Progressive Metal/Djent

[/more]

Register
(9) Bloodn Lord, Brutello, chipsgott, infiltrator, maochen, metala, Olethros, Rosen, sludge666,
Sep 21 2020, 11:58:57 The Inhibitor - The End Is Hear (2019)
FLAC tracks
Register
(2) infiltrator, Olethros,
Sep 20 2020, 19:25:11 Voyage In Solitude - Through The Mist With Courage And Sorrow (2020)
FLAC tracks
Register
(3) infiltrator, Olethros, vasiljev_sergej,
Sep 20 2020, 19:19:24 The Inhibitor - The End Is Hear (2019)


*Artist: The Inhibitor
*Album: The End Is Hear
*Year: 2019
*Genre: Experimental Industrial Death Metal
*Country: Czech Republic
*Format: mp3@CBR320kbps
*Size: 96MB

Tracklist:
01. Prologue 02:28
02. Till I'm Alive 03:56
03. The Great Fall 05:07
04. Catalyze the Inhibitor 04:28
05. Start Live Your Life 04:58
06. Far from Home 03:44
07. Declaring the War 03:54
08. The Point 04:34
09. The End Is Here 04:52
10. Confession of the Damned 03:46
******************************
Total playing time: 41:47


Preview 2
Preview 3
Preview 4

[more=Extended info][youtube]qz4y170-s8Y[/youtube]

Lineup:
Patrik Bálint - kytara
Marek Angelovič - kytara
Honza Rössner - baskytara, vokál
Romi Gužalovič - bicí
Jára Kučera - hlavní vokál


***FLAC-Rip***[/more]

[more=Technical info]
Input File: 02-Till I\'m Alive.mp3
Channels : 2
Sample Rate : 44100
Precision : 16-bit
Duration : 00:03:56.92 = 10448172 samples = 17769 CDDA sectors
File Size : 9.48M
Bit Rate : 320k
Sample Encoding: MPEG audio (layer I, II or III)
Comments :
Title=Till I'm Alive
Artist=The Inhibitor
Album=The End Is Hear
Tracknumber=2
Year=2019
Genre=Experimental Industrial Death Metal

[/more]

Register
(7) infiltrator, kimkayoung, metala, mirotvorets, Olethros, soulflesh, Сварог Барг,
Sep 20 2020, 18:14:19 Melted Bodies - Enjoy Yourself (2020)
FLAC tracks
Register


mp3@320 mirror
Register
(2) infiltrator, Olethros,
Sep 20 2020, 17:23:26 Voyage In Solitude - Through The Mist With Courage And Sorrow (2020)


*Artist: Voyage In Solitude
*Album: Through The Mist With Courage And Sorrow
*Year: 2020
*Genre: Post-Black Metal
*Country: Hong Kong
*Format: mp3@CBR320kbps
*Size: 115MB

Tracklist:
01. Veil of Mist 03:46
02. Dark Mist 08:29
03. Incoming Transmission 09:48
04. Reign 08:53
05. Memories 07:15
06. Despair 05:30
07. In Between 06:29
******************************
Total playing time: 50:10


Preview 2
Preview 3
Preview 4


[more=Extended info][youtube]8vtkJd1KfRA[/youtube]

Voyage In Solitude is a solo music project formed in 2016 by Derrick Lin from Hong Kong. It features a diverse sound of metal music, drawing influences from different genres such as post-black metal, blackgaze and post-rock.


***FLAC-Rip***[/more]

[more=Technical info]
Input File: 02-Dark Mist.mp3
Channels : 2
Sample Rate : 44100
Precision : 16-bit
Duration : 00:08:29.45 = 22466525 samples = 38208.4 CDDA sectors
File Size : 20.4M
Bit Rate : 320k
Sample Encoding: MPEG audio (layer I, II or III)
Comments :
Title=Dark Mist
Artist=Voyage In Solitude
Album=Through the Mist with Courage and Sorrow
Tracknumber=2
Year=2020
Genre=Post-Black Metal

[/more]

Register
(7) Femto, infiltrator, kim666, Korpse, Olethros, Ostinato, Rosen,
Sep 20 2020, 16:01:14 Melted Bodies - Enjoy Yourself (2020)


*Artist: Melted Bodies
*Album: Enjoy Yourself
*Year: 2020
*Genre: Avant-Garde/Experimental Metal
*Country: United States
*Format: mp3@CBR320kbps
*Size: 110MB

Tracklist:
01. Eat Cops 03:14
02. 99 Scents 04:58
03. Ad People 04:17
04. Funny Commercials (And the Five Week Migraine) 04:41
05. Club Anxious 03:57
06. Phone Tumor 03:44
07. The Rat 04:47
08. The Abbot Kinney Pedophiles 05:28
09. Helplessness 05:31
10. Meat Cleanse 07:14
******************************
Total playing time: 47:51


Preview 2
Preview 3

[more=Extended info][youtube]tpnv0qHhI9w[/youtube]

[youtube]A3Mqga4QDLE[/youtube]

[youtube]ZtGke_t3hiw[/youtube]

Released September 18, 2020

Written, recorded and produced by Melted Bodies
Mixed and Mastered by John Spiker


***FLAC-Rip***[/more]

[more=Technical info]
Input File: 01-Eat Cops.mp3
Channels : 2
Sample Rate : 44100
Precision : 16-bit
Duration : 00:03:14.10 = 8559942 samples = 14557.7 CDDA sectors
File Size : 7.77M
Bit Rate : 320k
Sample Encoding: MPEG audio (layer I, II or III)
Comments :
Title=Eat Cops
Artist=Melted Bodies
Album=Enjoy Yourself
Tracknumber=1
Year=2020
Genre=Avant-Garde Metal

[/more]

Register
(10) BlackTroll, gena, infiltrator, judaz, kimkayoung, metala, Olethros, popen13, Rosen, yuratroll,
Sep 20 2020, 15:25:07 The Last Reign - Evolution (2020)
FLAC tracks
Register
(2) infiltrator, Olethros,
Sep 19 2020, 20:45:54 As Serenity Fades - Earthborn (1994)
FLAC img+cue+log+scans
Register
(2) crestfallen999, thenecromancer,
Sep 19 2020, 20:02:51 Enslavement Of Beauty - Traces O' Red (1999)
ЦИТАТА(Deni @ 19th September 2020 - 01:17:02) *
1999 press / edition of the FLAC


FLAC img+cue+log+scans
Register
(2) Deni, thenecromancer,
Sep 18 2020, 23:09:43 Enslavement Of Beauty - Traces O' Red (1999)
FLAC img+cue (Japan)
Register
(2) Deni, thenecromancer,
Sep 18 2020, 18:13:31 Atargatis - Nova (2007)
FLAC img+cue
Register
(1) Ice Gnoll,
Sep 17 2020, 19:51:26 Dark The Suns - Seeker [single] (2020)


*Artist: Dark The Suns
*Album: Seeker [single]
*Year: 2020
*Genre: Melodic Dark/Gothic Metal
*Country: Finland
*Format: mp3@CBR192kbps
*Size: 6MB

Tracklist:
01. Seeker 04:20
******************************
Total playing time: 4:20




Preview 4
Preview 5

[more=Extended info][youtube]77PA8oHnkWo[/youtube]

Lineup:
Mikko Ojala Guitars, Drums, Vocals
Inka Tuomaala Bass, Vocals (female), Keyboards[/more]

[more=Technical info]
Input File: 01-Seeker.mp3
Channels : 2
Sample Rate : 44100
Precision : 16-bit
Duration : 00:04:02.00 = 10672200 samples = 18150 CDDA sectors
File Size : 5.81M
Bit Rate : 192k
Sample Encoding: MPEG audio (layer I, II or III)
Comments :
Title=Seeker
Artist=Dark the Suns
Album=Seeker
Tracknumber=1
Year=2020
Genre=Melodic Dark/Gothic Metal

[/more]

Register
(14) Bloodn Lord, Cartman223, chipsgott, Evjenne, Geralder, gwynnbleid, infiltrator, ironyserg, leks, Morgoth, Olethros, Rosen, sergsazan, Zenial,
Sep 15 2020, 18:20:02 Brick - Done Counting My Scars (2020)
FLAC tracks
Register
(1) Olethros,
Sep 15 2020, 12:21:22 Sneglefeber - Sneglefeber (2020)
FLAC tracks
Register
(1) Olethros,
Sep 15 2020, 12:20:56 Epica - The Quantum Enigma (B-Sides) [ep] (2020)
FLAC tracks
Register
(1) Olethros,
Sep 14 2020, 16:56:39 Sneglefeber - Sneglefeber (2020)


*Artist: Sneglefeber
*Album: Sneglefeber
*Year: 2020
*Genre: Doom/Sludge Metal
*Country: Denmark
*Format: mp3@CBR320kbps
*Size: 96MB

Tracklist:
01. Spawn of Grief 09:00
02. Fear of the Salt 12:44
03. Sneglefeber 08:32
04. Stankman 11:25
******************************
Total playing time: 41:41


Preview 2


[more=Extended info][youtube]FGaxXLitRgY[/youtube]

released September 4, 2020

Indspillet i Folkes garage april 2019.
Mixet af André Bugge i Mycelium Moss studio.
Mastereret af Emil Thomsen i ET studio.
Artwork af Søren Schjødt

Kørfirs Records 2020

***FLAC-Rip***[/more]

[more=Technical info]
Input File: 03-Sneglefeber.mp3
Channels : 2
Sample Rate : 44100
Precision : 16-bit
Duration : 00:08:32.11 = 22584007 samples = 38408.2 CDDA sectors
File Size : 20.5M
Bit Rate : 320k
Sample Encoding: MPEG audio (layer I, II or III)
Comments :
Title=Sneglefeber
Artist=Sneglefeber
Album=Sneglefeber
Tracknumber=3
Year=2020
Genre=Doom / Sludge Metal

[/more]

Register
(8) gena, infiltrator, marilin, Necromag, Olethros, sludge666, stub888, VALERY,
Sep 14 2020, 16:44:05 Epica - The Quantum Enigma (B-Sides) [ep] (2020)


*Artist: Epica
*Album: The Quantum Enigma (B-Sides) [ep]
*Year: 2020
*Genre: Gothic/Symphonic Metal
*Country: Netherlands
*Format: mp3@CBR320kbps
*Size: 102MB

Tracklist:
01. Memento 04:12
02. In All Conscience 05:06
03. Dreamscape 05:02
04. Banish Your Illusion 06:11
05. Mirage Of Verity 06:00
06. Canvas Of Life (Acoustic Version) 04:51
07. In All Conscience (Acoustic Version) 04:17
08. Dreamscape (Acoustic Version) 04:13
09. Natural Corruption (Acoustic Version) 04:49
******************************
Total playing time: 44:41

Preview 1
Preview 2


Preview 5

[more=Extended info][youtube]4tqqsR5wzFg&list=OLAK5uy_l9ZHlWNOsfo5PTbhAYw1WiRMmBCIJG63o[/youtube]

Lineup:
Mark Jansen Guitars (rhythm), Orchestrations, Vocals (harsh) (2003-present)
Coen Janssen Keyboards, Piano, Orchestrations (2003-present)
Simone Simons Vocals (2003-present)
Ariën van Weesenbeek Drums, Vocals (grunts, spoken word) (2007-present)
Isaac Delahaye Guitars (lead), Vocals (harsh) (2009-present)
Rob van der Loo Bass (2012-present)

Архивы

***FLAC-Rip***[/more]

[more=Technical info]
Input File: 01-Memento.mp3
Channels : 2
Sample Rate : 44100
Precision : 16-bit
Duration : 00:04:12.05 = 11115229 samples = 18903.5 CDDA sectors
File Size : 10.1M
Bit Rate : 320k
Sample Encoding: MPEG audio (layer I, II or III)
Comments :
Title=Memento
Artist=Epica
Album=The Quantum Enigma (B-Sides)
Tracknumber=01
Year=2020
Genre=Symphonic Metal

[/more]

Register
(22) ace73pq, after21allD, Alpha_Prime, blackwingtsi, boby9052, chipsgott, dafya328, Demonologist, djsema4, gwar, gwynnbleid, infiltrator, kimkayoung, Luminous, Olethros, Reverend, Rosen, sergsazan, smes, terron, Victim of fate, yuratroll,
Sep 10 2020, 17:56:59 Marilyn Manson - We Are Chaos (2020)
FLAC tracks
Register
(2) infiltrator, Occultas,
Sep 9 2020, 19:27:07 Psilocybe Larvae - Agony (2003)
FLAC img+cue
Register
(1) Deze,

33 Pages V   1 2 3 > » 
- Lo-Fi Version Support form
Copyrights and abuse reports form
Time is now: 25th September 2020 - 07:12:59