Welcome Guest ( Log In | Register )

История благодарностей участнику VLADISLAV_V_K ::: Спасибо сказали: 5534 раз(а)
Дата поста: В теме: За сообщение: Спасибо сказали:
Today, 13:08:06 Blazon Stone - Return to Port Royal: Definitive Edition (2020)
ЦИТАТА(AHBAnep @ 2nd December 2020 - 14:46:20) *
Для точности:
Return to Port Royal - альбом 2013 года.
Этот - Return to Port Royal: Definitive Edition.

Так и есть. Так и делал. Почему-то исчезло в названии "Definitive Edition" smile2.gif
ЦИТАТА(VLADISLAV_V_K @ 2nd December 2020 - 01:10:43) *
Скачать:
Скачать с my-files.su *Blazon Stone - Return To Port Royal (Definitive Edition) (2020)* by VLADISLAV_V_K
Скачать с mediafire.com *Blazon Stone - Return To Port Royal (Definitive Edition) (2020)* by VLADISLAV_V_K
Скачать с sampo.ru *Blazon Stone - Return To Port Royal (Definitive Edition) (2020)* by VLADISLAV_V_K



Поправил.
(1) AHBAnep,
Yesterday, 23:10:43 Blazon Stone - Return to Port Royal: Definitive Edition (2020)


*Artist: Blazon Stone
*Album: Return to Port Royal: Definitive Edition
*Year: 2020
*Genre: Heavy/Power/Speed Metal
*Country: Sweden
*Format: mp3@CBR320kbps
*Size: 133MB

Tracklist:
01. Black Chest Inn (Intro) 01:30
02. Return to Port Royal 05:10
03. Stand Your Line 04:31
04. Amistad Rebellion 04:27
05. High Treason 06:38
06. Curse of the Ghost Ship 05:20
07. Beasts of War 05:26
08. Blackbeard 04:49
09. Wind in the Sails 06:23
10. The Tale of Vasa 08:56
11. Stand Your Line (live) 04:34
******************************
Total playing time: 57:44



Preview 3

[more=Extended info]Re-recording of the band's debut album. All the instruments are re-recorded with partially re-touched vocals.

[youtube]euNxuu-JF0w[/youtube]

Lineup:
Ced Bass, Guitars, Drums (2011-2019, 2020-present)
Emil Westin Skogh Guitars (lead) (2018-2019, 2020-present)

***FLAC-Rip***[/more]

[more=Technical info]
Input File: 02-Return to Port Royal.mp3
Channels : 2
Sample Rate : 44100
Precision : 16-bit
Duration : 00:05:11.09 = 13718893 samples = 23331.5 CDDA sectors
File Size : 12.4M
Bit Rate : 320k
Sample Encoding: MPEG audio (layer I, II or III)
Comments :
Title=Return to Port Royal
Artist=Blazon Stone
Album=Return to Port Royal
Tracknumber=2
Year=2020
Genre=Heavy/Power/Speed Metal

[/more]

Register
(8) AHBAnep, boby9052, Herrant, infiltrator, metala, Narasimha, varlam4, Сварог Барг,
Nov 30 2020, 11:17:15 Ewigkeit - Xxiii [ep] (2020)
FLAC tracks
Register
(2) infiltrator, Necroslaughter,
Nov 29 2020, 23:08:00 Ewigkeit - Xxiii [ep] (2020)


*Artist: Ewigkeit
*Album: Xxiii [ep]
*Year: 2020
*Genre: Experimental/Dark/Black Metal
*Country: United Kingdom
*Format: mp3@CBR320kbps
*Size: 53MB

Tracklist:
01. Bring the Eschaton 04:12
02. God's Lightning 03:53
03. 23 04:15
04. Black Space Suits 05:05
05. Gravity Train to Agartha 05:35
******************************
Total playing time: 23:00


Preview 2
Preview 3

[more=Extended info][youtube]wiqJOZyRGBg[/youtube]

i[youtube]is5knxruvig[/youtube]

James Fogarty ; all vocals, guitars, keys, programming, production, artwork.[/more]

[more=Technical info]
Input File: 01-Bring the Eschaton.mp3
Channels : 2
Sample Rate : 44100
Precision : 16-bit
Duration : 00:04:12.30 = 11126342 samples = 18922.4 CDDA sectors
File Size : 10.1M
Bit Rate : 320k
Sample Encoding: MPEG audio (layer I, II or III)
Comments :
Title=Bring the Eschaton
Artist=Ewigkeit
Album=XXIII
Tracknumber=1
Year=2020
Genre=Experimental/Dark/Black Metal

[/more]

Register
(10) Buregon, dermarsoran, infiltrator, Kazoth, LiarOfAngmar, multizwilling, satanist666, vasiljev_sergej, yuratroll, Нигилист,
Nov 29 2020, 22:58:11 Ewigkeit - Land Of Fog (20-20 Re-Vision) (2020)


*Artist: Ewigkeit
*Album: Land Of Fog (20-20 Re-Vision)
*Year: 2020
*Genre: Experimental/Dark/Black Metal
*Country: United Kingdom
*Format: mp3@CBR320kbps
*Size: 93MB

Tracklist:
01. Land of Fog 06:04
02. Supersonic Blue Thunder 04:40
03. Not All There 04:20
04. The Only Way 05:28
05. Interlude 03:45
06. Tired Face 04:08
07. Yesterday’s Rain 03:56
08. The Doomsday Machine 03:58
09. Escapologies 04:11
******************************
Total playing time: 40:30


Preview 2
Preview 3

[more=Extended info][youtube]F_dP5rrI1Lw[/youtube]

James Fogarty ; all vocals, guitars, keys, programming, production, artwork.

A fully restored and enhanced 'Land of Fog (20/20 Re-Vision)'[/more]

[more=Technical info]
Input File: 05-Interlude.mp3
Channels : 2
Sample Rate : 44100
Precision : 16-bit
Duration : 00:03:45.11 = 9927439 samples = 16883.4 CDDA sectors
File Size : 9.01M
Bit Rate : 320k
Sample Encoding: MPEG audio (layer I, II or III)
Comments :
Title=Interlude
Artist=Ewigkeit
Album=Land of Fog (20/20 Re-Vision)
Tracknumber=5
Year=2020
Genre=Experimental/Dark/Black Metal

[/more]

Register
(5) dermarsoran, infiltrator, vasiljev_sergej, yuratroll, Нигилист,
Nov 25 2020, 11:38:11 Falcata - Es Lo Que Hay... [ep] (2014)
FLAC tracks
Register
(1) Olethros,
Nov 24 2020, 22:03:54 How Like a Winter - ... Beyond My Grey Wake (2003)
FLAC img+cue+log+scans
Register
(1) Nicrophorus,
Nov 24 2020, 13:56:27 Falcata - En La Sombra (2020)


*Artist: Falcata
*Album: En La Sombra
*Year: 2020
*Genre: Heavy Metal
*Country: Spain
*Format: mp3@CBR320kbps
*Size: 120MB

Tracklist:
01. Hijos del Sol 04:12
02. Cenizas 02:38
03. Suiza 04:04
04. Credo 07:09
05. Coyote 04:53
06. Tempo 06:27
07. Crisis 04:34
08. Mr. Hyde 04:17
09. Calle 04:52
10. Otra vez 04:22
11. Tiras de mí 04:54
******************************
Total playing time: 52:22




Preview 4
Preview 5

[more=Extended info][youtube]k4RjTWEtrtg&list=OLAK5uy_nXwapsZyILUrBQz3dHqVB2ZNV8fdoU1vI[/youtube]

Lineup:
Paco Camacho Bass
César Merino Drums
Carlos Calvo Guitars (lead, rhythm)
Juanan Morcillo Guitars (lead, rhythm)
Luis Miguel Fraile Vocals (2018-present)

Архивы[/more]

[more=Technical info]
Input File: 01-Hijos del sol.mp3
Channels : 2
Sample Rate : 44100
Precision : 16-bit
Duration : 00:04:12.62 = 11140586 samples = 18946.6 CDDA sectors
File Size : 10.1M
Bit Rate : 320k
Sample Encoding: MPEG audio (layer I, II or III)
Comments :
Title=Hijos del sol
Artist=Falcata
Album=En la sombra
Tracknumber=1
Year=2020
Genre=Heavy Metal

[/more]

Register
(13) after21allD, aviacademy, gwar, infiltrator, Olethros, Reverend, robertho777, Rosen, Rover, stumpheavyrock, varlam4, Yngwarr, Сварог Барг,
Nov 24 2020, 13:44:32 Falcata - Es Lo Que Hay... [ep] (2014)


*Artist: Falcata
*Album: Es Lo Que Hay... [ep]
*Year: 2014
*Genre: Heavy Metal
*Country: Spain
*Format: mp3@CBR320kbps
*Size: 39MB

Tracklist:
01. Cenizas 02:51
02. La calle 04:43
03. Mr Hyde 04:36
04. Otra vez 04:16
******************************
Total playing time: 16:26




Preview 4

[more=Extended info][youtube]i3B6XAsRpHE[/youtube]

Lineup:
Paco Camacho Bass
César Merino Drums
Carlos Calvo Guitars (lead, rhythm)
Juanan Morcillo Guitars (lead, rhythm)
Luis Miguel Fraile Vocals (2018-present)

Архивы

***FLAC-Rip***[/more]

[more=Technical info]
Input File: 01-Otra vez.mp3
Channels : 2
Sample Rate : 44100
Precision : 16-bit
Duration : 00:04:18.11 = 11382519 samples = 19358 CDDA sectors
File Size : 10.3M
Bit Rate : 320k
Sample Encoding: MPEG audio (layer I, II or III)
Comments :
Title=Otra vez
Artist=Falcata
Album=Es Lo Que Hay
Tracknumber=1
Year=2014
Genre=Heavy Metal

[/more]

Register
(10) after21allD, gwar, infiltrator, Olethros, Reverend, robertho777, Rosen, stumpheavyrock, varlam4, Yngwarr,
Nov 24 2020, 12:57:37 Dismal Euphony - All Little Devils (1999)
FLAC img+cue
Register
(1) Deni,
Nov 23 2020, 11:45:17 Within Temptation - The Purge [single] (2020)
FLAC tracks
Register
(2) infiltrator, Olethros,
Nov 22 2020, 22:04:01 Within Temptation - The Purge [single] (2020)


*Artist: Within Temptation
*Album: The Purge [single]
*Year: 2020
*Genre: Symphonic Metal/Alternative Rock
*Country: Netherlands
*Format: mp3@CBR320kbps
*Size: 36MB

Tracklist:
01. The Purge 04:16
02. Entertain You 03:31
03. The Purge - Instrumental 04:21
04. Entertain You - Instrumental 03:31
******************************
Total playing time: 15:39


Preview 2
Preview 3
Preview 4
Preview 5

[more=Extended info][youtube]y2HSprjvygY[/youtube]

[youtube]a7-8hK2f_So[/youtube]

Lineup:
Jeroen van Veen Bass
Sharon den Adel Vocals
Ruud Jolie Guitars
Martijn Spierenburg Keyboards
Mike Coolen Drums
Stefan Helleblad Guitars

***FLAC-Rip***[/more]

[more=Technical info]
Input File: 01-The Purge.mp3
Channels : 2
Sample Rate : 44100
Precision : 16-bit
Duration : 00:04:16.57 = 11314517 samples = 19242.4 CDDA sectors
File Size : 10.3M
Bit Rate : 320k
Sample Encoding: MPEG audio (layer I, II or III)
Comments :
Title=The Purge
Artist=Within Temptation
Album=The Purge
Tracknumber=1
Year=2020
Genre=Symphonic Metal/Alternative Rock

[/more]

Register
(22) ace73pq, Alpha_Prime, Aresson, blackwingtsi, Bloodn Lord, boby9052, caro, Cartman223, dafya328, gwar, infiltrator, Kasper969, kluval, kostja, leks, Maestrovs, Olethros, Reverend, Rosen, Sethan, VALERY, Сварог Барг,
Nov 18 2020, 21:23:51 Counting Hours - The Will (2020)
FLAC tracks
Register
(1) Amsterdam,
Nov 18 2020, 18:13:51 Serpents Rise - Interpersonal Violence (2020)
FLAC tracks
Register
(3) infiltrator, Olethros, Piob,
Nov 18 2020, 14:14:26 Serpents Rise - Serpents Rise Iii (2014)


*Artist: Serpents Rise
*Album: Serpents Rise Iii
*Year: 2014
*Genre: Technical Death Metal/Instrumental
*Country: United States
*Format: mp3@CBR320kbps
*Size: 69MB

Tracklist:
01. The Marzear Labyrinth 04:52
02. GallopPoll 03:57
03. Congested with Fear 02:54
04. Trails 00:59
05. Halls of Cerberus 06:08
06. The Lead Up 00:55
07. Fighting with the Shadow Monster 05:23
08. Not Yet Named 03:45
******************************
Total playing time: 28:53


Preview 2
Preview 3
Preview 4

[more=Extended info][youtube]1e3dKbKbXnU&list=OLAK5uy_l9zMHP5kC8cfgVUgWRtCel5Jwxg5MXsao[/youtube]

Lineup:
Jose Hernandez - Guitars
Derek Roddy - Drums and Percussion
Glenn Conner - Guitars
Carlos Vila - Bass
Scott - Violin, Samples, Percussion[/more]

[more=Technical info]
Input File: 01-The Marzear Labyrinth.mp3
Channels : 2
Sample Rate : 44100
Precision : 16-bit
Duration : 00:04:52.62 = 12904366 samples = 21946.2 CDDA sectors
File Size : 11.7M
Bit Rate : 320k
Sample Encoding: MPEG audio (layer I, II or III)
Comments :
Title=The Marzear Labyrinth
Artist=Serpents Rise
Album=Serpents Rise III
Tracknumber=01/08
Year=2014
Genre=Technical Death Metal/Instrumental

[/more]

Register
(8) andreikun, Hell_Is_Here, infiltrator, Niknne, Olethros, Reverend, Rosen, vyacheslav,
Nov 18 2020, 14:04:17 Serpents Rise - Serpents Rise Ii (2012)


*Artist: Serpents Rise
*Album: Serpents Rise Ii
*Year: 2012
*Genre: Technical Death Metal/Instrumental
*Country: United States
*Format: mp3@CBR320kbps
*Size: 125MB

Tracklist:
01. Here Comes the Shield Bearer 04:03
02. Faced with Strife 03:06
03. The Conversation 02:03
04. Horse and Rider 03:13
05. Into the Further 05:05
06. Dyer Consequence 04:46
07. Embrace Solution 03:22
08. The Underlining Fury 03:08
09. They Come, They Go 01:17
10. The Soul Obsidian 02:27
11. Feeding the Spirit Eater 05:30
12. Born to Destroy Them All 03:54
13. Marvelous Incompetence 02:05
14. Resistant to Temptation 06:03
15. Take Me to Median 02:31
******************************
Total playing time: 52:33


Preview 2
Preview 3
Preview 4

[more=Extended info][youtube]2s6obZsKh_0&list=OLAK5uy_nkhG6MqUtcy1wEfZhHJuLmwMkhRFPhcsY[/youtube]

Lineup:
Jose Hernandez - Guitars
Derek Roddy - Drums and Percussion
Glenn Conner - Guitars
Carlos Vila - Bass
Scott - Violin, Samples, Percussion[/more]

[more=Technical info]
Input File: 11-Feeding The Spirit Eater.mp3
Channels : 2
Sample Rate : 44100
Precision : 16-bit
Duration : 00:05:29.61 = 14535713 samples = 24720.6 CDDA sectors
File Size : 13.2M
Bit Rate : 320k
Sample Encoding: MPEG audio (layer I, II or III)
Comments :
Title=Feeding The Spirit Eater
Artist=Serpents Rise
Album=Serpents Rise II
Tracknumber=11/15
Year=2012
Genre=Technical Death Metal/Instrumental

[/more]

Register
(9) andreikun, Hell_Is_Here, infiltrator, Niknne, Olethros, Reverend, Rosen, vyacheslav, Yngwarr,
Nov 18 2020, 13:48:54 Serpents Rise - Serpents Rise (2010)


*Artist: Serpents Rise
*Album: Serpents Rise
*Year: 2010
*Genre: Technical Death Metal/Instrumental
*Country: United States
*Format: mp3@CBR320kbps
*Size: 87MB

Tracklist:
01. Initiation Rituals 03:40
02. The Invasive Swahngi 06:04
03. Intertwine 04:24
04. The Greater Equanimity 04:32
05. Naja 02:09
06. Serpents Rise 03:45
07. Squarewave 02:09
08. Signs of Identity 03:43
09. Selfless 01:09
10. The Cataplexy Event 06:09
******************************
Total playing time: 37:44


Preview 2
Preview 3
Preview 4

[more=Extended info][youtube]iCxFgMxGFD4[/youtube]

Lineup:
Jose Hernandez - Guitars
Derek Roddy - Drums and Percussion
Glenn Conner - Guitars
Carlos Vila - Bass
Scott - Violin, Samples, Percussion[/more]

[more=Technical info]
Input File: 02-Invasive Swahngi.mp3
Channels : 2
Sample Rate : 44100
Precision : 16-bit
Duration : 00:06:04.38 = 16069114 samples = 27328.4 CDDA sectors
File Size : 14.6M
Bit Rate : 320k
Sample Encoding: MPEG audio (layer I, II or III)
Comments :
Title=Invasive Swahngi
Artist=Serpents Rise
Album=Serpents Rise
Tracknumber=2
Year=2010
Genre=Technical Death Metal/Instrumental

[/more]

Register
(9) andreikun, Hell_Is_Here, infiltrator, Niknne, Olethros, Reverend, Rosen, vyacheslav, Yngwarr,
Nov 18 2020, 11:08:40 Inner Missing - Deluge (2020)
FLAC tracks
Register
(1) Olethros,
Nov 17 2020, 22:38:23 Serpents Rise - Interpersonal Violence (2020)


*Artist: Serpents Rise
*Album: Interpersonal Violence
*Year: 2020
*Genre: Technical Death Metal/Instrumental
*Country: United States
*Format: mp3@CBR320kbps
*Size: 82MB

Tracklist:
01. Reverse Polarity 03:33
02. Basilisk Whispers Kill 03:35
03. Interpersonal Violence 04:23
04. Grand Design 03:51
05. Septor 01:01
06. Ideomotor Effect 03:36
07. Filter Theory 00:54
08. Nonlinear Resonance 03:21
09. Book of Worlds 02:21
10. Hope and Conflict 04:00
11. Things That Were 01:22
12. Triton 03:45
******************************
Total playing time: 35:42


Preview 2
Preview 3
Preview 4

[more=Extended info][youtube]UCkqPjBD_Yg[/youtube]

[youtube]VxhaR8kLcVA[/youtube]

[youtube]8DiqTe_wMKE[/youtube]

[youtube]DCtM5WBCwsA[/youtube]

Lineup:
Jose Hernandez - Guitars
Derek Roddy - Drums and Percussion
Glenn Conner - Guitars
Carlos Vila - Bass
Scott - Violin, Samples, Percussion[/more]

[more=Technical info]
Input File: 02-Basilisk Whispers Kill.mp3
Channels : 2
Sample Rate : 44100
Precision : 16-bit
Duration : 00:03:35.11 = 9486219 samples = 16133 CDDA sectors
File Size : 8.61M
Bit Rate : 320k
Sample Encoding: MPEG audio (layer I, II or III)
Comments :
Title=Basilisk Whispers Kill
Artist=Serpents Rise
Album=Interpersonal Violence
Tracknumber=02
Year=2020
Genre=Technical Death Metal/Instrumental

[/more]

Register
(17) andreikun, Buregon, Hell_Is_Here, infiltrator, kimkayoung, Marek, metala, MMMMM, Morgoth, multizwilling, Niknne, older68, Olethros, Rosen, vyacheslav, Yngwarr, Сварог Барг,
Nov 13 2020, 14:46:44 Enemy Crucifixion - C.O.H. (2020)
FLAC tracks
Register
(1) Olethros,
Nov 12 2020, 18:52:02 Enemy Crucifixion - C.O.H. (2020)


*Artist: Enemy Crucifixion
*Album: C.O.H.
*Year: 2020
*Genre: Brutal Death Metal/Deathcore
*Country: Russian Federation
*Format: mp3@CBR320kbps
*Size: 79MB

Tracklist:
01. Intro 01:38
02. Core of Humanity 03:01
03. Disgod 04:10
04. Silence of the Sinners 03:20
05. The Enemy 03:32
06. Blind 03:38
07. Island 04:38
08. Swarm Whispers 03:29
09. Infertility 04:07
10. Victim 03:01
******************************
Total playing time: 34:34


Preview 2

Preview 4
Preview 5

[more=Extended info][youtube]vfw8p_dBSkU[/youtube]

Lineup:
Zurnadzhiev Artem - Vocals
Kirill Chumachek - Drums
Alex Kotov - Bass
Roman Kikin - Guitar
Gleb Kolesnikov - Guitar


***FLAC-Rip***[/more]

[more=Technical info]
Input File: 02-Core of Humanity.mp3
Channels : 2
Sample Rate : 44100
Precision : 16-bit
Duration : 00:03:01.28 = 7994272 samples = 13595.7 CDDA sectors
File Size : 7.25M
Bit Rate : 320k
Sample Encoding: MPEG audio (layer I, II or III)
Comments :
Title=Core of Humanity
Artist=Enemy Crucifixion
Album=COH
Tracknumber=2
Year=2020
Genre=Brutal Death Metal/Deathcore

[/more]

Register
(10) aa144aa, alikkon, chipsgott, Hell_Is_Here, infiltrator, jollo, kombinator, Olethros, Rosen, satanist666,
Nov 3 2020, 20:19:49 Alchemia - Inception (2020)
FLAC tracks
Register
(4) AHBAnep, infiltrator, Olethros, Сварог Барг,
Nov 3 2020, 19:40:49 Blood Of Us - Here Comes The Fall (2020)
FLAC tracks
Register
(3) infiltrator, lacrimoza, Olethros,
Nov 3 2020, 19:36:43 Alchemia - Inception (2020)


*Artist: Alchemia
*Album: Inception
*Year: 2020
*Genre: Symphonic Gothic/Horror Metal
*Country: Brazil
*Format: mp3@CBR320kbps
*Size: 91MB

Tracklist:
01. Grind 03:38
02. Save Us 03:41
03. Inception 04:20
04. Haunting You 03:30
05. Ashes 04:56
06. If Nothing Is Sacred 03:47
07. Sacrifice 03:17
08. Mind Prison 04:28
09. Nightmares 04:33
10. Secret Call 03:18
******************************
Total playing time: 39:28

Preview 1

Preview 3
Preview 4
Preview 5

[more=Extended info][youtube]TVVh_PWxwXw[/youtube]

Homepage

***FLAC-Rip***[/more]

[more=Technical info]
Input File: 01-Grind.mp3
Channels : 2
Sample Rate : 44100
Precision : 16-bit
Duration : 00:03:38.40 = 9631352 samples = 16379.9 CDDA sectors
File Size : 8.74M
Bit Rate : 320k
Sample Encoding: MPEG audio (layer I, II or III)
Comments :
Title=Grind
Artist=Alchemia
Album=Inception
Tracknumber=1
Year=2020
Genre=Sympho Gothic Metal

[/more]

Register
(24) after21allD, Alpha_Prime, avather, aviacademy, Cartman223, chipsgott, Foneg, gwar, gwynnbleid, Ice Gnoll, infiltrator, kimkayoung, metala, Mogozoz, oldvarg, Olethros, Rosen, Rover, sergsazan, Shadechaser, VALERY, varlam4, wreak, Сварог Барг,
Nov 3 2020, 18:27:54 Blood Of Us - Here Comes The Fall (2020)


*Artist: Blood Of Us
*Album: Here Comes The Fall
*Year: 2020
*Genre: Gothic/Doom/Death Metal
*Country: Spain
*Format: mp3@CBR320kbps
*Size: 90MB

Tracklist:
01. I Rise 04:50
02. We All Turn to Dust 05:30
03. The Fall 04:02
04. Fades to Gray 04:44
05. In Her Eyes 04:32
06. The Unbreakable 04:41
07. Last Day 06:53
08. As the Story Ends 04:05
******************************
Total playing time: 39:17




[more=Extended info][youtube]mRa96UOb2-A[/youtube]

1st album by blood of us. recorded between 2019 and 2020.

released October 30, 2020

produced, mixed & mastered by Francesco Antonelli

all songs by JM except 4 and 8 by JM & Alfredo
all lyrics by JM

recorded by:
JM: vocals, synths + drums + keyboards programming
F. Antonelli: drums programming, bass, keyboards & piano
C. Damiano: all guitars

aditional vocals
on “i rise” by G. Cambria
on “fades to gray” by Edelita
on “in her eyes” by I. Vecchini

layout & artwork: J. Cazorla
photos: Edelita

recorded in Valencia and Madrid,ES except guitars recorded in Merida,VE


***FLAC-Rip***[/more]

[more=Technical info]
Input File: 01-I Rise.mp3
Channels : 2
Sample Rate : 44100
Precision : 16-bit
Duration : 00:04:50.19 = 12797247 samples = 21764 CDDA sectors
File Size : 11.6M
Bit Rate : 320k
Sample Encoding: MPEG audio (layer I, II or III)
Comments :
Title=I Rise
Artist=Blood of Us
Album=Here Comes the Fall
Tracknumber=1
Year=2020
Genre=Gothic/Doom/Death Metal

[/more]

Register
(17) Cartman223, chipsgott, DenisKov, dulak, infiltrator, infozahist, kluval, lacrimoza, metala, Mogozoz, oldvarg, Olethros, Rosen, sergsazan, VALERY, varlam4, wreak,

37 Pages V   1 2 3 > » 
- Lo-Fi Version Support form
Copyrights and abuse reports form
Time is now: 2nd December 2020 - 16:05:46