Welcome Guest ( Log In | Register )

История благодарностей участнику VLADISLAV_V_K ::: Спасибо сказали: 6661 раз(а)
Дата поста: В теме: За сообщение: Спасибо сказали:
Jun 3 2021, 17:14:31 The Godiva - Spiral [ep] (2007)
FLAC tracks
Register
(5) AHBAnep, infiltrator, Olethros, Svafrlami, wreak,
Jun 2 2021, 19:27:50 The Godiva - Spiral [ep] (2007)


*Artist: The Godiva
*Album: Spiral [ep]
*Year: 2007
*Genre: Gothic/Melodic Death Metal
*Country: Portugal
*Format: mp3@CBR320kbps
*Size: 81MB

Tracklist:
01. Intro 00:56
02. Misplaced 05:15
03. Fallen 05:29
04. Hollow Within 05:53
05. Spiral 05:43
06. Vain 06:10
07. Oblivion 05:49
******************************
Total playing time: 35:15



Preview 3

[more=Extended info][youtube]XRtn5I31GTo[/youtube]

Lineup:
Arcélio Sampaio Bass
See also: Stillness in Chaos, ex-Final Mercy
Eduardo Sinatra Drums
See also: ex-Heavenwood
André Matos Guitars (rhythm), Orchestrations
See also: Behatred, Equaleft, ex-Heavenwood
Pedro Faria Vocals
See also: ex-In Velvet Clouds
Ricardo Ribeiro Guitars (lead) (2000-present)


***FLAC-Rip***[/more]

[more=Technical info]
Input File: 03-Fallen.mp3
Channels : 2
Sample Rate : 44100
Precision : 16-bit
Duration : 00:05:29.87 = 14547223 samples = 24740.2 CDDA sectors
File Size : 13.2M
Bit Rate : 320k
Sample Encoding: MPEG audio (layer I, II or III)
Comments :
Title=Fallen
Artist=Godiva
Album=Spiral
Tracknumber=3
Year=2007
Genre=Gothic/Melodic Death Metal

[/more]

Register
(21) Cartman223, cesar, chipsgott, gwynnbleid, infiltrator, kluval, Mogozoz, Olethros, quarantine, respect, satanist666, sergsazan, Svafrlami, Taakeferd, TeamatSE, VALERY, varlam4, Veggr, Wail, wreak, zhol,
May 31 2021, 17:30:31 Elderwind - Fires (2021)
FLAC tracks
Register
(5) Fallen Soul, Korpse, Maximvs, Olethros, Veggr,
May 3 2021, 17:43:31 Sojourner
Sojourner - 2021 Perennial (EP) (Release 04 June 2021)

[youtube]KXV-liK8nPQ[/youtube]



Яндекс

FLAC (01. Perennial 07:10 only)
Register

FLAC-Rip mp3@320 (01. Perennial 07:10 only)
Register
(3) Femto, thenecromancer, Veggr,
May 2 2021, 11:15:35 Eternal Mourning - Daimonion (2005)
FLAC tracks
Register

FLAC-Rip mp3@320
Register
(4) kimkayoung, Lucju, thenecromancer, Veggr,
Apr 7 2021, 14:53:24 Avaland - Theater Of Sorcery (2021)
FLAC tracks
Register
(3) Olethros, SAPOGi, wreak,
Apr 5 2021, 19:58:45 Avaland - Theater Of Sorcery (2021)


*Artist: Avaland
*Album: Theater Of Sorcery
*Year: 2021
*Genre: Symphonic Power/Melodic Heavy Metal
*Country: France
*Format: mp3@CBR320kbps
*Size: 145MB

Tracklist:
01. Theater of Sorcery 05:05
02. Gypsum Flower 08:28
03. Let the Wind Blow 06:46
04. Storyteller 04:22
05. Escape to Paradise 05:53
06. Holy Kingdom of Fools 04:33
07. Never Let Me Walk Alone 06:23
08. Deja-Vu 04:55
09. I'll Be Ready for Your Love 06:05
10. War of Minds 04:40
11. Rise from the Ashes 05:40
******************************
Total playing time: 1:02:50


Preview 2
Preview 3
Preview 4
Preview 5

[more=Extended info][youtube]WwfLyfldODI[/youtube]

Lineup:
Lead Vocal - Adrien G. Gzagg
Guitars – Christophe Feutrier
Guitars – Lucas Martinez
Bass – Camille Souffron
Drums – Leo Mouchonnay

Guest Vocal – Emmanuelson (Rising Steel / Ellipsis …)
Guitar Solo composed and recorded by – Ricky Marx (ex-Pretty Maids / Now Or Never)

Additionnal Choirs : Jeff Kanji, Yves Campion (Nightmare), Cara (Eltharia) & Avaland

Produced and Composed by Adrien G. Gzagg
Arranged by Avaland
Recorded by Steven Rozier at KNT studio, Echirolles, FRANCE
Mixed by Caleb Bingham at Nightmare Sound Studio
Master by Kevin Codfert

Released by Rockshots Records


***FLAC-Rip***[/more]

[more=Technical info]
Input File: 01-Theater Of Sorcery.mp3
Channels : 2
Sample Rate : 44100
Precision : 16-bit
Duration : 00:05:05.55 = 13474667 samples = 22916.1 CDDA sectors
File Size : 12.2M
Bit Rate : 320k
Sample Encoding: MPEG audio (layer I, II or III)
Comments :
Title=Theater Of Sorcery
Artist=Avaland
Album=Theater Of Sorcery
Tracknumber=1
Year=2021
Genre=Symphonic Power/Melodic Heavy Metal

[/more]

Register
(25) ace73pq, AHBAnep, avather, boby9052, DenisKov, gwar, gwynnbleid, Herrant, HMHamster, infiltrator, Lukittaz, Marek, metala, mikerx, Mogozoz, oldvarg, Olethros, randumbum, Reverend, Rover, SAPOGi, talismanFS, varlam4, wreak, Сварог Барг,
Apr 3 2021, 16:40:45 Ghosts Of Atlantis - 3.6.2.4 (2021)
FLAC tracks
Register
(4) Olethros, Veggr, wreak, yabasta,
Mar 30 2021, 12:15:50 Khepra - Symphony Divine [ep] (2018)
FLAC tracks
Register


ЦИТАТА(Kvlt @ 29th March 2021 - 22:54:57) *
This is not Metal. Just orchestral and keyboards etc and instrumental..

ЦИТАТА(valfok @ 30th March 2021 - 12:49:57) *
тут вообще металла нет.

Да, действительно... ХЗ, какие теги поставить? Symphonic/Ethnic/Orchestral ???
Bandcamp:
ЦИТАТА
Tags
black metal death metal ethnical metal symphonic metal Istanbul
Архивы:
ЦИТАТА
Symphonic Death/Folk Metal
(2) Olethros, wreak,
Mar 28 2021, 17:08:06 Khepra - Symphony Divine [ep] (2018)


*Artist: Khepra
*Album: Symphony Divine [ep]
*Year: 2018
*Genre: Symphonic Death/Folk Metal
*Country: Turkey
*Format: mp3@CBR320kbps
*Size: 65MB

Tracklist:
01. Symphony Divine 11:06
02. Citadel of Stars 04:09
03. Obsession of the Mad (Orchestral) 04:26
04. Desolation of the Descended Gods 08:22
******************************
Total playing time: 28:03



Preview 3
Preview 4
Preview 5

[more=Extended info][youtube]CsgkSN8OR58[/youtube]

Lineup:
Kenan Turandar Bass (2015-present)
Doğukan Kalender Vocals, Guitars (2015-present)
Mehmet Engin Drums (2016-present)
Batuhan "Krank" Belik Guitars, Vocals (2017-present)


***FLAC-Rip***[/more]

[more=Technical info]
Input File: 01-Symphony Divine.mp3
Channels : 2
Sample Rate : 44100
Precision : 16-bit
Duration : 00:11:06.74 = 29403102 samples = 50005.3 CDDA sectors
File Size : 26.7M
Bit Rate : 320k
Sample Encoding: MPEG audio (layer I, II or III)
Comments :
Title=Symphony Divine
Artist=Khepra
Album=Symphony Divine
Tracknumber=1
Year=2018
Genre=Symphonic Death/Folk Metal

[/more]

Register
(16) Cartman223, chipsgott, gwar, infiltrator, kimkayoung, Mogozoz, oldvarg, Olethros, Sanctus, Taakeferd, talismanFS, VALERY, varlam4, Veggr, wreak, Yngwarr,
Mar 24 2021, 20:39:18 Mournful Gust - Fly Sorrow Fly (2021)
FLAC tracks
Register
(3) SAPOGi, Veggr, wreak,
Mar 24 2021, 11:54:37 Meneapneontes - Περί Πολέμου Ψυχής (2018)
FLAC tracks+scans
Register
(8) AndreFrancis, Cramloth, Dark_Viking, infiltrator, Olethros, tabaka_S, Veggr, wreak,
Mar 23 2021, 19:44:11 Gothic Sky - In Search Of A Lost Soul (2021)
FLAC tracks
Register
(6) infiltrator, Olethros, SAPOGi, serjred, Veggr, wreak,
Mar 23 2021, 19:43:01 Meneapneontes - Περί Πολέμου Ψυχής (2018)


*Artist: Meneapneontes
*Album: Περί Πολέμου Ψυχής
*Year: 2018
*Genre: Black Metal
*Country: Greece
*Format: mp3@CBR320kbps
*Size: 121MB

Tracklist:
01. Ήρωος 06:32
02. Σιδηρούν γένος 04:15
03. Περί πολέμου ψυχής 04:14
04. Καταιγίς 06:20
05. Είμαι ένα κάστρο 04:25
06. Αριστόδημος 03:40
07. Αίας 03:31
08. Στων μακάρων τα νησιά 05:46
09. Χενέλλας 05:03
10. Αδεές δέος 03:48
11. Ερασιθάνατος 05:08
******************************
Total playing time: 52:42




[more=Extended info][youtube]OeNUyIQ2gWA[/youtube]

Lineup:
Vassilis Bass, Vocals
Takis Guitars
Archaeos Guitars (rhythm)


***FLAC-Rip***

All thanks to Veggr for lossless[/more]

[more=Technical info]
Input File: 01-Heroos.mp3
Channels : 2
Sample Rate : 44100
Precision : 16-bit
Duration : 00:06:32.67 = 17316791 samples = 29450.3 CDDA sectors
File Size : 15.7M
Bit Rate : 320k
Sample Encoding: MPEG audio (layer I, II or III)
Comments :
Title=Ήρωος
Artist=Meneapneontes
Album=Περί πολέμου ψυχής
Tracknumber=1
Year=2018
Genre=Black Metal

[/more]

Register
(24) AlexSmith, caro, Dark_Viking, Druidir, El_Chibo, GorAtheist, Ildjarn, infiltrator, kim666, MMMMM, nsk2008, Olethros, randumbum, robertho777, satanist666, SilentNidhogg, smes, VALERY, varlam4, vasiljev_sergej, Veggr, Victim of fate, vov7609, wreak,
Mar 23 2021, 12:19:38 Gothic Sky - In Search Of A Lost Soul (2021)


*Artist: Gothic Sky
*Album: In Search Of A Lost Soul
*Year: 2021
*Genre: Gothic/Black Metal
*Country: Russian Federation
*Format: mp3@CBR320kbps
*Size: 114MB

Tracklist:
01. Seven 05:34
02. Phantom Wanderer (feat. Arthur Berkut) 07:31
03. Dark flame (feat. Arthur Berkut) 06:47
04. Lord of nothingness 07:26
05. Your shadow 04:59
06. The Window 05:31
07. The Soul (feat. Arthur Berkut) 07:45
08. The Soul (feat. Arthur Berkut) (radio edit) 04:10
******************************
Total playing time: 49:43



Preview 3
Preview 4

[more=Extended info][youtube]xNllSoweWpU[/youtube]

Lineup:
Depression Izzy - Drums (1997-2003), Vocals (1997-present)
Vlad - Guitars (2000-present)
Lynda Skylight - Keyboards (2000-present)
Max - Drums (2003-2007, 2012-present)
Gor - Bass (2009-present)
Alex - Guitars (2012-present)


***FLAC-Rip***[/more]

[more=Technical info]
Input File: 02-Phantom Wanderer (feat. Arthur Berkut).mp3
Channels : 2
Sample Rate : 44100
Precision : 16-bit
Duration : 00:07:31.35 = 19904315 samples = 33850.9 CDDA sectors
File Size : 18.1M
Bit Rate : 320k
Sample Encoding: MPEG audio (layer I, II or III)
Comments :
Title=Phantom Wanderer (feat. Arthur Berkut)
Artist=Gothic Sky; Arthur Berkut
Album=In Search of a Lost Soul
Tracknumber=2
Year=2021
Genre=Gothic/Black Metal

[/more]

Register
(31) aleon, alikkon, Alpha_Prime, Aresson, Brutal, caro, Cartman223, chipsgott, GorAtheist, HMHamster, infiltrator, Kasper969, kimkayoung, LokoMadriz, oldvarg, Olethros, postal67, randumbum, robertho777, Sanctus, SAPOGi, satanist666, sergsazan, Shadechaser, tOmV, VALERY, varlam4, vasiljev_sergej, Veggr, wreak, Сварог Барг,
Mar 21 2021, 16:23:23 Universal Theory - Mystery Timeline (2013)
FLAC tracks
Register
(3) Olethros, Svafrlami, Veggr,
Mar 20 2021, 18:16:30 Empyrium - Über Den Sternen (2021)
09. The Crimson Heath FLAC
Register

09. The Crimson Heath FLAC-Rip mp3@320
Register
(5) AndreasS, Aresson, CTPEMLEHIE, doomTemplar, karpenka,
Mar 20 2021, 18:00:44 Universal Theory - Mystery Timeline (2013)


*Artist: Universal Theory
*Album: Mystery Timeline
*Year: 2013
*Genre: Atmospheric Gothic/Doom Metal
*Country: Spain
*Format: mp3@CBR320kbps
*Size: 78MB

Tracklist:
01. Turn Me On 03:09
02. Timeline 04:29
03. What Dreams Hide 04:10
04. Conversations With Myself 03:38
05. Enchantment 04:39
06. Grand Mystery 04:47
07. Let Your Desires 03:48
08. Maybe 05:29
******************************
Total playing time: 34:09


Preview 2
Preview 3


[more=Extended info][youtube]2I0iG4Okahk[/youtube]

Released April 29, 2013

Line Up
Jesús Pinilla: Vocals, Instruments & Programming
María José Martos: Vocals

All Music & Lyrics Written By Jesús Pinilla
All Songs Arranged By Jesús Pinilla
Produced, Mixed, Engineered & Mastered By Jesús Pinilla
Cover & Layout By Jesús Pinilla
Photos By Sandra Blanco

Special Thanks to:
Sandra Herranz for your patience, help and support
Guillermo Rodríguez for your help and support
Beth Hart (Lyrical Assistance)
Alvaro González & José Alberto Pérez


***FLAC-Rip***[/more]

[more=Technical info]
Input File: 01-Turn Me On.mp3
Channels : 2
Sample Rate : 44100
Precision : 16-bit
Duration : 00:03:09.27 = 8346807 samples = 14195.2 CDDA sectors
File Size : 7.57M
Bit Rate : 320k
Sample Encoding: MPEG audio (layer I, II or III)
Comments :
Title=Turn Me On
Artist=Universal Theory
Album=Mystery Timeline
Tracknumber=1
Year=2013
Genre=Atmospheric Gothic/Doom Metal

[/more]

Register
(18) Cartman223, csgmnk, infiltrator, kimkayoung, kluval, metala, Old Vyaine, oldvarg, Olethros, Olrak, randumbum, sergsazan, Svafrlami, Taakeferd, VALERY, varlam4, Veggr, wreak,
Mar 20 2021, 17:18:56 Iotunn - The Wizard Falls [ep] (2016)
FLAC tracks
Register
(4) Deni, infiltrator, Marek, Olethros,
Mar 20 2021, 17:17:50 Universal Theory - The Most Attractive Force (2015)
FLAC tracks
Include single 2020 The Most Attractive Force (Orchestral Version)
Register
(1) kluval,
Mar 20 2021, 16:58:12 Templestowe - Cimmerian (2009)
FLAC tracks
Register
(3) Deni, morbidangelo, wreak,
Mar 20 2021, 16:56:41 Obscura Religio - Legacy (2021)
FLAC tracks
Register
(2) Deni, diablo_vtx,
Mar 20 2021, 16:56:08 Obscura Religio - Rache Sitzt Tief (2011)
FLAC tracks
Register
(2) Deni, diablo_vtx,
Mar 19 2021, 22:13:42 Iotunn - The Wizard Falls [ep] (2016)


*Artist: Iotunn
*Album: The Wizard Falls [ep]
*Year: 2016
*Genre: Progressive Melodic Death Metal
*Country: Denmark
*Format: mp3@CBR320kbps
*Size: 59MB

Tracklist:
01. The Wizard Falls 06:08
02. Hammer of Injustice 04:15
03. Given to Explore 06:40
04. Nuclear Winter 00:56 instrumental
05. Frost 07:50
******************************
Total playing time: 25:49



Preview 3
Preview 4


[more=Extended info][youtube]TKpAECDiaa4[/youtube]

[youtube]pSMM3VoCe7g[/youtube]

[youtube]xBSp6tEXhb8[/youtube]

[youtube]jH1lgUpWQbA[/youtube]

Lineup:
Bjørn Wind Andersen Drums
Jesper Gräs Guitars
Jens Nicolai Gräs Guitars
Jón Aldará Vocals (2018-present)
Eskil Rask Bass (2019-present)


***FLAC-Rip***[/more]

[more=Technical info]
Input File: 01-The Wizard Falls.mp3
Channels : 2
Sample Rate : 44100
Precision : 16-bit
Duration : 00:06:08.12 = 16233872 samples = 27608.6 CDDA sectors
File Size : 14.7M
Bit Rate : 320k
Sample Encoding: MPEG audio (layer I, II or III)
Comments :
Title=The Wizard Falls
Artist=Iotunn
Album=The Wizard Falls
Tracknumber=1
Year=2016
Genre=Progressive Melodic Death Metal

[/more]

Register
(24) Appie_Thrasher, BladeOvDarkness, bOOLty, cesar, chipsgott, csgmnk, DenisKov, HMHamster, infiltrator, kimkayoung, loicv70, MMMMM, Mogozoz, Old Vyaine, Olethros, Reverend, SaintVitus, smes, stumpheavyrock, VALERY, varlam4, wreak, yuratroll, zhol,
Mar 19 2021, 21:48:58 Мор - Видение Мурмана (2020)
Mirror:
Register
(5) kimkayoung, pahail, undeadlich, wendigo, yuratroll,

44 Pages V   1 2 3 > » 
- Lo-Fi Version Support form
Copyrights and abuse reports form
Time is now: 4th August 2021 - 22:54:25