Welcome Guest ( Log In | Register )

История благодарностей участнику VLADISLAV_V_K ::: Спасибо сказали: 2361 раз(а)
Дата поста: В теме: За сообщение: Спасибо сказали:
Feb 19 2020, 11:28:03 On Thorns I Lay - Threnos (2020)


*Artist: On Thorns I Lay
*Album: Threnos
*Year: 2020
*Genre: Death/Doom Metal
*Country: Greece
*Format: mp3@CBR128kbps
*Size: 42MB

Tracklist:
01. The Song Of Sirens 06:58
02. Ouranio Deos 06:19
03. Cosmic Silence 04:59
04. Erynies 05:35
05. Misos 04:18
06. Threnos 07:14
07. Odysseia 09:48
******************************
Total playing time: 45:11


Preview 2

[more=Extended info][youtube]oAeROCgvLes[/youtube]

Lineup:
Antony Keyboards
Chris Dragamestianos Guitars (1995-present), Keyboards (1995, 2001)
Stefanos Kintzoglou Vocals (1995-present), Bass (1996-present)
Jim Ramses Bass (2017-present)
Akis Pastras Guitars (2017-present)
Stelios Darakis Drums (2019-present)[/more]

[more=Technical info]
Input File: 01-The Song of Sirens.mp3
Channels : 2
Sample Rate : 44100
Precision : 16-bit
Duration : 00:06:58.75 = 18466875 samples = 31406.2 CDDA sectors
File Size : 6.70M
Bit Rate : 128k
Sample Encoding: MPEG audio (layer I, II or III)
Comments :
Title=The Song of Sirens
Artist=On Thorns I Lay
Album=Threnos
Tracknumber=1
Year=2020
Genre=Death/Doom Metal

[/more]

Register
(12) Antkh, boby9052, Bzth, DMIYUR, Evjenne, metala, Old Vyaine, Olethros, raattent, Rosen, stumpheavyrock, vo140182fav,
Feb 17 2020, 19:41:38 Mordor - Prayer To... (1993)
FLAC img+cue
Register
(1) thenecromancer,
Feb 17 2020, 18:41:10 Age Of Fire - Age Of Fire (1988)


*Artist: Age Of Fire
*Album: Age Of Fire
*Year: 1988
*Genre: Heavy Metal
*Country: United States
*Format: mp3@CBR320kbps
*Size: 64MB

Tracklist:
01. The Rebel 04:31
02. Amongst the Shadows 03:03
03. The Front 05:31
04. The Forgotten One 04:15
05. Maelstrom 02:14
06. Feeding Off Insanity 02:25
07. Somniferous 01:39
08. Mental Beast 04:06
******************************
Total playing time: 27:44


Preview 2

[more=Extended info]

Greg Brown Vocals, Guitars, Bass[/more]

[more=Technical info]
Input File: 01-The Rebel.mp3
Channels : 2
Sample Rate : 44100
Precision : 16-bit
Duration : 00:04:31.58 = 11976502 samples = 20368.2 CDDA sectors
File Size : 10.9M
Bit Rate : 320k
Sample Encoding: MPEG audio (layer I, II or III)
Comments :
Title=The Rebel
Artist=Age of Fire
Album=Age of Fire
Tracknumber=1
Year=1988
Genre=Heavy Metal

[/more]

Register
(10) caro, infiltrator, morbidangelo, Olethros, Rosen, Rover, sergsazan, stumpheavyrock, Wail, wgs73,
Feb 17 2020, 18:23:12 Angel Siniestro - VII (2020)


*Artist: Angel Siniestro
*Album: VII
*Year: 2020
*Genre: Heavy/Power Metal
*Country: United States
*Format: mp3@CBR320kbps
*Size: 76MB

Tracklist:
01. Intro
02. Condena Infernal
03. Guerrero Inmortal
04. Maldito Reino de Dios
05. Angel de Sodoma
06. En la Batalla
07. Dolor
08. Agonia
09. Angel Siniestro
******************************
Total playing time: 33:15




[more=Extended info][youtube]Vr3X8HsDYW4[/youtube]

[youtube]7U2sly6x7LI[/youtube]

[youtube]xQAV_rbE0yM[/youtube]

[youtube]x2kfeIpGw20[/youtube]

Lineup:
Vocals: Kiss R.
Guitars/Vocals: Juan P.
Guitars: Marcos M.
Drums: Peter V.
Bass: Jose S.[/more]

[more=Technical info]
Input File: 03-Guerrero Inmortal.mp3
Channels : 2
Sample Rate : 44100
Precision : 16-bit
Duration : 00:04:25.42 = 11705066 samples = 19906.6 CDDA sectors
File Size : 10.6M
Bit Rate : 320k
Sample Encoding: MPEG audio (layer I, II or III)
Comments :
Title=Guerrero Inmortal
Artist=Angel Siniestro
Album=VII
Tracknumber=3
Year=2020
Genre=Power / Heavy Metal

[/more]

Register
(15) ASkyThatBurns, aviacademy, boby9052, caro, Herrant, infiltrator, Olethros, postal67, Rosen, Rover, sergsazan, stumpheavyrock, vir2al, zhol, Сварог Барг,
Feb 17 2020, 15:36:15 Age Of Fire - Shades Of Shadow (2020)


*Artist: Age Of Fire
*Album: Shades Of Shadow
*Year: 2020
*Genre: Heavy Metal
*Country: United States
*Format: mp3@CBR320kbps
*Size: 96MB

Tracklist:
01. Epitaph
02. Time Is Running Out
03. Judgement Day
04. Fairystones
05. Shades of Shadow
06. King of Aquilonia
07. High Speed Chase
08. Dual Phase of a Lost Moon
09. Crystal Ball
10. Mist at Dawn
******************************
Total playing time: 41:51

Preview 1

[more=Extended info][youtube]x_sS88gamSo[/youtube]

Greg Brown Vocals, Guitars, Bass[/more]

[more=Technical info]
Input File: 06-King of Aquilonia.mp3
Channels : 2
Sample Rate : 44100
Precision : 16-bit
Duration : 00:04:41.93 = 12433201 samples = 21144.9 CDDA sectors
File Size : 11.3M
Bit Rate : 320k
Sample Encoding: MPEG audio (layer I, II or III)
Comments :
Title=King of Aquilonia
Artist=Age of Fire
Album=Shades of Shadow
Tracknumber=6
Year=2020
Genre=Heavy/Thrash Metal

[/more]

Register
(8) infiltrator, metala, Olethros, Rosen, Rover, stumpheavyrock, vir2al, Wail,
Feb 14 2020, 20:44:38 Shadow Witch - Under The Shadow Of A Witch (2020)


*Artist: Shadow Witch
*Album: Under The Shadow Of A Witch
*Year: 2020
*Genre: Psychedelic Stoner Metal
*Country: United States
*Format: mp3@CBR320kbps
*Size: 93MB

Tracklist:
01. Spearfinger 03:00
02. Demon's Hook 04:02
03. Wolf Among the Sheep 04:59
04. Witches of Aendor 04:18
05. Shifter 03:34
06. Saint Magdalene 04:31
07. 6 x 6 03:54
08. Sour 03:51
09. Fountain 08:11
******************************
Total playing time: 40:20


Preview 2

[more=Extended info][youtube]odIXLvZCee0[/youtube]

Linneup:
David Pannullo Bass, Vocals
Doug Beans Drums
Jeremy Hall Guitar
Earl Lundy Lead Vocals, Mellotron, Loops[/more]

[more=Technical info]
Input File: 02-Demon\'s Hook.mp3
Channels : 2
Sample Rate : 44100
Precision : 16-bit
Duration : 00:04:02.33 = 10686665 samples = 18174.6 CDDA sectors
File Size : 9.69M
Bit Rate : 320k
Sample Encoding: MPEG audio (layer I, II or III)
Comments :
Title=Demon's Hook
Artist=Shadow Witch
Album=Under the Shadow of a Witch
Tracknumber=2
Year=2020-02-14
Genre=Stoner Metal

[/more]

Register
(16) ASkyThatBurns, autumnwood, caro, cesar, chipsgott, Fragilitas, HMHamster, infiltrator, LEGION69, Leshiy666, multizwilling, Olethros, Rosen, StabWound, stub888, VALERY,
Feb 14 2020, 20:33:58 The Silenced - Orator (2020)


*Artist: The Silenced
*Album: Orator
*Year: 2020
*Genre: Groove Metal/Deathcore
*Country: Finland
*Format: mp3@CBR320kbps
*Size: 117MB

Tracklist:
01. Resist to Exist 04:52
02. End Machine 03:56
03. The Tyranny of Words 04:26
04. Death on the Rise 04:33
05. Omnigma 03:32
06. Metanoia 06:46
07. Arguments of Ignorance 04:36
08. Conditioned Thought Patterns 04:41
09. The Semmelweis Reflex 04:14
10. Beyond the Pale 06:15
11. Slave New World 02:58
******************************
Total playing time: 50:49


Preview 2

[more=Extended info][youtube]xsJ3X5yR5HU[/youtube]

What began as a dynamic metal duo project by Juha Immonen & Janne Jaakkola (both ex-Hevein) now extends into a full-fledged five piece with Kristian Kuronen breaking the high end sonic barrier, Toni Kammonen hammering out low end vibrations, and Joonas Osara laying down shattering groove beats. Relentless creative fury and rage induced by the bleak world presented through the news are siphoned to form versatile, hard grooving metal that evades clear cut categorization.

After one EP and three single releases with videos creating highly positive bubbling under, the band is ready to burst out and conquer. Self produced and recorded debut album “ORATOR” consisting of 10 tracks is now mixed by the master Teemu Aalto (i.a. Omnium Gatherum, Insomnium) and mastered by another master Svante Forsbäck (i.a. Rammstein, Apocalyptica, Amorphis). With the looming debut album release The Silenced sets out to take it to the stages and shake booties and the constructs of the self appointed guardians of the status quo. (September 2019)

[youtube]kabwGo6ZE-Q[/youtube]

Finnish metal newcomers The Silenced being interviewed about the band´s debut album "Orator", due out 14th of February 2020 via Out Of Line Music.

Interview & Filming: Arto Mäenpää
Editing: Santeri Kujala[/more]

[more=Technical info]
Input File: 01-Resist to Exist.mp3
Channels : 2
Sample Rate : 44100
Precision : 16-bit
Duration : 00:04:52.54 = 12900926 samples = 21940.4 CDDA sectors
File Size : 11.7M
Bit Rate : 320k
Sample Encoding: MPEG audio (layer I, II or III)
Comments :
Title=Resist to Exist
Artist=The Silenced
Album=Orator
Tracknumber=1
Year=2020-02-14
Genre=Groove Metal / Deathcore

[/more]

Register
(6) atavist, caro, chipsgott, infiltrator, Olethros, Rosen,
Feb 14 2020, 19:23:40 Mecalimb - Collector Of Souls [ep] (2020)


*Artist: Mecalimb
*Album: Collector Of Souls [ep]
*Year: 2020
*Genre: Melodic Death/Groove Metal
*Country: Norway
*Format: mp3@CBR320kbps
*Size: 38MB

Tracklist:
01. Visions of Blood 03:00
02. Solace for the Weak 05:05
03. Collector of Souls 04:29
04. Total War 03:45
******************************
Total playing time: 16:19

Preview 1
Preview 2

[more=Extended info][youtube]UBgKE_c0kn8[/youtube]

Linneup:
Ole Olsen Guitars, Vocals (backing) (2005-present)
Dag Kopperud Bass, Vocals (backing) (2006-present)
Marius Pettersen Drums (2007-present)
Tom Angel Guitars (lead) (2013-present)
Robert Arntsen Vocals (2015-present)[/more]

[more=Technical info]
Input File: 01-Visions of Blood.mp3
Channels : 2
Sample Rate : 44100
Precision : 16-bit
Duration : 00:03:00.26 = 7949378 samples = 13519.4 CDDA sectors
File Size : 7.21M
Bit Rate : 320k
Sample Encoding: MPEG audio (layer I, II or III)
Comments :
Title=Visions of Blood
Artist=Mecalimb
Album=Collector of Souls
Tracknumber=1
Year=2020-02-14
Genre=Melodic Death/Groove Metal

[/more]

Register
(11) AHBAnep, ASkyThatBurns, cancer1974, caro, chipsgott, infiltrator, Rosen, soulflesh, TeamatSE, VALERY, zhol,
Feb 14 2020, 15:53:49 Blissful Stream - Dead Religious [ep] (2018)


*Artist: Blissful Stream
*Album: Dead Religious [ep]
*Year: 2018
*Genre: Doom Metal
*Country: Sweden
*Format: mp3@CBR320kbps
*Size: 35MB

Tracklist:
01. Downfall 04:02
02. Into the Abyss 02:30
03. Dead Religious 02:50
04. Black Ships 04:41
******************************
Total playing time: 14:03


Preview 2

[more=Extended info][youtube]uLQ04khsGQA[/youtube]

Sounds and layout by Martin Sällström.
Recorded and mixed in Studio Sinnesfrid.[/more]

[more=Technical info]
Input File: 04-Black Ships.mp3
Channels : 2
Sample Rate : 44100
Precision : 16-bit
Duration : 00:04:42.04 = 12437788 samples = 21152.7 CDDA sectors
File Size : 11.3M
Bit Rate : 320k
Sample Encoding: MPEG audio (layer I, II or III)
Comments :
Title=Black Ships
Artist=Blissful Stream
Album=Dead Religious
Tracknumber=04
Year=2018
Genre=Doom Metal

[/more]

Register
(13) ASkyThatBurns, caro, HMHamster, infiltrator, marilin, Olethros, Rosen, sergsazan, stub888, templ, VALERY, Wail, zhol,
Feb 14 2020, 15:46:33 Blissful Stream - Ascending Demons [ep] (2016)


*Artist: Blissful Stream
*Album: Ascending Demons [ep]
*Year: 2016
*Genre: Doom Metal
*Country: Sweden
*Format: mp3@CBR320kbps
*Size: 35MB

Tracklist:
01. The House On The Hill 05:16
02. Dead Man Walking 03:25
03. Guide Us Home 03:22
04. Ascending Demons 03:01
******************************
Total playing time: 15:04



[more=Extended info][youtube]J8SsBE4fYfU[/youtube]

Martin Sällström - vocals, guitars, bass and drums.

All music and lyrics by Blissful Stream except lyrics for The House On The Hill by Edwin Arlington Robinson.
credits
released August 18, 2016

Recorded and mixed by Martin Sällström in Studio Sinnesfrid.

Mastered by Jonsson at Dark Prod Studios.[/more]

[more=Technical info]
Input File: 04-Ascending Demons.mp3
Channels : 2
Sample Rate : 44100
Precision : 16-bit
Duration : 00:03:01.25 = 7993125 samples = 13593.8 CDDA sectors
File Size : 7.25M
Bit Rate : 320k
Sample Encoding: MPEG audio (layer I, II or III)
Comments :
Title=Ascending Demons
Artist=Blissful Stream
Album=Ascending Demons
Tracknumber=04
Year=2016
Genre=Doom Metal

[/more]

Register
(13) ASkyThatBurns, caro, HMHamster, infiltrator, marilin, Olethros, Rosen, sergsazan, stub888, stumpheavyrock, templ, VALERY, Wail,
Feb 14 2020, 13:49:08 Ossaert - Bedehuis (2020)


*Artist: Ossaert
*Album: Bedehuis
*Year: 2020
*Genre: Atmospheric Black Metal
*Country: Netherlands
*Format: mp3@CBR320kbps
*Size: 78MB

Tracklist:
01. I 08:35
02. II 07:51
03. III 08:05
04. IV 09:30
******************************
Total playing time: 34:01



[more=Extended info][youtube]VQZKmFCeRKE[/youtube]

Music & Lyrics written by Ossaert
Artwork by Reuben Sawyer

P. - Bass, Guitars, Vocals
W. - Drums

Mixed & Mastered by W. at Catacomben Studio's[/more]

[more=Technical info]
Input File: 01-I.mp3
Channels : 2
Sample Rate : 44100
Precision : 16-bit
Duration : 00:08:35.14 = 22717674 samples = 38635.5 CDDA sectors
File Size : 20.6M
Bit Rate : 320k
Sample Encoding: MPEG audio (layer I, II or III)
Comments :
Title=I
Artist=Ossaert
Album=Bedehuis
Tracknumber=01/04
Year=2020
Genre=Atmospheric Black Metal

[/more]

Register
(25) 1968_janeart, aleon, alikkon, ASkyThatBurns, Corpuscul, dan22, djsema4, exorcist1969, FlammenTod666, garmonbozia, infiltrator, kim666, Korpse, Occultas, Olethros, Ostinato, peppuzzo, robertho777, Rosen, sabr, Shadechaser, stub888, VALERY, vasiljev_sergej, yuratroll,
Feb 13 2020, 23:08:14 Elcrost - Benighted & Unrequited (2020)


*Artist: Elcrost
*Album: Benighted & Unrequited
*Year: 2020
*Genre: Black Metal
*Country: Vietnam
*Format: mp3@CBR320kbps
*Size: 85MB

Tracklist:
01. The Derelict Piece of My Heart Lies Deep Beneath the Forest 03:25
02. The Worm 05:25
03. Ox Blood 08:42
04. Forevermore 04:12
05. Ethereal 07:29
06. The Mountain of Eternal Winter 08:00
******************************
Total playing time: 37:13



[more=Extended info][youtube]5uIPYvb7IOs[/youtube]

[youtube]GXUdSvl0BB0[/youtube]

[youtube]LOuxBOVFm1Y[/youtube][/more]

[more=Technical info]
Input File: 06-The Mountain of Eternal Winter.mp3
Channels : 2
Sample Rate : 44100
Precision : 16-bit
Duration : 00:08:00.06 = 21170426 samples = 36004.1 CDDA sectors
File Size : 19.2M
Bit Rate : 320k
Sample Encoding: MPEG audio (layer I, II or III)
Comments :
Title=The Mountain of Eternal Winter
Artist=Elcrost
Album=Benighted & Unrequited
Tracknumber=6
Year=2020
Genre=Black Metal

[/more]

Register
(18) 1968_janeart, alikkon, ASkyThatBurns, atavist, Frozenkult, infiltrator, MPARKAS, nadin85, Olethros, Rita, robertho777, Rosen, toly1917, VALERY, vasiljev_sergej, vovenom, Wail, WX419,
Feb 13 2020, 20:50:02 Dangerous Project - Cosmic Vision (2020)


*Artist: Dangerous Project
*Album: Cosmic Vision
*Year: 2020
*Genre: Neo-Classical Power Metal
*Country: Peru
*Format: mp3@CBR320kbps
*Size: 108MB

Tracklist:
01. Evil Strike
02. Hide in the Shadows
03. Burning Angel
04. Cosmic Vision
05. Keeper of the Sun
06. The Fire in My Heart
07. She Doesn’t Believe in Love
08. Never Surrender
09. Into the Eternity
10. Point of No Return
11. Guardian del Sol (Bonus Track)
12. El Fuego En Mi Corazón (Bonus Track)
******************************
Total playing time: 47:02

Preview 1

[more=Extended info]Lineup:
Jose Gaona - Vocals
Oscar J. Martin - Guitars
Eddy Geott - Bass
Luber Elend - Keyboards
Miguel Franco - Drums[/more]

[more=Technical info]
Input File: 02-Hide in the Shadows.mp3
Channels : 2
Sample Rate : 44100
Precision : 16-bit
Duration : 00:04:26.94 = 11771922 samples = 20020.3 CDDA sectors
File Size : 10.7M
Bit Rate : 320k
Sample Encoding: MPEG audio (layer I, II or III)
Comments :
Title=Hide in the Shadows
Artist=Dangerous Project
Album=Cosmic Vision
Tracknumber=2/12
Year=2020
Genre=Neo-Classical Power Metal

[/more]

Register
(15) ace73pq, AHBAnep, ASkyThatBurns, aviacademy, gwar, Herrant, infiltrator, Niknne, Olethros, Rosen, Rover, sadmannn, sergsazan, skinnyboo, Сварог Барг,
Feb 13 2020, 20:28:40 Blissful Stream - When The Wolves Start To Circle (2020)


*Artist: Blissful Stream
*Album: When The Wolves Start To Circle
*Year: 2020
*Genre: Doom Metal
*Country: Sweden
*Format: mp3@CBR320kbps
*Size: 68MB

Tracklist:
01. We See the Light
02. When the Wolves Start to Circle
03. Sow the Seeds of Discontent
04. Covenant of Decay
05. Once Alive
06. Old Wounds
07. War of the Righteous
08. City of Dead Souls
******************************
Total playing time: 29:47



[more=Extended info]

Equimanthorn Vocals, Guitars, Bass, Drums (2016-present)

releases February 14, 2020

Sounds and layout by Martin Sällström.
Recorded and mixed in Studio Sinnesfrid.
Mastered by Brad Boatright at Audiosiege.[/more]

[more=Technical info]
Input File: 08-City of Dead Souls.mp3
Channels : 2
Sample Rate : 44100
Precision : 16-bit
Duration : 00:03:15.31 = 8612951 samples = 14647.9 CDDA sectors
File Size : 7.81M
Bit Rate : 320k
Sample Encoding: MPEG audio (layer I, II or III)
Comments :
Title=City of Dead Souls
Artist=Blissful Stream
Album=When the Wolves Start to Circle
Tracknumber=8/8
Year=2020
Genre=Doom Metal

[/more]

Register
(18) Andr, ASkyThatBurns, HMHamster, infiltrator, lucifix, metala, Niknne, Olethros, oversorrow, postal67, Rosen, RUDACHUR, sergsazan, sludge666, stub888, stumpheavyrock, templ, VALERY,
Feb 13 2020, 17:38:57 Bishop Of Hexen - A Ceremony At The Edge Of A Burning Page [ep] (2012)
mp3 VBR
Register
(1) Occultas,
Feb 12 2020, 21:06:20 Zyclops - Inheritance Of Ash [ep] (2020)
FLAC tracks
Register
(2) infiltrator, Olethros,
Feb 12 2020, 20:24:33 Murder Castle - The Black Widow (2020)


*Artist: Murder Castle
*Album: The Black Widow
*Year: 2020
*Genre: Groove/Doom Metal
*Country: United States
*Format: mp3@CBR320kbps
*Size: 136MB

Tracklist:
01. Narration from the Detective
02. The Black Widow PT1
03. Lured into Lust
04. Clarity
05. Spitting Teeth
06. Kiss of Poison
07. The Black Widow PT2
08. Evidence
09. Sabotage of the Predator
10. Bloodsplattered Outroduction
******************************
Total playing time: 59:15




[more=Extended info][youtube]yKI9JorlpIE[/youtube]

Lineup:
Simon Tuozzoli Bass, Drums
Chris Anderson Drums
Bill Klopfer Guitars, Vocals[/more]

[more=Technical info]
Input File: 02-The Black Widow.mp3
Channels : 2
Sample Rate : 44100
Precision : 16-bit
Duration : 00:05:55.29 = 15668201 samples = 26646.6 CDDA sectors
File Size : 14.2M
Bit Rate : 320k
Sample Encoding: MPEG audio (layer I, II or III)
Comments :
Title=The Black Widow
Artist=Murder Castle
Album=The Black Widow
Tracknumber=2
Year=2020
Genre=Groove/Doom Metal

[/more]

Register
(10) ASkyThatBurns, boby9052, caro, Foneg, infiltrator, judaz, Olethros, Rosen, stumpheavyrock, VALERY,
Feb 12 2020, 19:05:20 Zyclops - Inheritance Of Ash [ep] (2020)


*Artist: Zyclops
*Album: Inheritance Of Ash [ep]
*Year: 2020
*Genre: Atmospheric Sludge/Doom Metal
*Country: United States
*Format: mp3@CBR320kbps
*Size: 63MB

Tracklist:
01. Ghost 06:08
02. Rope 04:53
03. Wind 07:44
04. Ash 08:23
******************************
Total playing time: 27:08



[more=Extended info][youtube]PgeJCgOdwGQ[/youtube]

Zyclops is:

Ed Davis
Cory Brim
Matt Moulis
Ryan Pankratz[/more]

[more=Technical info]
Input File: 01-Ghost.mp3
Channels : 2
Sample Rate : 44100
Precision : 16-bit
Duration : 00:06:08.92 = 16269548 samples = 27669.3 CDDA sectors
File Size : 14.8M
Bit Rate : 320k
Sample Encoding: MPEG audio (layer I, II or III)
Comments :
Title=Ghost
Artist=Zyclops
Album=Inheritance of Ash
Tracknumber=1
Year=2020
Genre=Atmospheric Sludge Metal

[/more]

Register
(9) ASkyThatBurns, gena, infiltrator, Olethros, Ostinato, robertho777, Rosen, stub888, VALERY,
Feb 12 2020, 14:24:36 River Crow - Remains Of A New Life (2020)


*Artist: River Crow
*Album: Remains Of A New Life
*Year: 2020
*Genre: Groove/Southern Metal
*Country: Spain
*Format: mp3@CBR320kbps
*Size: 84MB

Tracklist:
01. Intro 00:52
02. Little Bastard 04:37
03. Hell Down 04:44
04. Isolation 03:42
05. Breaking Cowards 03:51
06. Inside Me 02:57
07. The Fall 02:12
08. Madness And Road 04:34
09. City Of Sorrow 04:28
10. Fly Away 04:24
******************************
Total playing time: 36:21

Preview 1

[more=Extended info][youtube]xkJdSg-UUGY[/youtube]

[youtube]VnSkrVq-yfI[/youtube]

Lineup:
Dani Bass
Jose Luis Drums
Chema Guitars
David Vocals[/more]

[more=Technical info]
Input File: 03-Hell Down.mp3
Channels : 2
Sample Rate : 44100
Precision : 16-bit
Duration : 00:04:44.99 = 12568191 samples = 21374.5 CDDA sectors
File Size : 11.4M
Bit Rate : 320k
Sample Encoding: MPEG audio (layer I, II or III)
Comments :
Title=Hell Down
Artist=River Crow
Album=Remains of a New Life
Tracknumber=3
Year=2020
Genre=Groove/Southern Metal

[/more]

Register
(6) ASkyThatBurns, chipsgott, infiltrator, Olethros, Rosen, stumpheavyrock,
Feb 12 2020, 14:03:27 Haemic - Forum Galactica (2020)


*Artist: Haemic
*Album: Forum Galactica
*Year: 2020
*Genre: Melodic Death/Symphonic Black Metal
*Country: International
*Format: mp3@CBR320kbps
*Size: 100MB

Tracklist:
01. All Rise 02:37
02. Swallowed by the Ocean 04:37
03. Laid to Rest 04:43
04. Forum Galactica 05:17
05. Behold, Sycroburion 04:42
06. Intermission 01:19
07. Planetary Annihilation 06:00
08. Alpha & Omega 03:48
09. In My Way 05:52
10. Consensus 04:41
******************************
Total playing time: 43:36




[more=Extended info][youtube]NlLkRsaoi58[/youtube]

Lineup:
Ádám Farkas Programming, Songwriting (2011-present)
Marco Arndt Vocals (2018-present)[/more]

[more=Technical info]
Input File: 02-Swallowed By The Ocean.mp3
Channels : 2
Sample Rate : 44100
Precision : 16-bit
Duration : 00:04:37.18 = 12223506 samples = 20788.3 CDDA sectors
File Size : 11.1M
Bit Rate : 320k
Sample Encoding: MPEG audio (layer I, II or III)
Comments :
Title=Swallowed By The Ocean
Artist=Haemic
Album=Forum Galactica
Tracknumber=2
Year=2020
Genre=Melodic Death/Symphonic Black Metal

[/more]

Register
(21) ASkyThatBurns, Cartman223, demonosz, infiltrator, kimkayoung, Luminous, metalwoman, Niknne, Olethros, Olrak, oversorrow, Rosen, senecazm, sergsazan, Shadechaser, VALERY, vasiljev_sergej, wanderer73, Wolftribes, zhol, Сварог Барг,
Feb 11 2020, 23:11:58 Fliege - The Invisible Seam (2020)


*Artist: Fliege
*Album: The Invisible Seam
*Year: 2020
*Genre: Black Industrial Metal
*Country: United States
*Format: mp3@CBR320kbps
*Size: 97MB

Tracklist:
01. My Flesh is Afraid (But I Am Not) 03:35
02. Four Suns 04:17
03. A Confession 04:08
04. March of Whips 04:29
05. Love Plague 04:24
06. The Invisible Seam 03:55
07. Blood of the Earth 04:59
08. Die Raval 02:41
09. The Censer 03:08
10. A Light in the Black Pane 06:26
******************************
Total playing time: 42:02


Preview 2

[more=Extended info][youtube]sX3BmcJU7RU[/youtube]

Coleman Bentley - guitars, clean vocals, drum programming, samples
Peter Rittweger - vocals
Chris Palermo - synths, keyboards

Recorded by Coleman Bentley, Nikhil Kamineni and Gabriel Espinosa at various locations
Mixed by Gabriel Espinosa at WinterBeast, Portland, OR
Mastered by Brad Boatright at AudioSiege, Portland, OR
Cover art by Nathan Clark Bentley[/more]

[more=Technical info]
Input File: 02-Four Suns.mp3
Channels : 2
Sample Rate : 44100
Precision : 16-bit
Duration : 00:04:17.64 = 11361792 samples = 19322.8 CDDA sectors
File Size : 10.3M
Bit Rate : 320k
Sample Encoding: MPEG audio (layer I, II or III)
Comments :
Title=Four Suns
Artist=Fliege
Album=The Invisible Seam
Tracknumber=2
Year=2020
Genre=Blackened Industrial Metal

[/more]

Register
(16) ASkyThatBurns, atavist, Doooomed, gwar, infiltrator, judaz, kim666, kimkayoung, LEGION69, metala, multizwilling, Olethros, robertho777, Rosen, Shadechaser, vasiljev_sergej,
Feb 11 2020, 16:05:16 Thelordpain - Under The Moon Of Misanthropy (2020)


*Artist: Thelordpain
*Album: Under The Moon Of Misanthropy
*Year: 2020
*Genre: Black Metal/Dark Ambient
*Country: United States
*Format: mp3@CBR320kbps
*Size: 74MB

Tracklist:
01. Moon Of Misanthropy 10:18
02. The Unbearable Sight Of Humans 07:43
03. Arcane Projections 01:32
04. Infernal Forces 01:34
05. Von (Von Cover) 02:20
06. Raise The Underground 08:40
******************************
Total playing time: 32:07



[more=Extended info][youtube]KVcPn_uqZpM[/youtube]

Debut full length of the TheLordPain "Under The Moon Of Misanthropy", A raw & unrelenting record uncompromising in its old-school atmosphere yet still experimental in its eccentric sound. Ranging from hard hitting to ominous music & enticing dark ambient harmonies mostly heard throughout at times paired with cryptic spoken words.

Enter a realm of darkness.
credits
released January 17, 2020

Logo - AJ Willson
Album Art - Jonathan Ruiz[/more]

[more=Technical info]
Input File: 01-Moon of Misanthropy.mp3
Channels : 2
Sample Rate : 44100
Precision : 16-bit
Duration : 00:10:17.10 = 27214154 samples = 46282.6 CDDA sectors
File Size : 24.7M
Bit Rate : 320k
Sample Encoding: MPEG audio (layer I, II or III)
Comments :
Title=Moon of Misanthropy
Artist=TheLordPain
Album=Under The Moon Of Misanthropy
Tracknumber=1
Year=2020
Genre=Black Metal

[/more]

Register
(7) ASkyThatBurns, infiltrator, Olethros, Rosen, stub888, VALERY, vasiljev_sergej,
Feb 11 2020, 15:50:12 Planet Of The Dead - Fear Of A Dead Planet (2020)


*Artist: Planet Of The Dead
*Album: Fear Of A Dead Planet
*Year: 2020
*Genre: Stoner/Doom Metal
*Country: New Zealand
*Format: mp3@CBR320kbps
*Size: 95MB

Tracklist:
01. The Eternal Void
02. Mind Killer
03. A Million Deaths
04. Nashwan
05. Entropy
06. Walk the Earth
07. Iguanodon
08. Snake Wizard
******************************
Total playing time: 41:23



[more=Extended info][youtube]4ItjF2EpOnA[/youtube]

Mark Mundell - vocals
Malcolm McKenzie - guitar
Kees Hengst - bass
Dion Harris - drums

All songs written by Planet of the Dead
Produced by James Goldsmith at The Surgery, Newtown, Wellington
Mastered by Brad Boatright at Audiosiege
Album art by Jonathan Guzihttps://jonathanguzi.artstation.com/[/more]

[more=Technical info]
Input File: 02-Mind Killer.mp3
Channels : 2
Sample Rate : 44100
Precision : 16-bit
Duration : 00:04:24.74 = 11675122 samples = 19855.6 CDDA sectors
File Size : 10.6M
Bit Rate : 320k
Sample Encoding: MPEG audio (layer I, II or III)
Comments :
Title=Mind Killer
Artist=Planet of the Dead
Album=Fear of a Dead Planet
Tracknumber=2
Year=2020
Genre=Stoner/Doom Metal

[/more]

Register
(13) ASkyThatBurns, caro, gena, gorven, HMHamster, infiltrator, KVRT, LEGION69, marilin, Olethros, Rosen, stub888, VALERY,
Feb 10 2020, 19:33:27 Kataxu & Necator - Kataxu/Necator [split] (2008)
FLAC img+cue
Register
(2) Moonshtook, thenecromancer,
Feb 10 2020, 19:32:09 Thunderbolt & Kataxu - Black Clouds Over Dark Majesty / Roots Thunder [split] (2000)
FLAC img+cue
Register
(1) Moonshtook,

18 Pages V   1 2 3 > » 
- Lo-Fi Version Support form
Copyrights and abuse reports form
Time is now: 21st February 2020 - 12:45:46