Welcome Guest ( Log In | Register )

История благодарностей участнику blackness ::: Спасибо сказали: 625 раз(а)
Дата поста: В теме: За сообщение: Спасибо сказали:
Oct 22 2019, 07:39:35 Mayhem - Daemon (2019)
Это всё тот же никакой Мэйхем, пару завываний Атиллы, саунд как в DMDS, логотип Mayhem и масса восторженных отзывов. Нет, нет здесь старого Мэйхема. Пойду переслушаю Mare - Ebony Tower.
(4) infiltrator, sabr, Synthaeon, zolotoiskatel,
Jul 13 2019, 11:32:55 Primogenorum - Ye Last Ordeal [ep] (2019)


*Artist: Primogenorum
*Album: Ye Last Ordeal [ep]
*Year: 2019
*Genre: Raw Black Metal/Noise
*Country: Ukraine
*Format: mp3@CBR192kbps
*Size: 30MB

Tracklist:
1. Trail Of Black Fire
2. Ominous Nights
3. On The Ground Of The Dying Man
4. Sacrilegious Atrocity
******************************
Total playing time: 21:09

[more=Technical info]
Input File: 1. Trail Of Black Fire.mp3
Channels : 2
Sample Rate : 44100
Precision : 16-bit
Duration : 00:05:12.17 = 13766785 samples = 23412.9 CDDA sectors
File Size : 7.49M
Bit Rate : 192k
Sample Encoding: MPEG audio (layer I, II or III)
Comment : 'Year=2019'

[/more]

Register
(6) 1968_janeart, artscald, Moonshtook, Olethros, Rosen, vasiljev_sergej,
Mar 20 2019, 19:41:54 Новости Black-направления
http://bravewords.com/medias-static/images...ronecdmar19.jpg
Darkthrone > Old Star 2019

1. I Muffle Your Inner Choir 06:26
2. The Hardship of the Scots 07:36
3. Old Star 04:28
4. Alp Man 05:27
5. Duke of Gloat 06:49
6. The Key Is Inside the Wall 07:24
38:10




Darkthrone, the Norwegian Black Metal legends, marks its 2019 return with a sublime slab of relentless riffing in the true spirit of the underground.

This edition of Old Star is presented in a special 3 x 7" vinyl set, on black, white & clear vinyl.

Over the course of 30 years, Darkthrone has become a staple of the global Black Metal genre, forging a legacy as one of the most influential bands in its illustrious and often infamous history.

In its formative years, Darkthrone made its mark with a strong concoction of Thrash, then Death/Doom Metal experimentation. Never ones to follow convention or stand still even then, the band soon embraced a much darker, more primitive form of expression with its iconic second album A Blaze in the Northern Sky. Now the longstanding duo of Fenriz and Nocturno Culto return with their first studio album since 2016’s hugely popular Arctic Thunder..

Old Star displays a mastery of the art of the riff, with its 6 epic tracks taking in the best of the old school of Heavy and Extreme Metal combined with a large dose of Doom channelled through the grime of the underground.

Vocalist/guitarist Nocturno Culto’s production is complemented by a powerful, organic mix courtesy of Sanford Parker (Voivod) at Hypercube Studios. Mastering is courtesy of Jack Control.

The stellar cover artistry is by Chadwick St John (titled The Shepherd Of The Deep).
(11) acerbus, Beazth, FullofHate, infiltrator, Krosis, nikolay81, Occultas, RUDACHUR, tormoz, Tular, vosmidesijatye,
Mar 2 2019, 15:47:22 Sinmara - Hvísl Stjarnanna (2019)
Дебютник был диким, масса выразительных моментов, слушался на одном дыхании и многократно переслушивался. Этот прошел фоном. Вроде и серьезная работа а не цепляет. Музыка соответствует обложке, что-то серое и невнятное.
(1) sethurius,
Jan 17 2019, 17:06:38 Новости Black-направления
Tsjuder


Alright people, we’re currently working on our new record. Here’s one of the titles.
(11) babanguida, energo68, Infidel, judaz, Kazoth, kim666, Moonshtook, Occultas, RUDACHUR, Skog1349, vovenom,
Jan 5 2019, 08:06:49 Бруталино - Полкило Отборного Говна (2018)
Какие все нежные собрались, одни моралисты-сотонисты. Рождественский пост соблюдаете? Вообще не пойму претензий, это же гринда. Примерно как смотреть порно и жаловаться на то, что показали пенис и вагину.
(4) SAPOGi, sarcophagus, Tenebrarvm, Vardlokkur,
Oct 1 2018, 08:15:58 Thromos - Taucht Ein ... In Finsternis (2018)
" ударные звучат как у Саенко в blood of kingu" 15.gif
Саенко придется подвинуться Warloghe - The First Possession
(1) RADeus,
Aug 24 2018, 14:22:53 Mare - Ebony Tower (2018)
Зашел почитать отзывы, снова наткнулся на порции абстрактной ереси и пацанов которые спорят у кого из них длиннее их 9 см в штанах
(8) Anger, Brann, Dantalian, ErikGoth, infiltrator, Mirddin, svartalf, troll_swamp,
Jul 15 2018, 09:41:20 Новости Black-направления
https://www.youtube.com/watch?v=WxEbWltQUAA

Black Funeral
Album: "The Dust & Darkness"
(7) acerbus, BlackSmog, Chasm, garmonbozia, Immortality, infiltrator, Occultas,
Jul 1 2018, 18:48:57 Immortal - Northern Chaos Gods (2018)
Ощущение как при прослушивании крайнего альбома Watain, драйвово, яростно но за этим скрывается лютый порожняк, на первый взгляд может даже показаться, что запахло Blizzard Beasts, но это рассеивается уже после прослушивании нескольких треков.
(2) Chasm, Metalass,
Apr 11 2018, 16:15:44 Новости Black-направления
[youtube]watch?v=8xPTJRQpWzk[/youtube]
Craft - The Cosmic Sphere Falls
Taken from the forthcoming album "White Noise and Black Metal". Release Date: June 22nd, 2018.

https://www.youtube.com/watch?v=8xPTJRQpWzk
(7) Chasm, GTrooper, infiltrator, rimfrost, ripper33, SameMan, templ,
Feb 1 2018, 07:09:15 Новости Black-направления

Blut & Eisen Productions

Myrkraverk > Nжr dшden

Full-length
Release date:
March 13th, 2018

https://www.metal-archives.com/albums/Myrkr...C3%B8den/692819
(3) infiltrator, Namnlos, templ,
Jan 5 2018, 08:07:36 Watain - Trident Wolf Eclipse (2018)
Все кто пишут "Watain" вернулись видимо давно не переслушивали Casus Luciferi. Новый альбом хорош только на фоне предыдущего шлака, на самом деле кроме напористости в музыки нет ничего интересного. Если в Casus Luciferi в каждом треке были рифы которые уже стали классикой, которые застревали в памяти, то здесь всё посредственно. Лучше ещё раз переслушаю Whoredom Rife
(2) infiltrator, Samogon,
Dec 16 2017, 07:40:48 Новости Black-направления
MARE - Blood Across The Firmament
(4) infiltrator, suseka, svndvst, VECTOR,
Nov 2 2017, 08:06:36 Новости Black-направления


Teratism - La Bas

Ранее была недоступна
(2) gena, Occultas,
Oct 13 2017, 11:20:22 Новости Black-направления (8) andivi, Chasm, damage666, garmonbozia, gena, Razorbladeswaltz, rom666, suseka,
Jun 9 2017, 05:42:44 Whoredom Rife - Dommedagskvad (2017) (1) Buregon,
May 31 2017, 14:48:38 Whoredom Rife - Dommedagskvad (2017)
True Norwegian Black Metal без лишнего шлака. Глоток свежего морозного воздуха после затхлых диссонансных туманов пафоса. Жаль облога пока неполноценная
(1) Paatddal,
Mar 11 2017, 12:54:41 Новости Black-направления


NIGHTRITE (Ukr) - Black Moon Rituals

This is the unreleased album from 2013 of raw yet atmospheric Black Metal from Ukraine. Sharing the members of Shadows Ground, this demo offers 8 pieces of primeval witchcraft and sinister sepulchral occultism materialized into the vile music art. Professionally dubed and manufactured cassette with on-body printing, limited to 60 units.

http://hexencave.bigcartel.com/product/nig...ck-moon-rituals
(3) Goatrex, rimfrost, VECTOR,
Feb 7 2017, 05:43:28 Ritual Death - Ritual Death [ep] (2016)
ЦИТАТА(aesteticvice @ Sep 24 2016, 02:01:58) *
Может я не тру, но нифига не понял че там очешуительного 1488.gif примитивная драм машина в трех скоростях, звук гитары как на сеге и плохо записанный вокал пыхтящий грозно в микрофон от наушников, про музыкальную составляющую даже говорить нечего, по моему там вообще одна струна плюс драмсы и какие-то детские клавиши на трех кнопках, че-то типа танка геноцыда по общему впечатлению fear.gif тут еще некоторые на дарк трон пыхтели, ужос какой-то, уровень школьника изучающего музыкальную прогу с неделю


"..примитивная драм машина в трех скоростях..."

На этом можно было остановиться. Драм машина или слуховой аппарат?)))
(1) Goatrex,
Nov 3 2016, 08:43:20 Новости Black-направления (4) acerbus, gena, Goatrex, infiltrator,
Oct 19 2016, 15:45:17 Whoredom Rife - The Worship Of Idols Instead Of God; Idolatry [ep] (2016)
Участники ранее нигде не светились, абсолютно новые люди.
(1) recber,
Oct 19 2016, 15:42:58 Посоветуйте Black Metal команды (1) Olguard,
Oct 19 2016, 07:26:55 Darkthrone - Arctic Thunder (2016)
Пока здесь обсуждают это безликое дер.мо, пропускают малоизвестный, но мощнейший релиз перспективных норвегов Whoredom Rife - The Worship Of Idols Instead Of God; Idolatry [ep] (2016)
(3) DarkHorde, garmonbozia, Rattenkonig,
Oct 18 2016, 08:37:53 Whoredom Rife - The Worship Of Idols Instead Of God; Idolatry [ep] (2016)


*Artist: Whoredom Rife
*Album: The Worship Of Idols Instead Of God; Idolatry [ep]
*Year: 2016
*Genre: Black Metal
*Country: Norway
*Format: mp3@CBR320kbps
*Size: 51MB

Tracklist:
01 Fyrstens Land
02 Gitt til Odin
03 Thought and Memory
04 Whoredom Rife
******************************
Total playing time: 22:27

[more=Technical info]
Input File: Whoredom Rife - Fyrstens Land.mp3
Channels : 2
Sample Rate : 48000
Precision : 16-bit
Duration : 00:05:01.61 = 14477328 samples ~ 22620.8 CDDA sectors
File Size : 12.1M
Bit Rate : 320k
Sample Encoding: MPEG audio (layer I, II or III)
Comments :
Title=Fyrstens Land
Artist=Whoredom Rife
Album=The Worship of Idols Instead of God; Idolatry
Tracknumber=1
Year=2016

[/more]

Register
(24) 1968_janeart, DarkHorde, garmonbozia, igore2911, Ildjarn, Immortality, judaz, Leiche, milosdjor, morbidangelo, NachtWulf, rammmirez, Rattenkonig, rimfrost, rom666, Rosen, Sangreal, Sjelekval, soulskinner681, Taragorm, tont, varlam4, VECTOR, yuratroll,

6 Pages V   1 2 3 > » 
- Lo-Fi Version Support form
Copyrights and abuse reports form
Time is now: 16th November 2019 - 00:51:49