Welcome Guest ( Log In | Register )

История благодарностей участнику Tular ::: Спасибо сказали: 6910 раз(а)
Дата поста: В теме: За сообщение: Спасибо сказали:
Yesterday, 21:48:24 Оргия Праведников - Время Будить Королей (2020)
Там на первом месте Казанова. На последнем Луна над Кармелем. На втором — остальные три)
(1) Vinsody,
Yesterday, 13:58:10 Kult Of The Wizard - Gold (2020)


*Artist: Kult Of The Wizard
*Album: Gold
*Year: 2020
*Genre: Stoner/Doom Metal
*Country: United States
*Format: mp3@CBR320kbps
*Size: 120MB

Tracklist:
1. Burn with the Light
2. I Dream in Gold
3. Lay My Head Down (Feel the Rush)
4. The Hollow
5. Holy and Divine
6. Beyond the Sea
7. Into the Void
8. My Home Is Fine
9. Queen of Life & Death
10. HoneyBee
******************************
Total playing time: 52:24

[more=Technical info]
Input File: 01. Burn With The Light.mp3
Channels : 2
Sample Rate : 44100
Precision : 16-bit
Duration : 00:04:07.37 = 10908885 samples = 18552.5 CDDA sectors
File Size : 9.96M
Bit Rate : 322k
Sample Encoding: MPEG audio (layer I, II or III)
Comments :
Title=Burn With The Light
Artist=Kult of the Wizard
Album=Gold
Tracknumber=01
Year=2020
Genre=Doom/Stoner Metal, Heavy Blues, Occult

[/more]

Register
(6) caro, frituz3, grimoir, LEGION69, multizwilling, VALERY,
Oct 18 2020, 15:42:41 Лучший советчик МА - Часть 11 (Готик) - Тур 2, Рейтингование
ЦИТАТА(Arseniy @ 18th October 2020 - 13:31:58) *
У меня их было три.

Давно хотел спросить. Что чувствует человек, удаляющий нажитую непосильным трудом статистику?
(3) Deze, infiltrator, Penetralia,
Oct 17 2020, 20:43:04 Лучший советчик МА - Часть 11 (Готик) - Тур 2, Рейтингование
ЦИТАТА(hammer @ 17th October 2020 - 21:45:06) *
Алиса туда , если не изменяет память в 1989 году попали

За "Шестого Лесничего"?
(7) Alexis The Best, Deze, Exorcist, infiltrator, mirotvorets, Penetralia, Язва,
Oct 15 2020, 23:37:52 Elden - Nostromo (2020)


*Artist: Elden
*Album: Nostromo
*Year: 2020
*Genre: Stoner Metal
*Country: Sweden
*Format: flac
*Size: 273MB

Tracklist:
1. Relapse 01:02
2. Sail & Savour 05:19
3. Anubis 02:44
4. Fossilised 04:59
5. Heavy Rain 06:40
6. Nostromo 04:58
7. Creature Follows 03:38
8. The Passage 02:03
9. Two-faced Wizard 09:41
******************************
Total playing time: 41:04

[more=Extended info][youtube]ebjDDOoQLSw[/youtube][/more]

Register
(11) AHBAnep, chipsgott, Darkness, frituz3, grimoir, HMHamster, infiltrator, marilin, Olethros, Rosen, VALERY,
Oct 14 2020, 16:12:50 Regardless Of Me - The World Within (2009)
Register
(1) Starseeker,
Oct 13 2020, 22:45:39 Pain Of Salvation - Panther (2020)
Register
(1) Johnix,
Oct 12 2020, 17:55:40 Лучший советчик МА - Часть 10 (Умнодэт) - Итоги
Когда в туре по самому труднодоступному дэзу с нижним порогом по количеству диссонансов и объему информации на единицу времени первое место займет Gigan, тоже будут ругаться, что попса опять победила.
(1) mirotvorets,
Oct 11 2020, 23:10:35 Лучший советчик МА - Часть 10 (Умнодэт) - Итоги
ЦИТАТА(Old Vyaine @ 12th October 2020 - 01:07:16) *
А если это будут советы сплошь уважаемых людей™?

Ну тут уж по алфавитному порядку.
(2) Deze, infiltrator,
Oct 10 2020, 23:48:50 Лучший советчик МА - Часть 10 (Умнодэт) - Тур 2, Рейтингование
Кратко.


Absorbed - Reverie — 2
Alterbeast - Immortal — 1
Angel Of Disease - Hypercube — 2
Anomalous - Ohmnivalent — 2
Blood Dress - Beyond The Flesh — 1
Burning Inside - The Eve Of The Entities — 1
Carbonized - Disharmonization — 2
Creepmime - Chiaroscuro — 1
De Profundis - The Blinding Light of Faith — 2
Deviant Process - Paroxysm — 3 ОЦС
Disaffected - Vast — 1
Disembarkation - Rancorous Observision — 1
Disentomb - The Decaying Light — 2
Dungortheb - Intended to… — 1
Essence of Datum - Event Horizon — 2
Exocrine - Molten Giant — 1
Gigan - Quasi-Hallucinogenic Sonic Landscapes — 0
Hadal Maw - Senium — 0
Haunter - Sacramental Death Qualia — 1
Hellwitch - Syzygial Miscreancy — 2
Meatus - Inner Demons (A 3 Act Noise Opera) — 0
Naughty Nation - Cosmic Equity — 0
Neglected Fields - Mephisto Lettonica — 0
Orphalis - The Approaching Darkness — 2
Phantasmagory - Anamorphosis of Dreams — 1
Pronostic - An Atomic Decision — 1
Proteus - Personal Narrative of Cognitive Dreamscapes — 1
Quest Of Aidance - Misanthropic Propaganda — 3 ОЦС
Scent Of Death - Of Martyrs's Agony And Hate — 1
Strangulation - Between Nothing And Eternity — 0
Succubus - Destiny — 0
Supuration - The Cube — 0
Threnody - Bewildering Thoughts — 2
Traumatic Voyage - Traumatic… — 0
Ulsect - Ulsect — 1
Vale of Miscreation - Emergence Within The Corridor Of Unholy Lacerations — 1
Vielikan - A Trapped Way For Wisdom — 1
Virvum - Illuminance — 0
Vornagar - The Bleeding Holocaust — 1
Wicked Innocence - Omnipotence — 2
Wormhole - The Weakest Among Us — 2

[more=Подробно. Тур очень годный, но эмоций мало. То ли жанр такой, то ли не до музыки сейчас.]
Absorbed - Reverie — 2 — Ого. А чего они такие веселые? Прям танцевать хочется. А, испанцы. Ну круто, чо. Впечатление подпортили последние треки, с альтернативными версиями. Не люблю альтернативу.

Alterbeast - Immortal — 1 — Слушал этот альбом вторым по счету и решил, что после обработки всей голосовалки смогу если не написать эссе, то хотя бы для себя разобраться, почему я аж мокну от пиликалок Brain Drill, а пиликалки Alterbeast мне не нравятся. Ни эссе не написал, ни для себя не разобрался. Наверное, пиликалки нужны только в правильном контексте, хер бы их знал.

Angel Of Disease - Hypercube — 2 — Редкий вид альбома для данной совалки, где можно конкретные песни выделить как наиболее цеплючие. Хотя штука классная в целом.

Anomalous - Ohmnivalent — 2 — По старой памяти, думал, поставлю тройку, но оказалось, что нет. Впечатление испортили самые легковесные моменты. Альбом создает впечатление бетонной плиты (не будучи брутальным при этом!), украшенной многочисленными вензелями. Всякого рода передышки не идут ему ну вообще никак.

Blood Dress - Beyond The Flesh — 1 — И вот, наконец, пришел тот день, когда я послушал альбом, настырно годами рекламируемый slack'ом. Ну, у меня тоже так бывает, что полный середняк охмуряет и не отпускает, а остальным он на фиг не впёрся.

Burning Inside - The Eve Of The Entities — 1 — Барабанщик забыл остальным сказать, что группа играет технодэз.

Carbonized - Disharmonization — 2 — Йонссон тут балансирует на грани между вычурным эстетом и дурашливым придурком. Накрутил бы больше фламенковщины, или в чем они тут упражняются, и был бы уже перебор, отправивший банду в иную категорию. Но они удержались, потому и молодцы.

Creepmime - Chiaroscuro — 1 — А у вас так бывает, что слушаете какой-то старый, классический альбом, в свое время упущенный, и он несмотря на все объективные характеристики воспринимается скорее как новодел с закосом под? Не, я усилием воли от таких искажений избавился и оценил альбом как самостоятельную единицу. Единицу, да.

De Profundis - The Blinding Light of Faith — 2 — Честно, я уже не помню, на каких позициях стоял в споре о форматности этого альбома. Кажется, был за, но понимал возникновение сомнений. По крайней мере, сейчас думаю, что да, есть что пообсуждать. Техникал есть, как и мелодик, но они то поочередно, то вместе с разной силой подсасываются просто к дэзу. Это если о жанрах. А если об ощущениях: цепляющий альбом, прям настойчивый. Но тройка, которую я им прочил после превьюшки, не оправдалась, увы.

Deviant Process - Paroxysm — 3 — Канадский совет Экзорциста, который еще Фо сразу заругал. С опасением я к альбому подходил, но зря, как оказалось. Наваристый звук, высокие скорости, барабаны и рисунком и звучанием офигенны. Все очень интенсивно и даже бывает зло. Чуть было тройку не поставил. А потом сделал погромче — и поставил.

Disaffected - Vast — 1 — Мммм, 95-й, мой любимый год. Приятно слушается, но это больше черта эпохи, чем заслуга данной конкретной группы. Хотя они действительно умны, нетривиальны и интерлюдию грустненькую сделали. Есть атмосфера думца.

Disembarkation - Rancorous Observision — 1 — Альбом "Злобное Наблюдение" от группы "Разгрузка", вот этого мне и не хватало. Атеистичненько, но как-то не дожимают.

Disentomb - The Decaying Light — 2 — Меня примяло и помяло.

Dungortheb - Intended to… — 1 — Deze выразительно про альбом написал. Про мелкую стежку и вот это вот всё. Но оценка у меня другая.

Essence of Datum - Event Horizon — 2 — Хороший коллектив, всегда с удовольствием слушается. Только это неформат, по-моему. Не дэтх.

Exocrine - Molten Giant — 1 — На Цитотоксин похоже, но без чувства меры. Слушабельно, но не реслушабельно.

Gigan - Quasi-Hallucinogenic Sonic Landscapes — 0 — Словесное описание весьма привлекательное: хаотично, шумно и сплошные диссонансы. Почему в итоге не работает? Объясняю это нарочитой и чрезмерной сай-фаистостью. Хаотичные и шумные диссонансы я бы послушал про сатанизм или кровькишкиразгомосексуалило. Чего-то живого хочется, ну или уже не живого. А тут же сплошная цифра. Цифра ноль.

Hadal Maw - Senium — 0 — Из плюсов могу отметить только звучание барабанов. Люблю, когда они такие мягенькие, но при этом правильно утоплены в миксе и внимания на себя не обращают. В материале почти ничего путного не услышал.

Haunter - Sacramental Death Qualia — 1 — Это совсем не похоже на Gigan, но не могу не отметить, что ключевые слова на RYM, а именно "surreal" и "ritualistic" являются, извините за тавтологию, ключом к пониманию, почему здесь диссонансы имеют принципиально иной эффект. А медитативные фрагменты так ваще!

Hellwitch - Syzygial Miscreancy — 2 — Я очень доволен. Прекрасная продолжительность!

Meatus - Inner Demons (A 3 Act Noise Opera) — 0 — Тупое говно тупого говна. Лучше дебютник Beastie Boys послушаю.

Naughty Nation - Cosmic Equity — 0 — Naughty nation... Звучит, как название порносайта. На этом плюсы совета заканчиваются.

Neglected Fields - Mephisto Lettonica — 0 — Скажу вещь глупую и отвратительную для любого адекватного человека, включая меня. Это неактуальная музыка. Музло из времен кассет и бумажных журналов. Почему такие ощущения — сказать сложнее. Вероятно, из-за продакшна и звучания клавиш, в первую очередь. Сейчас так не записывают, и слава богам. Если есть контрпримеры, тыкните носом — признаю. В композициях тоже ничего для себя интересного не обнаружил. Специально читал отзывы и обращал внимание на "риффы на века". Не согласен.

Orphalis - The Approaching Darkness — 2 — Кайфец. Музыка души.

Phantasmagory - Anamorphosis of Dreams — 1 — Впечатления почти как от Neglected Fields, но здесь есть пьянящие клавиши и гораздо меньше логики повествования, что поддерживает интерес.

Pronostic - An Atomic Decision — 1 — Насколько разумно в этом туре ставить положительную оценку за технику? Материал чересчур модняво-кучерявый, я такое не слушаю. Но играют, па ашчушчэниям, техничнее подавляющего большинства здешних. На самом деле, есть годные соляки, 1 балл за них.

Proteus - Personal Narrative of Cognitive Dreamscapes — 1 — Очень, прям очень странно, почему мне не покатил этот альбом. Техно-брутал не угрюмо-саффокейшеновского типа, а более спортивного толка — жанр, к которому я по умолчанию настроен балла на полтора. Тут первая проблема, наверное, в том, что они форму не выдерживают, и это не всегда брутал. А во-вторых, при всех закорючках он создает ощущение неповоротливости и топтания на месте. Вьётся и бесится в строго ограниченных рамках. Потеет и прерывисто дышит. В итоге интересная музыка, при этом еще и с мрачной атмосферой, не цепляет, будто очередной "ну, %genre_name%".

Quest Of Aidance - Misanthropic Propaganda — 3 — RYM'у надо уволить сотрудника, который отвечает за теговые квоты на альбом. Меатусу немотивированно напихали по самую крышечку, а Quest Of Aidance — только два. Все гораздо интереснее, да еще и с повсеместными хуковыми украшательствами, насыщенно, ярко, по-богатому. Когда прочел, кто здесь рулит, то все стало на свои места. Классно, пусть и неформатно.

Scent Of Death - Of Martyrs's Agony And Hate — 1 — Понравилась гитарка в конце "Ego To Provoco" (пи-пи-пи-пи-пииииу, пи-пи-пи-пи-пииииу).

Strangulation - Between Nothing And Eternity — 0 — Не ту группу назвали Scent Of Death.

Succubus - Destiny — 0 — Заснул.

Supuration - The Cube — 0 — Скучная группа и, насколько я помню, во всех ипостасях и со всеми названиями. Хотя в умности не откажешь, конечно. Видел их живьем, тоже очень уныло было. Единственное, чем они тогда запомнились: принесли на сцену целый ящик с футболками и в толпу щедро раскидали.

Threnody - Bewildering Thoughts — 2 — Чу! Я слышу грувчанского гром! На самом деле, не грувчанского, но риффы качают зело. А потом соляки умасливают. А потом мрачный мелодичный инструментал "Black Nazareth".

Traumatic Voyage - Traumatic… — 0 — Уже на первой песне все понятно стало. Однообразный альбом (скрипочки и прочие финтифлюшки не спасают) с паршивым звуком.

Ulsect - Ulsect — 1 — В Ulcerate я не врубаюсь (частично получилось в новый альбом, но у меня от него отдых на несколько месяцев), но прекрасно понимаю, что делают они музыку очень большую и могучую. Нидерландская группа с похожим названием решила сыграть так же, но только чтобы я врубился. В итоге получилось не настолько могуче, да еще и постом иногда отдает. И так уж ли я был им нужен?

Vale of Miscreation - Emergence Within The Corridor Of Unholy Lacerations — 1 — Наверное, гитарист у них — очень нехорошее [мат->бан] (матом у нас считается слово "ЧM0"!) раз ему в миксе выделили место у самой параши. А ведь мог быть отличный альбом. Даже продолжительность расчудеснее, чем у Hellwitch, не выручает.

Vielikan - A Trapped Way For Wisdom — 1 — Да, есть что-то великанистое.

Virvum - Illuminance — 0 — Меня чуть не вирвум. В гробу видал Beyond Creation со всеми их дублерами, эта модная атмта делает мне очень скучно. Хотя соло-гитара молодэц.

Vornagar - The Bleeding Holocaust — 1 — МДМ, который делает вид, что он не МДМ. Правильно делает, конечно. Тут и барабанщик на спидах, и фрагменты эдакого экстрим-метала без первичных половых признаков, и техничность, само собой. Но родословную не скроешь. Ничо такой альбомчик. Удолил.

Wicked Innocence - Omnipotence — 2 — Вот это услада, с первых секунд инстантли два балла! Могло быть и три, но они вовремя не остановились, к концу уже батарейки сели, а вот начали офигенно. Техника, атмосфера и порой совершенно сюрреалистичные решения.

Wormhole - The Weakest Among Us — 2 — Брутал, но какой-то не шибко брутальный. Не уверен, плюс это (типа индивидуальности добавляет) или минус (мощи можно было бы навалить не в ущерб остальному), но альбом и без этого хорош. Каждый инструмент плетет свои интересные штуки. Иногда объединяются, тогда вообще пыщь-пыщь-пыщь!

[/more]
(10) Daale, Deze, Emm Human, Exorcist, Foneg, FunZombie, nadin85, Old Vyaine, plfan93, Un4given,
Oct 5 2020, 20:29:32 Лучший советчик МА - Часть 10 (Умнодэт) - Тур 2, Рейтингование
ЦИТАТА(Yarri @ 5th October 2020 - 21:49:41) *
Posthumous Blasphemer - Fracture The Worship 1

Там же брутал и как собаки гавкают.
(2) Deze, infiltrator,
Oct 1 2020, 14:01:19 Лучший советчик МА - Часть 10 (Умнодэт) - Тур 2, Рейтингование
ЦИТАТА(mirotvorets @ 1st October 2020 - 16:00:03) *
Из какого количества уже прослушанного

25
(2) infiltrator, mirotvorets,
Oct 1 2020, 13:26:15 Лучший советчик МА - Часть 10 (Умнодэт) - Тур 2, Рейтингование
Пока 4-5 нулей.
(2) Exorcist, infiltrator,
Sep 30 2020, 23:42:22 Оргия Праведников - Время Будить Королей (2020)


*Artist: Оргия Праведников
*Album: Время Будить Королей
*Year: 2020
*Genre: Progressive Rock
*Country: Russian Federation
*Format: mp3@CBR320kbps
*Size: 240MB

Tracklist:
01. Время будить королей
02. Звёзды идут сквозь нас
03. Advaita
04. Om Tat Sat
05. Выше облаков
06. In Nomine Patris
07. Прыгай в огонь
08. Мыс Брана
09. Танец Казановы
10. От Бога до Земли
11. Солнце из небытия
12. Северный ветер
13. Стоп,
14. Женя, стоп!
******************************
Total playing time: 1:02:46

[more=Technical info]
Input File: 1_Vremya_budit\'_korolej.mp3
Channels : 2
Sample Rate : 44100
Precision : 16-bit
Duration : 00:02:46.00 = 7320600 samples = 12450 CDDA sectors
File Size : 7.05M
Bit Rate : 340k
Sample Encoding: MPEG audio (layer I, II or III)
Comments :
Title=Время будить Королей
Artist=Оргия Праведников
Album=Время будить Королей
Tracknumber=01/14
Year=2020
Genre=Rock

[/more]

Register
(17) after21allD, Aresson, Druidir, FunZombie, infiltrator, Old Vyaine, oldvarg, Olethros, Paradayz, Penetralia, Requiescat, sabr, SAPOGi, Shadechaser, VALERY, Vinsody, Yarri,
Sep 28 2020, 22:41:12 Лучший советчик МА - Часть 11 (Готик) - Тур 1, Общий сбор
ЦИТАТА(FunZombie @ 29th September 2020 - 00:31:57) *
Те чёрт знает сколько человек, написавшие, что это не готик, не слушали внимательно, как mirotvorets

ЦИТАТА(Snowblind @ 28th September 2020 - 19:43:54) *
Энсоф мне нравятся, даже на дицках имеются

ЦИТАТА(nadin85 @ 28th September 2020 - 20:26:59) *
Ну, вообще-то да, хотя альбом бомбезный! Как и всё их творчество.

(2) Deze, infiltrator,
Sep 28 2020, 21:57:58 Лучший советчик МА - Часть 11 (Готик) - Тур 1, Общий сбор
"И чтоб я смог обладать тобою под клёкот сов,
Он мне велел над рекою исполнить обряд эйнсоф"

Послушал одну песню. Если бы я такое советовал, то в солянке. Хотя некоторая готичность присутствует, как мне кажется.
(1) Johnix,
Sep 3 2020, 10:20:56 Лучший советчик МА - Часть 10 (Умнодэт) - Тур 2, Рейтингование
ЦИТАТА(Arseniy @ 3rd September 2020 - 08:38:46) *
Очень тяжко идёт, несмотря на перерыв,

ЦИТАТА(Old Vyaine @ 3rd September 2020 - 09:15:05) *
Я месяц отдыхал и пока не совсем понимаю, как заставить себя слушать вот это всё.

А скроллбар предупреждал, что в ноябре закончим!
(2) Deze, Old Vyaine,
Aug 24 2020, 15:21:19 Pale Rider - Pale Rider (2019)


*Artist: Pale Rider
*Album: Pale Rider
*Year: 2019
*Genre: Heavy/Stoner Metal
*Country: United States
*Format: mp3@CBR320kbps
*Size: 95MB

Tracklist:
1. Crucible 02:32
2. Red Flagged 07:42
3. The Fury of Apollo 07:46
4. Tennessee Woman 07:12
5. Snake Charmer 07:57
6. Mothership 08:17
******************************
Total playing time: 41:26

[more=Technical info]
Input File: 01 - Crucible.mp3
Channels : 2
Sample Rate : 44100
Precision : 16-bit
Duration : 00:02:31.75 = 6692307 samples = 11381.5 CDDA sectors
File Size : 6.14M
Bit Rate : 324k
Sample Encoding: MPEG audio (layer I, II or III)
Comments :
Title=Crucible
Artist=Pale Rider
Album=Pale Rider
Tracknumber=01
Year=2019
Genre=Stoner Metal

[/more]

Register
(9) after21allD, caro, HMHamster, infiltrator, marilin, Mogozoz, Olethros, Rosen, wreak,
Aug 24 2020, 12:49:59 Kryptograf - Kryptograf (2020)


*Artist: Kryptograf
*Album: Kryptograf
*Year: 2020
*Genre: Doom Metal/Psychedelic Rock
*Country: Norway
*Format: mp3@CBR320kbps
*Size: 89MB

Tracklist:
1. The Veil 03:17
2. Omen 06:02
3. Seven 09:20
4. Crimson Horizon 05:58
5. Sleeper 04:48
6. Ocean 02:40
7. New Colossus 04:53
8. Infinite 01:32
******************************
Total playing time: 38:30

[more=Extended info][youtube]EiCwcBs_SFs[/youtube][/more]

[more=Technical info]
Input File: 1 - The Veil.mp3
Channels : 2
Sample Rate : 44100
Precision : 16-bit
Duration : 00:03:17.40 = 8705120 samples = 14804.6 CDDA sectors
File Size : 7.99M
Bit Rate : 324k
Sample Encoding: MPEG audio (layer I, II or III)
Comments :
Title=The Veil
Artist=Kryptograf
Album=Kryptograf
Tracknumber=1
Year=2020
Discnumber=1

[/more]

Register
(24) after21allD, autumnwood, cancer1974, Froze, gena, grimoir, HMHamster, infiltrator, KVRT, Leshiy666, marilin, metala, Nattfodd, oldvarg, Olethros, randumbum, robertho777, Rosen, Sabbathian, skidnik, sludge666, VALERY, wreak, ZA670,
Aug 12 2020, 16:33:14 Лучший советчик МА - Часть 9 (Пауэр) - Итоги
ЦИТАТА(Deze @ 12th August 2020 - 18:14:10) *
Тулар!! Жив!

Быстро бегаю.
(2) infiltrator, plfan93,
Aug 5 2020, 12:31:32 Лучший советчик МА - Часть 10 (Умнодэт) - Тур 1, Общий сбор
А если я в перерыве буду пырить альбомы, можно назвать его пырирывом? Важный вопрос, давайте вынесем на обсуждение.
(6) 6666666, Daale, Foneg, infiltrator, Lux, Nemez,
Jul 31 2020, 21:29:17 Новости Experimental/Progressive Metal
Какой-то Leprous.
[youtube]jkU564tyD5M[/youtube]
(2) infiltrator, mirotvorets,
Jul 29 2020, 20:47:32 Лучший советчик МА - Часть 9 (Пауэр) - Тур 2, Рейтингование
Aresson ровный пацык.
(3) Deze, infiltrator, plfan93,
Jul 24 2020, 15:52:57 Лучший советчик МА - Часть 9 (Пауэр) - Тур 2, Рейтингование
ЦИТАТА(vosmidesijatye @ 24th July 2020 - 17:51:06) *
Эт кто так ответил?

[youtube]-UvS-Dg5r-Y[/youtube]
(2) infiltrator, vosmidesijatye,
Jul 24 2020, 15:46:21 Лучший советчик МА - Часть 9 (Пауэр) - Тур 2, Рейтингование
ЦИТАТА(Deze @ 24th July 2020 - 17:31:28) *
P.S. А вот кому куда дорога - так это Алексису в политику. Именно там очень ценится умение вместо ответа на прямой вопрос, повторенный уже, кстати, трижды, поднимать хай, кричать о притеснениях и несправедливости и громко хлопнуть дверью, так и не ответив по сути.

— Когда началась Вторая мировая война?
— Что.
(6) Black Cat, Exorcist, infiltrator, Lux, randyhermit, vosmidesijatye,

97 Pages V   1 2 3 > » 
- Lo-Fi Version Support form
Copyrights and abuse reports form
Time is now: 21st October 2020 - 20:24:08