Welcome Guest ( Log In | Register )

История благодарностей участнику Tular ::: Спасибо сказали: 5769 раз(а)
Дата поста: В теме: За сообщение: Спасибо сказали:
Aug 20 2019, 00:25:02 Кто какие альбомы ждёт? Albums you are waiting for
ЦИТАТА(Anger @ 19th August 2019 - 17:41:35) *
да ничего уже не жду. очередную тарахтелку от FF разве что. послушать пару раз и забыть

[youtube]eA0LQJdIt2o[/youtube]
(1) maxmagmas,
Aug 18 2019, 20:47:37 Jess By The Lake - Under The Red Light Shine (2019)


*Artist: Jess By The Lake
*Album: Under The Red Light Shine
*Year: 2019
*Genre: Psychedelic Rock
*Country: Finland
*Format: mp3@CBR320kbps
*Size: 96MB

Tracklist:
01. Under the Red Light Shine 4:24
02. Freezing Burn 3:44
03. The Wait 4:55
04. Halo (Ghosts in the Flames) 4:40
05. Nightmare 3:18
06. Legacy Crown 7:21
07. My Hands 4:19
08. Interstellar 8:29
******************************
Total playing time: 41:10

[more=Extended info]Jasmin Saarela from Jess and the Ancient Ones
[youtube]DsJxsTJ1Bko[/youtube][/more]

[more=Technical info]
Input File: 01. Under The Red Light Shine.mp3
Channels : 2
Sample Rate : 44100
Precision : 16-bit
Duration : 00:04:23.99 = 11641739 samples = 19798.9 CDDA sectors
File Size : 10.6M
Bit Rate : 321k
Sample Encoding: MPEG audio (layer I, II or III)
Comments :
Title=Under The Red Light Shine
Artist=Jess By The Lake
Album=Under The Red Light Shine
Tracknumber=1
Year=2019
Genre=Psychedelic Rock

[/more]

Register
(6) MEmethuselah, Olethros, stub888, tOmV, VALERY, vosmidesijatye,
Aug 17 2019, 20:06:26 King Gizzard And The Lizard Wizard - Infest The Rats' Nest (2019)


*Artist: King Gizzard And The Lizard Wizard
*Album: Infest The Rats' Nest
*Year: 2019
*Genre: Heavy Psych/Stoner/Thrash Metal
*Country: Australia
*Format: mp3@CBR320kbps
*Size: 80MB

Tracklist:
01. Planet B 3:56
02. Mars for the Rich 4:11
03. Organ Farmer 2:39
04. Superbug 6:43
05. Venusian 1 3:20
06. Perihelion 3:11
07. Venusian 2 2:44
08. Self-Immolate 4:28
09. Hell 3:39
******************************
Total playing time: 34:51

[more=Extended info][youtube]cmAlQvDQGoI[/youtube][/more]

[more=Technical info]
Input File: 01. Planet B.mp3
Channels : 2
Sample Rate : 44100
Precision : 16-bit
Duration : 00:03:57.08 = 10455096 samples = 17780.8 CDDA sectors
File Size : 9.52M
Bit Rate : 321k
Sample Encoding: MPEG audio (layer I, II or III)
Comments :
Title=Planet B
Artist=King Gizzard & The Lizard Wizard
Album=Infest The Rats' Nest
Tracknumber=1
Year=2019
Genre=Psychedelic Rock

[/more]

Register
(11) artscald, infiltrator, KKK1488, MEmethuselah, metala, Olethros, Rosen, SatanicPanzer, TAKATAEL, terron, xska,
Aug 17 2019, 11:26:59 Iron Maiden - Brave New World (2000)
Лучшая — Навигатор. Худшая — Blood Brothers.
(1) Ingvar,
Aug 16 2019, 21:50:57 Клипы (не просто, а ЛУЧШИЕ). Обсуждение с объяснением
ЦИТАТА(quicksand @ 14th August 2019 - 20:24:05) *
Следующий краеугольный камень - это SFU
при том, что сама песня/клип уже вышли за пределами пика популярности, да и не совсем в той ипостаси, от которой точно бы этого ждали,
но наконец-то именно тот сценический персонаж, Крис Барнс хоть и с опозданием, но довольно добротно сделал то, что я хотел увидеть
во время увлечения первой волной дета.

Цензурированная версия — полный ацтой.
(1) quicksand,
Aug 14 2019, 01:47:54 Клипы (не просто, а ЛУЧШИЕ). Обсуждение с объяснением
Это надо было спрашивать во времена, когда клипы на компе бережно хранились. Сейчас нереально много надо вспоминать, и то что-то важное забудешь. Ну, один клип, причем этого года, я знаю, но в топ-3 очень тесно, надо обмозговать.
И зря не голосовалка!
(1) avather,
Aug 9 2019, 13:45:59 Tool - Lateralus (2001)
ЦИТАТА(Dron-alisaman @ 29th January 2010 - 02:11:39) *
Знаете эта ветка какой-то безумный сгусток невообразимого ржача, я не могу просто... От подозрений что это альтернатива до "утяжелённого Кинг Кримсон"... %) Кстати, вы хоть знаете построение песни Латералус это ряд Фибоначчи?

Воистину 15.gif
(1) 6666666,
Aug 9 2019, 13:36:51 Tool - Fear Inoculum [single] (2019)
ЦИТАТА(Ghostb @ 9th August 2019 - 15:34:27) *
Хороший сингл, но никаких откровений. Все это было еще на Lateralus.

Альбом, скорее всего, таким и окажется. Tool как Tool. Хороший, но не пропорциональный годам ожидания.
(1) Ghostb,
Jul 26 2019, 23:53:59 Новости Heavy/Power металла
Ну наконец-то Волбитовщина настоящая, а не эти ваши трали-вали. Хотя очень похоже на всякие старые хиты.
[youtube]SCV_JKftZok[/youtube]
(2) infiltrator, Old Vyaine,
Jul 25 2019, 12:36:04 Deep Purple - Infinite (2017)
ЦИТАТА(Deze @ 25th July 2019 - 14:08:18) *
Альбомов, составленных только из шедевральных песен в природе не существует.

Значит, тебе не повезло.
(1) vosmidesijatye,
Jul 24 2019, 18:08:51 Новости DOOM Metal
Приятный нежданчик
[youtube]tTmdatz1xZY[/youtube]
(1) Black Cat,
Jul 22 2019, 23:14:41 Новости Death Metal направления
ЦИТАТА(quicksand @ 16th July 2019 - 18:33:35) *
Dave Ingram (Benediction, Bolt thrower) снова в строю!
Он с товарищами сколотил новый дет-метал проект HELLFROST AND FIRE
На саундклауд выложили демку 1 композиции, на мой взгляд будет многообещающий альбомчик,
а вокал Дейва - просто прелесть
http://headbanger.ru/news/30724

Он еще и в Benediction вернулся.
(3) infiltrator, Lux, quicksand,
Jul 21 2019, 22:01:25 Sabaton - The Great War (2019)
ЦИТАТА(Old Vyaine @ 21st July 2019 - 12:12:29) *
Полагаю, что небольшая длительность — главный вин альбома.

Главный вин альбома — некоторое количество хороших песен. Ну и традиционные духоподъемные настроения. Пойдем на парад, а потом салют в мою честь. Хотя по меркам группы альбом слабый, да.
(3) Ghostb, infiltrator, Phantom_Voodoo,
Jul 13 2019, 21:10:24 Scorpions
ЦИТАТА(Anger @ 13th July 2019 - 23:08:46) *
ну это чисто твоя и тебе подобным вкусовщина

Да, вкусовшина человека, который их слушал.
(2) Exorcist, Old Vyaine,
Jul 11 2019, 22:26:38 Verwüstung - Gospel Ov Fury (2019)
ЦИТАТА(garmonbozia @ 7th July 2019 - 12:53:08) *
расколбасно

Всё так, и это главная черта альбома. Мне отлично заходит. Злость и воинственность на фундаменте алкоголизма.
(1) Абигор,
Jul 11 2019, 11:41:48 Devourment - Cognitive Sedation Butchery [single] (2019)
И еще одна
[youtube]8gF-860Y3R4[/youtube]
Гораздо лучше прошлого альбома.
(2) infiltrator, troll_swamp,
Jul 5 2019, 23:35:49 Bloody Hammers - The Summoning (2019)
По большому счету, это хэви-метал. Не чистейший, но всякие сторонние влияния здесь, пардон, не настолько влиятельны. Есть некоторая готичность, создаваемая клавишами, а в медленных вещах и музыка в целом отклоняется от тру-металёвых настроек (Welcome To Darkness звучит, как кавер на The Sisters Of Mercy), но не настолько, чтобы теги кромсать. Хэви, кстати, американской школы, не думаю, что NWOBHM. На Мановар не похоже, но Fire In The Dark, например, напомнила Grand Magus, которые как раз напоминают Мановар smile1.gif

Материал крутой. А если бы все было, как первая песня, то быть альбому года. Но место в десятке — тоже хорошо. Мелодии очень цепляющие, не требующие времени на раскус. Послушал песню до середины, а то и меньше, и уже знаешь: "О, это хит". Понравился звук. Очень четенько сведено, всем инструментам ровно столько места досталось, сколько надо. При этом главенствует вокал, что правильно. Хороший голос у дядьки, а манера, когда он напирает-напирает, а потом резко смягчается, создает существенную долю здешнего шарма.

На ютубе написали, что похоже на Ghost, только более металический. Не возражаю.
(1) vosmidesijatye,
Jul 3 2019, 23:04:04 Новости Experimental/Progressive Metal
Легендарная американская группа PSYCHOTIC WALTZ подписала контракт с InsideOutMusic на выпуск первого за 23 года стадийного альбома.

Новый материал будет записан вместе со звукоинженером Ulrich'ом Wild'ом, а сведением будет заниматься Jens Bogren (OPETH, FATES WARNING, ARCH ENEMY). Ожидается, что новый диск выйдет в 2020 году. Весь каталог PSYCHOTIC WALTZ будет переиздан на InsideOutMusic.
(3) Deze, Ghostb, mirotvorets,
Jun 27 2019, 18:28:50 The Red Widows - Fuzzifixion (2019)
Anhra Mainyu зачем-то эту тему прикрыл Нужен совет в Stoner/Doom Metal а ведь сабж как раз отлично вписывается в требуемые параметры. Стоунер-дум с очень резиновым звучанием, примитивным люцефирианством в текстах и ведьминым вокалом с охмурительным тремолированием. Запоминающиеся рефрены и интересное звуковое решение: не только грузит, как положено, но и обволакивает. Словно в бочке сидишь. Топчик.
(1) vosmidesijatye,
Jun 16 2019, 13:33:42 Soilwork - Underworld [ep] (2019)
Макс забебал, но адептус справился быстрее.
(1) technoboy69,
Jun 3 2019, 12:36:09 Accept - Death Row (1994)
ЦИТАТА(Yarri @ 3rd June 2019 - 13:16:06) *
Я бы сказал - Metal Heart. Хотя он вообще не проигрывает Balls To The Wall.

Metal Heart проигрывает Balls To The Wall и еще двум перед ним. Вот там лучший искать надо.
(3) Alexis The Best, infiltrator, vam1972,
Jun 1 2019, 23:36:13 Napalm Death - From Enslavement To Obliteration (1988)
ЦИТАТА(Old Vyaine @ 2nd June 2019 - 01:17:04) *
Категорически не понимаю, что крутого может быть в полутораминутных песнях.

В полутораминутных песнях может быть 90 секунд крутого музла.
(5) Alexis The Best, Anger, Emm Human, Ghostb, vam1972,
Jun 1 2019, 12:22:53 Irata - Tower (2019)


*Artist: Irata
*Album: Tower
*Year: 2019
*Genre: Progressive Stoner Metal
*Country: United States
*Format: mp3@CBR320kbps
*Size: 90MB

Tracklist:
01. Tower
02. Waking Eye
03. Weightless
04. Innocent Murmur
05. Leviathan
06. Crawl To Corners
07. Golden Tongue
08. Constellations
******************************
Total playing time: 39:07



[more=Technical info]
Input File: 01. Tower.mp3
Channels : 2
Sample Rate : 44100
Precision : 16-bit
Duration : 00:02:45.42 = 7294978 samples = 12406.4 CDDA sectors
File Size : 6.74M
Bit Rate : 326k
Sample Encoding: MPEG audio (layer I, II or III)
Comments :
Title=Tower
Artist=Irata
Album=Tower
Tracknumber=1
Year=2019
Genre=Metal

[/more]

Register
(5) Olethros, Ostinato, Rosen, snot, wreak,
May 29 2019, 18:28:25 Rammstein - Rammstein (2019)
А я сразу сказал, что ее надо было в конец альбома ставить. Ею же и концерт закончить можно.
Но потом вслушался, и понял, что Weit Weg еще лучше. Вторая песня на альбоме по лучшести. Началом еще на Perfect Strangers похожа.
(2) BERZERK, infiltrator,
May 28 2019, 13:59:28 !T.O.O.H.! (1) Ghostb,

84 Pages V   1 2 3 > » 
- Lo-Fi Version Support form
Copyrights and abuse reports form
Time is now: 23rd August 2019 - 03:57:41