Welcome Guest ( Log In | Register )

История благодарностей участнику LarsIsLars ::: Спасибо сказали: 134 раз(а)
Дата поста: В теме: За сообщение: Спасибо сказали:
Aug 1 2012, 20:25:44 Wacken Open Air 2012 (1) Totmug,
Jul 2 2012, 20:03:46 Mother Of Worms - The Dirty Arts (2009)


*Artist: Mother Of Worms
*Album: The Dirty Arts
*Year: 2009
*Genre: Black Metal/Dark Ambient
*Country: Germany
*Format: mp3@CBR320kbps
*Size: 77MB

Tracklist:
1. My Private Hell - Intro 0:56
2. Ritual 3:46
3. Necroscreen Masturbation 4:20
4. Cold Flesh Romance 4:44
5. Of Razors And Rot 3:24
6. Mater Vermiis 5:54
7. Last Bloody Fuck 2:23
8. Overdose - World Without Us 10:12
******************************
Total playing time: 35:39

Preview 1
Preview 2

[more=Extended info]"10 ночных гимнов городского безумия в стиле Morbid Metal с добавлением темного эмбиента, пропитанных древней тьмой. Sex! Blut! Finsternis!" (assavlt rex)


Input File: 06. Mother Of Worms.mp3
Channels : 2
Sample Rate : 44100
Precision : 16-bit
Duration : 00:05:52.64 = 15551292 samples = 26447.8 CDDA sectors
File Size : 14.1M
Bit Rate : 320k
Sample Encoding: MPEG audio (layer I, II or III)
Comments :
Title=Mother Of Worms
Artist=Mother Of Worms
Album=The Dirty Arts
Tracknumber=06/08
Year=2012
Genre=nBlack Metal/Ambient

[/more]

Register
(23) artscald, assoass, BATON-duBASSic, Beazth, Buregon, Constantinus I, D.S.Embassy, drbutcher, Emhyr var Emreis, Hswhhh, Infidel, marilin, metala, Radwind, Reverend, satanist666, sethurius, stub888, tont, varlam4, vasiljev_sergej, Wolftribes, zargonath,
Jul 2 2012, 19:40:48 Goatpsalm - Sonic Desterilization Of Light (2010)


*Artist: Goatpsalm
*Album: Sonic Desterilization Of Light
*Year: 2010
*Genre: Death Industrial/Ritual/dark Ambient
*Country: Russian Federation
*Format: mp3@CBR320kbps
*Size: 118MB

Tracklist:
1. Sickness
2. Abscedentia
3. The Procession
4. Hac Via
5. Akelarrenlezeah
6. Nekromantikal Rites Of The Goat
7. Antilife Principle Omega
8. Sempiternal Funeral Fields
******************************
Total playing time: 53:25

[more=Extended info]


Input File: 05. Akelarrenlezeah.mp3
Channels : 2
Sample Rate : 44100
Precision : 16-bit
Duration : 00:02:28.11 = 6531431 samples = 11107.9 CDDA sectors
File Size : 5.92M
Bit Rate : 320k
Sample Encoding: MPEG audio (layer I, II or III)
Comments :
Title=Akelarrenlezeah
Artist=Goatpsalm
Album=Sonic Desterilization Of Light
Tracknumber=05/08
Year=2010
Genre=Death Industrial

[/more]
Register
(18) 34front, alzus, assoass, EVIL DEaD, Hell_Is_Here, infiltrator, luxxul, milosdjor, Moonshtook, Radwind, sethurius, spiritualdecay666, thornfields, tormoz, VALERY, verner, Wolftribes, Варонъ,
Jul 2 2012, 19:10:05 Goatpsalm - Erset La Tari (2012)


*Artist: Goatpsalm
*Album: Erset La Tari
*Year: 2012
*Genre: Black Metal/Death Industrial/Dark Ambient
*Country: Russian Federation
*Format: mp3@CBR320kbps
*Size: 100MB

Tracklist:
1. Utuk-Xul
2. Bab-Illu
3. Under The Trident Of Ramanu
******************************
Total playing time: 45:31

[more=Extended info]With Goatpsalm we take a journey back in time to ancient civilisations and Sumerian crypts where the gods are all important and the power of ancient deities are worshipped in all their foul necromantic glory. These stygian places are explored very carefully as danger is round every dark corner and once you enter these long forgotten labyrinths only madness and death are your release. www.avenoctum.com


Input File: 02. Bab Illu.mp3
Channels : 2
Sample Rate : 44100
Precision : 16-bit
Duration : 00:05:47.49 = 15324309 samples = 26061.8 CDDA sectors
File Size : 13.9M
Bit Rate : 320k
Sample Encoding: MPEG audio (layer I, II or III)
Comments :
Title=Bab Illu
Artist=Goatpsalm
Album=Erset La Tari
Tracknumber=02/03
Year=2012
Genre=Death Industrial

[/more]

Register
(36) 34front, abigor888, acerbus, alzus, aorta2, Aphrax, artscald, assoass, Beazth, D.S.Embassy, Darth Alvasarra, DHS, Emhyr var Emreis, EVIL DEaD, Fess, HA7tur, J0k3r, kamdeath, kefka, marilin, milosdjor, MMMMM, nsmetalhead, Radwind, raincatz, Reverend, satanas189, SIAVASH, spiritualdecay666, tormoz, Typhon88, VALERY, varlam4, Vertigo, Vincent, vov7609,
Jul 2 2012, 18:43:27 Mother Of Worms - Silvia (Saint Of Hell) [ep] (2012)


*Artist: Mother Of Worms
*Album: Silvia (Saint Of Hell) [ep]
*Year: 2012
*Genre: Black Metal/D-beat
*Country: Germany
*Format: mp3@CBR320kbps
*Size: 23MB

Tracklist:
1. Ritual MMXII
2. Silvia (Saint Of Hell)
******************************
Total playing time: 11:01

[more=Extended info]интернет-релиз assault crew


Input File: 01 Ritual 2012.mp3
Channels : 2
Sample Rate : 44100
Precision : 16-bit
Duration : 00:05:01.46 = 13294518 samples = 22609.7 CDDA sectors
File Size : 9.65M
Bit Rate : 256k
Sample Encoding: MPEG audio (layer I, II or III)
Comments :
Title=Ritual 2012
Artist=Mother Of Worms
Album=Silvia (Saint Of Hell)
Year=2012
Genre=9

[/more]

Register
(20) artscald, assoass, Beazth, blacky66, drbutcher, Emhyr var Emreis, Evrom, Fryz, fuck3r, Hell_Is_Here, Hswhhh, Infidel, marilin, Radwind, Reverend, satanist666, stub888, tont, varlam4, vasiljev_sergej,
Dec 27 2010, 13:42:13 Morbid Lust - In Death You Will Dwell [demo] (1992)


*Artist: Morbid Lust
*Album: In Death You Will Dwell [demo]
*Year: 1992
*Genre: Old School Death Metal
*Country: Russian Federation
*Format: mp3@CBR320kbps
*Size: 38MB

Tracklist:
01. Rotten Insanity 3:40
02. Defiling the Corpse of christ 2:42
03. In Blood 3:00
04. When the Time Has Come to Die 3:08
05. Dark Disaster 3:07
06. Atrocitious Slaughter 1:05
******************************
Total playing time: 16:42

[more=Extended info]Originally a self-released demo tape recorded in 1992.

Re-released in November 2010 as the 3rd release in NecroKult Series by Orthodox
Productions/Thou Shalt Kill! Records. CD in gatefold-styled package, ltd. 222[/more]

Register
(18) andreikun, assoass, F-F, garretje, HA7tur, Haunting, Infidel, KVRT, lucifix, MeathookSeed, milosdjor, Mucupurulence, Necrodictator, satanas189, satanist666, spazm, varlam4, wgs73,
Oct 30 2010, 04:05:06 Cradle Of Filth - Darkly, Darkly, Venus Aversa (2010) (1) ShmiT,
May 24 2009, 16:45:40 Watain - Live In Helsinki, Finland [bootleg] (2007)


*Performer: Watain
*Title: Live In Helsinki, Finland
*Type: Bootleg
*Year: 2007
*Genre: Black Metal
*Country: Sweden

*Audio: mp3@160kbps
*Video: divx@1638kbps
*Resolution: 720x448
*Size: 400MB
******************************
*Length: 00:33:20

[more=Extended info]Tracklist:
1. Underneath the Cenotaph
2. Devil's Blood
3. Satan's Hunger
4. I Am The Earth
5. Sworn To The Dark
6. On Horns Impaled[/more]

Register
(4) assoass, Ilves, MightyBlackHate, wolfheim,

- Lo-Fi Version Support form
Copyrights and abuse reports form
Time is now: 21st September 2020 - 19:18:44