Welcome Guest ( Log In | Register )

История благодарностей участнику ancientlair ::: Спасибо сказали: 20264 раз(а)
Дата поста: В теме: За сообщение: Спасибо сказали:
Oct 18 2012, 12:06:17 Envenom Ascension - Daemon Est Deus Inversus (2006)


*Artist: Envenom Ascension
*Album: Daemon Est Deus Inversus
*Year: 2006
*Genre: Black Metal
*Country: United States
*Format: mp3@CBR128kbps
*Size: 29MB

Tracklist:
1. Eyes of Fate 04:12
2. Daemon Est Deus Inversus 00:50
3. Divine Evil 06:00
4. Empowered By Death 03:53
5. Dead Reflection 04:13
6. Darkness Ascends 04:09
7. Murder in the Night 05:15
8. Hellmaster 03:47
******************************
Total playing time: 32:19

Register
(11) Constantinus I, Coroner, DeathFan22, Hell_Is_Here, Ildjarn, kefka, Nadja, tont, varlam4, vasiljev_sergej, Wolftribes,
Oct 18 2012, 12:02:57 Lord Of Shit - Demo [demo] (2006)


*Artist: Lord Of Shit
*Album: Demo [demo]
*Year: 2006
*Genre: Death Metal
*Country: United States
*Format: mp3@CBR256kbps
*Size: 21MB

Tracklist:
1. Life Arcane
2. Baptism by Fire
3. Scraped from the Courtyard
******************************
Total playing time: 11:32



Register
(7) DeathFan22, Hell_Is_Here, MeathookSeed, Svafrlami, Ugly13, varlam4, wreak,
Oct 17 2012, 22:07:50 Unholy Archangel - Blessed By Aris [ep] (2000)


*Artist: Unholy Archangel
*Album: Blessed By Aris [ep]
*Year: 2000
*Genre: Black/Death Metal
*Country: Greece
*Format: mp3@CBR320kbps
*Size: 28MB

Tracklist:
1. Summon the Mirmidons 03:27
2. Fobos and Dimos 02:15
3. Blessed by Aris 04:50
4. Anal Jehovah 01:13
******************************
Total playing time: 11:45

[more=Extended info]


Input File: 1. Summon the Mirmidons.mp3
Channels : 2
Sample Rate : 44100
Precision : 16-bit
Duration : 00:03:27.83 = 9165391 samples = 15587.4 CDDA sectors
File Size : 8.32M
Bit Rate : 320k
Sample Encoding: MPEG audio (layer I, II or III)
Comments :
Title=Summon the Mirmidons
Artist=Unholy Archangel
Album=Blessed by Aris
Tracknumber=1
Year=2000
Genre=Black/Death Metal

[/more]

Register
(22) artscald, Blackvomito, DarkHorde, Darkthronefoad, DeathFan22, Hell_Is_Here, kefka, kim666, Lord_Eurynome, marilin, metal73, morbidangelo, Necroeire, Precaria, Reverend, RUSP73, satanas189, satanist666, varg-38ru, varlam4, wolverine, wreak,
Oct 17 2012, 21:21:06 Angelholocaust - Epiklesis [demo] (2012)


*Artist: Angelholocaust
*Album: Epiklesis [demo]
*Year: 2012
*Genre: Black/Death Metal
*Country: Thailand
*Format: mp3@CBR320kbps
*Size: 43MB

Tracklist:
1. Conjuration 04:53
2. Eternal Pandemonium Antichrist 01:54
3. Rise Of The Black Moon (Archgoat Cover) 02:34
4. Revenge Of The Golden Lust 08:54
******************************
Total playing time: 18:15

[more=Extended info]


Input File: 1. Conjuration.mp3
Channels : 2
Sample Rate : 44100
Precision : 16-bit
Duration : 00:04:53.75 = 12954331 samples = 22031.2 CDDA sectors
File Size : 11.8M
Bit Rate : 320k
Sample Encoding: MPEG audio (layer I, II or III)
Comments :
Title=Conjuration
Artist=Angelholocaust
Album=Epiklesis
Tracknumber=1
Year=2012
Genre=Black/Death Metal

[/more]

Register
(16) Anhra Mainyu, DarkHorde, Darkthrone85, ddarkthrone, DeathFan22, Hell_Is_Here, INDARKNESS, kefka, Lucius Eternal, Okkultis, RUSP73, Ugly13, VALERY, varlam4, Wolftribes, wreak,
Oct 17 2012, 16:33:37 Gavandera - Break Down Of A Squiffy Brain [demo] (2006)


*Artist: Gavandera
*Album: Break Down Of A Squiffy Brain [demo]
*Year: 2006
*Genre: Atmospheric Metal/Rock
*Country: Iran
*Format: mp3@CBR192kbps
*Size: 20MB

Tracklist:
1. Break Down of a Squiffy Brain
2. Boride Sar
3. Forooghe Javedane
******************************
Total playing time: 13:00

Register
(6) DeathFan22, NachtWulf, Okkultis, SIAVASH, supremo, varlam4,
Oct 17 2012, 15:28:22 Pagan Spirits - O Despertar Da Morte [demo] (2006)


*Artist: Pagan Spirits
*Album: O Despertar Da Morte [demo]
*Year: 2006
*Genre: Black Metal
*Country: Brazil
*Format: mp3@CBR128kbps
*Size: 8MB

Tracklist:
1. O Despertar da Morte
2. Espírito Pagão
3. Engrenagens do Metal
******************************
Total playing time: 9:00

Register
(7) artscald, Darkthronefoad, kefka, Nadja, tont, varlam4, vasiljev_sergej,
Oct 17 2012, 15:14:20 Ave Lúcifer - O Fruto Do Mefistofelismo [demo] (2004)


*Artist: Ave Lucifer
*Album: O Fruto Do Mefistofelismo [demo]
*Year: 2005
*Genre: Black Metal
*Country: Brazil
*Format: mp3@CBR256kbps
*Size: 49MB

Tracklist:
1. Horda Profana 04:23
2. Desejos de Lúcifer 05:29
3. Discípulo do Mal 05:25
4. O Fruto do Mefistofelismo 05:58
5. Infernal Profecia 05:56
******************************
Total playing time: 27:11



Register
(19) BeautifulMetalMusic, Constantinus I, dad, DarkHorde, Darkthronefoad, Hell_Is_Here, Ildjarn, kefka, marilin, Nadja, Redesecretor, satanas189, Satanon666, sethurius, tont, varlam4, vasiljev_sergej, Wolftribes, Абигор,
Oct 16 2012, 19:19:28 Bestemmia Aeternalis - Veil Of Sins [ep] (2001)


*Artist: Bestemmia Aeternalis
*Album: Veil Of Sins [ep]
*Year: 2001
*Genre: Black/Death Metal
*Country: United States
*Format: mp3@CBR192kbps
*Size: 39MB

Tracklist:
1. Intro: Eternal Blasphemy 00:59
2. Mayhem 04:30
3. Transcendence into the Light of Darkness 05:20
4. The Angels of Fallen Grace 07:16
5. Dawn of Shame 05:58
6. Enchanted 04:46
******************************
Total playing time: 28:49



Register
(10) andreikun, DeathFan22, ghaaran, kefka, lawronchik, maringlen, metal73, satanas189, satanath, varlam4,
Oct 16 2012, 14:43:15 Lilyum - Fear Tension Cold (2010)


*Artist: Lilyum
*Album: Fear Tension Cold
*Year: 2010
*Genre: Black Metal
*Country: Italy
*Format: mp3@CBR320kbps
*Size: 73MB

Tracklist:
1. Intro - Chaos from Order 01:09
2. Dissolution is Imminent 05:09
3. Of Lead and Mercury 03:05
4. The Black Slumber 05:29
5. Fear Tension Cold 03:35
6. Obsessed 05:00
7. Hail Failure - The End of a Sick Era 06:56
8. Salvation 01:24
******************************
Total playing time: 31:47



[more=Extended info]


Input File: 2. Dissolution is Imminent.mp3
Channels : 2
Sample Rate : 44100
Precision : 16-bit
Duration : 00:05:09.42 = 13645554 samples = 23206.7 CDDA sectors
File Size : 12.5M
Bit Rate : 322k
Sample Encoding: MPEG audio (layer I, II or III)
Comments :
Title=Dissolution Is Imminent
Artist=Lilyum
Album=Fear Tension Cold
Tracknumber=2
Year=2010
Genre=Black Metal

[/more]

Register
(19) 0x13, Buregon, Constantinus I, Darkthronefoad, DeathFan22, kefka, kim666, NachtWulf, Nadja, Reverend, satanist666, SIAVASH, stone88, stub888, toly1917, tont, VALERY, varlam4, vasiljev_sergej,
Oct 15 2012, 01:08:15 Snowthorn - Catatonic Trances [demo] (2004)


*Artist: Snowthorn
*Album: Catatonic Trances [demo]
*Year: 2004
*Genre: Black Metal
*Country: Greece
*Format: mp3@CBR320kbps
*Size: 50MB

Tracklist:
1. Drowning under the Unfinished Dream 06:40
2. Catatonic Trances 04:34
3. The Dreams Complete... 06:40
4. Remember the Fallen (Sodom cover) 04:30
******************************
Total playing time: 22:24



[more=Extended info]


Input File: 2. Catatonic Trances.mp3
Channels : 2
Sample Rate : 44100
Precision : 16-bit
Duration : 00:04:34.31 = 12097247 samples = 20573.5 CDDA sectors
File Size : 11.0M
Bit Rate : 320k
Sample Encoding: MPEG audio (layer I, II or III)
Comments :
Title=Catatonic Trances
Artist=Snowthorn
Album=Catatonic Trances
Tracknumber=2
Year=2004
Genre=Black Metal

[/more]

Register
(12) Darkthronefoad, DeathFan22, General, infiltrator, kefka, komhs, lawronchik, maringlen, Svafrlami, tont, varlam4, vasiljev_sergej,
Oct 15 2012, 00:40:09 Father, Son, And The Holy Ghost - These Are The End Times (2010)


*Artist: Father, Son, And The Holy Ghost
*Album: These Are The End Times
*Year: 2010
*Genre: Blackened Funeral Doom Metal
*Country: United States
*Format: mp3@CBR128kbps
*Size: 24MB

Tracklist:
1. Alignment of the Galaxies 05:52
2. The Cosmic Larvae Emerge 15:55
3. These are the End Times 04:38
******************************
Total playing time: 26:25

Register
(8) Darkthronefoad, DeathFan22, infiltrator, kefka, marilin, omidalfa, VALERY, varlam4,
Oct 15 2012, 00:05:46 Tangorodrim - Two Iron Rules [ep] (2012)


*Artist: Tangorodrim
*Album: Two Iron Rules [ep]
*Year: 2012
*Genre: Black Metal
*Country: Israel
*Format: mp3@CBR320kbps
*Size: 35MB

Tracklist:
1. Pre Dawn (Intro)/Survival 07:01
2. Two Iron Rules/B.M.W. (Outro) 06:42
******************************
Total playing time: 13:43



[more=Extended info]


Input File: 1. Pre Dawn (Intro) + Survival.mp3
Channels : 2
Sample Rate : 44100
Precision : 16-bit
Duration : 00:07:01.93 = 18607201 samples = 31644.9 CDDA sectors
File Size : 16.9M
Bit Rate : 320k
Sample Encoding: MPEG audio (layer I, II or III)
Comments :
Title=Pre Dawn (Intro) + Survival
Artist=Tangorodrim
Album=Two Iron Rules
Tracknumber=1
Year=2012
Genre=Black Metal

[/more]

Register
(23) 0x13, Beazth, Boozer, ddarkthrone, DeathFan22, ELTOKLLO22, infiltrator, kefka, lestllk, Lucius Eternal, maochen, marilin, princeshr, Radwind, RENыч, rockwell666, RUSP73, tont, VALERY, varlam4, vasiljev_sergej, Госпромнадзор, Лед,
Oct 14 2012, 23:43:26 Savage Deity & Goatchrist666 - Icons Of The Wicked [split] (2012)


*Artist: Savage Deity & Goatchrist666
*Album: Icons Of The Wicked [split]
*Year: 2012
*Genre: Death Metal | Black/Death Metal
*Country: Thailand | Thailand
*Format: mp3@CBR320kbps
*Size: 37MB

Tracklist:
Savage Deity:
1. Gruesome Sacrifice
2. Revocation
Goatchrist666:
3. Blasphemic Force
4. Goat Sodomy Metal
******************************
Total playing time: 13:42




[more=Extended info]


Input File: 1. Savage Deity - Gruesome Sacrifice.mp3
Channels : 2
Sample Rate : 44100
Precision : 16-bit
Duration : 00:03:48.39 = 10072043 samples = 17129.3 CDDA sectors
File Size : 9.14M
Bit Rate : 320k
Sample Encoding: MPEG audio (layer I, II or III)
Comments :
Title=Gruesome Sacrifice
Artist=Savage Deity
Album=Icons of the Wicked
Tracknumber=1
Year=2012
Genre=Black Metal

[/more]

Register
(18) achimmada, Anhra Mainyu, artscald, DarkHorde, Darkthrone85, ddarkthrone, DeathFan22, Hell_Is_Here, infiltrator, kefka, Lanceatum, LordHaart, marilin, milosdjor, RUSP73, satanas189, varlam4, wreak,
Oct 14 2012, 18:41:44 Hecate - Tales... [demo] (1997)
mirror:
Register
(4) DeathFan22, General, ghaaran, Sphinx7,
Oct 14 2012, 18:19:38 O.B.E.Y. - Romance Of Misanthropy (2006)
Tracklist is wrong 21.gif you provided only 4 mp3s yet said it was 7. I split the tracks for you.

1. Anger/Hunger 03:31
2. Play to Kill Straight Away 05:01
3. I Hate You More than You will Ever Know 03:02
4. The Yelling 08:04
5. The Letter to the Horned One 04:21
6. Learn Not to Pray 04:52
7. Romance of Misanthropy 07:10

Register

(6) Blackvomito, Boozer, D.D.A.M.M., DeathFan22, vasiljev_sergej, wgs73,
Oct 13 2012, 09:32:12 King Of The Devil - Вход Во Тьму (2011)


*Artist: King Of The Devil
*Album: Вход Во Тьму
*Year: 2011
*Genre: Black Metal
*Country: Russian Federation
*Format: mp3@CBR192kbps
*Size: 72MB

Tracklist:
1. Spellbound (By the Devil) 04:08
2. World to Win 03:49
3. Blessings upon the Throne of Tyranny 05:23
4. Carving a Giant 04:13
5. Incipit Satan 04:42
6. King of the Dark Ages 05:31
7. Master Of Disharmony 04:15
8. Nocturnal Fear 03:23
9. Puritania 03:02
10. The Heretic Hammer 04:58
11. The Night Masquerade 04:24
12. Wound upon Wound 03:39
13. Харон (Bonustrack) 04:08
******************************
Total playing time: 55:35

Register
(12) 0x13, DeathFan22, ELTOKLLO22, General, kefka, satanas189, tont, VALERY, varlam4, vasiljev_sergej, Wolftribes, wreak,
Oct 13 2012, 01:44:33 King Of The Devil - Pandemonium Tartar (2012)


*Artist: King Of The Devil
*Album: Pandemonium Tartar
*Year: 2012
*Genre: Black Metal
*Country: Russian Federation
*Format: mp3@CBR192kbps
*Size: 62MB

Tracklist:
1. King of the Devil 03:55
2. Resurrection of Evil in the Name of Redemption 07:32
3. Gremdor 09:18
4. Barguly (Fate... Not Spared) 06:54
5. The Book Awakening the Flame 05:13
6. Phantasmagoria 05:01
7. Worshiping of the Gods 07:31
******************************
Total playing time: 45:24

Register
(12) 0x13, DeathFan22, DTGB, ELTOKLLO22, General, kefka, tont, VALERY, varlam4, vasiljev_sergej, Wolftribes, wreak,
Oct 13 2012, 00:45:00 Bellum Animi - Rehearsal 28-12-2005 [demo] (2005)


*Artist: Bellum Animi
*Album: Rehearsal 28-12-2005 [demo]
*Year: 2005
*Genre: Blackened Drone/Doom Metal
*Country: Netherlands
*Format: mp3@CBR128kbps
*Size: 12MB

Tracklist:
1. Todesmarsch 13:41
******************************
Total playing time: 13:41



Register
(6) DeathFan22, Lucius Eternal, marilin, varlam4, vasiljev_sergej, Дерсу Узала,
Oct 12 2012, 22:11:53 Zerfall - Dunkelheit [demo] (2003)


*Artist: Zerfall
*Album: Dunkelheit [demo]
*Year: 2003
*Genre: Black Metal/Dark Ambient
*Country: Germany
*Format: mp3@CBR128kbps
*Size: 9MB

Tracklist:
1. Dunkelheit 09:36
******************************
Total playing time: 9:36

Register
(8) craP_cillA, Darkthronefoad, kefka, tont, varlam4, vasiljev_sergej, Wolftribes, Абигор,
Oct 12 2012, 21:49:44 Morgoth Gates - Demo II: The Path Of Death [demo] (2009)


*Artist: Morgoth Gates
*Album: Demo II: The Path Of Death [demo]
*Year: 2009
*Genre: Instrumental Black Metal
*Country: Spain
*Format: mp3@VBR205kbps
*Size: 29MB

Tracklist:
1. The Path of Death 00:53
2. Shades 03:12
3. Blood in the Land 04:08
4. Knight of Tower 07:00
5. From the Abyss 04:08
******************************
Total playing time: 19:21



Register
(14) 0x13, Darkthronefoad, ELTOKLLO22, General, Reverend, RotAnus, satanist666, stub888, tont, varlam4, vasiljev_sergej, Wolftribes, wreak, Абигор,
Oct 12 2012, 06:35:03 Sump - Demo III [demo] (2010)


*Artist: Sump
*Album: Demo III [demo]
*Year: 2010
*Genre: Raw Black Metal/Punk
*Country: United Kingdom
*Format: mp3@CBR128kbps
*Size: 20MB

Tracklist:
1. Locked Away
2. Satanic Boot Boys
3. Shannon
4. Horrendous Waste Of Time
5. Ghouls Are Out Tonight
6. Blades
7. Gits
8. Black Cat
9. Waiting For The Light
10. Seeing A Murderer
11. Cross The Throne
12. Worship Death
******************************
Total playing time: 22:02

Register
(11) acerbus, artscald, DeathFan22, dvlz, General, SIAVASH, Tha, the_cleanser, tont, varlam4, vasiljev_sergej,
Oct 12 2012, 01:43:39 Direwolf - Demo [demo] (2006)


*Artist: Direwolf
*Album: Demo [demo]
*Year: 2006
*Genre: Technical Progressive Metal
*Country: United States
*Format: mp3@CBR128kbps
*Size: 21MB

Tracklist:
1. Intro 02:16
2. World War IV 08:42
3. Beyond the Lands... 07:18
4. Mercury's Disaster 04:26
******************************
Total playing time: 22:42



Register
(6) Corpuscul, cynik, DeathFan22, futilitarian, metala, Дерсу Узала,
Oct 11 2012, 22:16:00 Nocte Infinitum - Sinfonia Da Noite [demo] (2008)


*Artist: Nocte Infinitum
*Album: Sinfonia Da Noite [demo]
*Year: 2008
*Genre: Black Metal
*Country: Brazil
*Format: mp3@CBR128kbps
*Size: 25MB

Tracklist:
1. Sagrado Luar
2. Sinfonias da Noite
3. Conquista da Noite
4. Salve a Rainha
5. Lua de Sangue
6. Na Cadeia dos Carpatus
7. Cavaleiro do Apocalipse
8. No Vale do Eterno
9. Natureza Intima
10. Na Floresta
11. Escarlate
******************************
Total playing time: 29:47

Register
(7) Darkthronefoad, General, kefka, tont, varlam4, vasiljev_sergej, Wolftribes,
Oct 11 2012, 22:05:11 Infestus - Unnatural Legacy [demo] (1993)


*Artist: Infestus
*Album: Unnatural Legacy [demo]
*Year: 1993
*Genre: Death Metal
*Country: Spain
*Format: mp3@CBR192kbps
*Size: 24MB

Tracklist:
1. The End of the Biosphere 01:14
2. Unnatural Legacy 04:30
3. Lusting the Fruit 04:09
4. Ancestral Cataclysm of Life 04:12
5. Theatre of Cruelty 03:21
******************************
Total playing time: 17:26

Register
(11) Alfredoelruso, andreikun, Darkthronefoad, Evilded, goregrindexx, MeathookSeed, Proteus_666, sperminator, thenecromancer, varlam4, wreak,
Oct 11 2012, 19:43:42 Vestal Claret - Virgin Blood [single] (2011)


*Artist: Vestal Claret
*Album: Virgin Blood [single]
*Year: 2011
*Genre: Occult Heavy/Doom Metal
*Country: United States
*Format: mp3@CBR128kbps
*Size: 18MB

Tracklist:
1. Hex of Harm 06:51
2. Allowance of Sin 06:48
******************************
Total playing time: 13:39



Register
(2) artscald, MEmethuselah,

89 Pages V   1 2 3 > » 
- Lo-Fi Version Support form
Copyrights and abuse reports form
Time is now: 15th November 2019 - 08:04:23