Welcome Guest ( Log In | Register )

История благодарностей участнику UlvhedinGrom ::: Спасибо сказали: 1749 раз(а)
Дата поста: В теме: За сообщение: Спасибо сказали:
Oct 29 2019, 09:52:14 Seigneur Voland
ЦИТАТА(yarrsuaa @ Oct 19 2019, 06:06:12) *
Даже в Японии будет пара концертов, собственно, на японском лейбле выпустили ремастеред компиляцию

Крайне сомнительная инфа...
(2) lordbathor, rimfrost,
Jun 23 2019, 11:39:47 Deus Mortem - Kosmocide (2019)
Мощный альбом, что сказать. Отлично слушается, особенно на фоне того дерьма, которое массово выпускается на сегодняшний день.
(2) suseka, wolverine,
Jun 18 2019, 07:56:26 Mortuary Drape - Into The Drape [ep] (1992)
ЦИТАТА(PanzerDivisionMarduk @ Jun 18 2019, 02:06:47) *
Re-upload please.

The link above is still working.
(3) infiltrator, thenecromancer, wolverine,
Aug 31 2018, 09:58:54 Granskog & Château Noir - Shrine Of Adversaries [split] (2016)
[youtube]4aDQMV-O8kI[/youtube]


(1) Storky,
Aug 24 2018, 10:26:16 Château Noir - The Victorious Flame [demo] (2012)
[youtube]5H2r3U2McIs[/youtube]



(2) Borderline1991, Storky,
Feb 18 2018, 13:30:24 Master's Hammer - Fascinator (2018)
Охрененный альбом, явно лучше двух предыдущих и где-то на уровне 2012-го года.
(4) Beazth, judaz, Metalass, smes,
Jan 14 2018, 19:17:30 Chaos 88 - Welcome To Atlantic City (2005)
Register
88.0 mb 18.gif
(1) Moonshtook,
Jan 13 2018, 15:21:03 Gontyna Kry - Advanced Tracks For 2nd LP [bootleg] (2003)
ЦИТАТА(thenecromancer @ Oct 10 2017, 15:21:28) *
https://www.metal-archives.com/bands/Gontyna_Kry/1349
Many many thanks! Am I wrong, or that 2nd album was never relased? In 2004 it was released only a demo tape called "Kawaleria swaroga", then nothing until 2008 when the band released "The blood of our fathers"... hmm.gif

you are correct.
(1) thenecromancer,
Jan 13 2018, 15:20:37 Grand Belial's Key
Сорока на хвосте донесла...
http://www.weltenfeind.com/gbk_shows.html
(2) Goatrex, lordbathor,
Jan 13 2018, 15:19:12 Lucifugum
ЦИТАТА(SSWolf88 @ Nov 28 2017, 05:46:37) *
И группа, и её "творчество" 22.gif

но-но, до 2005 года - лучшее, что случилось в Украине.
(1) lordbathor,
Aug 27 2017, 15:56:56 Granskog & Château Noir - Shrine Of Adversaries [split] (2016)


*Artist: Granskog & Château Noir
*Album: Shrine Of Adversaries [split]
*Year: 2016
*Genre: Black Metal | Black Metal
*Country: Ukraine | Ukraine
*Format: mp3@CBR320kbps
*Size: 31MB

Tracklist:
Granskog:
1. Black Moon Ritual
2. Sons Of Thunder
Château Noir:
3. Breath Of Autumn
4. Evocation
******************************
Total playing time: 13:40:00

[more=Technical info]
Input File: 02.mp3
Channels : 2
Sample Rate : 44100
Precision : 16-bit
Duration : 00:03:03.45 = 8090233 samples = 13758.9 CDDA sectors
File Size : 7.34M
Bit Rate : 320k
Sample Encoding: MPEG audio (layer I, II or III)
Comments :
Title=Sons Of Thunder
Artist=Granskog
Album=Shrine Of Adversaries
Tracknumber=2
Year=2014
Genre=Black Metal

[/more]

Register
(24) 1968_janeart, Boozer, Borderline1991, dalex, Fatalist77791, Ildjarn, Immortality, kim666, lordbathor, Moonshtook, Ostinato, rom666, Rosen, RUSP73, sethurius, Storky, suseka, thenecromancer, VALERY, varg-38ru, vasiljev_sergej, wolverine, xchekistx, Абигор,
Feb 13 2017, 09:31:29 Trivial Thorn - Beyond Nothing [demo] (1997)
Just recently acquired the reissue, good stuff for post-TTF worshippers.
(1) Borderline1991,
Jan 24 2017, 09:14:31 Новости Black-направления
ЦИТАТА(rimfrost @ Jan 23 2017, 21:41:27) *
Новости от финнов Kalmankantaja

сколько можно уже? творческий понос мля...
(1) lordbathor,
Jan 22 2017, 08:43:08 Abs Conditus - Noc Długich Noży (1995)
Это культ польского NSBM, а ты кто такой?
(2) Goatrex, suseka,
Nov 5 2016, 16:48:21 Cultes Des Ghoules - Coven, Or Evil Ways Instead Of Love (2016)
Альбом десятилетия, не меньше.
(1) smes,
Aug 30 2016, 17:58:35 Hatenwar - Pomeranian Stronghold Of Blackness [demo] (1999)
Register

авторский рип с мастер CD-R.
(4) Borderline1991, dermarsoran, Goatrex, wolverine,
Aug 30 2016, 17:57:52 Hatenwar - White Power Black Metal [demo] (1998)
Register

авторский рип с мастер CD-R.
(3) dermarsoran, Goatrex, Спектр,
Aug 19 2016, 19:39:23 Various Artists - The Temple Of Fullmoon Tribute [compilation] (2015)
"трибьют" Храму Полной Луны выпущенный грязным мексиканцем при поддержке чёкнутого Венома из Xantotol. Удивительно, что Пятому из Kataxu хватило "ума" зашквариться об это, про Венеда вообще молчу. Странно, что Роб наш Даркен не успел туда влезть 5.gif Но ничего, сергий преподобный отметился там заместо атца. В общем, диагноз краток - в утиль!
(1) Goatrex,
Mar 9 2016, 19:36:46 Granskog - Clandestine Congregation [demo] (2015)


*Artist: Granskog
*Album: Clandestine Congregation [demo]
*Year: 2015
*Genre: Black Metal
*Country: Ukraine
*Format: mp3@CBR320kbps
*Size: 45MB

Tracklist:
1. Ancient Invocation
2. Cosmic Verities
3. Thunder's Hatchet
4. A Spectre from the Past
5. Azelsgard's Wolves
6. Tchugaister's Dance
******************************
Total playing time: 19:45

[more=Extended info][youtube]aSNbohgbgfs[/youtube]


[/more]

[more=Technical info]
Input File: 01.mp3
Channels : 2
Sample Rate : 44100
Precision : 16-bit
Duration : 00:02:12.82 = 5857450 samples = 9961.65 CDDA sectors
File Size : 5.31M
Bit Rate : 320k
Sample Encoding: MPEG audio (layer I, II or III)
Comments :
Title=Ancient Invocation
Artist=Granskog
Album=Clandestine Congregation
Tracknumber=1
Year=2015
Genre=Black Metal

[/more]

Register
(26) 1968_janeart, Antiscum, Boozer, dalex, Fatalist77791, Goatrex, igore2911, Ildjarn, kim666, mondblut, Moonshtook, morbidangelo, neoatheist, Ostinato, Paatddal, Raw1488, rom666, Rosen, tont, Ulver1488, VALERY, varg-38ru, varlam4, vasiljev_sergej, Абигор, Герб,
Mar 8 2016, 20:27:31 Новости Black-направления
Пожалуй, на обложке можно и закончить.
(3) infiltrator, Inlustris, suseka,
Mar 2 2016, 21:32:26 Granskog - In The Heavy Mists In The Carpathians... [demo] (2013)


*Artist: Granskog
*Album: In The Heavy Mists In The Carpathians... [demo]
*Year: 2013
*Genre: Black Metal
*Country: Ukraine
*Format: mp3@CBR320kbps
*Size: 31MB

Tracklist:
1. Sun Is Setting Over A Black Mountain
2. Cosmic Verities
3. Thunder's Hatchet
4. Carpathian Windspirit (Fullmoon cover)
5. The Age Of Distorted Darkness (as Morgul Shard)
******************************
Total playing time: 13:32

[more=Extended info]Promo rehearsal 2013.

[youtube]nYn4H8NYJiM[/youtube][/more]

[more=Technical info]
Input File: 02.mp3
Channels : 2
Sample Rate : 48000
Precision : 16-bit
Duration : 00:03:10.95 = 9165456 samples ~ 14321 CDDA sectors
File Size : 7.64M
Bit Rate : 320k
Sample Encoding: MPEG audio (layer I, II or III)
Comments :
Title=Cosmic Verities
Artist=Granskog
Album=In The Heavy Mists In The Carpathians
Tracknumber=2
Year=2013
Genre=Black Metal

[/more]

Register
(22) 1968_janeart, Boozer, dalex, Goatrex, Ildjarn, Immortality, kim666, mondblut, Moonshtook, morbidangelo, NekromantikSummoning, Paatddal, Raw1488, rom666, Rosen, spiritualdecay666, suseka, tont, varg-38ru, varlam4, vasiljev_sergej, yarrsuaa,
Feb 18 2016, 18:36:55 Graveland - Celtic Winter (2013)
Зачем новое? Лучше уже никогда не будет.
(3) infiltrator, mondblut, suseka,
Jan 31 2016, 12:25:21 Новости Black-направления
лучше б не приступали 25.gif
(5) Antiis, Goatrex, infiltrator, templ, tireheb,
Jan 27 2016, 19:46:55 Bekhira - Advanced Tracks [bootleg] (2001)
Register
(2) Borderline1991, thenecromancer,
Jan 27 2016, 19:04:30 Lake Of Tears
Первых три - шедевры.
(2) infiltrator, tormoz,

16 Pages V   1 2 3 > » 
- Lo-Fi Version Support form
Copyrights and abuse reports form
Time is now: 11th December 2019 - 09:07:59