Welcome Guest ( Log In | Register )

История благодарностей участнику UlvhedinGrom ::: Спасибо сказали: 1897 раз(а)
Дата поста: В теме: За сообщение: Спасибо сказали:
Yesterday, 16:03:37 Cultes Des Ghoules - Deeds Without A Name [ep] (2021)
ЦИТАТА(ent404 @ May 16 2021, 16:01:40) *
чувак, мы даже ноль пять не распивали, чтобы ты мне подобное заявлял)

каков вопрос - таков ответ)
(1) Occultas,
Yesterday, 12:35:13 Ghost (1) thenecromancer,
Jan 17 2021, 14:19:43 Various Artists - Gummo Soundtrack [compilation] (1998)
320
Register
(1) INDARKNESS,
Jan 17 2021, 14:08:49 Thy Worshiper - Winter Dream [demo](1994)
320
Register
(3) Antichrist, stumpheavyrock, thenecromancer,
Jan 5 2021, 20:47:32 Burzum - Burzum (1992)
ЦИТАТА(NathanSS @ Jan 4 2021, 01:19:21) *
SOMEONE HAVE SCANS OF FIRST VERSIONS?

just buy the first press. bye.gif
(1) NathanSS,
Dec 27 2020, 00:20:20 Vondur - The Galactic Rock'n'roll Empire (1996)
320
Register
(4) kimkayoung, stumpheavyrock, thenecromancer, varlam4,
Dec 27 2020, 00:19:40 Algaion - The Herostratic Legacy [ep] (2001)
Register
(1) stumpheavyrock,
Dec 21 2020, 21:55:38 Château Noir - Troubadours Of Pestilence (2020) (4) Antichrist, Daale, Rodin, technoboy69,
Dec 1 2020, 12:37:18 VTTA - Там? Где! (2018)
FLAC
Register
(2) acerbus, Yuk,
Oct 3 2020, 12:36:50 Château Noir - Troubadours Of Pestilence (2020)
(3) Antichrist, Legacy100, suseka,
Oct 1 2020, 19:35:47 Château Noir - Troubadours Of Pestilence (2020)


*Artist: Château Noir
*Album: Troubadours Of Pestilence
*Year: 2020
*Genre: Black Metal
*Country: Ukraine
*Format: mp3@CBR320kbps
*Size: 58MB

Tracklist:
1. The Pest Is Nigh (Intro)
2. Dark Castle of Pestilence
3. Shrine of Adversaries
4. Seven Deadly Sins
5. The Victorious Flame
6. Mourning Soul (Absurd cover)
7. Into Oblivion (Outro)
******************************
Total playing time: 25:30:00


Youtube

[more=Technical info]
Input File: 02 - Dark Castle Of Pestilence.mp3
Channels : 2
Sample Rate : 44100
Precision : 16-bit
Duration : 00:04:05.61 = 10831401 samples = 18420.8 CDDA sectors
File Size : 9.83M
Bit Rate : 320k
Sample Encoding: MPEG audio (layer I, II or III)
Comment : 'Artist=Château Noir'

[/more]

Register
(60) 1968_janeart, 6666666, AlexSmith, alikkon, Antichrist, babanguida, Boozer, Borderline1991, caro, Chasm, cist, comradEnemy, Daale, dalex, Ibex, Ildjarn, INDARKNESS, infiltrator, judaz, kim666, Legacy100, Ludwig Hagen, M8R8K, metal73, Moonshtook, multizwilling, nemx, nsk2008, Olethros, ondrazevsi, pahail, rammmirez, randumbum, regorgitated, rimfrost, robertho777, Rosen, SaintVitus, satanist666, SeeNoEvil, SilentNidhogg, smes, smysl, StabWound, stormhatt, Surt, suseka, system36, TeamatSE, technoboy69, thenecromancer, VALERY, varlam4, vasiljev_sergej, VECTOR, Wail, wreak, zotyo1975, Абигор, Авел,
Jan 26 2020, 21:23:16 Branikald - The Strings Of Inspiration Sing (2000)
ЦИТАТА(DeathMetalBrony @ Jan 23 2020, 10:07:06) *
Альбом был переиздан Blazebirth Hall под названием «Ulvegr». Кто-нибудь думает, что он может отсканировать его любому, кто заказал у них диск? Всегда любил оформление релиза.

Издан не Blazebirth Hall, а бутлеггером чернобобой, прошу не путать. Официальная версия скоро на Der Schwarze Tod.
(1) Moonshtook,
Jan 26 2020, 21:04:18 Council Daimonion - When Hell Calls... [demo] (2018)
Это даже не дань великому прошлому, это живое прошлое! Без преувеличений гениально.
(4) Antichrist, infiltrator, rimfrost, Абигор,
Oct 29 2019, 09:52:14 Seigneur Voland
ЦИТАТА(yarrsuaa @ Oct 19 2019, 06:06:12) *
Даже в Японии будет пара концертов, собственно, на японском лейбле выпустили ремастеред компиляцию

Крайне сомнительная инфа...
(2) lordbathor, rimfrost,
Jun 23 2019, 11:39:47 Deus Mortem - Kosmocide (2019)
Мощный альбом, что сказать. Отлично слушается, особенно на фоне того дерьма, которое массово выпускается на сегодняшний день.
(2) Antichrist, suseka,
Jun 18 2019, 07:56:26 Mortuary Drape - Into The Drape [ep] (1992)
ЦИТАТА(PanzerDivisionMarduk @ Jun 18 2019, 02:06:47) *
Re-upload please.

The link above is still working.
(3) Antichrist, infiltrator, thenecromancer,
Aug 31 2018, 09:58:54 Granskog & Château Noir - Shrine Of Adversaries [split] (2016)
[youtube]4aDQMV-O8kI[/youtube]


(1) Storky,
Aug 24 2018, 10:26:16 Château Noir - The Victorious Flame [demo] (2012)
[youtube]5H2r3U2McIs[/youtube]



(2) Borderline1991, Storky,
Feb 18 2018, 13:30:24 Master's Hammer - Fascinator (2018)
Охрененный альбом, явно лучше двух предыдущих и где-то на уровне 2012-го года.
(4) Beazth, judaz, Metalass, smes,
Jan 14 2018, 19:17:30 Chaos 88 - Welcome To Atlantic City (2005)
Register
88.0 mb 18.gif
(1) Moonshtook,
Jan 13 2018, 15:21:03 Gontyna Kry - Advanced Tracks For 2nd LP [bootleg] (2003)
ЦИТАТА(thenecromancer @ Oct 10 2017, 15:21:28) *
https://www.metal-archives.com/bands/Gontyna_Kry/1349
Many many thanks! Am I wrong, or that 2nd album was never relased? In 2004 it was released only a demo tape called "Kawaleria swaroga", then nothing until 2008 when the band released "The blood of our fathers"... hmm.gif

you are correct.
(1) thenecromancer,
Jan 13 2018, 15:20:37 Grand Belial's Key
Сорока на хвосте донесла...
http://www.weltenfeind.com/gbk_shows.html
(2) Goatrex, lordbathor,
Jan 13 2018, 15:19:12 Lucifugum
ЦИТАТА(SSWolf88 @ Nov 28 2017, 05:46:37) *
И группа, и её "творчество" 22.gif

но-но, до 2005 года - лучшее, что случилось в Украине.
(2) infiltrator, lordbathor,
Aug 27 2017, 15:56:56 Granskog & Château Noir - Shrine Of Adversaries [split] (2016)


*Artist: Granskog & Château Noir
*Album: Shrine Of Adversaries [split]
*Year: 2016
*Genre: Black Metal | Black Metal
*Country: Ukraine | Ukraine
*Format: mp3@CBR320kbps
*Size: 31MB

Tracklist:
Granskog:
1. Black Moon Ritual
2. Sons Of Thunder
Château Noir:
3. Breath Of Autumn
4. Evocation
******************************
Total playing time: 13:40:00

[more=Technical info]
Input File: 02.mp3
Channels : 2
Sample Rate : 44100
Precision : 16-bit
Duration : 00:03:03.45 = 8090233 samples = 13758.9 CDDA sectors
File Size : 7.34M
Bit Rate : 320k
Sample Encoding: MPEG audio (layer I, II or III)
Comments :
Title=Sons Of Thunder
Artist=Granskog
Album=Shrine Of Adversaries
Tracknumber=2
Year=2014
Genre=Black Metal

[/more]

Register
(28) 1968_janeart, Antichrist, Boozer, Borderline1991, dalex, dermarsoran, Fatalist77791, Ildjarn, Immortality, kim666, lordbathor, Moonshtook, Ostinato, rom666, Rosen, Rudolfo_Metal, RUSP73, satanist666, sethurius, Storky, suseka, thenecromancer, VALERY, varg-38ru, varlam4, vasiljev_sergej, xchekistx, Абигор,
Feb 13 2017, 09:31:29 Trivial Thorn - Beyond Nothing [demo] (1997)
Just recently acquired the reissue, good stuff for post-TTF worshippers.
(1) Borderline1991,

16 Pages V   1 2 3 > » 
- Lo-Fi Version Support form
Copyrights and abuse reports form
Time is now: 17th May 2021 - 19:24:06