Welcome Guest ( Log In | Register )

История благодарностей участнику Dreamtale ::: Спасибо сказали: 766 раз(а)
Дата поста: В теме: За сообщение: Спасибо сказали:
Oct 25 2020, 04:10:49 Thousand Oxen Fury - Victory March (2020)
Я такого отвратительного вокала давно не слышал! Музыка лучше.
(1) Ghostb,
Oct 22 2020, 04:01:14 Invisible Fortress - Sojourner (2020)
[youtube]m8Ec6PM7_Nk[/youtube]
(2) ace73pq, BandR75,
Oct 16 2020, 21:30:43 Old Tower - The Rise Of The Spectral Horizons [compilation] (2018)
ЦИТАТА(selvmord @ 16th October 2020 - 22:21:43) *
обновите линк, пожалуйста.

Register
(3) Alexis The Best, infiltrator, thenecromancer,
Oct 1 2020, 20:05:39 Amaranthe - Manifest (2020)
ЦИТАТА(Old Vyaine @ 1st October 2020 - 21:34:30) *
Манифест бибы, бобы и вовы?

Пупы и Лупы.
(1) Lucifer,
Sep 25 2020, 10:38:36 Lethian Dreams - A Shadow Of Memories (2020)
Мне кажется, в данном релизе нет ни дума, ни металла вообще. Но сделано, конечно, качественно и атмосферно.
(3) infiltrator, krotovich, MrSatanislav,
Sep 23 2020, 11:10:16 Pepes - Capicu [ep] (2020)
некрософ


(1) некрософ,
Sep 19 2020, 17:35:05 Haryon & Thangorodrim - Under The Reign Of A New Power (Split) [split] (2018)
FLAC
Register
(2) infiltrator, zoog,
Sep 19 2020, 12:15:55 Haryon & Thangorodrim - Under The Reign Of A New Power (Split) [split] (2018)


*Artist: Haryon & Thangorodrim
*Album: Under The Reign Of A New Power (Split) [split]
*Year: 2018
*Genre: Dungeon Synth | Dungeon Synth
*Country: Germany | United States
*Format: mp3@CBR320kbps
*Size: 79MB

Tracklist:
1. Thangorodrim - Durin - The Deathless 9:12
2. Thangorodrim - Dimrill Dale - The Place of Shadowed Streams 8:55
3. Haryon - Thranduil - The King of Mirkwood 11:41
4. Haryon - Gondor - Amon Dîn 4:28
******************************
Total playing time: 34:16



[more=Technical info]
Input File: Haryon - Thangorodrim-Haryon - Under the Reign of a New Power - 04 Haryon - Gondor - Amon Dîn.mp3
Channels : 2
Sample Rate : 44100
Precision : 16-bit
Duration : 00:04:28.08 = 11822460 samples = 20106.2 CDDA sectors
File Size : 10.8M
Bit Rate : 323k
Sample Encoding: MPEG audio (layer I, II or III)
Comments :
Title=Haryon - Gondor - Amon Dîn
Artist=Haryon
Album=Thangorodrim/Haryon - Under the Reign of a New Power
Tracknumber=4
Year=2018

[/more]

Register
(7) Fallen Soul, infiltrator, Lanceatum, thenecromancer, tOmV, vosmidesijatye, zoog,
Sep 5 2020, 17:54:28 Wings Of Destiny - Ballads (2020)
[youtube]3oG8V0vrSvM[/youtube]
Собственное творчество явно к прослушиванию не пригодно, вот каверок заценить.
(1) Victim of fate,
Sep 4 2020, 17:09:35 Noumena - Anima (2020)
ЦИТАТА(Andrew @ 4th September 2020 - 14:58:27) *
не мелодез ни разу!

(2) Deze, Ghostb,
Aug 29 2020, 13:56:54 Arcanum Sanctum - Ad Astra (2020)
МДМ - какой-то фантомный стиль. Его везде пишут, но реально его почти нигде нет.
(2) infiltrator, Maximvs,
Jul 8 2020, 16:13:39 Bury Tomorrow - Cannibal (2020)
ЦИТАТА(vosmidesijatye @ 8th July 2020 - 14:18:08) *
слушать металкор в 2020

Оценивать чужие вкусы в 2020.
(2) infiltrator, Metalass,
Jul 3 2020, 12:12:44 Haken - Virus (2020)
Чот очередной гомосексуальный прог, но хотя бы вокал не такой омерзительный.
(2) infiltrator, Shadowman,
Jun 25 2020, 11:04:46 Drakarium - Acte II (2020)
ЦИТАТА(SAPOGi @ 25th June 2020 - 09:00:12) *
Странно. В группе шесть человек, но звучит альбом как one man band

Ну, может, каждый на своей струне играет - как раз вшестером гитара получается.
(2) avather, Сварог Барг,
Jun 19 2020, 20:53:56 On Atlas' Shoulders - Invictus (2020)
(2) AHBAnep, infiltrator,
Jun 16 2020, 12:03:21 Break My Fucking Sky - Blind (2020)


*Artist: Break My Fucking Sky
*Album: Blind
*Year: 2020
*Genre: Post-Rock
*Country: Russian Federation
*Format: mp3@CBR320kbps
*Size: 229MB

Tracklist:
01. Unwelcome 8:11
02. Medusas Are Like A Ghosts 7:48
03. The Letters Well Never Send 6:45
04. Agnosia 10:30
05. Before We Meet In The Dark 8:46
06. Doomsnight 4:46
07. Seven 8:20
08. Murphys Law 6:17
09. Blind 13:21
10. The Drowned Lake 9:19
11. Paper Eyes To Take Cover 8:26
12. It Was Forever Until It Ended 8:00
******************************
Total playing time: 1:40:27


ВКонтакте

[more=Technical info]
Input File: 06 - Doomsnight.mp3
Channels : 2
Sample Rate : 44100
Precision : 16-bit
Duration : 00:04:45.82 = 12604838 samples = 21436.8 CDDA sectors
File Size : 11.4M
Bit Rate : 320k
Sample Encoding: MPEG audio (layer I, II or III)
Comments :
Title=Doomsnight
Artist=Break My Fucking Sky
Album=BLIND
Tracknumber=06
Year=2020
Genre=Post-Rock

[/more]

Register
(3) gwar, infiltrator, Olethros,
Jun 15 2020, 00:02:13 Хмарь - Мгла (2020)
Про название уже шутили?
(4) Dantalian, infiltrator, nsk2008, Shadowman,
Jun 11 2020, 13:32:55 Magnus Karlsson's Free Fall - We Are The Night (2020)
ЦИТАТА(MeatWolf @ 10th June 2020 - 21:44:34) *

Сначала она была вроде просто Авантазией.
(3) Foneg, Ghostb, infiltrator,
Jun 10 2020, 10:31:39 Magnus Karlsson's Free Fall - We Are The Night (2020)
всегда относился с подозрениям к проектам с названием вроде "Голубцы Ивана Семеныча".
(10) 6666666, BleedingSun, Foneg, fragment, Ghostb, Infidel, infiltrator, Nitais_Ter, Old Vyaine, Thiarnan,
Jun 4 2020, 15:57:57 Ebonivory - The Long Dream I (2020)
Ёбаниворы?
(6) BleedingSun, HellDone, infiltrator, russ777, Shadowman, Thiarnan,
Jun 4 2020, 15:56:36 Hanging Garden - Against The Dying Of The Light [ep] (2020)
Шикарные спектры у второго трека!
(2) infiltrator, Old Vyaine,
May 13 2020, 18:41:02 Offret - Зверь (2020)
(1) ingram,
May 7 2020, 10:46:51 Smackbound - 20/20 (2020)
Максимально коммерческий, вылизанный, попсовый продукт. Но по превью некий потенциал есть – скачаю.
(1) korziboy,
Apr 30 2020, 17:45:20 Arida Vortex - Riders Of Steel (2020)
ЦИТАТА(Quacksha @ 29th April 2020 - 23:23:10) *
раннего Кюрша

Русский акцент всегда русскому уху заметнее, чем немецкий.
(1) Ghostb,
Apr 23 2020, 18:19:33 Lustre - The Ashes Of Light (2020)
Новая люстра, а светит по-старому.
(3) Ghostb, infiltrator, mardak666,

15 Pages V   1 2 3 > » 
- Lo-Fi Version Support form
Copyrights and abuse reports form
Time is now: 25th November 2020 - 15:27:00