Welcome Guest ( Log In | Register )

История благодарностей участнику Dreamtale ::: Спасибо сказали: 815 раз(а)
Дата поста: В теме: За сообщение: Спасибо сказали:
Apr 3 2021, 15:41:37 Everson Poe - Grief (2021)
[youtube]C1Z12h92VwE[/youtube]
(2) infiltrator, Old Vyaine,
Apr 2 2021, 15:38:34 Arthuros - Goddess (2021)
Register
(2) infiltrator, Olethros,
Apr 1 2021, 15:02:41 Godspeed You! Black Emperor - G_D's Pee At State's End! (2021)
Хороший альбом. Ждем лося.
(2) deineath, infiltrator,
Apr 1 2021, 14:55:06 Arthuros - Goddess (2021)


*Artist: Arthuros
*Album: Goddess
*Year: 2021
*Genre: Dungeon Synth
*Country: Greece
*Format: mp3@CBR320kbps
*Size: 90MB

Tracklist:
01. Genesis Of A New Goddess... 1:59
02. Resisting Her Spell 3:54
03. Through Valley Of Charms 6:59
04. To Be Her Eternal Love 5:57
05. Forging Stardust Into Light 5:53
06. Vivid Memories Of An Ancient Past 6:20
07. Older Than Light... 7:42
******************************
Total playing time: 38:44



[more=Extended info]Personal purchase[/more]

[more=Technical info]
Input File: 03 - Through Valley Of Charms.mp3
Channels : 2
Sample Rate : 44100
Precision : 16-bit
Duration : 00:06:58.62 = 18461230 samples = 31396.6 CDDA sectors
File Size : 16.9M
Bit Rate : 323k
Sample Encoding: MPEG audio (layer I, II or III)
Comments :
Title=Through Valley Of Charms
Artist=Arthuros
Album=Goddess
Tracknumber=3
Year=2021
Genre=Dungeon Synth

[/more]

Register
(4) infiltrator, nemx, Occultas, Olethros,
Mar 31 2021, 11:54:50 Pure - Seeds Of Despair (2021)
[more="________________________________"][/more]
(10) Ash_1980, Dargaud, infiltrator, ingram, karut, Metalass, Nordavind, nsk2008, stub888, vosmidesijatye,
Mar 26 2021, 17:39:31 Oriflamme - L'égide Ardente (2021)
Про Орифлейм уже шутили?
(1) Strid,
Mar 25 2021, 16:46:34 Во Гневе - Furorem (2021)
ЦИТАТА(Vitald @ 25th March 2021 - 15:59:12) *
Не понравилось. На деле - малоинтересное диссонансное блеяние.

ЦИТАТА(WOLAND @ 25th March 2021 - 17:47:45) *
Одна из сильнейших работ в таком стиле за пятилетку точно .Без слабых мест. Вообще .

Всегда проигрывал с полярности мнений в блэк-тредах.
(2) Dantalian, vosmidesijatye,
Mar 15 2021, 13:10:57 Suncrown - Invincible (2021)
ЦИТАТА(avather @ 15th March 2021 - 01:47:13) *
В смысле, только превью и слушаешь?

(1) Foneg,
Mar 11 2021, 12:35:11 Orden Ogan - Final Days (2021)
ЦИТАТА(Terrorizer @ 10th March 2021 - 17:44:33) *
И, такое ощущение, что сползут они, таки, в модерн поп-метал

Это было бы лучше, чем то, что сейчас.
(1) MeatWolf,
Feb 25 2021, 15:45:08 Empyrium - Über Den Sternen (2021)
Ух бл!
(4) Bloodn Lord, infiltrator, lucifix, Maestrovs,
Feb 9 2021, 07:13:46 Daius - Ascuns (2021)
Во-первых, сорт оф дсбм вокал совершенно не гармонирует с музыкой. Во-вторых, это куда больше блек, чем упомянутый Саор; без дудок никто бы сходства и не заметил. Для дебюта норм, но общих восторгов не разделил.
(1) Metalass,
Jan 8 2021, 05:12:43 Winterblood - Waldeinsamkeit I-Iii (2018)


*Artist: Winterblood
*Album: Waldeinsamkeit I-Iii
*Year: 2018
*Genre: Dark Ambient
*Country: Italy
*Format: mp3@CBR320kbps
*Size: 281MB

Tracklist:
01. Waldeinsamkeit I - Chapter 1
02. Waldeinsamkeit I - Chapter 2
03. Waldeinsamkeit II
04. Waldeinsamkeit III
******************************
Total playing time: 2:03:30



[more=Extended info]Personal purchase[/more]

[more=Technical info]
Input File: 01 - Waldeinsamkeit I - Chapter 1.mp3
Channels : 2
Sample Rate : 44100
Precision : 16-bit
Duration : 00:28:06.76 = 74386028 samples = 126507 CDDA sectors
File Size : 67.6M
Bit Rate : 321k
Sample Encoding: MPEG audio (layer I, II or III)
Comments :
Title=Waldeinsamkeit I - Chapter 1
Artist=Winterblood
Album=Waldeinsamkeit I-III
Tracknumber=1
Year=2018

[/more]

Register
(6) gena, infiltrator, Olethros, recber, soulskinner681, undeadlich,
Nov 29 2020, 12:43:04 Dream Theater - Distant Memories - Live In London [live] (2020)
Лабри вживую - это, к сожалению, печально...
(4) Ghostb, plfan93, Rhoads, Хогги,
Oct 25 2020, 04:10:49 Thousand Oxen Fury - Victory March (2020)
Я такого отвратительного вокала давно не слышал! Музыка лучше.
(1) Ghostb,
Oct 22 2020, 04:01:14 Invisible Fortress - Sojourner (2020)
[youtube]m8Ec6PM7_Nk[/youtube]
(2) ace73pq, BandR75,
Oct 16 2020, 21:30:43 Old Tower - The Rise Of The Spectral Horizons [compilation] (2018)
ЦИТАТА(selvmord @ 16th October 2020 - 22:21:43) *
обновите линк, пожалуйста.

Register
(5) Alexis The Best, ent404, infiltrator, korovakaska, thenecromancer,
Oct 1 2020, 20:05:39 Amaranthe - Manifest (2020)
ЦИТАТА(Old Vyaine @ 1st October 2020 - 21:34:30) *
Манифест бибы, бобы и вовы?

Пупы и Лупы.
(1) Lucifer,
Sep 25 2020, 10:38:36 Lethian Dreams - A Shadow Of Memories (2020)
Мне кажется, в данном релизе нет ни дума, ни металла вообще. Но сделано, конечно, качественно и атмосферно.
(3) infiltrator, krotovich, MrSatanislav,
Sep 23 2020, 11:10:16 Pepes - Capicu [ep] (2020)
некрософ


(1) некрософ,
Sep 19 2020, 17:35:05 Haryon & Thangorodrim - Under The Reign Of A New Power (Split) [split] (2018)
FLAC
Register
(2) infiltrator, zoog,
Sep 19 2020, 12:15:55 Haryon & Thangorodrim - Under The Reign Of A New Power (Split) [split] (2018)


*Artist: Haryon & Thangorodrim
*Album: Under The Reign Of A New Power (Split) [split]
*Year: 2018
*Genre: Dungeon Synth | Dungeon Synth
*Country: Germany | United States
*Format: mp3@CBR320kbps
*Size: 79MB

Tracklist:
1. Thangorodrim - Durin - The Deathless 9:12
2. Thangorodrim - Dimrill Dale - The Place of Shadowed Streams 8:55
3. Haryon - Thranduil - The King of Mirkwood 11:41
4. Haryon - Gondor - Amon Dîn 4:28
******************************
Total playing time: 34:16



[more=Technical info]
Input File: Haryon - Thangorodrim-Haryon - Under the Reign of a New Power - 04 Haryon - Gondor - Amon Dîn.mp3
Channels : 2
Sample Rate : 44100
Precision : 16-bit
Duration : 00:04:28.08 = 11822460 samples = 20106.2 CDDA sectors
File Size : 10.8M
Bit Rate : 323k
Sample Encoding: MPEG audio (layer I, II or III)
Comments :
Title=Haryon - Gondor - Amon Dîn
Artist=Haryon
Album=Thangorodrim/Haryon - Under the Reign of a New Power
Tracknumber=4
Year=2018

[/more]

Register
(7) Fallen Soul, infiltrator, Lanceatum, thenecromancer, tOmV, vosmidesijatye, zoog,
Sep 5 2020, 17:54:28 Wings Of Destiny - Ballads (2020)
[youtube]3oG8V0vrSvM[/youtube]
Собственное творчество явно к прослушиванию не пригодно, вот каверок заценить.
(1) Victim of fate,
Sep 4 2020, 17:09:35 Noumena - Anima (2020)
ЦИТАТА(Andrew @ 4th September 2020 - 14:58:27) *
не мелодез ни разу!

(2) Deze, Ghostb,
Aug 29 2020, 13:56:54 Arcanum Sanctum - Ad Astra (2020)
МДМ - какой-то фантомный стиль. Его везде пишут, но реально его почти нигде нет.
(2) infiltrator, Maximvs,
Jul 8 2020, 16:13:39 Bury Tomorrow - Cannibal (2020)
ЦИТАТА(vosmidesijatye @ 8th July 2020 - 14:18:08) *
слушать металкор в 2020

Оценивать чужие вкусы в 2020.
(2) infiltrator, Metalass,

15 Pages V   1 2 3 > » 
- Lo-Fi Version Support form
Copyrights and abuse reports form
Time is now: 21st April 2021 - 03:28:19