Welcome Guest ( Log In | Register )

История благодарностей участнику Dreamtale ::: Спасибо сказали: 941 раз(а)
Дата поста: В теме: За сообщение: Спасибо сказали:
Apr 7 2022, 10:22:02 Dreamtale - Everlasting Flame (2022)
ЦИТАТА(Ghostb @ 6th April 2022 - 21:28:46) *
Твоя любимая группа что ли?

Да не то чтобы. Просто я ник у них взял лет 20 назад.

А по музыке ожидаемо сказать нечего, потому что тут ничего и не скажешь...
(1) Ghostb,
Feb 17 2022, 13:48:45 Bloodywood - Rakshak (2022)


*Artist: Bloodywood
*Album: Rakshak
*Year: 2022
*Genre: Modern Metal/Folk Metal
*Country: India
*Format: mp3@CBR320kbps
*Size: 108MB

Tracklist:
01. Gaddaar 4:45
02. Aaj 5:01
03. Zanjeero Se 4:12
04. Machi Bhasad (Album Version) 4:01
05. Dana-Dan 4:55
06. Jee Veerey (Album Version) 4:39
07. Endurant (Album Version) 4:47
08. Yaad (Album Version) 5:41
09. Bsdk.Exe 4:56
10. Chakh Le 4:26
******************************
Total playing time: 47:23



[more=Extended info]Индусский метал, довольно оригинально.[/more]

[more=Technical info]
Input File: 09 - Bsdk.Exe.mp3
Channels : 2
Sample Rate : 44100
Precision : 16-bit
Duration : 00:04:55.31 = 13023039 samples = 22148 CDDA sectors
File Size : 11.8M
Bit Rate : 320k
Sample Encoding: MPEG audio (layer I, II or III)
Comments :
Title=Bsdk.Exe
Artist=Bloodywood
Album=Rakshak
Tracknumber=9
Year=2022

[/more]

Register
(35) Alpha_Prime, artscald, Beletras, BleedingSun, caro, Cartman223, chipsgott, csgmnk, Druidir, Emhyr var Emreis, GloomyDeath, gwar, gwynnbleid, infozahist, John Beak, kimkayoung, loicv70, metaljosue, mirotvorets, Mogozoz, Mplast, Old Vyaine, oldvarg, Olethros, Reverend, talismanFS, tt2008, varlam4, wrath082, wreak, zerger, Авел, Луч, Сварог Барг, скептик,
Jan 8 2022, 12:22:32 Power Paladin - With The Magic Of Windfyre Steel (2022)
Мне понравилось, кстати. Тот редкий случай, когда пацаны просто рубят то, что нравится, не стараясь кому-то угодить. Забавный момент: припев в Into the Forbidden Forest настолько похож на Twilight of the Gods Helloween'а, что я сначала подумал, что это какой-то такой кавер.
(1) KKK1488,
Jan 4 2022, 13:52:54 Mechina - Venator (2022)
Выше уже всё сказали, добавить нечего, дослушать не смог.
(1) Shadowman,
Dec 24 2021, 19:25:53 Evangelion - Revelations Or The Spawn Of Greed And War (2021)
(1) nsk2008,
Nov 9 2021, 11:35:09 Galdur - Wizardry (2017)


*Artist: Galdur
*Album: Wizardry
*Year: 2017
*Genre: Dungeon Synth
*Country: Ukraine
*Format: mp3@CBR320kbps
*Size: 96MB

Tracklist:
01. Wizardry 7:32
02. Call Of Magic 7:43
03. Horns of Thousand Battles 8:07
04. From Olden Times 8:01
05. Gates to Forgotten Realms 6:06
06. Song of Mournful Star 4:06
******************************
Total playing time: 41:35



[more=Extended info]На мой вкус, один из сильнейших актов в данжн-синте в последнее время, наряду с Elffor и Thangorodrim.[/more]

[more=Technical info]
Input File: 06 - Song of Mournful Star.mp3
Channels : 2
Sample Rate : 44100
Precision : 16-bit
Duration : 00:04:06.05 = 10850981 samples = 18454 CDDA sectors
File Size : 9.97M
Bit Rate : 324k
Sample Encoding: MPEG audio (layer I, II or III)
Comments :
Title=Song of Mournful Star
Artist=Galdur
Album=Wizardry
Tracknumber=6
Year=2017

[/more]

Register
(9) Dragonballz, KKK1488, kramer820, oldvarg, Olethros, Panzerfaust, recber, Vitald, Wilczygniew Strzygoń,
Oct 1 2021, 16:30:36 Feanor - Boundless I Am Free [ep] (2021)
Феанор велел остановиться!
(1) Reverend,
Sep 17 2021, 18:45:38 Ghostheart Nebula - Ascension (2021)
Хороший альбом.
(1) WOLAND,
Sep 6 2021, 19:03:42 Iron Maiden - Senjutsu (2021)
С учетом того, что пацанам под 70 лет уже, альбом нормальный. Stratego зашла - хитовенько.
(1) plfan93,
Aug 27 2021, 10:54:26 Leprous - Aphelion (2021)
Интересно, можно ли запретить сабж по статье о пропаганде сами знаете чего?..
(1) Shadowman,
Aug 13 2021, 11:52:42 Dream Theater - The Alien [single] (2021)


*Artist: Dream Theater
*Album: The Alien [single]
*Year: 2021
*Genre: Progressive Metal
*Country: United States
*Format: mp3@CBR320kbps
*Size: 22MB

Tracklist:
1. The Alien 9:32
******************************
Total playing time: 9:32



[more=Technical info]
Input File: 01 - The Alien.mp3
Channels : 2
Sample Rate : 48000
Precision : 16-bit
Duration : 00:09:32.00 = 27455760 samples ~ 42899.6 CDDA sectors
File Size : 23.0M
Bit Rate : 322k
Sample Encoding: MPEG audio (layer I, II or III)
Comments :
Title=The Alien
Artist=Dream Theater
Album=The Alien (Single)
Tracknumber=1
Year=2021
Genre=Progressive Metal

[/more]

Register
(18) ace73pq, Aresson, boby9052, caro, cesar, chipsgott, djsema4, gwynnbleid, older68, Olethros, Reverend, sadmannn, SAPOGi, Shadechaser, sludge666, Wail, wreak, Дерсу Узала,
Aug 11 2021, 19:52:52 Шип Сна - Шип Сна [ep] (2021)
ЦИТАТА(TDM @ 11th August 2021 - 20:44:48) *
алкогольный сумрак реверберации

Был там - никаких шипов не видел... 13.gif
(1) RUSP73,
Aug 9 2021, 23:37:43 Elffor - Arkaik (2021)


*Artist: Elffor
*Album: Arkaik
*Year: 2021
*Genre: Dungeon Synth
*Country: Spain
*Format: mp3@CBR320kbps
*Size: 101MB

Tracklist:
01. Voices From The Mountains Deep 22:07
02. Blood On The Wind 10:43
03. Iturbeltz 11:33
******************************
Total playing time: 44:23



[more=Technical info]
Input File: 02 - Blood On The Wind.mp3
Channels : 2
Sample Rate : 44100
Precision : 16-bit
Duration : 00:10:42.57 = 28337425 samples = 48192.9 CDDA sectors
File Size : 25.7M
Bit Rate : 320k
Sample Encoding: MPEG audio (layer I, II or III)
Comments :
Title=Blood On The Wind
Artist=Elffor
Album=Arkaik
Tracknumber=02
Year=2021
Genre=Dungeon Synth

[/more]

Register
(28) Boozer, Chasm, Dragonballz, Emhyr var Emreis, gnosiis, Hexer, Infidel, kimkayoung, KKK1488, Lamby90, Lucju, nadin85, NappyRob, nemx, oldvarg, Olethros, Phlebotomized, princeshr, rabindranad, recber, Reverend, Tarkron, tOmV, Torop, Zahrim, zargonath, zoog, Козлотролль,
Jul 4 2021, 14:00:35 Nanowar Of Steel - Italian Folk Metal (2021)
А где, собственно, конкретно в этом релизе стёб? В текстах, которых никто не понимает, кроме итальянцев? А по музыке это в общем-то третьесорт.
(1) Shadowman,
Apr 21 2021, 11:24:14 Sylvatica - Ashes And Snow (2021)
ЦИТАТА(morrom @ 20th April 2021 - 14:42:00) *
Dividead - Exile (2011)

Сабж скучный, как и Винтерсан. Перезалейте лучше это.
(1) isvili,
Apr 3 2021, 15:41:37 Everson Poe - Grief (2021)
[youtube]C1Z12h92VwE[/youtube]
(2) infiltrator, Old Vyaine,
Apr 2 2021, 15:38:34 Arthuros - Goddess (2021)
Register
(2) infiltrator, Olethros,
Apr 1 2021, 15:02:41 Godspeed You! Black Emperor - G_D's Pee At State's End! (2021)
Хороший альбом. Ждем лося.
(2) deineath, infiltrator,
Apr 1 2021, 14:55:06 Arthuros - Goddess (2021)


*Artist: Arthuros
*Album: Goddess
*Year: 2021
*Genre: Dungeon Synth
*Country: Greece
*Format: mp3@CBR320kbps
*Size: 90MB

Tracklist:
01. Genesis Of A New Goddess... 1:59
02. Resisting Her Spell 3:54
03. Through Valley Of Charms 6:59
04. To Be Her Eternal Love 5:57
05. Forging Stardust Into Light 5:53
06. Vivid Memories Of An Ancient Past 6:20
07. Older Than Light... 7:42
******************************
Total playing time: 38:44



[more=Extended info]Personal purchase[/more]

[more=Technical info]
Input File: 03 - Through Valley Of Charms.mp3
Channels : 2
Sample Rate : 44100
Precision : 16-bit
Duration : 00:06:58.62 = 18461230 samples = 31396.6 CDDA sectors
File Size : 16.9M
Bit Rate : 323k
Sample Encoding: MPEG audio (layer I, II or III)
Comments :
Title=Through Valley Of Charms
Artist=Arthuros
Album=Goddess
Tracknumber=3
Year=2021
Genre=Dungeon Synth

[/more]

Register
(5) FunZombie, infiltrator, nemx, Occultas, Olethros,
Mar 31 2021, 11:54:50 Pure - Seeds Of Despair (2021)
[more="________________________________"][/more]
(10) Ash_1980, Dargaud, infiltrator, ingram, karut, Metalass, Nordavind, nsk2008, stub888, vosmidesijatye,
Mar 26 2021, 17:39:31 Oriflamme - L'égide Ardente (2021)
Про Орифлейм уже шутили?
(1) Strid,
Mar 25 2021, 16:46:34 Во Гневе - Furorem (2021)
ЦИТАТА(Vitald @ 25th March 2021 - 15:59:12) *
Не понравилось. На деле - малоинтересное диссонансное блеяние.

ЦИТАТА(WOLAND @ 25th March 2021 - 17:47:45) *
Одна из сильнейших работ в таком стиле за пятилетку точно .Без слабых мест. Вообще .

Всегда проигрывал с полярности мнений в блэк-тредах.
(2) Dantalian, vosmidesijatye,
Mar 15 2021, 13:10:57 Suncrown - Invincible (2021)
ЦИТАТА(avather @ 15th March 2021 - 01:47:13) *
В смысле, только превью и слушаешь?

(1) Foneg,
Mar 11 2021, 12:35:11 Orden Ogan - Final Days (2021)
ЦИТАТА(Terrorizer @ 10th March 2021 - 17:44:33) *
И, такое ощущение, что сползут они, таки, в модерн поп-метал

Это было бы лучше, чем то, что сейчас.
(1) MeatWolf,
Feb 25 2021, 15:45:08 Empyrium - Über Den Sternen (2021)
Ух бл!
(4) Bloodn Lord, infiltrator, lucifix, Maestrovs,

16 Pages V   1 2 3 > » 
- Lo-Fi Version Support form
Copyrights and abuse reports form
Time is now: 25th September 2022 - 06:54:53