Welcome Guest ( Log In | Register )

История благодарностей участнику deathic ::: Спасибо сказали: 174 раз(а)
Дата поста: В теме: За сообщение: Спасибо сказали:
Sep 23 2022, 16:11:02 Utter Silence - The Terror [ep] (2022)
QUOTE(thenecromancer @ Sep 23 2022, 08:47:23) *
320kbps (personal purchase from Bandcamp)


Thank you so much.
(1) thenecromancer,
Sep 18 2022, 03:00:38 Mournful Congregation - The Monad Of Creation (2005)
QUOTE(Purestenchkvlt @ Sep 18 2022, 01:45:52) *
please reup, thank you!


Link is still working.

https://disk.yandex.ru/public?hash=OFRAGG5V...Dbqen%2BqAig%3D
(1) Purestenchkvlt,
Sep 17 2022, 14:17:39 Mournful Congregation - Tears From A Grieving Heart (1999)
Please, re-upload.
(1) Purestenchkvlt,
Sep 13 2022, 15:08:03 Lake Of Tears - Moons And Mushrooms (2007)
QUOTE(Ingvar @ Sep 13 2022, 15:45:30) *
107 mb/320 kbps



спасибо большое! My russian friend. smile1.gif
(1) Ingvar,
May 6 2022, 15:53:54 Lacrimas Profundere - Memorandum (1999)
QUOTE(Ingvar @ May 6 2022, 16:50:22) *
101 mb/320 kbps


Thank you my friend. You are a Master.
(1) Ingvar,
Apr 24 2022, 07:29:56 Dool - Summerland (2020)
Please, re-upload.
(1) nazgul666,
Apr 22 2022, 22:51:20 Timor Et Tremor - For Cold Shades (2016)
Please, re-upload.
(1) Kwaad,
Oct 28 2021, 17:03:05 Peste Noire - Le Retour Des Pastoureaux (2021)
please, re-upload.
(1) waffenss,
Aug 8 2019, 21:36:37 Deiquisitor - Towards Our Impending Doom (2019)
QUOTE(vosmidesijatye @ Aug 8 2019, 21:57:45) *
@320



Spasiba
(1) vosmidesijatye,
Jan 14 2019, 23:21:33 Moi Dix Mois - Dixanadu (2007)
please, re-upload.
(1) DomAugusto,
Jan 27 2018, 05:47:21 Corpo-Mente - Corpo-Mente (2015) (2) carla667, Vintersorg,
Jan 26 2018, 02:36:40 Corpo-Mente - Corpo-Mente (2015)
yes, please re-upload this masterpiece!
(2) carla667, kimkayoung,
Dec 4 2015, 16:22:46 Amber Asylum - Frozen In Amber (1996)
please, re-upload.
(1) kauyumari,
Apr 14 2015, 22:49:18 Shining - IX – Everyone, Everything, Everywhere, Ends (2015)
does someone already have the bonus tracks?
Jun 15 2014, 22:51:48 Winterblood - Scherbengericht [single] (2014)


*Artist: Winterblood
*Album: Scherbengericht (Ytterligare ett steg närmare total jävla utfrysning - Shining Cover)[single]
*Year: 2014
*Genre: Atmospheric/Post Black Metal
*Country: Germany
*Format: mp3@CBR320kbps
*Size: 14MB

Tracklist:
01. Scherbengericht (Ytterligare ett steg närmare total jävla utfrysning - Shining Cover)

******************************
Total playing time: 6:31





[more=Extended info][youtube]lYk8RkK_7Ro[/youtube]

[/more]

[more=Technical info]
Input File: Winterblood - Scherbengericht (Ytterligare ett steg närmare total jävla utfrysning - Shining Cover).mp3
Channels : 2
Sample Rate : 44100
Precision : 16-bit
Duration : 00:06:31.29 = 17255757 samples = 29346.5 CDDA sectors
File Size : 15.7M
Bit Rate : 320k
Sample Encoding: MPEG audio (layer I, II or III)
Comments :
Title=Scherbengericht (Ytterligare ett steg närmare total jävla utfrysning - Shining Cover)
Artist=Winterblood
Album=Scherbengericht
Tracknumber=1
Year=2014
Genre=Black Metal

[/more]

Register
(11) 1968_janeart, blacky66, Carcharoth, NachtWulf, rom666, savatage13, SIAVASH, spiritualdecay666, tont, vasiljev_sergej, wreak,
Jul 15 2013, 21:54:10 Dām - Purity: The Darwinian Paradox (2005)
please, reupload.
(1) fishish,
May 22 2013, 00:34:09 Various Artists - Pest Records Online Compilation Vol. 14 [best of/compilation] (2013)


*Artist: Various Artists
*Album: Pest Records Online Compilation Vol. 14 [best of/compilation]
*Year: 2013
*Genre: Black/Death Metal
*Country: Many
*Format: mp3@CBR320kbps
*Size: 140MB

Tracklist:
01. Algide - La Marche Funebre
02. Antiquus Infestus - Moorfields
03. Beast - Black Death
04. Conquerror - Snakes of Light
05. Exodia- Fight my Cock and your Palate
06. Frostagrath - Into A Dimensional Timeless Void
07. L'endevi - Red Ivy
08. Markradonn - Internal Hate Unbounded
09. Nostalgia - Estás muerta
10. Plutonium - Zero Swarm
11. Prayer of the Dying with Daniel Bezzina - God's Failed Creation
12. Ravenfrost - To Envy The Nameless Dead
13. Sarkrista - Wrath Incarnation
14. Winterblood - Raserei des Meeres
******************************
Total playing time: 1:20:32

[more=Technical info]
Input File: 14. Winterblood - Raserei des Meeres.mp3
Channels : 2
Sample Rate : 44100
Precision : 16-bit
Duration : 00:10:08.26 = 26824266 samples = 45619.5 CDDA sectors
File Size : 24.3M
Bit Rate : 320k
Sample Encoding: MPEG audio (layer I, II or III)
Comments :
Title=Raserei des Meeres
Artist=Winterblood
Album=Pest Records Online Compilation Vol. 14
Tracknumber=14
Year=2013
Genre=Avant-garde Black Metal with Opera Vocals

[/more]

Register
(9) fekman, garretje, marilin, rom666, SilentNidhogg, spiritualdecay666, vasiljev_sergej, wreak, Герб,
Apr 25 2013, 19:58:08 Various Artists - Priming Metal Vol. I [best of/compilation] (2013)


*Artist: Various Artists
*Album: Priming Metal Vol. I [best of/compilation]
*Year: 2013
*Genre: Various Metal
*Country: Many
*Format: mp3@CBR320kbps
*Size: 134MB

Tracklist:
01. Hitman - Hell Train
02. Incest in Heaven - Misbegotten
03. Dustriders - War Words
04. Compassion Dies - Cybernetic World
05. Abysseral Throne - Abysseral Throne
06. Anthirya - Silver Thread
07. Survival - Speed Metal Freak
08. Offender - Nuclear Winter
09. Winterblood - My Eternal Grave
10. Reveries End - Descent
11. Kröwnn - The Woodwose
******************************
Total playing time: 58:10



[more=Technical info]
Input File: 09 - Winterblood - My Eternal Grave.mp3
Channels : 2
Sample Rate : 44100
Precision : 16-bit
Duration : 00:06:24.64 = 16962448 samples = 28847.7 CDDA sectors
File Size : 15.5M
Bit Rate : 323k
Sample Encoding: MPEG audio (layer I, II or III)
Comments :
Title=My Eternal Grave
Artist=Winterblood
Album=Priming Metal vol. 1
Tracknumber=9
Year=2013

[/more]

Register
(5) garretje, Hell_Is_Here, marilin, wreak, ZA670,
Apr 19 2013, 00:10:47 Winterblood - Herbstsehnsucht (2013)


*Artist: Winterblood
*Album: Herbstsehnsucht
*Year: 2013
*Genre: Avant-garde Black Metal
*Country: Germany
*Format: mp3@CBR320kbps
*Size: 132MB

Tracklist:
1. Nur der Tod hat mir Erlösung gebracht
2. Mit jedem Abschied wird Erinnerung geboren
3. Raserei des Meeres
4. Dernière
5. My Eternal Grave
6. Herbstsehnsucht
7. Saturnnebel
8. Dernière (Instrumental Version)
******************************
Total playing time: 59:03



[more=Technical info]
Input File: 07 - Winterblood - Saturnnebel.mp3
Channels : 2
Sample Rate : 44100
Precision : 16-bit
Duration : 00:07:20.03 = 19405367 samples = 33002.3 CDDA sectors
File Size : 17.6M
Bit Rate : 320k
Sample Encoding: MPEG audio (layer I, II or III)
Comments :
Title=Saturnnebel
Artist=Winterblood
Album=Herbstsehnsucht
Tracknumber=7
Year=2013
Genre=Avant-garde Black Metal with Opera Vocals

[/more]

Register
(28) artscald, AwaitingDawn, bka, Buregon, Carcharoth, Darkthronefoad, Darth Alvasarra, DowntownGsus, Grimmsberg, Hell_Is_Here, kim666, Kwaad, Lcfiend, Lucius Eternal, MMMMM, NachtWulf, princeshr, Pustota, smes, spiritualdecay666, SSBandera, stub888, toly1917, tont, VALERY, vasiljev_sergej, ZloY_GreY, Шанкара,
Apr 1 2013, 01:40:34 Winterblood & Endlos - Gedankebilder [split] (2013)


*Artist: Winterblood & Endlos
*Album: Gedankebilder [split]
*Year: 2013
*Genre: Atmospheric Black Metal | Black/Doom Metal
*Country: Germany | Germany
*Format: mp3@CBR193kbps
*Size: 104MB

Tracklist:
Winterblood:
01. Prolog
02. Des Zornes Glut (Demo)
03. Blutgeifer (Demo)
04. Frostland (Demo)
05. Nur der Tod hat mir Erlцsung gebracht (Demo)
06. S.U.I.Z.I.D.F.E.S.T. (Demo)
07. Herbstsehnsucht (Demo)
08. Lake of Sadness (Demo)
09. Epilog
Endlos:
10. Das Sein
11. Seelenschnitte (Dedicated to Aldo Aldo Melicchio)
12. Tote Welt (Rehearsal)
13. Existenz
******************************
Total playing time: 1:13:41

[more=Extended info][youtube]http://www.youtube.com/user/winterbloodofficial?feature=mhee[/youtube]

[youtube]http://www.youtube.com/channel/UCWvsrgIx35vnAfJVyw7eWzQ?feature=watch[/youtube][/more]
Register
(23) 0x13, Algis, artscald, AwaitingDawn, Blut aus Nord, Carcharoth, Darkthronefoad, Hell_Is_Here, homelike, Ildjarn, Kwaad, Lanceatum, lestllk, NachtWulf, senecazm, spiritualdecay666, SSBandera, Thunderbird, tont, VALERY, varlam4, vasiljev_sergej, Герб,
Feb 23 2013, 04:12:45 Shining - Shining / Alfahanne (Split 2012)
any link now?
(1) Carcharoth,
Jan 27 2013, 00:40:55 Graveyard - One With The Dead (2009)
thank you you are awesome!
(1) varlam4,
Jan 26 2013, 03:37:56 Blitzkrieg - Theatre Of The Damned (2007)
thank you bro.
(1) metalboll,
Jan 24 2013, 21:40:12 Vrolok - Soul Amputation (2005)
please, reupload
Sep 11 2012, 19:54:46 Winterblood - Derniére (Album Version) [single] (2012)


*Artist: Winterblood
*Album: Derniére (Album Version) [single]
*Year: 2012
*Genre: Post Black Metal
*Country: Germany
*Format: mp3@CBR130kbps
*Size: 5MB

Tracklist:
01 - Winterblood - Derniére (Album Version)
******************************
Total playing time: 5:15

Register
(4) Carcharoth, General, tont, vasiljev_sergej,

2 Pages V   1 2 >
- Lo-Fi Version Support form
Copyrights and abuse reports form
Time is now: 27th November 2022 - 02:32:39