Welcome Guest ( Log In | Register )

История благодарностей участнику cesar ::: Спасибо сказали: 10336 раз(а)
Дата поста: В теме: За сообщение: Спасибо сказали:
Sep 16 2021, 18:51:37 Rage - Resurrection Day (2021)
Первая прослушка залетела на отлично! Послезавтра командировка с долгой дорогой - надо обязательно закинуть в плей-лист 20.gif
(1) Samaritianin,
Sep 8 2021, 15:22:38 Пламя В Нас - Жаворонок (2021)
Так это же Рви Меха! С какого они сменили имя и играют старые песни под видом новых? Вот это номер!!
(2) judaz, Phlebotomized,
Sep 6 2021, 08:17:01 Habeas Corpus - Coated With Lies (1995)
mirror

Register
(1) Wail,
Aug 22 2021, 16:58:24 12 Gauge Rampage - Unleash The Rage (2021)
Да не, брутал/грайнд, он и есть.
Просто гитару и вокал задвинули совсем далеко, больше бас ухает. Бывает.
Но значит так слышали создатели, или человек, что им запись сводил.
(1) StabWound,
Jul 28 2021, 19:25:58 Багира - И Грянет Гром (2021)
Ожидаемая ху*та
(1) AHBAnep,
Jul 17 2021, 21:09:32 Amalekim - Hvhi (2021)
Melodic.
Хороший Melodic Black
(2) Andrew, infiltrator,
Jul 15 2021, 09:24:48 Vomit The Soul - Apostles Of Inexpression (2009)
О*уительный альбом! О*уительнейший!!

Register
(1) wreak,
Jun 15 2021, 17:56:26 Astyanax - Extreme Antinatalist Design (2021)


*Artist: Astyanax
*Album: Extreme Antinatalist Design
*Year: 2021
*Genre: Death Metal
*Country: United States
*Format: mp3@CBR320kbps
*Size: 83MB

Tracklist:
01. Extreme Antinatalist Design
02. Crucifysterectomy
03. Pedosadism
04. Stillborn Goddess
05. Auto-Erotic Exsanguination
06. Cyst Licker
07. Ejaculating Feces
08. Gruesome Spontaneous Conflagration
09. Suicide Contagion
10. Sanguine Baptism
******************************
Total playing time: 36:04



[more=Technical info]
Input File: 04. Stillborn Goddess.mp3
Channels : 2
Sample Rate : 44100
Precision : 16-bit
Duration : 00:03:26.09 = 9088393 samples = 15456.5 CDDA sectors
File Size : 8.25M
Bit Rate : 320k
Sample Encoding: MPEG audio (layer I, II or III)
Comments :
Title=Stillborn Goddess
Artist=Astyanax
Album=Extreme Antinatalist Design
Tracknumber=04
Year=2021

[/more]

Register
(28) alikkon, andreikun, bOOLty, BugEyes, caro, chipsgott, DeathDragon, GorAtheist, Hell_Is_Here, infiltrator, judaz, Marek, martintrue, METALHUNTER, Olethros, samokot, smysl, StabWound, supremo, tim47, Tino, troll_swamp, VALERY, varlam4, vyacheslav, Wail, wreak, WX419,
Jun 13 2021, 21:53:50 Abysskvlt - Phur G.Yang (2021)
Отлично! Сейчас один в доме, за окном ночь, нет фонового шума города, людей, дневной жизни. Освещения вокруг тоже нет. Если вслушиваться, то слышно лишь как шелестит листва на ветру, иногда падают капли недавнего прошедшего дождя, да всякие скрипы; то ли деревья, то ли дом (старый он уже) это. Короче - атмосфера для этого релиза оказалась шикарной. Слушаю - местами просто мурашки натурально ползут по коже. Жутковато(( Но сильное впечатление, конечно!
(1) Occultas,
May 26 2021, 18:14:41 Альбом 2007 года в жанре technical / progressive death metal. Итоги.
Да они все трое на втором месте, коллективный подиум))
(1) Foneg,
May 18 2021, 16:56:22 Альбом 2007 года в жанре technical / progressive death. Финал
ЦИТАТА(hammer @ May 18 2021, 08:06:17) *
Я определился, мой фаворит в этой гонке
Cephalic Carnage - Xenosapien

Я вот чуть было не сбился похвалами сплошными Садиста, но прослушав их очень хороший альбом, который не зашёл мне тогда (сейчас я его оценил много выше), я все таки убедился, что в сравнении с их же Сезоном этот не столь шикарен. Потому фаворит остался прежним - Цефалики!
(2) infiltrator, xax,
May 17 2021, 12:03:40 Альбом 2007 года в жанре technical / progressive death. Финал




Всё таки Cephalic Carnage
(2) infiltrator, xax,
May 12 2021, 19:40:34 Альбом 2007 года в жанре technical / progressive death. Финал
Sadist прямо в фаворе, а я вот помню, что альбом мне этот не зашёл в то время hmm.gif
Вот его точно надо внимательно расслушать
(2) Emm Human, infiltrator,
May 4 2021, 14:37:22 Liquid Viscera - Cannibalistic Butchery (2021)
ЦИТАТА(Shadechaser @ Apr 19 2021, 07:26:59) *
ты адекватный вообще?

Уууууу, ты это... Название треков не читай тогда. Да и вообще, брутал, дэтх и грайнд обходи стороной!
(1) Chasm,
Apr 27 2021, 18:42:39 Fleshtorture - Grotesca Doctrina De La Perversidad (2021)
Отличная вещица!
(1) Samaritianin,
Apr 27 2021, 17:47:29 Scaffold - Years Of Decadence (2019)
metaler.gif

Register
(1) wanderer73,
Apr 26 2021, 15:24:25 Frog Mallet - Dissection By Amphibian (2021)
В целом всё типично, есть вязкие места и разрывы темпа, ну и вообще всё не на высоких скоростях, хотя трещотка бочек случается. Можно пройти мимо этих "жаболюбов", потери не будет.
(1) AHBAnep,
Apr 23 2021, 07:48:23 Hideous Divinity - Lv-426 [ep] (2021)


*Artist: Hideous Divinity
*Album: Lv-426 [ep]
*Year: 2021
*Genre: Technical Brutal Death Metal
*Country: Italy
*Format: mp3@CBR320kbps
*Size: 38MB

Tracklist:
1. Acheron, Stream of Woe
2. Chestburst
3. Delirium Trigger (Coheed and Cambria cover)
******************************
Total playing time: 16:14



[more=Technical info]
Input File: 02 - Chestburst.mp3
Channels : 2
Sample Rate : 44100
Precision : 16-bit
Duration : 00:04:01.00 = 10628100 samples = 18075 CDDA sectors
File Size : 9.81M
Bit Rate : 326k
Sample Encoding: MPEG audio (layer I, II or III)
Comments :
Title=Chestburst
Artist=Hideous Divinity
Album=LV-426
Tracknumber=2
Year=2021-23-04

[/more]

Register
(27) ALEXSATHANAS, BERZERK, Chasm, chipsgott, dcatagua, EvilSpirit, garml2, Golfzilla, Hell_Is_Here, infiltrator, kimkayoung, Lux, Marek, martintrue, Metalass, METALHUNTER, Olethros, Razorbladeswaltz, ripper33, Skyggedans, smes, Spork, Swastika, tschunioronbeer, vyacheslav, wreak, yuratroll,
Apr 22 2021, 20:23:24 Hideous Divinity - Lv-426 [ep] (2021)


*Artist: Hideous Divinity
*Album: Lv-426 [ep]
*Year: 2021
*Genre: Technical Brutal Death Metal
*Country: Italy
*Format: mp3@CBR320kbps
*Size: 38MB

Tracklist:
1. Acheron, Stream of Woe
2. Chestburst
3. Delirium Trigger (Coheed and Cambria cover)
******************************
Total playing time: 16:14



[more=Extended info]Release date: 23/04/2021[/more]

[more=Technical info]
Input File: 02 - Chestburst.mp3
Channels : 2
Sample Rate : 44100
Precision : 16-bit
Duration : 00:04:01.00 = 10628100 samples = 18075 CDDA sectors
File Size : 9.81M
Bit Rate : 326k
Sample Encoding: MPEG audio (layer I, II or III)
Comments :
Title=Chestburst
Artist=Hideous Divinity
Album=LV-426
Tracknumber=2
Year=2021-23-04

[/more]

Register
(2) kimkayoung, KJ111,
Apr 22 2021, 19:31:02 Fates Warning - Long Day Good Night (2020)
С каждым разом залипал в альбом всё больше и больше.
А с первой прослушки особенно не впечатлился.
Хороший.
(1) Exorcist,
Apr 20 2021, 16:21:26 Tok Yathraa - Chapter: Toyol (2021)
Перегруз и хаос!
(1) DarkHorde,
Apr 14 2021, 16:53:37 The Offspring - Let The Bad Times Roll (2021)
Пост-ковидные страхи...

[youtube]J6vpedfGPwY[/youtube]
(2) infiltrator, Victim of fate,
Apr 5 2021, 19:01:38 Withering Reign - Under The Bleeding Sun (2021)
ЦИТАТА(Old Vyaine @ Mar 29 2021, 20:56:42) *
Более чем средне. Как там говорится... а! Третьесорт!™

Старик, да он везде! Везде, где ходит DenisKov crazy.gif
(1) Old Vyaine,
Mar 26 2021, 19:02:36 Pissdeads - Весна [single] (2021)
Абстрактный минимализм crazy.gif
И трек и картинка crazy.gif crazy.gif
(2) infiltrator, Vitald,
Mar 1 2021, 10:10:30 Dawn Of Azazel - Sedition (2006)
320

Register
(3) BuckSatanII, Corpuscul, sacramentary,

157 Pages V   1 2 3 > » 
- Lo-Fi Version Support form
Copyrights and abuse reports form
Time is now: 24th September 2021 - 01:18:05