Welcome Guest ( Log In | Register )

История благодарностей участнику Dimhold ::: Спасибо сказали: 583 раз(а)
Дата поста: В теме: За сообщение: Спасибо сказали:
Oct 3 2016, 09:59:59 Лучший альбом в стиле Melodic Death Metal
Gates Of Ishtar - At Dusk & Forever - 4
Amon Amarth - Twilight Of The Thunder God - 3
Dark Tranquillity - Fiction - 2
(1) Thrashman,
Sep 16 2016, 07:21:16 Лучший альбом в стиле Melodic Death Metal
Amon Amarth - Twilight Of The Thunder God
Amon Amarth - Versus The World
Amon Amarth - With Oden On Our Side
Arch Enemy - Black Earth
Dark Tranquillity - Haven
Dark Tranquillity - The Gallery
Dark Tranquillity - Fiction
Dark Tranquillity - We Are the Void
Gates Of Ishtar - A Bloodred Path
Gates Of Ishtar - At Dusk & Forever
Gates Of Ishtar - The Dawn Of Flames
Hypocrisy - The Final Chapter
Hypocrisy - Abducted
In Flames - Clayman
In Flames - Colony
In Flames - The Jester Race
Insomnium - Shadows Of The Dying Sun
Kalmah - The Black Waltz
Kalmah - 12 Gauge
Sentenced - Amok
Wintersun - Wintersun
(1) Thrashman,
Jul 2 2016, 14:25:28 Znich - Slova Ziamli [ep] (2016)


*Artist: Znich
*Album: Slova Ziamli [ep]
*Year: 2016
*Genre: Folk Metal
*Country: Belarus
*Format: mp3@CBR320kbps
*Size: 47MB

Tracklist:
01. Дунаю...
02. Golas
03. Slova Ziamli
04. Zorka
05. Payasy
******************************
Total playing time: 22:47

[more=Extended info]На диске 4 аудиотрека + клип "Дунаю...", из которого и вырезано аудио.[/more]

[more=Technical info]
Input File: 03 - Slova Ziamli.mp3
Channels : 2
Sample Rate : 44100
Precision : 16-bit
Duration : 00:04:30.39 = 11924287 samples = 20279.4 CDDA sectors
File Size : 10.8M
Bit Rate : 320k
Sample Encoding: MPEG audio (layer I, II or III)
Comments :
Title=Slova Ziamli
Artist=Znich
Album=Slova Ziamli
Tracknumber=03/5
Year=2016
Genre=Folk metal
Discnumber=1/1

[/more]

Register
(24) Cartman223, csgmnk, fabriziomagno, gwar, gwynnbleid, Jestem_kotem, kooongg, Moonshtook, morbidangelo, neoatheist, Old Vyaine, oldvarg, Ratibor366, Reverend, Rosen, SAPOGi, sarcophagus, talismanFS, tont, tt2008, uncolored, varg-38ru, varlam4, vasilisk,
Apr 15 2016, 08:05:15 Голосовалка за лучший альбом 2009 года по версии МА
Nokturnal Mortum - Голос Cталі
Candlemass - Death Magic Doom
Riverside - Anno Domini High Definition
Asphyx - Death… The Brutal Way
Serdce - The Alchemy Of Harmony
Alestorm - Black Sails At Midnight
Hypocrisy - A Taste of Extreme Divinity
Slayer - World Painted Blood
Gorod - Process of a New Decline
Obscura - Cosmogenesis
(1) Thrashman,
Apr 12 2016, 19:35:51 Голосовалка за лучший альбом 2009 года по версии МА
NM - Голос Сталi
Tribulation - The Horror
Ensiferum - From Afar
Slayer - World Painted Blood
Kreator - Hordes Of Chaos
Kroda - Funf Jahre Kulturkampf
Hypocrisy - A Taste Of Extreme Divinity
Alestorm - Black Sails At Midnight
Rudra - Brahmavidya - Transcendental I
Dalriada - Arany-album
Candlemass - Death Magic Doom
Serdce - The Alchemy Of Harmony
Asphyx - Death...The Brutal Way
Suidakra - Crogacht
Amorphis - Skyforger
Katatonia - Night is the New Day
Ulcerate - Everything Is Fire
Paradise Lost - Faith Divides Us - Death Unites Us
Fjoergyn - Jahreszeiten
Amogh Symphony - Abolishing The Obsolete System
(4) BleedingSun, Thrashman, Visitor, vosmidesijatye,
Apr 9 2016, 16:10:13 Тандемократия, или Голосовалка за лучший альбом 2008 года
Amon Amarth - Twilight of the Thunder God единственно естественно
(1) Thrashman,
Nov 8 2015, 19:17:15 СатанаКозёл - Север (2015)


*Artist: СатанаКозёл
*Album: Север
*Year: 2015
*Genre: Folk Metal
*Country: Russian Federation
*Format: mp3@CBR320kbps
*Size: 104MB

Tracklist:
1. Чужие
2. Медведь
3. Партизанская
4. Враг
5. Ураган
6. Как поп Сиволдай На Войну Ходил
7. Север
8. Мгла
******************************
Total playing time: 46:01

[more=Technical info]
Input File: 04 - Враг.mp3
Channels : 2
Sample Rate : 44100
Precision : 16-bit
Duration : 00:05:36.46 = 14837974 samples = 25234.6 CDDA sectors
File Size : 13.5M
Bit Rate : 320k
Sample Encoding: MPEG audio (layer I, II or III)
Comments :
Title=Враг
Artist=СатанаКозёл
Album=Север
Tracknumber=04/8
Year=2015
Genre=Folk metal
Discnumber=1/1

[/more]

Register
(115) 0x13, 1984WASP, abob, aesteticvice, agony2007, AHBAnep, andeimon, Andr3y, AndreFrancis, Aresson, Ballisargon, BeerBear, blacky66, BoomBox, Boozer, Branis, Bugtsa, BUTCHER.79, Cartman223, CelticSPB, csgmnk, D.D.A.M.M., dark2805, Deathtractor, dimitriusk, DMIYUR, fabeldyr, fabriziomagno, Fatalv, Fess, finntroll3, Forest, gnolin, godkiller88, GrBrZz, gwynnbleid, hammer, Infidel, infiltrator, ironyserg, judaz, Kasper969, kostja, Kwaad, lafuma, Leiche, LightWizard, lucifix, MeatWolf, metadeat, metalboll, metaljan, Mihalik, Mogozoz, Molotov, morbidangelo, Nattfodd, NecroEngineer, nekrokilldozer, neoatheist, nirth, Old Vyaine, oldvarg, Paradayz, Paul Zver, Persy, psyxxx, rabindranad, Radogast, Ramires, rammstein888, randyhermit, Raziel, realnspace, RENыч, Reverend, Rosen, RUSP73, Saalingurth, Samaritianin, samokot, SAPOGi, Sethan, Spunkynut, SS2998, St6por, StabWound, Sterh, StoneTemple, Strid, Strygaldwir, Surt, suseka, talismanFS, Thrasher, Thunderbird, tont, Ulaf, Un4given, v.v.m, Vakhanal, VALERY, varlam4, vasilisk, WND, Wolfera, wreak, xska, ZambuL, zerger, Абигор, Келебрин, Луч, Смусмумбрик, Язва,
Jun 24 2015, 13:48:35 Entrails - Obliteration (2015)
ЦИТАТА
Чумовой альбом, расплющивающий с первых нот!
ЦИТАТА
жирный, сочный кусок мяса

ЦИТАТА
Мощь и смерть в каждой песни

Я читаю и чувствую, что становлюсь ретроградом. Ну ведь нет здесь во всем альбоме ни одного цепляющего, пронизывающего соляка! entrails и voices c дебюта, undead со второго пробирали до костей как хладное дыхание смерти после агонии, а тут ни эмоций ничего другого - механическая шведятина по заветам начала 90-х.
ИМХО не могут взрослые мужики писать такую же музыку как когда они были подростками. Перезаписать придуманное ранее - не более. Такое творчество это как производство музыкального продукта (раз в 1-2 года), удовлетворяющего спрос на олд скул, не имеющее отношения к музыке.
(1) Deze,
Jun 21 2015, 10:12:56 Finsterforst - Mach Dich Frei (2015)
Нет слов, одни эмоции.
Это величественное, прекрасное произведение. Из разряда как услышал, так и встал.
(1) MeatWolf,
May 19 2015, 08:23:48 Tribulation - The Children Of The Night (2015)
Какие необычные шведы, осознавшие, что вновь и вновь перемалывать бензопильные рифы а-ля Санлайт в 21 веке это путь музыкального вырождения и после забойного дебюта вставшие на путь экспериментаторов. Альбом очень порадовал, ребята продолжают эволюционировать, и хоть и не осталось дэта, музыкально это великолепно.
(1) vosmidesijatye,
Aug 20 2014, 07:14:40 Ending Quest - The Summoning (2014)
Чувствовал ведь, что группа, называемая так же как и единственный/неповторимы альбом Горемента, не должна подвести и не ошибся. Машина времени, однако, а не альбом. Типичный шведский звук и соляки разрезающие скрежет. Канонично.
P.S. Последний раз меня шведы так радовали в 2010 году - Entrails альбомом Tales From The Morgue.
(1) vosmidesijatye,
May 24 2014, 11:09:23 Insomnium - Shadows Of The Dying Sun (2014)
Альбом определенно понравился, а почему непонятно. Да красиво, да мелодично, впрочем как и многие другие, но в отличии от других цепляет.
Чувствуется, что композиционно очень грамотно построен: ярко выраженное начало и такое же яркое окончание, а не обрыв в никуда до ожидания следующего релиза.
(1) Old Vyaine,
Feb 21 2014, 14:21:36 Children Of Bodom За и против
ЦИТАТА
Суженный подходец.

Неа, Something Wild этот альбом с которого каждая мелодия врезается в мозг с первого раза и навсегда.
(1) Old Vyaine,
Dec 26 2013, 20:52:27 Blut Aus Nord - 777 - Cosmosophy (2012)
Сейчас под это произведение ехал с корпоратива, накрыло по самые гланды. Атмосферно до мурашек.
(1) Daecadance,
Dec 3 2013, 16:19:10 Sorcery - Unholy Creations [best of/compilation] (2011)
mp3CBR320, 310 MB
Register
(1) liiva,
Dec 1 2013, 15:32:21 Thrudvangar
надо бы 13 год альбом добавить
(2) mardak666, nofate,
Nov 20 2013, 13:17:03 Sorcery - Unholy Creations [best of/compilation] (2011)


*Artist: Sorcery
*Album: Unholy Creations [best of/compilation]
*Year: 2011
*Genre: Death Metal
*Country: Sweden
*Format: mp3@CBR320kbps
*Size: 310MB

Tracklist:
"THE ARRIVAL" Demo 1987:
1. Halloween
2. Witches Dance / Infernal Return
3. Satan's Return
4. Narration...
5. Master of Evil
6. Total Silence (Part I)
7. March of the Mountain KIng
8. Satanic Birth
9. The Light of the Midnight Sun
10. Flight of the Sorceress
11. Epilogue (Midnight Sundown)
12. Total Silence (Part II)

"ANCIENT CREATION" Demo 1988:
13. Ancient Creation
14. In the Sign of Evil
15. Black Wizard
16. Lucifers Legions
17. Holocaust
18. Mausoleum
19. Aggression

"UNHOLY CRUSADE" Demo 1989:
20. Unholy Crusade
21. Death
22. Dragons of the Burning Twilight
23. Descends to the Ashes
24. Count of Hades

"MACULATED LIFE" Demo 1992:
25. Maculated Life
26. Mass Murder
27. Insanity Arise

"ANCIENT CREATION" (bonus track from 1st pressing):
28. Pandemonium

REHEARSAL 1989:
29. At the Rainbow's End
30. Kill, Kill, Kill and Kill again
31. Obscure Beauty

"VOICES OF DEATH" comp 1997:
31. Inhabitants
******************************
Total playing time: 2:07:18

[more=Technical info]
Input File: 2-06 Maculated Life.mp3
Channels : 2
Sample Rate : 44100
Precision : 16-bit
Duration : 00:03:43.92 = 9875048 samples = 16794.3 CDDA sectors
File Size : 10.2M
Bit Rate : 366k
Sample Encoding: MPEG audio (layer I, II or III)
Comments :
Title=Maculated Life
Artist=Sorcery
Album=Unholy Creations
Tracknumber=6
Year=2013
Genre=22
Discnumber=2

[/more]

 ! 

read rules / мега запрещена
 

Register
(1) souldeathtoxic,
Nov 20 2013, 12:54:57 Sorcery - Unholy Creations [best of/compilation] (2011)
и ранее добавленный mp3vbr - V 0 на 171 MB
Register
(1) Spunkynut,
Sep 30 2013, 18:07:45 Inquisition - Obscure Verses For The Multiverse (2013)
Как нелюбитель блэка в целом, но человек, которому дико понравился и прошлый и данный альбом (особенно предыдущий), пребываю в недоумении почему тут пытаются найти нечто кроме музыки.
Влияние Иммортала очевидно, любой человек слышавший Аббата, и не знающий об Инквизиции наверняка поинтересуется не выпустили ли Бессмертные новый альбом или Аббат где-то еще решил поучаствовать, в то же время откровенной калькой с норвегов это не назову.
Есть тут свой изюм, музыка есть, настроение и эмоции, а лично мне ничего больше и не надо.
(2) troll_swamp, vosmidesijatye,
Sep 28 2013, 10:39:16 Inquisition - Obscure Verses For The Multiverse (2013)
во народ пошел, в инквизиции сомневаются. nono.gif Куда катится этот мир?
(1) infiltrator,
Sep 28 2013, 07:56:27 Inquisition - Obscure Verses For The Multiverse (2013)
[more=Буду краток] АААААААААААААААААААААААААААААААААААААААААААААААААААААААААААААААААААААААААААААААААААААААААА
АААААААААААААААААААААААААААААААААААААААААААААААААААААААААААААААААААААААААААААААААААААААААА
АААААААААААААААААААААААААААААААААААААААААААААААААААААААААААААААААААААААААААААААААААААААААА
АААААААААААААААААААААААААААААААААААААААААААААААААААААААААААААААААААААААААААААААААААААААААА
АААААААААААААААААААААААААААААААААААААААААААААААААААААААААААААААААААААААААААААААААААААААААА
АААААААААААААААААААААААААААААААААААААААААААААААААААААААААААААААААААААААААААААААААААААААААА
АААААААААААААААААААААААААААААААААААААААААААААААААААААААААААААААААААААААААААААААААААААААААА
ААААААААААААААААААААААААААААААааа
[/more]
Дождались
(2) infiltrator, Premature_Devotion,
Sep 23 2013, 19:06:36 Anathema - Universal [live] (2013)
[more=FLACK (tracks+cue)]
Register
[/more]
UPD Обновил шапку на cbr 320 с этого ватного лося
(1) cancer1974,
Sep 22 2013, 19:34:42 Anathema - Universal [live] (2013)


*Artist: Anathema
*Album: Universal [live]
*Year: 2013
*Genre: Atmospheric Rock
*Country: United Kingdom
*Format: mp3@cBR320kbps
*Size: 312MB

Tracklist:
01. Untouchable, Part 1
02. Untouchable, Part 2
03. Thin Air
04. Dreaming Light
05. Lightning Song
06. The Storm Before the Calm
07. Everything
08. A Simple Mistake
09. The Beginning and the End
10. Universal
11. Closer
12. A Natural Disaster
13. Deep
14. One Last Goodbye
15. Flying
16. Fragile Dreams
17. Panic
18. Emotional Winter / Wings of God
19. Internal Landscapes
20. Fragile Dreams
******************************
Total playing time: 2:20:23

[more=Extended info]FlacRip.
[youtube]YRt0Ug5WweE[/youtube][/more]

Register
(24) AndreFrancis, as71, Blackner, BoomBox, Caecus, cancer1974, Emhyr var Emreis, garml2, garretje, Hell_Is_Here, Jurmagund, kakha_k, Mehran, Necrokilldozer, Old Vyaine, popen13, princeshr, recber, Saalingurth, satanath, SatanicPanzer, Stutthof, sweetredka, Synthaeon,
Sep 22 2013, 19:03:40 Anathema - Untouchable [live] (2013)
если верить информации архивов, то этот релиз действительно не Unversal, а Untouchable.
(1) satanath,
Aug 15 2013, 18:23:54 Sepultura - Chaos A.D. (1993)
ЦИТАТА
Я вообще не пойму, как можно быть приверженцем прото метала, да вообще любой метал музыки, и не любить Сепультуру.

запросто, если не услышать ее на заре металослушательного пути
(1) Genuine Thrashiac,

5 Pages V   1 2 3 > » 
- Lo-Fi Version Support form
Copyrights and abuse reports form
Time is now: 16th September 2019 - 07:08:24