Welcome Guest ( Log In | Register )

История благодарностей участнику Proteus_666 ::: Спасибо сказали: 74153 раз(а)
Дата поста: В теме: За сообщение: Спасибо сказали:
Aug 20 2019, 14:08:40 Witches - Mort Ne [demo] (1997)
new link:
Register
(3) jorgeguldur, Wail, Z28517,
Aug 20 2019, 14:05:49 Witches - Wind Of Time [demo] (1993)
new link:
Register
(4) FUDEDOR, jorgeguldur, Wail, Z28517,
Aug 20 2019, 14:02:44 Witches - Lost Of Precious [demo] (1991)
new link:
Register
(4) FUDEDOR, jorgeguldur, Wail, Z28517,
Aug 20 2019, 13:59:31 Witches - Agressive Soap [demo] (1989)
new link:
Register
(3) FUDEDOR, Wail, Z28517,
Aug 20 2019, 13:55:08 Witches - Silly Symphony [demo] (1988)
new link:
Register
(3) FUDEDOR, Wail, Z28517,
Aug 20 2019, 13:50:58 Morbid Darkness - Mistress Of Curse [ep] (2011)
new link:
Register
(2) Wail, wendigo,
Aug 20 2019, 13:48:01 Morbid Darkness - Seraphim (2011)
new link:
Register
(2) Wail, wendigo,
Aug 20 2019, 13:39:58 Morbid Darkness - Walpurgis Rites [demo] (2009)
new link:
Register
(4) MortSathynr, stumpheavyrock, Wail, wendigo,
Aug 20 2019, 13:37:05 Morbid Darkness - Warfare At Winter's Solstice [ep] (2004)
new link:
Register
(3) MortSathynr, Wail, wendigo,
Aug 20 2019, 13:34:09 Morbid Darkness - Rehearsal 12/93 [demo] (1993)
new link:
Register
(4) dermarsoran, thenecromancer, Wail, wendigo,
Aug 20 2019, 13:29:43 Human Evil - Rehearsal [demo] (1988)
new link:
Register
(1) Wail,
Aug 5 2019, 09:55:13 Septicemia - Revenge On Mankind [demo] (1998)


*Artist: Septicemia
*Album: Revenge On Mankind [demo]
*Year: 1998
*Genre: Death Metal
*Country: Austria
*Format: mp3@CBR192kbps
*Size: 54MB

Tracklist:
1. Seine Göttliche Gnade 02:41
2. Morbid Cry 03:34
3. Eternal Knabverkakh 04:03
4. Beast 03:53
5. Step Before Death 05:33
6. Helpless Manifest 03:31
7. The End 04:14
8. Misery 04:30
9. Epitaph On Earth 07:52
******************************
Total playing time: 39:51

[more=Extended info]Recorded in November 1998 in a Studio.[/more]

[more=Technical info]
Input File: 02-Morbid Cry.mp3
Channels : 2
Sample Rate : 44100
Precision : 16-bit
Duration : 00:03:32.57 = 9374337 samples = 15942.8 CDDA sectors
File Size : 5.10M
Bit Rate : 192k
Sample Encoding: MPEG audio (layer I, II or III)
Comments :
Title=Morbid Cry
Artist=Septicemia (Austria)
Album=Revenge On Mankind (Demo)
Tracknumber=02
Year=1998
Genre=Death Metal

[/more]

Register
(15) boba, DiegoMassakre, Evilded, kolovratov, Olethros, Rosen, RunningWild_AT, scorpionmk, spazm, stumpheavyrock, Svafrlami, thenecromancer, Wail, wgs73, Герб,
Aug 5 2019, 09:43:25 Dawn - Dawn [demo] (2001)


*Artist: Dawn
*Album: Dawn [demo]
*Year: 2001
*Genre: Death Metal
*Country: Germany
*Format: mp3@CBR192kbps
*Size: 21MB

Tracklist:
1. Maltreat Me 02:57
2. A Dream Of Justice 04:20
3. Resignation 03:43
4. Masses Of Murderers 04:20
******************************
Total playing time: 15:20

[more=Extended info]Band from Berlin.[/more]

[more=Technical info]
Input File: 01-Maltreat Me.mp3
Channels : 2
Sample Rate : 44100
Precision : 16-bit
Duration : 00:02:59.16 = 7900868 samples = 13436.9 CDDA sectors
File Size : 4.30M
Bit Rate : 192k
Sample Encoding: MPEG audio (layer I, II or III)
Comments :
Title=Maltreat Me
Artist=Dawn (Ger, Berlin)
Album=Dawn (Demo)
Tracknumber=01
Year=2001
Genre=Death Metal

[/more]

Register
(8) Evilded, Olethros, Rosen, RunningWild_AT, scorpionmk, Svafrlami, thenecromancer, Герб,
Aug 2 2019, 11:38:19 Azathoth - Studio Rehearsal [demo] (1992)
new link:
Register
(3) scorpionmk, thenecromancer, tristan1331,
Aug 2 2019, 10:47:06 Dead Conspiracy - Demo #1 [demo] (1987)
320 kbps, 26MB (instrumental rough mix of the demo):
Register
(3) scorpionmk, traitor666, Z28517,
Aug 2 2019, 10:38:57 Necrophacus - Infected With Darkness (2003)


*Artist: Necrophacus
*Album: Infected With Darkness
*Year: 2003
*Genre: Death/Black Metal
*Country: United States
*Format: mp3@CBR192kbps
*Size: 43MB

Tracklist:
1. Necrophacus 05:09
2. No Life For Him (Jesus) 03:16
3. The Sleeper Awakens 03:38
4. Christian Hunters 03:13
5. Crimson Lust 04:23
6. Torture Of Christ 04:22
7. Infected With Darkness 04:43
8. The Reaper 03:11
******************************
Total playing time: 31:55



[more=Extended info]Band from Salt Lake City, Utah.[/more]

[more=Technical info]
Input File: 01-Necrophacus.mp3
Channels : 2
Sample Rate : 44100
Precision : 16-bit
Duration : 00:05:05.86 = 13488250 samples = 22939.2 CDDA sectors
File Size : 7.34M
Bit Rate : 192k
Sample Encoding: MPEG audio (layer I, II or III)
Comments :
Title=Necrophacus
Artist=Necrophacus
Album=Infected With Darkness
Tracknumber=01
Year=2003
Genre=Death Metal

[/more]

Register
(7) cist, Evilded, Olethros, Rosen, scorpionmk, Svafrlami, Tino,
Aug 2 2019, 10:27:35 Lord Of Darkness - Seventh Sabbat [demo] (1991)


*Artist: Lord Of Darkness
*Album: Seventh Sabbat [demo]
*Year: 1991
*Genre: Heavy/Speed Metal
*Country: United Kingdom
*Format: mp3@CBR256kbps
*Size: 106MB

Tracklist:
1. We Are The Satan / Seventh Sabbat 04:05
2. Countess Laura Whore 04:15
3. Carrie White Burn In Hell 03:31
4. Midnight In Sodom 03:13
5. To Hell And Back One Day 06:30
6. Evil Blood 05:23
7. Sinful Nun 03:34
8. S.A.D.O. Violence 03:26
9. Kill With Napalm 04:40
10. Ave Satanas 03:17
11. Vietnam Combat Fever 04:48
12. Den Of Vice 04:51
13. Bat Conan 05:38
14. S.B.M.B.N.M. 03:06
15. Ballad Of Lucrecia Borgia 01:04
******************************
Total playing time: 1:01:21

[more=Extended info]ex-Evil Blood.
Originally uploaded on T-Mag. Thanks them.
[/more]

[more=Technical info]
Input File: 02-Countess Laura Whore.mp3
Channels : 2
Sample Rate : 44100
Precision : 16-bit
Duration : 00:04:15.27 = 11257495 samples = 19145.4 CDDA sectors
File Size : 8.17M
Bit Rate : 256k
Sample Encoding: MPEG audio (layer I, II or III)
Comments :
Title=Countess Laura Whore
Artist=Lord of Darkness
Album=Seventh Sabbath (Demo)
Tracknumber=02
Year=1990
Genre=Heavy Metal

[/more]

Register
(8) Evilded, Olethros, Rosen, Svafrlami, thenecromancer, Wail, wgs73, Z28517,
Aug 2 2019, 09:58:37 Necronomical Crucifixion - You Are What You Eat [demo] (2001)


*Artist: Necronomical Crucifixion
*Album: You Are What You Eat [demo]
*Year: 2001
*Genre: Death Metal
*Country: Netherlands
*Format: mp3@CBR192kbps
*Size: 16MB

Tracklist:
1. Demon Lovers 02:47
2. Uncontrollable Feelings 03:36
3. Cease To Exist 01:15
4. You Are What You Eat 02:23
******************************
Total playing time: 10:01




[more=Extended info]2nd demo.[/more]

[more=Technical info]
Input File: 01-Demon Lovers.mp3
Channels : 2
Sample Rate : 44100
Precision : 16-bit
Duration : 00:02:47.22 = 7374402 samples = 12541.5 CDDA sectors
File Size : 4.01M
Bit Rate : 192k
Sample Encoding: MPEG audio (layer I, II or III)
Comments :
Title=Demon Lovers
Artist=Necronomical Crucifixion (Hol)
Album=You Are What You Eat (Demo)
Tracknumber=01
Year=2001
Genre=Death Metal

[/more]

Register
(9) Borderline1991, Evilded, Olethros, Rosen, scorpionmk, stumpheavyrock, Svafrlami, thenecromancer, wgs73,
Aug 2 2019, 09:45:56 Unconcern - Natural Concern [demo] (1998)


*Artist: Unconcern
*Album: Natural Concern [demo]
*Year: 1998
*Genre: Death Metal
*Country: Slovakia
*Format: mp3@CBR192kbps
*Size: 15MB

Tracklist:
1. Irrigation Of Stomatch 03:37
2. Insufferable Dislike 02:30
3. Problem 02:16
4. Unconcern 02:10
******************************
Total playing time: 10:33

[more=Extended info]Recorded and mixed az studio REDGREEN Brusno 12 and 16.3.1998.[/more]

[more=Technical info]
Input File: 01-Irrigation of Stomatch.mp3
Channels : 2
Sample Rate : 44100
Precision : 16-bit
Duration : 00:03:45.61 = 9949181 samples = 16920.4 CDDA sectors
File Size : 5.42M
Bit Rate : 192k
Sample Encoding: MPEG audio (layer I, II or III)
Comments :
Title=Irrigation of Stomatch
Artist=Unconcern (Slo)
Album=Natural Concern Promo
Tracknumber=01
Year=1998
Genre=Death Metal

[/more]

Register
(8) Borderline1991, Evilded, Olethros, Rosen, RunningWild_AT, scorpionmk, stumpheavyrock, thenecromancer,
Aug 2 2019, 09:37:51 Mortal Remains - Demo [demo] (1992)


*Artist: Mortal Remains
*Album: Demo [demo]
*Year: 1992
*Genre: Death/Doom Metal
*Country: Bulgaria
*Format: mp3@CBR128kbps
*Size: 33MB

Tracklist:
1. Across The Life 04:17
2. Ashes 03:10
3. Outer Influence 02:51
4. Apocalyptic Dream 03:59
5. Instrumental 06:40
6. Wounds Of Time 05:04
7. Faith 05:12
8. Lost 05:07
******************************
Total playing time: 36:20

[more=Extended info]Good stuff, thanks T-Mag crew for uploading.[/more]

[more=Technical info]
Input File: 01-Across The Life.mp3
Channels : 2
Sample Rate : 44100
Precision : 16-bit
Duration : 00:04:17.10 = 11338242 samples = 19282.7 CDDA sectors
File Size : 4.12M
Bit Rate : 128k
Sample Encoding: MPEG audio (layer I, II or III)
Comments :
Title=Across The Life
Artist=Mortal Remains (Bul)
Album=Apocalyptic Dreams (Demo)
Tracknumber=01
Year=1992
Genre=Metal

[/more]

Register
(10) AndreFrancis, Evilded, gardenofdemise, nord6666, Olethros, Rosen, scorpionmk, sergsazan, Sphinx7, thenecromancer,
Aug 1 2019, 13:29:49 Goldprick & Brute Chant - IQ 0,666/Defect God [split] (1999)
new link (320 kbps):
Register
(3) scorpionmk, spazm, wendigo,
Jul 22 2019, 11:19:45 Devilium - The Steel Mountain Soars [demo] (1998)


*Artist: Devilium
*Album: The Steel Mountain Soars [demo]
*Year: 1998
*Genre: Death Metal
*Country: France
*Format: mp3@CBR192kbps
*Size: 25MB

Tracklist:
1. A Witch Burned Down To Hell 05:12
2. The Scroel 03:42
3. Mental Defecation 03:56
4. The Steel Mountain Soars 05:44
******************************
Total playing time: 18:34

[more=Technical info]
Input File: 01-A Witch Burned Down To Hell.mp3
Channels : 2
Sample Rate : 44100
Precision : 16-bit
Duration : 00:05:12.44 = 13778560 samples = 23432.9 CDDA sectors
File Size : 7.50M
Bit Rate : 192k
Sample Encoding: MPEG audio (layer I, II or III)
Comments :
Title=A Witch Burned Down To Hell
Artist=Devilium (Fra)
Album=The Steel Mountain Soars (Demo)
Tracknumber=01
Year=1998
Genre=Death Metal

[/more]

Register
(9) Evilded, Olethros, Rosen, RunningWild_AT, scorpionmk, stumpheavyrock, Svafrlami, Wail, Герб,
Jul 22 2019, 11:05:59 Blowdead - Blowdead [ep] (2002)


*Artist: Blowdead
*Album: Blowdead [ep]
*Year: 2002
*Genre: Progressive/Thrash Metal
*Country: France
*Format: mp3@CBR192kbps
*Size: 22MB

Tracklist:
1. Nihilistic 02:48
2. Time For New Aims 04:51
3. The Stains Remain 02:58
4. El Tablaso 06:16
******************************
Total playing time: 16:53



[more=Technical info]
Input File: 01-Nihilistic.mp3
Channels : 2
Sample Rate : 44100
Precision : 16-bit
Duration : 00:02:48.08 = 7412416 samples = 12606.1 CDDA sectors
File Size : 4.03M
Bit Rate : 192k
Sample Encoding: MPEG audio (layer I, II or III)
Comments :
Title=Nihilistic
Artist=Blowdead (Fra)
Album=Blowdead (EP)
Tracknumber=01
Year=2002
Genre=Metal

[/more]

Register
(10) boby9052, Evilded, metala, Olethros, Rosen, scorpionmk, stumpheavyrock, Svafrlami, thenecromancer, traitor666,
Jul 20 2019, 14:19:34 Drinking Skull - Promo Cassette [demo] (1992)


*Artist: Drinking Skull
*Album: Promo Cassette [demo]
*Year: 1992
*Genre: Thrash Metal
*Country: Croatia
*Format: mp3@CBR128kbps
*Size: 49MB

Tracklist:
1. He Is Here (Intro) / Suicide Society 04:48
2. Enliven The World 04:04
3. People That Make You Feel Small 06:13
4. My Evil 04:35
5. I'm Goin' Away 06:48
6. Enliven The World (live) 03:52
7. Church Of Hate (live) 03:14
8. Create To Destroy (live) 05:39
9. People That Make You Feel Small (live) 05:21
10. End Of Life (Suicide) (live) 04:24
11. Breaking The Law (live) 02:24
12. Milk (live) 02:54
******************************
Total playing time: 54:16




[more=Technical info]
Input File: 02-Enliven the World.mp3
Channels : 2
Sample Rate : 44100
Precision : 16-bit
Duration : 00:04:04.54 = 10784170 samples = 18340.4 CDDA sectors
File Size : 3.92M
Bit Rate : 128k
Sample Encoding: MPEG audio (layer I, II or III)
Comments :
Title=Enliven the World
Artist=Drinking Skull
Album=Promo Cassette
Tracknumber=02
Year=1992
Genre=Thrash Metal

[/more]

Register
(8) Diflock, Evilded, Olethros, Rosen, scorpionmk, Svafrlami, thenecromancer, wgs73,
Jul 20 2019, 13:56:55 Leviaethan - Promotape [demo] (1989)


*Artist: Leviaethan
*Album: Promotape [demo]
*Year: 1989
*Genre: Thrash Metal
*Country: Brazil
*Format: mp3@CBR320kbps
*Size: 24MB

Tracklist:
1. The Last Supper 05:19
2. Pimponetta 00:56
3. Bred To Die 05:22
******************************
Total playing time: 11:37



[more=Extended info]Songs off the "Smile!"-recording sessions in a different, earlier mix.
Thanks T-Mag Crew for uploading this.
[/more]

[more=Technical info]
Input File: 01-The Last Supper.mp3
Channels : 2
Sample Rate : 44100
Precision : 16-bit
Duration : 00:05:19.17 = 14075485 samples = 23937.9 CDDA sectors
File Size : 12.8M
Bit Rate : 320k
Sample Encoding: MPEG audio (layer I, II or III)
Comments :
Title=The Last Supper
Artist=Leviaethan
Album=Promo Tape
Tracknumber=1
Year=1989
Genre=Thrash Metal

[/more]

Register
(8) Evilded, NecroButcher, Olethros, Rosen, scorpionmk, Svafrlami, thenecromancer, wgs73,

449 Pages V   1 2 3 > » 
- Lo-Fi Version Support form
Copyrights and abuse reports form
Time is now: 23rd August 2019 - 03:34:46

Состав ювентус 2014 незаменимый игрок в составе ювентуса.