Welcome Guest ( Log In | Register )

История благодарностей участнику Proteus_666 ::: Спасибо сказали: 107754 раз(а)
Дата поста: В теме: За сообщение: Спасибо сказали:
Nov 29 2021, 14:21:01 Revenant - Distant Eyes [ep] (1989)
new link (128 kbps):
Register
(2) Carcharoth, hell_armageddon,
Nov 27 2021, 12:52:14 Sniffer Dog - Demo [demo] (1996)


*Artist: Sniffer Dog
*Album: Demo [demo]
*Year: 1996
*Genre: Thrash/Groove Metal/Alternative Rock
*Country: Italy
*Format: mp3@CBR320kbps
*Size: 13MB

Tracklist:
1. In Colpa 03:18
2. Vai Avanti 02:58
******************************
Total playing time: 6:16

[more=Extended info]Bulldozer(Ita) disbanded in 1990 and the drummer Rob "Klister" Cabrini relocated in the U.S.A. until 1992 when he returned to Italy; here later he formed Sniffer Dog (a band in the vein of Korn, Soulfly etc.) releasing only this demo tape before quitting.[/more]

[more=Technical info]
Input File: 01-In Colpa.mp3
Channels : 2
Sample Rate : 44100
Precision : 16-bit
Duration : 00:03:18.24 = 8742516 samples = 14868.2 CDDA sectors
File Size : 7.92M
Bit Rate : 320k
Sample Encoding: MPEG audio (layer I, II or III)

[/more]

Register
(8) artscald, Carcharoth, caro, HMHamster, METALHUNTER, varlam4, Wail, wreak,
Nov 27 2021, 12:32:09 I.N.R.I. - All That Bleeds [demo] (1994)
alternative rip from Musto (192 kbps) + 3 bonus trax recorded in 1993 (60 mb):
Register
(2) Carcharoth, dimcho0,
Nov 27 2021, 12:10:53 Stagediver - Demo 1987 [demo] (1987)


*Artist: Stagediver
*Album: Demo 1987 [demo]
*Year: 1987
*Genre: Speed/Thrash Metal
*Country: Italy
*Format: mp3@CBR320kbps
*Size: 12MB

Tracklist:
1. Locust Of Steel 02:33
2. Death 00:35
3. The Mosher 01:59
******************************
Total playing time: 5:07

[more=Technical info]
Input File: 01-Locust Of Steel.mp3
Channels : 2
Sample Rate : 44100
Precision : 16-bit
Duration : 00:02:33.69 = 6777729 samples = 11526.8 CDDA sectors
File Size : 6.21M
Bit Rate : 323k
Sample Encoding: MPEG audio (layer I, II or III)
Comments :
Title=Locust Of Steel
Artist=Stagediver
Album=Demo 1987
Tracknumber=01
Year=1987
Genre=Metal

[/more]

Register
(12) after21allD, artscald, Carcharoth, dimcho0, hell_armageddon, Marek, metala, Reverend, stumpheavyrock, thenecromancer, Wail, wgs73,
Nov 27 2021, 12:03:05 The Black House - The Black House (1994)


*Artist: The Black House
*Album: The Black House
*Year: 1994
*Genre: Thrash Metal/Crossover
*Country: Greece
*Format: mp3@CBR320kbps
*Size: 98MB

Tracklist:
1. Stop - Rain (Who Is Gonna Stop...) 04:11
2. Flower And The Power 02:42
3. New Day's Affair 02:45
4. Irish War 02:17
5. Psycho War 02:54
6. You Are Human 03:41
7. Friendly Relationship 02:07
8. The Hunting Of Fur 03:56
9. Let's Burn The Earth 04:35
******************************
Total playing time: 29:08

[more=Extended info]Recorded at Praxis Studio in Athens, during autumn 1992.[/more]

[more=Technical info]
Input File: 01-Stop - Rain (Who Is Gonna Stop.).mp3
Channels : 2
Sample Rate : 48000
Precision : 16-bit
Duration : 00:04:10.63 = 12030480 samples ~ 18797.6 CDDA sectors
File Size : 10.0M
Bit Rate : 320k
Sample Encoding: MPEG audio (layer I, II or III)
Comments :
Title=Stop - Rain (Who Is Gonna Stop...)
Artist=The Black House
Album=The Black House
Tracknumber=01
Year=1994
Genre=Hardcore

[/more]

Register
(17) artscald, boby9052, Carcharoth, caro, gwar, HMHamster, julianotidre, lordsloth, Marek, metala, METALHUNTER, stumpheavyrock, varlam4, Wail, wgs73, wreak, Z28517,
Nov 27 2021, 11:49:30 Mystical Nightcharm - Spread Of Darkness [demo] (2003)


*Artist: Mystical Nightcharm
*Album: Spread Of Darkness [demo]
*Year: 2003
*Genre: Atmospheric Death/Black/Doom Metal
*Country: Slovakia
*Format: mp3@CBR192kbps
*Size: 40MB

Tracklist:
1. 9th Omen 06:26
2. In The Mechanism 04:45
3. The Fear Without Wings 05:07
4. Eternal Curse 13:52
******************************
Total playing time: 30:10

[more=Extended info]Recorded at Perina Recording Studio 15-17.03.03.[/more]

[more=Technical info]
Input File: 01-9th Omen.mp3
Channels : 2
Sample Rate : 44100
Precision : 16-bit
Duration : 00:06:32.92 = 17327948 samples = 29469.3 CDDA sectors
File Size : 9.43M
Bit Rate : 192k
Sample Encoding: MPEG audio (layer I, II or III)
Comments :
Title=9th Omen
Artist=Mystical Nightcharm (Slo)
Album=Spread of Darkness (Demo)
Tracknumber=01
Year=2003
Genre=Metal

[/more]

Register
(6) artscald, Reverend, thenecromancer, VALERY, vyacheslav, Wail,
Nov 27 2021, 11:36:29 Brainstorm - Only The Dead See The End Of War [demo] (2015)


*Artist: Brainstorm
*Album: Only The Dead See The End Of War [demo]
*Year: 2015
*Genre: Thrash Metal/Hardcore
*Country: Serbia
*Format: mp3@CBR192kbps
*Size: 20MB

Tracklist:
1. Independence Killed By Dependendence 01:41
2. Life In General 02:06
3. Checking Points 01:26
4. Vote No Number 02:37
5. Doom 02:43
6. Help Them Out? 01:21
7. Fucked National Conflict 02:32
******************************
Total playing time: 14:26

[more=Extended info]Originally recorded & self-released in 1989.
Re-released in 2015 by F.O.A.D. Records.
[/more]

[more=Technical info]
Input File: 01-Independence Killed By Dependendence.mp3
Channels : 2
Sample Rate : 44100
Precision : 16-bit
Duration : 00:01:42.30 = 4511562 samples = 7672.72 CDDA sectors
File Size : 2.46M
Bit Rate : 192k
Sample Encoding: MPEG audio (layer I, II or III)
Comments :
Title=Independence Killed By Dependendence
Artist=Brainstorm (Serb)
Album=Only The Dead See The End Of War (Demo)
Tracknumber=01
Year=1989
Genre=Thrash Metal

[/more]

Register
(2) stumpheavyrock, Wail,
Nov 27 2021, 09:31:32 Necrophobic - Feeling Of Agony (1990)
new link:
Register
(3) hell_armageddon, thenecromancer, Z28517,
Nov 27 2021, 09:29:08 Eternal Nightmare - Total Tear Up [demo] (1990)
new link:
Register
(3) hell_armageddon, thenecromancer, wreak,
Nov 27 2021, 08:42:48 Cmf - Show Me To Laugh [demo] (1995)


*Artist: Cmf
*Album: Show Me To Laugh [demo]
*Year: 1995
*Genre: Groove Metal/Grunge/Alternative Rock
*Country: Germany
*Format: mp3@CBR320kbps
*Size: 66MB

Tracklist:
1. Intro (Show Me To Laugh) 00:56
2. Broken Image 04:43
3. Stop 03:51
4. The Seamy Side 02:10
5. Cash 02:25
6. Braindead 03:19
7. 1+1 05:52
8. Fur Is Dead 02:59
9. Getting Sick 02:29
******************************
Total playing time: 28:44

[more=Technical info]
Input File: 02-Broken Image.mp3
Channels : 2
Sample Rate : 44100
Precision : 16-bit
Duration : 00:04:43.42 = 12498866 samples = 21256.6 CDDA sectors
File Size : 11.3M
Bit Rate : 320k
Sample Encoding: MPEG audio (layer I, II or III)
Comments :
Title=Broken Image
Artist=CMF (Ger)
Album=Show Me To Laugh (Demo)
Tracknumber=02
Year=1995
Genre=Metal

[/more]

Register
(3) caro, varlam4, wreak,
Nov 27 2021, 08:32:26 Avatar - Unreleased Album [bootleg] (1989)


*Artist: Avatar
*Album: Unreleased Album [bootleg]
*Year: 1989
*Genre: Thrash/Heavy Metal
*Country: United States
*Format: mp3@CBR192kbps
*Size: 60MB

Tracklist:
1. The Minstrel Man 04:39
2. Your Darkest Hour 04:23
3. Ring of the Dances 05:05
4. Nightfall 03:29
5. Fabled 05:08
6. Dark 04:49
7. Pieces Of Dawn 02:18
8. Crack of A Smile 04:29
9. It's the Joker 04:05
10. Darling 05:49
******************************
Total playing time: 44:14

[more=Extended info]Band from New Brighton, Minnesota (ex-Vendetta).
Avatar recorded an album for Channel 83 Records in 1989 that remains unreleased.
[/more]

[more=Technical info]
Input File: 01-The Minstrel Man.mp3
Channels : 2
Sample Rate : 44100
Precision : 16-bit
Duration : 00:04:39.58 = 12329302 samples = 20968.2 CDDA sectors
File Size : 6.71M
Bit Rate : 192k
Sample Encoding: MPEG audio (layer I, II or III)
Comments :
Title=The Minstrel Man
Artist=Avatar (US, MN)
Album=Unreleased Album
Tracknumber=01
Year=1989-27-11
Genre=Thrash Metal

[/more]

Register
(10) Carcharoth, dimcho0, gwar, hell_armageddon, Marek, Reverend, stumpheavyrock, traitor666, varlam4, wgs73,
Nov 27 2021, 08:03:10 Avatar - Sadistic Trump [demo] (1988)


*Artist: Avatar
*Album: Sadistic Trump [demo]
*Year: 1988
*Genre: Thrash/Heavy Metal
*Country: United States
*Format: mp3@CBR192kbps
*Size: 27MB

Tracklist:
1. Forgotten Son 03:45
2. The Ninth Hour 05:23
3. Your Darkest Hour 04:23
4. Sadistic Trump 05:57
******************************
Total playing time: 19:28

[more=Extended info]Band from New Brighton, Minnesota.[/more]

[more=Technical info]
Input File: 01-Forgotten Son.mp3
Channels : 2
Sample Rate : 44100
Precision : 16-bit
Duration : 00:03:47.41 = 10028693 samples = 17055.6 CDDA sectors
File Size : 5.46M
Bit Rate : 192k
Sample Encoding: MPEG audio (layer I, II or III)
Comments :
Title=Forgotten Son
Artist=Avatar (US, MN)
Album=Sadistic Trump (Demo)
Tracknumber=01
Year=1988-27-11
Genre=Thrash Metal

[/more]

Register
(10) Carcharoth, dimcho0, gwar, hell_armageddon, Marek, Reverend, traitor666, varlam4, wgs73, Z28517,
Nov 27 2021, 07:47:17 Vendetta - Metal For Hire [demo] (1986)


*Artist: Vendetta
*Album: Metal For Hire [demo]
*Year: 1986
*Genre: Heavy/Speed Metal
*Country: United States
*Format: mp3@CBR192kbps
*Size: 40MB

Tracklist:
1. Avatar 02:05
2. On Hallow's Eve 04:01
3. Vendetta 05:49
4. Unleash The Fury 03:34
5. Battle Cry (Call To Arms) 08:00
6. Metal For Breakfast 06:12
******************************
Total playing time: 29:41

[more=Extended info]Band from New Brighton, Minnesota (pre-Avatar).
Made in Gene's Skiba basement on a 4-track cassette recorder.
[/more]

[more=Technical info]
Input File: 01-Avatar.mp3
Channels : 2
Sample Rate : 44100
Precision : 16-bit
Duration : 00:02:05.00 = 5512676 samples = 9375.3 CDDA sectors
File Size : 3.00M
Bit Rate : 192k
Sample Encoding: MPEG audio (layer I, II or III)
Comments :
Title=Avatar
Artist=Vendetta (US, MN)
Album=Metal For Hire (Demo)
Tracknumber=01
Year=1986-27-11
Genre=Metal

[/more]

Register
(6) Carcharoth, dimcho0, Marek, Reverend, traitor666, wgs73,
Nov 27 2021, 07:35:51 Kranium - Kranium [demo] (1992)


*Artist: Kranium
*Album: Kranium [demo]
*Year: 1992
*Genre: Heavy/Thrash Metal
*Country: United Kingdom
*Format: mp3@CBR192kbps
*Size: 12MB

Tracklist:
1. Powerdrome 04:05
2. Mental Decay 04:27
******************************
Total playing time: 8:32

[more=Technical info]
Input File: 01-Powerdrome.mp3
Channels : 2
Sample Rate : 44100
Precision : 16-bit
Duration : 00:04:07.73 = 10924937 samples = 18579.8 CDDA sectors
File Size : 5.95M
Bit Rate : 192k
Sample Encoding: MPEG audio (layer I, II or III)
Comments :
Title=Powerdome
Artist=Kranium (UK)
Album=Kranium (Demo)
Tracknumber=01
Year=1992
Genre=Metal

[/more]

Register
(8) after21allD, dimcho0, doomsword11, Reverend, stumpheavyrock, traitor666, wgs73, Xutun,
Nov 27 2021, 07:29:10 Rawhead - Something Crushes Spine [demo] (1991)
320 kbps (34 mb):
Register
(7) Carcharoth, hell_armageddon, stumpheavyrock, thenecromancer, vaalkoth, varlam4, Z28517,
Nov 27 2021, 07:19:15 Interfear - Tape 1995 [demo] (1995)


*Artist: Interfear
*Album: Tape 1995 [demo]
*Year: 1995
*Genre: Thrash Metal/Hardcore
*Country: Belgium
*Format: mp3@CBR192kbps
*Size: 29MB

Tracklist:
1. Hollow Man 03:09
2. Veindamaged / Broken 13:04
3. Prophecy (Instrumental) 03:53
******************************
Total playing time: 20:06

[more=Technical info]
Input File: 01-Hollow Man.mp3
Channels : 2
Sample Rate : 44100
Precision : 16-bit
Duration : 00:03:09.03 = 8336355 samples = 14177.5 CDDA sectors
File Size : 4.54M
Bit Rate : 192k
Sample Encoding: MPEG audio (layer I, II or III)
Comments :
Title=Hollow Man
Artist=Interfear
Album=Tape 1995
Tracknumber=01
Year=1995
Genre=Thrash Metal

[/more]

Register
(3) Reverend, stumpheavyrock, traitor666,
Nov 27 2021, 06:34:39 Rawhead - The Last One [demo] (1994)


*Artist: Rawhead
*Album: The Last One [demo]
*Year: 1994
*Genre: Thrash/Groove Metal
*Country: United States
*Format: mp3@CBR320kbps
*Size: 29MB

Tracklist:
1. Headwound 05:02
2. Mine 04:16
3. Sleep 03:47
******************************
Total playing time: 13:05



[more=Extended info]Band from Kirkland, Washington.
Unreleased demo until 2017.
[/more]

[more=Technical info]
Input File: 01-Headwound.mp3
Channels : 2
Sample Rate : 44100
Precision : 16-bit
Duration : 00:05:02.62 = 13345630 samples = 22696.6 CDDA sectors
File Size : 12.2M
Bit Rate : 321k
Sample Encoding: MPEG audio (layer I, II or III)
Comments :
Title=Headwound
Artist=Rawhead
Album=The Last One (Demo)
Tracknumber=01/03
Year=1994
Genre=Thrash Metal

[/more]

Register
(16) after21allD, analbleeding, artscald, Carcharoth, caro, hell_armageddon, julianotidre, Marek, METALHUNTER, Reverend, stumpheavyrock, thenecromancer, vaalkoth, varlam4, wreak, Z28517,
Nov 27 2021, 06:14:03 Rawhead - Bones Of All Men [demo] (1992)


*Artist: Rawhead
*Album: Bones Of All Men [demo]
*Year: 1992
*Genre: Thrash Metal
*Country: United States
*Format: mp3@CBR320kbps
*Size: 45MB

Tracklist:
1. War Machine 04:58
2. Walk From Faith 06:17
3. Staring At The Sun 05:16
4. Nameless One 03:43
******************************
Total playing time: 20:14




[more=Extended info]Band from Kirkland, Washington.[/more]

[more=Technical info]
Input File: 01-War Machine.mp3
Channels : 2
Sample Rate : 44100
Precision : 16-bit
Duration : 00:04:50.81 = 12824897 samples = 21811 CDDA sectors
File Size : 11.7M
Bit Rate : 321k
Sample Encoding: MPEG audio (layer I, II or III)
Comments :
Title=War Machine
Artist=Rawhead
Album=Bones Of All Men (Demo)
Tracknumber=01/04
Year=1992
Genre=Thrash Metal

[/more]

Register
(15) artscald, Carcharoth, caro, hell_armageddon, julianotidre, Marek, METALHUNTER, Reverend, stumpheavyrock, thenecromancer, vaalkoth, varlam4, Wail, wreak, Z28517,
Nov 14 2021, 23:41:26 Sons Of Sawyer - Freshly Severed Head [demo] (1989)


*Artist: Sons Of Sawyer
*Album: Freshly Severed Head [demo]
*Year: 1989
*Genre: Thrash Metal
*Country: United States
*Format: mp3@CBR192kbps
*Size: 21MB

Tracklist:
1. Rivers Of Gore 04:24
2. Frozen For Future Use 02:49
3. Naked Nuns 02:36
4. Ignored 02:58
5. Freshly Severed Head 03:17
******************************
Total playing time: 16:04

[more=Extended info]Band from Connecticut.[/more]

[more=Technical info]
Input File: 01-Rivers of Gore.mp3
Channels : 2
Sample Rate : 44100
Precision : 16-bit
Duration : 00:04:24.50 = 11664582 samples = 19837.7 CDDA sectors
File Size : 6.35M
Bit Rate : 192k
Sample Encoding: MPEG audio (layer I, II or III)
Comments :
Title=Rivers of Gore
Artist=Sons of Sawyer (US, CT)
Album=Freshly Severed Head demo
Tracknumber=01
Year=1989
Genre=Thrash Metal

[/more]

Register
(17) after21allD, artscald, Carcharoth, dimcho0, gwar, hell_armageddon, metala, METALHUNTER, Olethros, Phantom_Voodoo, Reverend, stumpheavyrock, thenecromancer, traitor666, vaalkoth, wgs73, Xtohar,
Nov 14 2021, 14:22:00 Toxic Shock - Toxic Shock [single] (1989)
new link:
Register
(6) boby9052, dimcho0, hell_armageddon, thenecromancer, wreak, Xtohar,
Nov 14 2021, 14:13:41 Sykosis - Sykosis [demo] (1992)
new link:
Register
(5) kimkayoung, thenecromancer, vaalkoth, Xtohar, Z28517,
Nov 14 2021, 11:41:49 Gatlin - Forget Forever (1998)


*Artist: Gatlin
*Album: Forget Forever
*Year: 1998
*Genre: Heavy Metal
*Country: United States
*Format: mp3@CBR192kbps
*Size: 80MB

Tracklist:
1. Forget Forever 06:50
2. Into The Eyes Of Madness 06:16
3. Never Mind (feat. BiastFear) 05:07
4. The Longest Song 00:05
5. Soul Survivor 07:03
6. Revenge 05:24
7. Given Away 06:24
8. Killing Time 07:40
9. Mind Games 08:45
10. Hidden Track (Drive-Thru Baby) 03:00
******************************
Total playing time: 56:34



[more=Extended info]Band from Cleveland, Ohio.
Recorded, engineered and mixed by Eddie Tomecko at Audioworks Studio.
[/more]

[more=Technical info]
Input File: 01-Forget Forever.mp3
Channels : 2
Sample Rate : 44100
Precision : 16-bit
Duration : 00:06:52.67 = 18198879 samples = 30950.5 CDDA sectors
File Size : 9.96M
Bit Rate : 193k
Sample Encoding: MPEG audio (layer I, II or III)
Comments :
Title=Forget Forever
Artist=Gatlin
Album=Forget Forever
Tracknumber=1
Year=1998
Genre=Heavy Metal

[/more]

Register
(14) after21allD, caro, chipsgott, dimcho0, julianotidre, Marek, metala, METALHUNTER, Olethros, postal67, Rover, sergsazan, varlam4, wreak,
Nov 14 2021, 03:59:05 Fatal Epitaph - Misanthropy [demo] (1997)
new link:
Register
(2) wreak, Xtohar,
Nov 14 2021, 03:54:42 Infected Virulence - In The Outline Of Clouds [ep] (1997)
new link:
Register
(2) Mist13Signifier, SyncestrA,
Nov 13 2021, 16:37:17 Nasty - Society's Knockin' (1994)


*Artist: Nasty
*Album: Society's Knockin'
*Year: 1994
*Genre: Power/Heavy Metal
*Country: United States
*Format: mp3@CBR192kbps
*Size: 57MB

Tracklist:
1. She's Tough 03:36
2. Bottom Of The Bottle 04:46
3. 1000 Years 03:56
4. Society's Knockin' 03:26
5. Sometimes Judas 05:20
6. Cat's Eye 04:22
7. Prince Of Darkness 06:24
8. Six Feet Under 04:50
9. Valley Of Love 05:20
******************************
Total playing time: 42:00



[more=Extended info]Band from Detroit, Michigan.[/more]

[more=Technical info]
Input File: 01-She\'s Tough.mp3
Channels : 2
Sample Rate : 44100
Precision : 16-bit
Duration : 00:03:34.27 = 9449219 samples = 16070.1 CDDA sectors
File Size : 5.14M
Bit Rate : 192k
Sample Encoding: MPEG audio (layer I, II or III)
Comments :
Title=She's Tough
Artist=Nasty (US, MI)
Album=Society's Knockin'
Tracknumber=01
Year=1994-13-11
Genre=Metal

[/more]

Register
(11) boby9052, dimcho0, doomsword11, metala, Olethros, Reverend, sergsazan, stumpheavyrock, traitor666, Xtohar, Z28517,

564 Pages V   1 2 3 > » 
- Lo-Fi Version Support form
Copyrights and abuse reports form
Time is now: 3rd December 2021 - 02:17:13