Welcome Guest ( Log In | Register )

История благодарностей участнику Proteus_666 ::: Спасибо сказали: 83041 раз(а)
Дата поста: В теме: За сообщение: Спасибо сказали:
Apr 5 2020, 16:56:59 Empire Of Evil - Demo [demo] (1993)


*Artist: Empire Of Evil
*Album: Demo [demo]
*Year: 1993
*Genre: Thrash Metal
*Country: Russian Federation
*Format: mp3@CBR192kbps
*Size: 34MB

Tracklist:
1. Kill Yourself As Slave 06:11
2. Don't Fuck My Brains 06:03
3. Welcome To Hell 06:25
4. Anarchy 06:13
******************************
Total playing time: 24:52

[more=Extended info]Band from Orel. Recorded live.
Thanx AIK445 for sharing this demo.
[/more]

[more=Technical info]
Input File: 01-Kill Yourself As Slave.mp3
Channels : 2
Sample Rate : 44100
Precision : 16-bit
Duration : 00:06:11.45 = 16380989 samples = 27858.8 CDDA sectors
File Size : 8.92M
Bit Rate : 192k
Sample Encoding: MPEG audio (layer I, II or III)
Comments :
Title=Kill Yourself As Slave
Artist=Empire Of Evil
Album=Demo
Tracknumber=01
Year=1993
Genre=Thrash Metal

[/more]

Register
(11) infiltrator, metala, METALHUNTER, morbidangelo, Niknne, Olethros, pichileon, stumpheavyrock, thenecromancer, Wail, wgs73,
Apr 5 2020, 16:36:55 Capellan - Demo 1993 [demo] (1993)


*Artist: Capellan
*Album: Demo 1993 [demo]
*Year: 1993
*Genre: Thrash Metal
*Country: Russian Federation
*Format: mp3@CBR192kbps
*Size: 18MB

Tracklist:
1. Капеллан 05:33
2. Прокажённый 05:13
3. Суицид 02:32
******************************
Total playing time: 13:18

[more=Extended info]Band from Ufa, Republic of Bashkortostan.[/more]

[more=Technical info]
Input File: 02-Прокажённый.mp3
Channels : 2
Sample Rate : 44100
Precision : 16-bit
Duration : 00:05:13.56 = 13828084 samples = 23517.1 CDDA sectors
File Size : 7.53M
Bit Rate : 192k
Sample Encoding: MPEG audio (layer I, II or III)
Comments :
Title=Прокажённый
Artist=Capellan
Album=Demo 1993
Tracknumber=02
Year=1993
Genre=Thrash Metal

[/more]

Register
(10) infiltrator, METALHUNTER, morbidangelo, Niknne, Olethros, pichileon, stumpheavyrock, thenecromancer, Wail, wgs73,
Apr 5 2020, 16:23:57 Metalized Ruby Red - Trapped [demo] (1991)


*Artist: Metalized Ruby Red
*Album: Trapped [demo]
*Year: 1991
*Genre: Heavy Metal/Hard Rock
*Country: Italy
*Format: mp3@CBR320kbps
*Size: 56MB

Tracklist:
1. Trapped 03:07
2. All Or Nothing At All 04:20
3. Warrior Without Weapons 04:41
4. Union 04:39
5. Black Clouded Sky 06:22
6. Under The Stage 03:43
******************************
Total playing time: 26:52

[more=Technical info]
Input File: 02-All Or Nothing At All.mp3
Channels : 2
Sample Rate : 44100
Precision : 16-bit
Duration : 00:04:15.74 = 11278178 samples = 19180.6 CDDA sectors
File Size : 10.2M
Bit Rate : 320k
Sample Encoding: MPEG audio (layer I, II or III)
Comments :
Title=All Or Nothing At All
Artist=Metalized Ruby Red
Album=Trapped (Demo)
Tracknumber=02
Year=1991
Genre=Rock

[/more]

Register
(4) infiltrator, morbidangelo, Olethros, Wail,
Apr 5 2020, 16:05:46 Gunfighter - Demo 1994 [demo] (1994)


*Artist: Gunfighter
*Album: Demo 1994 [demo]
*Year: 1994
*Genre: Heavy/Groove/Thrash Metal
*Country: Ukraine
*Format: mp3@CBR192kbps
*Size: 22MB

Tracklist:
1. Red Destruction 06:39
2. In Thursday 05:00
3. Baby 04:01
******************************
Total playing time: 15:40

[more=Extended info]Band from Kharkiv.[/more]

[more=Technical info]
Input File: 01-Red Destruction.mp3
Channels : 2
Sample Rate : 44100
Precision : 16-bit
Duration : 00:06:39.09 = 17599825 samples = 29931.7 CDDA sectors
File Size : 9.58M
Bit Rate : 192k
Sample Encoding: MPEG audio (layer I, II or III)
Comments :
Title=Red Destruction
Artist=Gunfighter
Album=Demo 1994
Tracknumber=01
Year=1994
Genre=Metal

[/more]

Register
(9) infiltrator, METALHUNTER, morbidangelo, Niknne, Olethros, pichileon, stumpheavyrock, thenecromancer, Wail,
Apr 5 2020, 15:51:49 Sane Insanity - Radio Pollution [demo] (1990)


*Artist: Sane Insanity
*Album: Radio Pollution [demo]
*Year: 1990
*Genre: Heavy Metal/Hard Rock
*Country: Italy
*Format: mp3@CBR320kbps
*Size: 49MB

Tracklist:
1. Radio Pollution 04:45
2. Pie With Glasses 03:02
3. Have You Fear 03:41
4. Without Name 06:18
5. 37 Eyes & I'm Watchin' You 06:13
******************************
Total playing time: 23:59

[more=Technical info]
Input File: 02-Pie With Glasses.mp3
Channels : 2
Sample Rate : 44100
Precision : 16-bit
Duration : 00:03:02.05 = 8028405 samples = 13653.8 CDDA sectors
File Size : 7.28M
Bit Rate : 320k
Sample Encoding: MPEG audio (layer I, II or III)
Comments :
Title=Pie With Glasses
Artist=Sane Insanity (Ita)
Album=Radio Pollution (Demo)
Tracknumber=02
Year=1990
Genre=Rock

[/more]

Register
(7) infiltrator, morbidangelo, Olethros, pichileon, thenecromancer, Wail, wgs73,
Apr 5 2020, 15:38:29 Kryonics - Mental Defecation Syndrome [demo] (1994)


*Artist: Kryonics
*Album: Mental Defecation Syndrome [demo]
*Year: 1994
*Genre: Thrash Metal
*Country: Ukraine
*Format: mp3@CBR192kbps
*Size: 34MB

Tracklist:
1. Bizzarre And Extreme (Intro) 01:23
2. Mental Defecation Syndrome 03:59
3. Heretic-Agnostic 04:40
4. The Sickness 02:51
5. Frozen In Mountains 04:00
6. Necromantical Screams (Celtic Frost cover) 05:09
7. Kill With Passion 03:32
******************************
Total playing time: 25:34



[more=Technical info]
Input File: 02-Mental Defecation Syndrome.mp3
Channels : 2
Sample Rate : 44100
Precision : 16-bit
Duration : 00:03:59.87 = 10578179 samples = 17990.1 CDDA sectors
File Size : 5.76M
Bit Rate : 192k
Sample Encoding: MPEG audio (layer I, II or III)
Comments :
Title=Mental Defecation Syndrome
Artist=Kryonics (Ukr)
Album=Mental Defecation Syndrome (Demo)
Tracknumber=02
Year=1994
Genre=Thrash Metal

[/more]

Register
(12) infiltrator, metala, METALHUNTER, morbidangelo, Niknne, Olethros, pichileon, RunningWild_AT, Svafrlami, Wail, wgs73, Z28517,
Apr 5 2020, 15:20:14 Nocticula - Demo 1994 [demo] (1994)


*Artist: Nocticula
*Album: Demo 1994 [demo]
*Year: 1994
*Genre: Blackened Speed/Thrash Metal
*Country: Italy
*Format: mp3@CBR320kbps
*Size: 47MB

Tracklist:
1. Creep, Shadow, Creep 06:10
2. Madness Network 05:15
3. No Nightmare 06:00
4. Hellhound 05:01
******************************
Total playing time: 22:26

[more=Technical info]
Input File: 04-Hellhound.mp3
Channels : 2
Sample Rate : 44100
Precision : 16-bit
Duration : 00:05:01.40 = 13291916 samples = 22605.3 CDDA sectors
File Size : 12.0M
Bit Rate : 320k
Sample Encoding: MPEG audio (layer I, II or III)
Comments :
Title=Hellhound
Artist=Nocticula
Album=Nocticula (Demo)
Tracknumber=04
Year=1994
Genre=Thrash Metal

[/more]

Register
(9) Asketto, infiltrator, METALHUNTER, morbidangelo, Niknne, Olethros, Wail, wgs73, Z28517,
Apr 5 2020, 15:03:34 Zone Of Alienation - Demo [demo] (1995)


*Artist: Zone Of Alienation
*Album: Demo [demo]
*Year: 1995
*Genre: Thrash/Heavy Metal
*Country: Russian Federation
*Format: mp3@CBR192kbps
*Size: 40MB

Tracklist:
1. Apocaliptic Mirror 04:06
2. Fight Between The Symptoms 05:50
3. Back Sliding 05:02
4. Excrementology 05:42
5. Davey Mary 04:21
6. Future Generation 04:12
******************************
Total playing time: 29:13

[more=Extended info]Band from Krasnoturyinsk, Sverdlovsk Oblast (ex-ЧерМет).
In Russian their name means Зона Отчуждения.
Thanx AIK445 for sharing this demo.
[/more]

[more=Technical info]
Input File: 01-Apocaliptic Mirror.mp3
Channels : 2
Sample Rate : 44100
Precision : 16-bit
Duration : 00:04:06.30 = 10861610 samples = 18472.1 CDDA sectors
File Size : 5.91M
Bit Rate : 192k
Sample Encoding: MPEG audio (layer I, II or III)
Comments :
Title=Apocaliptic Mirror
Artist=Zone Of Alienation
Album=Demo
Tracknumber=01
Year=1995
Genre=Thrash Metal

[/more]

Register
(8) infiltrator, METALHUNTER, morbidangelo, Olethros, pichileon, stumpheavyrock, Wail, wgs73,
Apr 5 2020, 14:46:22 Trizna - Merry Christmas [demo] (1991)


*Artist: Trizna
*Album: Merry Christmas [demo]
*Year: 1991
*Genre: Thrash Metal
*Country: Russian Federation
*Format: mp3@CBR192kbps
*Size: 19MB

Tracklist:
1. Merry Christmas 04:48
2. I'll Never Be Your Slave 05:03
3. Upside Down 04:07
******************************
Total playing time: 13:58

[more=Extended info]Band from Moscow (ex-Стоп-Кран).
Recorded on Anakonda studio.
[/more]

[more=Technical info]
Input File: 01-Merry Christmas.mp3
Channels : 2
Sample Rate : 44100
Precision : 16-bit
Duration : 00:04:48.93 = 12741725 samples = 21669.6 CDDA sectors
File Size : 6.94M
Bit Rate : 192k
Sample Encoding: MPEG audio (layer I, II or III)
Comment : 'Genre=????'

[/more]

Register
(9) Brutal, infiltrator, morbidangelo, Olethros, pichileon, stumpheavyrock, Wail, wgs73, Z28517,
Apr 5 2020, 14:38:05 Bestial Deform - Worship To Madness [demo] (1992)


*Artist: Bestial Deform
*Album: Worship To Madness [demo]
*Year: 1992
*Genre: Death Metal
*Country: Russian Federation
*Format: mp3@CBR192kbps
*Size: 18MB

Tracklist:
1. Re-Animator 02:44
2. Sentseless Massacre 02:57
3. Treponem Pele 03:10
4. Asmodeus 04:40
******************************
Total playing time: 13:31




[more=Extended info]Band from St. Petersburg.[/more]

[more=Technical info]
Input File: 02-Sentseless Massacre.mp3
Channels : 2
Sample Rate : 44100
Precision : 16-bit
Duration : 00:02:56.49 = 7783341 samples = 13237 CDDA sectors
File Size : 4.24M
Bit Rate : 192k
Sample Encoding: MPEG audio (layer I, II or III)
Comments :
Title=Sentseless Massacre
Artist=Bestial Deform
Album=Worship To Madness (Demo)
Tracknumber=02
Year=1992
Genre=Death Metal

[/more]

Register
(10) andreikun, Hell_Is_Here, infiltrator, morbidangelo, Olethros, spazm, stumpheavyrock, Svafrlami, Wail, wgs73,
Apr 5 2020, 14:29:27 Bestial Deform - Malebranche [ep] (1993)


*Artist: Bestial Deform
*Album: Malebranche [ep]
*Year: 1993
*Genre: Death Metal
*Country: Russian Federation
*Format: mp3@CBR192kbps
*Size: 10MB

Tracklist:
1. For The Great Evil 04:04
2. Piece Of Flesh 03:03
******************************
Total playing time: 7:07




[more=Extended info]Band from St. Petersburg.[/more]

[more=Technical info]
Input File: 02-Piece of Flesh.mp3
Channels : 2
Sample Rate : 44100
Precision : 16-bit
Duration : 00:03:03.47 = 8090939 samples = 13760.1 CDDA sectors
File Size : 4.40M
Bit Rate : 192k
Sample Encoding: MPEG audio (layer I, II or III)
Comments :
Title=Piece of Flesh
Artist=Bestial Deform
Album=Malebranche (EP)
Tracknumber=02
Year=1993
Genre=Death Metal

[/more]

Register
(8) Hell_Is_Here, infiltrator, morbidangelo, Olethros, spazm, stumpheavyrock, Wail, wgs73,
Apr 5 2020, 14:13:19 Excorpse - Demo 1995 [demo] (1995)


*Artist: Excorpse
*Album: Demo 1995 [demo]
*Year: 1995
*Genre: Death Metal
*Country: Russian Federation
*Format: mp3@CBR192kbps
*Size: 10MB

Tracklist:
1. Maggots 03:54
2. Express To Hell 01:11
******************************
Total playing time: 5:05

[more=Extended info]Band from Kirov (ex-Grave Digger / Exhumation Of Corpse).[/more]

[more=Technical info]
Input File: 01-Maggots.mp3
Channels : 2
Sample Rate : 44100
Precision : 16-bit
Duration : 00:03:54.51 = 10342023 samples = 17588.5 CDDA sectors
File Size : 5.63M
Bit Rate : 192k
Sample Encoding: MPEG audio (layer I, II or III)
Comments :
Title=Maggots
Artist=Excorpse
Album=Demo 1995
Tracknumber=01
Year=1995
Genre=Death Metal

[/more]

Register
(6) infiltrator, morbidangelo, Olethros, stumpheavyrock, Wail, wgs73,
Apr 5 2020, 12:54:00 Thorax - Psychiatry - Live!!!! [demo] (1987)


*Artist: Thorax
*Album: Psychiatry - Live!!!! [demo]
*Year: 1987
*Genre: Thrash Metal
*Country: Italy
*Format: mp3@CBR320kbps
*Size: 37MB

Tracklist:
1. Irreversible Fate 04:29
2. Transplaneted Agony 03:11
3. Weird Furies 04:50
4. Infernal Mayhem 05:18
******************************
Total playing time: 17:48

[more=Extended info]Recorded live.
Trax 3 & 4 are combined in archive file.
[/more]

[more=Technical info]
Input File: 02-Transplanted Agony.mp3
Channels : 2
Sample Rate : 44100
Precision : 16-bit
Duration : 00:03:11.77 = 8456969 samples = 14382.6 CDDA sectors
File Size : 7.66M
Bit Rate : 320k
Sample Encoding: MPEG audio (layer I, II or III)
Comments :
Title=Transplanted Agony
Artist=Thorax (Ita)
Album=Psychiatry Live!!!! (Demo)
Tracknumber=02
Year=1987
Genre=Thrash Metal

[/more]

Register
(7) infiltrator, METALHUNTER, morbidangelo, Niknne, Olethros, Wail, wgs73,
Apr 5 2020, 12:40:27 P.O.S.T. - P.O.S.T. [demo] (1989)


*Artist: P.O.S.T.
*Album: P.O.S.T. [demo]
*Year: 1989
*Genre: Thrash Metal
*Country: Russian Federation
*Format: mp3@CBR320kbps
*Size: 77MB

Tracklist:
1. Потерявшие Веру 01:47
2. Мечта 03:50
3. Инструментал 02:25
4. Мы Ищем Выход 03:59
5. Реквием 02:04
6. Героин 04:49
7. Ночь В Преисподней 05:18
8. Дьявол 04:39
9. Ностальгия 05:04
******************************
Total playing time: 33:55

[more=Extended info]Band from Tver.
Thanx AIK445 for sharing this demo.
[/more]

[more=Technical info]
Input File: 01-Потерявшие Веру.mp3
Channels : 2
Sample Rate : 44100
Precision : 16-bit
Duration : 00:01:47.47 = 4739515 samples = 8060.4 CDDA sectors
File Size : 4.30M
Bit Rate : 320k
Sample Encoding: MPEG audio (layer I, II or III)
Comments :
Title=Потерявшие Веру (The Ones Who Lost Faith)
Artist=P.O.S.T.
Album=P.O.S.T. (Demo)
Tracknumber=01
Year=1989
Genre=Thrash Metal

[/more]

Register
(8) infiltrator, METALHUNTER, morbidangelo, Niknne, Olethros, stumpheavyrock, Wail, wgs73,
Apr 5 2020, 12:16:14 Pelvic Meatloaf - The Key (1996)
new link:
Register
(2) analbleeding, morbidangelo,
Apr 4 2020, 03:43:45 Toxic Waste - Under The Sentence Of Death [demo] (1990)


*Artist: Toxic Waste
*Album: Under The Sentence Of Death [demo]
*Year: 1990
*Genre: Thrash Metal
*Country: Sweden
*Format: mp3@CBR320kbps
*Size: 62MB

Tracklist:
1. Under The Sentence Of Death 02:52
2. Master Below 04:57
3. Outrageous Torment 05:15
4. Messenger Of Terror 05:39
5. For Justice And The Right 03:52
6. Possessed By Evil 02:42
7. Horror In The Slaughter House 02:47
******************************
Total playing time: 28:04



[more=Extended info]This demo was recorded at Mysac's Studios in Sundsvall Sept/Nov 90.
Produced by Thomas G.
Thanx mr. Strappado ov HMR for sharing this demo.
[/more]

[more=Technical info]
Input File: 02-Master Below.mp3
Channels : 2
Sample Rate : 44100
Precision : 16-bit
Duration : 00:04:57.84 = 13134788 samples = 22338.1 CDDA sectors
File Size : 11.9M
Bit Rate : 320k
Sample Encoding: MPEG audio (layer I, II or III)
Comments :
Title=Master Below
Artist=Toxic Waste
Album=Under the Sentence of Death
Tracknumber=02
Year=1990
Genre=Thrash Metal

[/more]

Register
(15) Corpuscul, Evilded, infiltrator, James817, METALHUNTER, morbidangelo, Niknne, nord6666, Olethros, pichileon, t0ffik, Wail, wgs73, Xutun, Z28517,
Apr 3 2020, 12:20:06 Cerebral Distortion - Demo [demo] (1986)


*Artist: Cerebral Distortion
*Album: Demo [demo]
*Year: 1986
*Genre: Crossover/Thrash Metal
*Country: United States
*Format: mp3@CBR192kbps
*Size: 27MB

Tracklist:
1. Intro / Face Down In A Puddle Of Puke 01:15
2. Ways To Torture 01:38
3. Scrambled Brains 01:46
4. Skank Or Die 00:54
5. S.D.I. 01:04
6. Monster Attack 01:45
7. Do Before You Think 01:26
8. Man Of War 01:13
9. Self Induced Suicide 01:18
10. Instrumental 01:06
11. Living In A Cartoon 00:46
12. Everybody Shut Up 01:41
13. Taco Bell 00:42
14. Master Plan 01:41
15. Mall Chicks 01:50
******************************
Total playing time: 20:05

[more=Extended info]Band from Texas.
Rehearsal recording.
[/more]

[more=Technical info]
Input File: 02-Ways To Torture.mp3
Channels : 2
Sample Rate : 44100
Precision : 16-bit
Duration : 00:01:38.02 = 4322638 samples = 7351.43 CDDA sectors
File Size : 2.35M
Bit Rate : 192k
Sample Encoding: MPEG audio (layer I, II or III)
Comments :
Title=Ways To Torture
Artist=Cerebral Distortion (US, TX)
Album=Demo
Tracknumber=02
Year=1986
Genre=Crossover

[/more]

Register
(6) infiltrator, morbidangelo, Niknne, Olethros, stumpheavyrock, Wail,
Apr 3 2020, 11:43:44 Invixous - Demo 1987 [demo] (1987)


*Artist: Invixous
*Album: Demo 1987 [demo]
*Year: 1987
*Genre: Thrash Metal/Crossover
*Country: United States
*Format: mp3@CBR192kbps
*Size: 12MB

Tracklist:
1. I 01:31
2. II 02:19
3. III 03:28
4. IV 01:27
******************************
Total playing time: 8:45

[more=Extended info]Obscure band from St. Louis, Missouri.[/more]

[more=Technical info]
Input File: 01-I.mp3
Channels : 2
Sample Rate : 44100
Precision : 16-bit
Duration : 00:01:31.46 = 4033474 samples = 6859.65 CDDA sectors
File Size : 2.20M
Bit Rate : 192k
Sample Encoding: MPEG audio (layer I, II or III)
Comments :
Title=I
Artist=Invixous
Album=Demo 1987
Tracknumber=01
Year=1987
Genre=Thrash Metal

[/more]

Register
(5) infiltrator, morbidangelo, Olethros, stumpheavyrock, Wail,
Apr 3 2020, 11:35:00 Poverty - Poverty 1990 [demo] (1990)


*Artist: Poverty
*Album: Poverty 1990 [demo]
*Year: 1990
*Genre: Thrash Metal
*Country: United States
*Format: mp3@CBR128kbps
*Size: 4MB

Tracklist:
1. Shadows On The Wall 01:55
2. Hussein's Insane 02:36
******************************
Total playing time: 4:31

[more=Extended info]Band from San Francisco, California.[/more]

[more=Technical info]
Input File: 02-Hussein\'s Insane.mp3
Channels : 2
Sample Rate : 44100
Precision : 16-bit
Duration : 00:02:36.98 = 6922686 samples = 11773.3 CDDA sectors
File Size : 2.51M
Bit Rate : 128k
Sample Encoding: MPEG audio (layer I, II or III)
Comments :
Title=Hussein's Insane
Artist=Poverty
Album=Demo 1990
Tracknumber=02
Year=1990
Genre=Hardcore

[/more]

Register
(7) infiltrator, morbidangelo, Niknne, Olethros, stumpheavyrock, thenecromancer, Wail,
Apr 1 2020, 14:25:13 Promontory - Unknown Person [demo] (1996)
new link:
Register
(5) DMIYUR, infiltrator, morbidangelo, thenecromancer, Wail,
Apr 1 2020, 14:17:12 Prophecy - Kingdoms [demo] (1990)


*Artist: Prophecy
*Album: Kingdoms [demo]
*Year: 1990
*Genre: Heavy/Progressive Metal
*Country: United States
*Format: mp3@CBR320kbps
*Size: 107MB

Tracklist:
1. Intro 02:36
2. Kingdoms 05:43
3. Love Can Find A Way 05:08
4. The Cross 05:41
5. Everything 07:07
6. Holy Light 07:10
7. Killing Time 05:04
8. I Need You Tonight 06:18
******************************
Total playing time: 44:47

[more=Extended info]Band from Phoenix, Arizona.[/more]

[more=Technical info]
Input File: Sample-Kingdoms.mp3
Channels : 2
Sample Rate : 44100
Precision : 16-bit
Duration : 00:00:17.43 = 768619 samples = 1307.18 CDDA sectors
File Size : 446k
Bit Rate : 205k
Sample Encoding: MPEG audio (layer I, II or III)
Comments :
Title=Kingdoms
Artist=Prophecy
Album=Kingdoms (Demo)
Tracknumber=02
Year=1990
Genre=Progressive Rock

[/more]

Register
(9) infiltrator, metala, morbidangelo, Olethros, pichileon, Reverend, thenecromancer, wgs73, Z28517,
Apr 1 2020, 13:35:58 Probe - We Come In Peace [ep] (1984)


*Artist: Probe
*Album: We Come In Peace [ep]
*Year: 1984
*Genre: Heavy Metal
*Country: Canada
*Format: mp3@CBR192kbps
*Size: 29MB

Tracklist:
1. We Come In Peace 05:07
2. Dali 06:05
3. Drive-In Lover 05:50
4. The Devil Went Down To Georgia 04:31
******************************
Total playing time: 21:33

[more=Extended info]Mastered and mixed at Ocean Sound Studios, Vancouver, B.C.[/more]

[more=Technical info]
Input File: Probe-We Come In Peace sample.mp3
Channels : 2
Sample Rate : 44100
Precision : 16-bit
Duration : 00:00:30.41 = 1341169 samples = 2280.9 CDDA sectors
File Size : 731k
Bit Rate : 192k
Sample Encoding: MPEG audio (layer I, II or III)
Comments :
Title=We Come In Peace
Artist=Probe
Album=We Come In Peace (EP)
Tracknumber=01
Year=1984
Genre=Heavy Metal

[/more]

Register
(9) gwar, infiltrator, morbidangelo, Olethros, pichileon, Reverend, sergsazan, Wail, wgs73,
Apr 1 2020, 13:09:37 Profane Creation - A False Mourning On Futile Grave [demo] (1993)


*Artist: Profane Creation
*Album: A False Mourning On Futile Grave [demo]
*Year: 1993
*Genre: Death Metal
*Country: Malaysia
*Format: mp3@CBR192kbps
*Size: 32MB

Tracklist:
1. Grave In (Intro) 00:59
2. Of Pride And Solitude 06:16
3. Infernal Void 04:04
4. The Sear (Intro) 01:00
5. This Moment To Sear 05:36
6. On The Grave We Wept 04:36
7. Grave Out (Outro) 01:05
******************************
Total playing time: 23:36



[more=Extended info]Track 6 is a bonus track, taken from the "Intrusion of Dark Journey" compilation-tape (1993).[/more]

[more=Technical info]
Input File: Profane-Grave In sample.mp3
Channels : 2
Sample Rate : 44100
Precision : 16-bit
Duration : 00:00:12.81 = 564701 samples = 960.376 CDDA sectors
File Size : 308k
Bit Rate : 193k
Sample Encoding: MPEG audio (layer I, II or III)
Comments :
Title=Grave In (Intro)
Artist=Profane Creation (Malaysia)
Album=A False Mourning On Futile Grave (Demo)
Tracknumber=01
Year=1993
Genre=Death Metal

[/more]

Register
(12) dermarsoran, Evilded, Gilgalad43, infiltrator, JantoHadez, morbidangelo, Olethros, Reverend, stumpheavyrock, thenecromancer, Wail, wgs73,
Apr 1 2020, 12:11:49 Profanacion - Brutal Ruido De Mutilación [demo] (1997)


*Artist: Profanacion
*Album: Brutal Ruido De Mutilación [demo]
*Year: 1997
*Genre: Death Metal/Grindcore
*Country: Argentina
*Format: mp3@CBR192kbps
*Size: 27MB

Tracklist:
1. Tom Y Daly 00:26
2. Estertore 03:29
3. Horrorizando 02:35
4. Coágulo Anal 00:15
5. Masacre En Quijano 02:27
6. Sodomizar 00:22
7. Penetración De Vagina Engangrenada 00:20
8. Sucio Puerco Roñoso Maldito Hijo De Puta 02:35
9. Destripación 00:16
10. Osamenta Humana 04:15
11. Profanación 00:19
12. Brutal Hemorroide 00:18
******************************
Total playing time: 17:37



[more=Extended info]Recorded on December 12th, 1995, at 9 AM.[/more]

[more=Technical info]
Input File: 01-Tom Y Daly.mp3
Channels : 2
Sample Rate : 44100
Precision : 16-bit
Duration : 00:00:26.39 = 1163755 samples = 1979.18 CDDA sectors
File Size : 637k
Bit Rate : 193k
Sample Encoding: MPEG audio (layer I, II or III)
Comments :
Title=Tom Y Daly
Artist=Profanacion
Album=Brutal Ruido de Mutilacion (Demo)
Tracknumber=01
Year=1997
Genre=Grindcore

[/more]

Register
(8) Evilded, infiltrator, morbidangelo, Olethros, pichileon, Reverend, stumpheavyrock, Wail,
Mar 31 2020, 23:13:36 Prission - Despertar [demo] (1997)


*Artist: Prission
*Album: Despertar [demo]
*Year: 1997
*Genre: Thrash Metal
*Country: Argentina
*Format: mp3@ABR128kbps
*Size: 41MB

Tracklist:
1. Despertar 04:57
2. Creencias Vacías 05:11
3. Hoy Surgen 05:47
4. Ironía 04:10
5. Víctimas 05:08
6. Vida De Guerra 04:07
7. Herencia Sin Sentido 06:10
8. Callejera Realidad 04:51
9. Reyes En La Miseria 04:31
******************************
Total playing time: 44:52



[more=Technical info]
Input File: 01-Despertar.mp3
Channels : 2
Sample Rate : 44100
Precision : 16-bit
Duration : 00:04:57.35 = 13113179 samples = 22301.3 CDDA sectors
File Size : 4.75M
Bit Rate : 128k
Sample Encoding: MPEG audio (layer I, II or III)
Comments :
Title=Despertar
Artist=Prission
Album=Despertar (Demo)
Tracknumber=01
Year=1997
Genre=Metal

[/more]

Register
(8) infiltrator, morbidangelo, Olethros, Reverend, thenecromancer, Wail, wgs73, Z28517,

481 Pages V   1 2 3 > » 
- Lo-Fi Version Support form
Copyrights and abuse reports form
Time is now: 8th April 2020 - 22:53:56

Состав ювентус 2014 незаменимый игрок в составе ювентуса.