Welcome Guest ( Log In | Register )

История благодарностей участнику Proteus_666 ::: Спасибо сказали: 96987 раз(а)
Дата поста: В теме: За сообщение: Спасибо сказали:
Jan 22 2021, 11:56:01 Dungeon Of Fusion - Live From Dungeon Studios [demo] (1988)


*Artist: Dungeon Of Fusion
*Album: Live From Dungeon Studios [demo]
*Year: 1988
*Genre: Power Metal
*Country: United States
*Format: mp3@CBR320kbps
*Size: 74MB

Tracklist:
1. Hell Song 03:16
2. Nightstalker 04:00
3. Pirates 02:56
4. Quickstar 02:35
5. Dark Whisper 05:26
6. Digital Darkness 04:12
7. Sun In My Hand 02:19
8. Sailing On The Sea Of Fate 05:02
9. Moonlight 03:23
10. Indulging In Lust 01:58
******************************
Total playing time: 35:07

[more=Extended info]Band from Los Angeles, California.
Rehearsal demo.
[/more]

[more=Technical info]
Input File: 01-Hell Song.mp3
Channels : 2
Sample Rate : 44100
Precision : 16-bit
Duration : 00:03:16.06 = 8646026 samples = 14704.1 CDDA sectors
File Size : 7.84M
Bit Rate : 320k
Sample Encoding: MPEG audio (layer I, II or III)
Comments :
Title=Hell Song
Artist=Dungeon of Fusion (US, CA)
Album=Live From Dungeon Studios (Reh.demo)
Tracknumber=01
Year=1988
Genre=Heavy Metal

[/more]

Register
(8) dimcho0, infiltrator, Marek, metala, Olethros, Rosen, Taakeferd, varlam4,
Jan 22 2021, 11:39:18 Roswell - Take Us To Your Leader (1996)


*Artist: Roswell
*Album: Take Us To Your Leader
*Year: 1996
*Genre: Thrash Metal
*Country: Canada
*Format: mp3@CBR192kbps
*Size: 32MB

Tracklist:
1. Take Us To Your Leader 03:05
2. Red Stain 03:41
3. Birdie 02:44
4. Funny River... 02:27
5. Motor With Battery 02:39
6. Minimix 04:25
7. Roswell 04:15
******************************
Total playing time: 23:16

[more=Extended info]Joke band includes Voor members.[/more]

[more=Technical info]
Input File: 01-Take Us To Your Leader.mp3
Channels : 2
Sample Rate : 44100
Precision : 16-bit
Duration : 00:03:07.15 = 8253403 samples = 14036.4 CDDA sectors
File Size : 4.49M
Bit Rate : 192k
Sample Encoding: MPEG audio (layer I, II or III)
Comments :
Title=Take Us To Your Leader
Artist=Roswell (Can)
Album=Take Us To Your Leader
Tracknumber=01
Year=1996
Genre=Thrash Metal

[/more]

Register
(13) after21allD, boby9052, caro, dimcho0, doomsword11, infiltrator, Marek, metala, Olethros, Rosen, sergsazan, stumpheavyrock, varlam4,
Jan 22 2021, 11:27:35 Terrible Headache - Zeit Für Gedanken (1998)


*Artist: Terrible Headache
*Album: Zeit Für Gedanken
*Year: 1998
*Genre: Thrash/Death Metal
*Country: Germany
*Format: mp3@CBR128kbps
*Size: 58MB

Tracklist:
1. Umwelt 04:52
2. Zeit Für Gedanken 04:52
3. Heroin 05:57
4. Ewige Ruhe 08:09
5. Blutige Gräber 05:33
6. Brandgeruch 05:01
7. Sag Mir Deine Meinung 03:45
8. Häschen In Der Grube 02:05
9. Die Antwort Bist Du 04:14
10. Das Kleine Tote Mädchen 04:19
11. Instrumental 06:34
12. Das KTM (Remix 98) 02:24
******************************
Total playing time: 57:45






[more=Extended info]Recorded & mixed in September 1998 at K8 Studio Merzig.[/more]

[more=Technical info]
Input File: 01-Umwelt.mp3
Channels : 2
Sample Rate : 44100
Precision : 16-bit
Duration : 00:04:52.03 = 12878611 samples = 21902.4 CDDA sectors
File Size : 4.67M
Bit Rate : 128k
Sample Encoding: MPEG audio (layer I, II or III)
Comments :
Title=Umwelt
Artist=Terrible Headache (Ger)
Album=Zeit Für Gedanken
Tracknumber=01
Year=1998
Genre=Thrash Metal

[/more]

Register
(6) boby9052, metala, Olethros, Rosen, stumpheavyrock, Z28517,
Jan 22 2021, 11:11:23 Violent Changes - Goblins [demo] (1991)


*Artist: Violent Changes
*Album: Goblins [demo]
*Year: 1991
*Genre: Thrash/Heavy Metal
*Country: Switzerland
*Format: mp3@CBR192kbps
*Size: 29MB

Tracklist:
1. Stormbringer 05:54
2. Frozen In Time 07:15
3. Violent Changes 07:02
******************************
Total playing time: 20:11

[more=Extended info]ex-Holocaust.[/more]

[more=Technical info]
Input File: 01-Stormbringer.mp3
Channels : 2
Sample Rate : 44100
Precision : 16-bit
Duration : 00:05:54.71 = 15642535 samples = 26603 CDDA sectors
File Size : 8.51M
Bit Rate : 192k
Sample Encoding: MPEG audio (layer I, II or III)
Comments :
Title=Stormbringer
Artist=Violent Changes (Switz)
Album=Goblins (Demo)
Tracknumber=01
Year=1991-22-01
Genre=Thrash Metal

[/more]

Register
(9) after21allD, metala, Olethros, Rosen, stumpheavyrock, thenecromancer, traitor666, vaalkoth, Z28517,
Jan 20 2021, 13:45:13 Red Sky - Silence [demo] (1993)


*Artist: Red Sky
*Album: Silence [demo]
*Year: 1993
*Genre: Thrash Metal
*Country: Italy
*Format: mp3@VBR207kbps
*Size: 28MB

Tracklist:
1. From Beyond 03:50
2. Grave After Grave 06:30
3. Red Sky 03:37
4. Running Through The Fire 04:48
******************************
Total playing time: 18:45

[more=Extended info]pre-Disarmonic Orchestra.[/more]

[more=Technical info]
Input File: 01-From Beyond.mp3
Channels : 2
Sample Rate : 44100
Precision : 16-bit
Duration : 00:03:50.97 = 10185953 samples = 17323 CDDA sectors
File Size : 5.98M
Bit Rate : 207k
Sample Encoding: MPEG audio (layer I, II or III)
Comments :
Title=From Beyond
Artist=Red Sky
Album=Silence (Demo)
Tracknumber=01
Year=1993
Genre=Metal

[/more]

Register
(8) hell_armageddon, metala, Olethros, Reverend, Rosen, traitor666, wgs73, Z28517,
Jan 20 2021, 13:34:33 Disarmonic Orchestra - W.A.R.S. [demo] (1995)


*Artist: Disarmonic Orchestra
*Album: W.A.R.S. [demo]
*Year: 1995
*Genre: Progressive Metal
*Country: Italy
*Format: mp3@CBR192kbps
*Size: 41MB

Tracklist:
1. The Scythe 05:28
2. The Nightingale 04:39
3. The Skull Of De Sade 05:15
4. Lambs 03:45
5. Guardian Of Memory 06:44
6. The Dead's Trip Dream 02:16
******************************
Total playing time: 28:07

[more=Extended info]ex-Red Sky.
Recorded at Parsifal Studios in Sesto Fiorentino.
[/more]

[more=Technical info]
Input File: 01-The Scythe.mp3
Channels : 2
Sample Rate : 44100
Precision : 16-bit
Duration : 00:05:28.05 = 14466785 samples = 24603.4 CDDA sectors
File Size : 8.01M
Bit Rate : 195k
Sample Encoding: MPEG audio (layer I, II or III)
Comments :
Title=The Scythe
Artist=Disarmonic Orchestra
Album=W.A.R.S. (Demo)
Tracknumber=01
Year=1995
Genre=Metal

[/more]

Register
(6) metala, Olethros, Reverend, Rosen, tashkinoff, Yngwarr,
Jan 20 2021, 13:19:59 Assault - Demo 1986 [demo] (1986)


*Artist: Assault
*Album: Demo 1986 [demo]
*Year: 1986
*Genre: Heavy Metal
*Country: Netherlands
*Format: mp3@CBR128kbps
*Size: 20MB

Tracklist:
1. Color Of My Skin 06:00
2. Pharao's Diamond 05:07
3. Never Wanna Loose You 05:57
4. Can't Control My Mind 05:38
******************************
Total playing time: 22:42

[more=Extended info]Recorded at Franky's Recording Kitchen.[/more]

[more=Technical info]
Input File: 01-Colour of My Skin.mp3
Channels : 2
Sample Rate : 44100
Precision : 16-bit
Duration : 00:06:03.03 = 16009623 samples = 27227.2 CDDA sectors
File Size : 5.81M
Bit Rate : 128k
Sample Encoding: MPEG audio (layer I, II or III)
Comments :
Title=Colour of My Skin
Artist=Assault (Hol)
Album=Demo 1986
Tracknumber=01
Year=1986
Genre=Metal

[/more]

Register
(8) dimcho0, Olethros, Reverend, Rosen, stumpheavyrock, tashkinoff, wgs73, Yngwarr,
Jan 20 2021, 12:44:00 Enforcer - Forcefields [demo] (1988)


*Artist: Enforcer
*Album: Forcefields [demo]
*Year: 1988
*Genre: Heavy Metal
*Country: Belgium
*Format: mp3@CBR320kbps
*Size: 48MB

Tracklist:
1. Deceiver 04:55
2. Stand Up 04:54
3. No Escape 05:44
4. Catch The Time 05:24
******************************
Total playing time: 20:57

[more=Technical info]
Input File: 01-Deceiver.mp3
Channels : 2
Sample Rate : 44100
Precision : 16-bit
Duration : 00:04:55.62 = 13036886 samples = 22171.6 CDDA sectors
File Size : 11.8M
Bit Rate : 320k
Sample Encoding: MPEG audio (layer I, II or III)
Comments :
Title=Deceiver
Artist=Enforcer (Belg)
Album=Forcefields (Demo)
Tracknumber=01
Year=1988
Genre=Heavy Metal

[/more]

Register
(13) andreikun, infiltrator, Marek, Olethros, randumbum, Reverend, Rosen, sergsazan, Taakeferd, tashkinoff, varlam4, wgs73, Yngwarr,
Jan 20 2021, 12:33:46 Immortal Sin - Demo 1988 [demo] (1988)
Rip without clicks:
Register
(4) dimcho0, hell_armageddon, Olethros, thenecromancer,
Jan 19 2021, 12:40:38 Dark Fate - Demo [demo] (1993)


*Artist: Dark Fate
*Album: Demo [demo]
*Year: 1993
*Genre: Power/Progressive Metal
*Country: Germany
*Format: mp3@VBR136kbps
*Size: 20MB

Tracklist:
1. To Nowhere For Nothing 05:35
2. Careless World 04:39
3. Lost Planet 05:09
4. Answers Come In Dreams 05:10
******************************
Total playing time: 20:33

[more=Technical info]
Input File: 01-To Nowhere For Nothing.mp3
Channels : 2
Sample Rate : 44100
Precision : 16-bit
Duration : 00:05:37.74 = 14894202 samples = 25330.3 CDDA sectors
File Size : 5.68M
Bit Rate : 134k
Sample Encoding: MPEG audio (layer I, II or III)
Comments :
Title=To Nowhere For Nothing
Artist=Dark Fate (Ger)
Album=Demo
Tracknumber=01
Year=1993
Genre=Metal

[/more]

Register
(6) after21allD, dimcho0, metala, Olethros, Reverend, Rosen,
Jan 19 2021, 12:10:04 Axis - No Man's Land (1988)


*Artist: Axis
*Album: No Man's Land
*Year: 1988
*Genre: Heavy Metal
*Country: United States
*Format: mp3@CBR320kbps
*Size: 135MB

Tracklist:
1. The King 04:14
2. Line Of Duty 03:46
3. Bringin' Me Down 04:47
4. Here Today, Gone Tomorrow 05:23
5. No Man's Land 06:28
6. Bewilderness 05:43
7. Top Of The Hill 04:00
8. Desire 04:41
9. Road To Somewhere 04:52
10. Piece Of The Action 04:02
11. Faith 04:54
12. The Right Combination 03:53
13. Over The Edge 03:33
******************************
Total playing time: 1:00:16

[more=Extended info]Band from Eau Claire, Wisconsin.
Recorded at Hartwood Recording, Eau Claire, Wisconsin, March / July 1988.
[/more]

[more=Technical info]
Input File: 01-The King.mp3
Channels : 2
Sample Rate : 44100
Precision : 16-bit
Duration : 00:04:10.30 = 11038054 samples = 18772.2 CDDA sectors
File Size : 10.2M
Bit Rate : 325k
Sample Encoding: MPEG audio (layer I, II or III)
Comments :
Title=The King
Artist=Axis
Album=No Man's Land
Tracknumber=01
Year=1988
Genre=137

[/more]

Register
(15) andreikun, caro, infiltrator, Marek, metala, MetalW, Olethros, postal67, randumbum, Rosen, Rover, sergsazan, Taakeferd, tashkinoff, varlam4,
Jan 19 2021, 11:55:52 Malicious - Addicted To Pain [demo] (1991)


*Artist: Malicious
*Album: Addicted To Pain [demo]
*Year: 1991
*Genre: Thrash Metal
*Country: United States
*Format: mp3@CBR192kbps
*Size: 20MB

Tracklist:
1. The Prophecy 03:38
2. Addicted To Pain 04:40
3. Victim Of Reality 03:24
4. Battlefield 03:12
******************************
Total playing time: 14:54



[more=Extended info]Band from Petaluma, California.[/more]

[more=Technical info]
Input File: 01-The Prophecy.mp3
Channels : 2
Sample Rate : 44100
Precision : 16-bit
Duration : 00:03:31.24 = 9315552 samples = 15842.8 CDDA sectors
File Size : 5.07M
Bit Rate : 192k
Sample Encoding: MPEG audio (layer I, II or III)
Comments :
Title=The Prophecy
Artist=Malicious (US, CA)
Album=Addicted To Pain (Demo)
Tracknumber=01
Year=1991
Genre=Thrash Metal

[/more]

Register
(12) after21allD, gwar, hell_armageddon, James817, metala, Olethros, Reverend, Rosen, stumpheavyrock, traitor666, vaalkoth, Z28517,
Jan 19 2021, 10:45:20 Faithealer - Yantra [demo] (1996)


*Artist: Faithealer
*Album: Yantra [demo]
*Year: 1996
*Genre: Progressive Metal
*Country: Germany
*Format: mp3@CBR320kbps
*Size: 40MB

Tracklist:
1. Shattered 06:02
2. Fade Away 05:48
3. Stay 05:15
******************************
Total playing time: 17:05

[more=Technical info]
Input File: 01-Shattered.mp3
Channels : 2
Sample Rate : 44100
Precision : 16-bit
Duration : 00:06:02.05 = 15966581 samples = 27154 CDDA sectors
File Size : 14.5M
Bit Rate : 320k
Sample Encoding: MPEG audio (layer I, II or III)
Comments :
Title=Shattered
Artist=Faithealer (Ger)
Album=Yantra (Demo)
Tracknumber=01
Year=1996
Genre=Metal

[/more]

Register
(6) infiltrator, MetalW, Olethros, Rosen, tashkinoff, varlam4,
Jan 19 2021, 10:38:17 Faithealer - Rainmaker [demo] (1995)


*Artist: Faithealer
*Album: Rainmaker [demo]
*Year: 1995
*Genre: Progressive Metal
*Country: Germany
*Format: mp3@CBR320kbps
*Size: 36MB

Tracklist:
1. In My Dreams 04:48
2. Rainmaker 05:53
3. Turning Tides 04:26
******************************
Total playing time: 15:07

[more=Extended info]Recorded at Fairland Studios, Bochum.
Mastered at Studio Nord, Bremen.
Co-produced by Faithealer.
[/more]

[more=Technical info]
Input File: 01-In My Dreams.mp3
Channels : 2
Sample Rate : 44100
Precision : 16-bit
Duration : 00:04:41.04 = 12394040 samples = 21078.3 CDDA sectors
File Size : 11.2M
Bit Rate : 320k
Sample Encoding: MPEG audio (layer I, II or III)
Comments :
Title=In My Dreams
Artist=Faithealer
Album=Rainmaker (Demo)
Tracknumber=01
Year=1995
Genre=Metal

[/more]

Register
(7) infiltrator, metala, MetalW, Olethros, Rosen, tashkinoff, varlam4,
Jan 19 2021, 10:21:15 Immortal Sin - Demo 1987 [demo] (1987)


*Artist: Immortal Sin
*Album: Demo 1987 [demo]
*Year: 1987
*Genre: Thrash Metal
*Country: United States
*Format: mp3@CBR192kbps
*Size: 25MB

Tracklist:
1. Judgement Day 05:03
2. Dark Castle 04:51
3. Deathstalker 03:42
4. Haste 05:25
******************************
Total playing time: 19:01



[more=Extended info]Band from Milwaukee, Wisconsin.[/more]

[more=Technical info]
Input File: 01-Judgement Day.mp3
Channels : 2
Sample Rate : 44100
Precision : 16-bit
Duration : 00:05:03.06 = 13364946 samples = 22729.5 CDDA sectors
File Size : 7.27M
Bit Rate : 192k
Sample Encoding: MPEG audio (layer I, II or III)
Comments :
Title=Judgement Day
Artist=Immortal Sin (US, WI)
Album=Demo 1987
Tracknumber=01
Year=1987-18-01
Genre=Thrash Metal

[/more]

Register
(11) after21allD, dimcho0, gwar, hell_armageddon, Olethros, Reverend, Rosen, stumpheavyrock, thenecromancer, traitor666, vaalkoth,
Jan 19 2021, 09:57:41 Immortal Sin - Demo 1988 [demo] (1988)


*Artist: Immortal Sin
*Album: Demo 1988 [demo]
*Year: 1988
*Genre: Thrash Metal
*Country: United States
*Format: mp3@CBR192kbps
*Size: 30MB

Tracklist:
1. Sonic Scream 06:27
2. Burned At The Stake 05:12
3. Dark Castle 04:54
4. Eternal Night 03:16
5. Born To Lose 02:37
******************************
Total playing time: 22:26



[more=Extended info]Band from Milwaukee, Wisconsin.[/more]

[more=Technical info]
Input File: 02-Burned At the Stake.mp3
Channels : 2
Sample Rate : 44100
Precision : 16-bit
Duration : 00:05:12.80 = 13794656 samples = 23460.3 CDDA sectors
File Size : 7.51M
Bit Rate : 192k
Sample Encoding: MPEG audio (layer I, II or III)
Comments :
Title=Burned At the Stake
Artist=Immortal Sin (US, WI)
Album=Demo 1988
Tracknumber=02
Year=1988-18-01
Genre=Thrash Metal

[/more]

Register
(4) after21allD, gwar, Reverend, Rosen,
Jan 19 2021, 09:44:52 Malicious - Killing Time [demo] (1992)


*Artist: Malicious
*Album: Killing Time [demo]
*Year: 1992
*Genre: Thrash Metal
*Country: United States
*Format: mp3@CBR128kbps
*Size: 8MB

Tracklist:
1. A Time In Need (Instrumental) 01:08
2. Skin Trade 03:46
3. Killing Time 03:36
******************************
Total playing time: 8:30



[more=Extended info]Band from Petaluma, California (ex-Malicious Plague).[/more]

[more=Technical info]
Input File: 02-Skin Trade.mp3
Channels : 2
Sample Rate : 44100
Precision : 16-bit
Duration : 00:03:46.88 = 10005232 samples = 17015.7 CDDA sectors
File Size : 3.63M
Bit Rate : 128k
Sample Encoding: MPEG audio (layer I, II or III)
Comments :
Title=Skin Trade
Artist=Malicious (US, CA)
Album=Killing Time (Demo)
Tracknumber=02
Year=1992
Genre=Thrash Metal

[/more]

Register
(9) dimcho0, gwar, Olethros, Reverend, Rosen, stumpheavyrock, traitor666, vaalkoth, Z28517,
Jan 17 2021, 11:45:13 Last Crack - Runheadstartscreaming [compilation] (1994)


*Artist: Last Crack
*Album: Runheadstartscreaming [compilation]
*Year: 1994
*Genre: Progressive Metal
*Country: United States
*Format: mp3@CBR256kbps
*Size: 109MB

Tracklist:
1. Squeeze It 04:09
2. Speak The Ocean 02:49
3. Her 03:48
4. Theory 04:12
5. Why? 04:19
6. Forest Mother 04:21
7. Deeper Digging 06:27
8. Fill The Cup 05:19
9. Structures 04:05
10. Try 04:20
11. Beat Of My Blood 05:04
******************************
Total playing time: 48:53




[more=Extended info]Band from Madison, Wisconsin.
Tracks 1, 6, 8 recorded at Sleepless Nights Studios, Madison, WI.
Tracks 3, 5, 7 recorded at Smart Studios, Madison, WI.
Tracks 2, 4, 9 to 11 recorded at Pachyderm Studios, Cannon Falls, MN.
[/more]

[more=Technical info]
Input File: 02-Speak The Ocean.mp3
Channels : 2
Sample Rate : 44100
Precision : 16-bit
Duration : 00:02:49.17 = 7460485 samples = 12687.9 CDDA sectors
File Size : 5.41M
Bit Rate : 256k
Sample Encoding: MPEG audio (layer I, II or III)
Comments :
Title=Speak The Ocean
Artist=Last Crack
Album=RunHeadStartScreaming (Compilation)
Tracknumber=02
Year=1994
Genre=Metal

[/more]

Register
(8) infiltrator, metala, Olethros, Reverend, Rosen, Tino, varlam4, Yngwarr,
Jan 17 2021, 11:32:27 Zimmers Hole - Bound By Fire (1997)


*Artist: Zimmers Hole
*Album: Bound By Fire
*Year: 1997
*Genre: Thrash/Death Metal/Grindcore
*Country: Canada
*Format: mp3@CBR192kbps
*Size: 43MB

Tracklist:
1. Follow 03:26
2. Blister 00:24
3. Pork Rind Toes 02:15
4. Two-Headed Anal Baby / Peanut Butter Kitty 02:31
5. Hell Comes To Breakfast / Fully Packed 03:12
6. Rent-a-Cop / Bread 01:34
7. This Is Metal / Dis 03:25
8. Waste Of Towels 03:35
9. Gospel Sodomy Boy On Blow / Terry 03:30
10. Bound By Fire 02:24
11. S-26 / Doooh (Hidden Track) 02:28
12. Prick Pipe (Hidden Track) 01:38
******************************
Total playing time: 30:22




[more=Extended info]Joke side project of Strapping Young Lad members.[/more]

[more=Technical info]
Input File: 01-Follow.mp3
Channels : 2
Sample Rate : 44100
Precision : 16-bit
Duration : 00:03:26.93 = 9125481 samples = 15519.5 CDDA sectors
File Size : 4.97M
Bit Rate : 192k
Sample Encoding: MPEG audio (layer I, II or III)
Comments :
Title=Follow
Artist=Zimmers Hole (Can)
Album=Bound By Fire
Tracknumber=01
Year=1997-16-01
Genre=Metal

[/more]

Register
(8) andreikun, boby9052, Evilded, infiltrator, Olethros, Rosen, Taakeferd, varlam4,
Jan 17 2021, 10:15:15 Dawn Of Gehenna - The Old [demo] (1994)


*Artist: Dawn Of Gehenna
*Album: The Old [demo]
*Year: 1994
*Genre: Doom Metal
*Country: Estonia
*Format: mp3@CBR192kbps
*Size: 45MB

Tracklist:
1. The Summer Lightning 05:27
2. The Dandelion Aeon 06:00
3. Interlude: Antigone 01:40
4. The Night 04:56
5. Dark Side Of The Earth 05:14
6. Departure 05:48
7. Katharsis 03:59
******************************
Total playing time: 33:04

[more=Extended info]Recorded at Pärnu Mai Centre Studio.[/more]

[more=Technical info]
Input File: 01-The Summer Lightning.mp3
Channels : 2
Sample Rate : 44100
Precision : 16-bit
Duration : 00:05:32.79 = 14675995 samples = 24959.2 CDDA sectors
File Size : 8.09M
Bit Rate : 194k
Sample Encoding: MPEG audio (layer I, II or III)
Comments :
Title=The Summer Lightning
Artist=Dawn of Gehenna
Album=The Old (Demo)
Tracknumber=01
Year=1994
Genre=Doom Metal

[/more]

Register
(9) Evilded, infiltrator, metala, Olethros, randumbum, Reverend, Rosen, VALERY, varlam4,
Jan 17 2021, 10:04:13 Cryptical Realm - Opus Infinity (1999)


*Artist: Cryptical Realm
*Album: Opus Infinity
*Year: 1999
*Genre: Doom Metal/Folk Rock
*Country: Belgium
*Format: mp3@CBR128kbps
*Size: 34MB

Tracklist:
1. Intro 01:38
2. Imman Curaig Maldruin Inso 06:39
3. The Excalibur Sonate: The Lady In The Lake 04:10
4. The Three Nights Of Samhain 08:13
5. Opus Infinity 11:02
6. The Excalibur Sonate II: The Uther Pendragon Pact 06:05
******************************
Total playing time: 37:47

[more=Technical info]
Input File: 02-Imman Curaig Maldruin Inso.mp3
Channels : 2
Sample Rate : 44100
Precision : 16-bit
Duration : 00:06:39.60 = 17622448 samples = 29970.1 CDDA sectors
File Size : 6.40M
Bit Rate : 128k
Sample Encoding: MPEG audio (layer I, II or III)
Comments :
Title=Imman Curaig Maldruin Inso
Artist=Cryptical Realm
Album=Opus Infinity
Tracknumber=2/6
Year=1999
Genre=Metal

[/more]

Register
(9) gwar, infiltrator, metala, Olethros, Reverend, Rosen, sergsazan, thenecromancer, VALERY,
Jan 17 2021, 09:45:36 Devoration - Mortal Hatred [demo] (2004)


*Artist: Devoration
*Album: Mortal Hatred [demo]
*Year: 2004
*Genre: Death Metal/Grindcore
*Country: Brazil
*Format: mp3@CBR320kbps
*Size: 48MB

Tracklist:
1. Mortal Hatred 03:31
2. Despising Life 03:42
3. Abyss To The Death 03:51
4. Putrefaction Of Flesh 03:29
5. Iron Fist (Motörhead cover) 02:42
6. Beneath A Black Sky (Six Feet Under cover) 02:37
******************************
Total playing time: 19:52

[more=Technical info]
Input File: 01-Mortal Hatred.mp3
Channels : 2
Sample Rate : 44100
Precision : 16-bit
Duration : 00:03:33.12 = 9398636 samples = 15984.1 CDDA sectors
File Size : 8.53M
Bit Rate : 320k
Sample Encoding: MPEG audio (layer I, II or III)
Comments :
Title=Mortal Hatred
Artist=Devoration (Bra)
Album=Mortal Hatred (Demo)
Tracknumber=01
Year=2004
Genre=Death Metal

[/more]

Register
(5) infiltrator, Olethros, Rosen, Taakeferd, varlam4,
Jan 17 2021, 09:27:17 Brainchild - The Dream Becomes Obscure [demo] (1991)


*Artist: Brainchild
*Album: The Dream Becomes Obscure [demo]
*Year: 1991
*Genre: Progressive/Thrash Metal
*Country: Switzerland
*Format: mp3@CBR320kbps
*Size: 50MB

Tracklist:
1. The Dream Becomes Obscure 05:29
2. Beyond The Reality 04:04
3. Men Fall Prey 03:01
4. Mind Decay 04:37
5. The Carrier 05:06
******************************
Total playing time: 22:17

[more=Technical info]
Input File: 01-The Dream Becomes Obscure.mp3
Channels : 2
Sample Rate : 44100
Precision : 16-bit
Duration : 00:05:29.53 = 14532273 samples = 24714.7 CDDA sectors
File Size : 13.2M
Bit Rate : 320k
Sample Encoding: MPEG audio (layer I, II or III)
Comments :
Title=The Dream Becomes Obscure
Artist=Brainchild (Switz)
Album=The Dream Becomes Obscure (Demo)
Tracknumber=01
Year=1991
Genre=Thrash Metal

[/more]

Register
(12) Evilded, hell_armageddon, infiltrator, Marek, metala, Olethros, Reverend, Rosen, Tino, varlam4, Yngwarr, Z28517,
Jan 17 2021, 09:15:12 Charan - Tales Of A Blind Man [demo] (1987)


*Artist: Charan
*Album: Tales Of A Blind Man [demo]
*Year: 1987
*Genre: Speed/Heavy Metal
*Country: Germany
*Format: mp3@CBR320kbps
*Size: 43MB

Tracklist:
1. Epitaph 01:15
2. Halloween 03:16
3. Omen 08:58
4. Crowded Tombs 05:33
******************************
Total playing time: 19:02

[more=Extended info]Recorded in June 1987.[/more]

[more=Technical info]
Input File: 02-Halloween.mp3
Channels : 2
Sample Rate : 44100
Precision : 16-bit
Duration : 00:03:16.85 = 8680909 samples = 14763.5 CDDA sectors
File Size : 7.88M
Bit Rate : 320k
Sample Encoding: MPEG audio (layer I, II or III)
Comments :
Title=Halloween
Artist=Charan (Ger)
Album=Tales of A Blind Man (Demo)
Tracknumber=02
Year=1987
Genre=Metal

[/more]

Register
(12) andreikun, dimcho0, infiltrator, metala, Olethros, randumbum, Reverend, Rosen, Taakeferd, tashkinoff, varlam4, Z28517,
Jan 17 2021, 09:07:41 Charan - Immortal In Purgatory [demo] (1987)


*Artist: Charan
*Album: Immortal In Purgatory [demo]
*Year: 1987
*Genre: Speed/Heavy Metal
*Country: Germany
*Format: mp3@CBR320kbps
*Size: 56MB

Tracklist:
1. Cry Out 07:20
2. Torquemada 06:34
3. Empty Lanes 06:23
4. Halloween 04:18
******************************
Total playing time: 24:35

[more=Extended info]Recorded from Jan 3 - Feb 25, 1987.[/more]

[more=Technical info]
Input File: 01-Cry Out.mp3
Channels : 2
Sample Rate : 44100
Precision : 16-bit
Duration : 00:07:20.48 = 19425080 samples = 33035.9 CDDA sectors
File Size : 17.6M
Bit Rate : 320k
Sample Encoding: MPEG audio (layer I, II or III)
Comments :
Title=Cry Out
Artist=Charan (Ger)
Album=Immortal In Purgatory (Demo)
Tracknumber=01
Year=1987
Genre=Metal

[/more]

Register
(12) andreikun, dimcho0, infiltrator, metala, Olethros, randumbum, Reverend, Rosen, Taakeferd, tashkinoff, varlam4, Z28517,

531 Pages V   1 2 3 > » 
- Lo-Fi Version Support form
Copyrights and abuse reports form
Time is now: 24th January 2021 - 00:32:31

Состав ювентус 2014 незаменимый игрок в составе ювентуса.