Welcome Guest ( Log In | Register )

История благодарностей участнику Proteus_666 ::: Спасибо сказали: 88509 раз(а)
Дата поста: В теме: За сообщение: Спасибо сказали:
Yesterday, 12:55:52 Silent Scream - Demo [demo] (1992)
new link:
Register
(1) thenecromancer,
Yesterday, 12:49:30 Paragon X - Demo [demo] (2002)
new link:
Register
(2) RotAnus, wanderer73,
Yesterday, 12:43:34 Silent Darkness - Silent Darkness [demo] (1991)
new link:
Register
(2) thenecromancer, traitor666,
Yesterday, 12:36:50 Silent Scream - Metronome Of Power [ep] (1996)


*Artist: Silent Scream
*Album: Metronome Of Power [ep]
*Year: 1996
*Genre: Heavy Metal
*Country: Germany
*Format: mp3@VBR147kbps
*Size: 13MB

Tracklist:
1. Mr. Future 04:35
2. Giants 04:16
3. Mindless 03:44
******************************
Total playing time: 12:35

[more=Extended info]Recorded at Whitehouse Studios, Cologne, Germany.[/more]

[more=Technical info]
Input File: 01-Mr. Future.mp3
Channels : 2
Sample Rate : 44100
Precision : 16-bit
Duration : 00:04:39.14 = 12310250 samples = 20935.8 CDDA sectors
File Size : 4.99M
Bit Rate : 143k
Sample Encoding: MPEG audio (layer I, II or III)
Comments :
Title=Mr. Future
Artist=Silent Scream (Ger)
Album=Metronome of Power (EP)
Tracknumber=01
Year=1996
Genre=Heavy Metal

[/more]

Register
(3) infiltrator, Olethros, sergsazan,
Yesterday, 11:22:17 Extreme Violence - Living A Neurotic Life [demo] (1989)


*Artist: Extreme Violence
*Album: Living A Neurotic Life [demo]
*Year: 1989
*Genre: Thrash Metal/Crossover
*Country: Brazil
*Format: mp3@CBR192kbps
*Size: 24MB

Tracklist:
1. Living A Neurotic Life 01:21
2. High Society 01:53
3. Fashion 01:30
4. Phantom Functionary 02:23
5. She's The One (Ramones cover) 02:08
6. Dead 01:22
7. Corrupt Faith 01:30
8. Last Visions 02:03
9. Bugbear 01:28
10. Seeking Peace 02:23
******************************
Total playing time: 18:01



[more=Extended info]Recorded in 07/1989 at Sonarte, Campos/RJ - Brazil.[/more]

[more=Technical info]
Input File: 01-Living A Neurotic Life.mp3
Channels : 2
Sample Rate : 44100
Precision : 16-bit
Duration : 00:01:21.41 = 3589961 samples = 6105.38 CDDA sectors
File Size : 1.95M
Bit Rate : 192k
Sample Encoding: MPEG audio (layer I, II or III)
Comments :
Title=Living A Neurotic Life
Artist=Extreme Violence (Bra)
Album=Living A Neurotic Life (Demo)
Tracknumber=01
Year=1989
Genre=Thrash Metal

[/more]

Register
(2) infiltrator, Olethros,
Aug 2 2020, 14:49:21 S.C.E.P.T.R.E. - Retaliation [ep] (2001)


*Artist: S.C.E.P.T.R.E.
*Album: Retaliation [ep]
*Year: 2001
*Genre: Thrash Metal
*Country: Finland
*Format: mp3@CBR128kbps
*Size: 8MB

Tracklist:
1. Retaliation 00:34
2. S.C.E.P.T.R.E. 01:16
3. True Agent Metal 02:01
4. BlackOps 01:58
5. Flag Of Hate (Kreator cover) 03:37
******************************
Total playing time: 9:26

[more=Technical info]
Input File: 02-S.C.E.P.T.R.E..mp3
Channels : 2
Sample Rate : 44100
Precision : 16-bit
Duration : 00:01:16.08 = 3354952 samples = 5705.7 CDDA sectors
File Size : 1.22M
Bit Rate : 128k
Sample Encoding: MPEG audio (layer I, II or III)
Comments :
Title=S.C.E.P.T.R.E.
Artist=S.C.E.P.T.R.E.
Album=Retaliation (EP)
Tracknumber=02
Year=2001
Genre=Thrash Metal

[/more]

Register
(8) boby9052, cast_iron, infiltrator, Olethros, sergsazan, thenecromancer, Wail, wgs73,
Aug 2 2020, 14:38:50 Verigga - Голод [demo] (1997)
new link:
Register
(2) thenecromancer, Wail,
Aug 2 2020, 13:09:35 Imperious Rex - The Beast (2007)


*Artist: Imperious Rex
*Album: The Beast
*Year: 2007
*Genre: Speed/Power Metal
*Country: United States
*Format: mp3@CBR224kbps
*Size: 40MB

Tracklist:
1. The Beast 02:56
2. Total Violence 02:13
3. Better Off Dead 02:20
4. Grindstone 01:52
5. Twice The Power 02:25
6. Full Bore 02:11
7. Path Of Revenge 03:22
8. Flesh To Steel 02:33
9. Bare Fist 01:31
10. Book Of Vengeance 02:07
11. Wild And Free 02:31
******************************
Total playing time: 26:01



[more=Extended info]Band from Los Angeles, California.[/more]

[more=Technical info]
Input File: 01-The Beast.mp3
Channels : 2
Sample Rate : 44100
Precision : 16-bit
Duration : 00:02:56.83 = 7798379 samples = 13262.5 CDDA sectors
File Size : 4.95M
Bit Rate : 224k
Sample Encoding: MPEG audio (layer I, II or III)
Comments :
Title=The Beast
Artist=Imperious Rex
Album=The Beast
Tracknumber=01
Year=2007
Genre=Metal

[/more]

Register
(12) ace73pq, after21allD, andreikun, boby9052, Herrant, infiltrator, metala, Olethros, Rover, sergsazan, Wail, wgs73,
Aug 2 2020, 12:45:30 Howie Bentley - Beyond The Shade Gates [demo] (1993)


*Artist: Howie Bentley
*Album: Beyond The Shade Gates [demo]
*Year: 1993
*Genre: Progressive Power Metal
*Country: United States
*Format: mp3@CBR128kbps
*Size: 22MB

Tracklist:
1. Dreaming With The Incubus 05:45
2. Wicker Man 04:31
3. Unleashing Wrath 05:01
4. On Broken Wings Of Sorrow 08:44
******************************
Total playing time: 24:01

[more=Extended info]Band from Atlanta, Georgia.[/more]

[more=Technical info]
Input File: 01-Dreaming With The Incubus.mp3
Channels : 2
Sample Rate : 44100
Precision : 16-bit
Duration : 00:05:48.15 = 15353327 samples = 26111.1 CDDA sectors
File Size : 5.57M
Bit Rate : 128k
Sample Encoding: MPEG audio (layer I, II or III)
Comments :
Title=Dreaming With The Incubus
Artist=Howie Bentley
Album=Beyond the Shade Gates
Tracknumber=01
Year=1993
Genre=Metal

[/more]

Register
(4) after21allD, infiltrator, Olethros, Wail,
Aug 2 2020, 12:26:20 Agent Metal - Sign Of The Gun (2004)
new link:
Register
(2) varlam4, Wail,
Aug 2 2020, 12:19:09 Agent Metal - Agent Metal (2001)
new link:
Register
(2) varlam4, Wail,
Aug 2 2020, 12:01:29 Agent Metal - Three Words [ep] (2002)
new link:
Register
(2) varlam4, Wail,
Aug 2 2020, 11:38:40 Badrace - The Smokin' Gun [demo] (1989)


*Artist: Badrace
*Album: The Smokin' Gun [demo]
*Year: 1989
*Genre: Heavy Metal
*Country: Italy
*Format: mp3@CBR320kbps
*Size: 58MB

Tracklist:
1. Jump And Raze 05:48
2. Smokin' Gun 05:21
3. Living Without You 04:50
4. Looking Through The Cross 06:37
5. No Exit 06:35
******************************
Total playing time: 29:11

[more=Technical info]
Input File: 01-Jump And Raze.mp3
Channels : 2
Sample Rate : 44100
Precision : 16-bit
Duration : 00:05:48.40 = 15364352 samples = 26129.9 CDDA sectors
File Size : 13.9M
Bit Rate : 320k
Sample Encoding: MPEG audio (layer I, II or III)
Comments :
Title=Jump And Raze
Artist=Badrace
Album=The Smoking Gun (Demo)
Tracknumber=01
Year=1989
Genre=Heavy Metal

[/more]

Register
(5) infiltrator, metala, Olethros, Wail, wgs73,
Aug 2 2020, 09:31:32 Evil One - Evil One [demo] (1990)


*Artist: Evil One
*Album: Evil One [demo]
*Year: 1990
*Genre: Heavy Metal
*Country: Italy
*Format: mp3@CBR320kbps
*Size: 37MB

Tracklist:
1. Tell Me Lord 07:47
2. Mirror 04:14
3. The Last Century 06:07
******************************
Total playing time: 18:08

[more=Technical info]
Input File: 02-Mirror.mp3
Channels : 2
Sample Rate : 44100
Precision : 16-bit
Duration : 00:04:14.20 = 11210220 samples = 19065 CDDA sectors
File Size : 10.2M
Bit Rate : 320k
Sample Encoding: MPEG audio (layer I, II or III)
Comments :
Title=Mirror
Artist=Evil One
Album=Evil One
Tracknumber=02
Year=1990
Genre=Metal

[/more]

Register
(4) infiltrator, Olethros, Wail, wgs73,
Aug 2 2020, 09:06:57 Extinction - 1989 Demo [demo] (1989)


*Artist: Extinction
*Album: 1989 Demo [demo]
*Year: 1989
*Genre: Thrash/Heavy Metal
*Country: United States
*Format: mp3@CBR192kbps
*Size: 18MB

Tracklist:
1. Transition 03:46
2. Ain't Love Grand (Instrumental) 04:03
3. Smash This Warped Machine 05:02
******************************
Total playing time: 12:51




[more=Extended info]pre-Transition (San Francisco, California).[/more]

[more=Technical info]
Input File: 01-Transition.mp3
Channels : 2
Sample Rate : 44100
Precision : 16-bit
Duration : 00:03:46.78 = 10001042 samples = 17008.6 CDDA sectors
File Size : 5.44M
Bit Rate : 192k
Sample Encoding: MPEG audio (layer I, II or III)
Comments :
Title=Transition
Artist=Extinction (US, CA)
Album=1989 Demo
Tracknumber=01
Year=1989
Genre=Thrash Metal

[/more]

Register
(6) Evilded, infiltrator, metala, Olethros, Wail, wgs73,
Aug 2 2020, 08:48:45 Extinction - Delirium Of Selfdestroying [demo] (1996)
new link:
Register
(3) stumpheavyrock, thenecromancer, Wail,
Aug 2 2020, 08:29:38 Extinction - Fatality [ep] (2020)


*Artist: Extinction
*Album: Fatality [ep]
*Year: 2020
*Genre: Death Metal
*Country: Russian Federation
*Format: mp3@CBR320kbps
*Size: 38MB

Tracklist:
1. Carrion 02:46
2. Food For Maggots 02:37
3. Life Inside The Tomb 03:51
4. Extinction 03:55
5. Worker Of Morgue 03:07
******************************
Total playing time: 16:16



[more=Extended info]Reunion of Kostroma's band.
Old trax (circa 1992-1994) were completely rerecorded by:
Konstantin Kamenschikov - Drums;
Alexander Kukin - Guitars;
Dmitry Zuev - Vocals.
[/more]

[more=Technical info]
Input File: 01-Carrion.mp3
Channels : 2
Sample Rate : 44100
Precision : 16-bit
Duration : 00:02:46.46 = 7341062 samples = 12484.8 CDDA sectors
File Size : 6.66M
Bit Rate : 320k
Sample Encoding: MPEG audio (layer I, II or III)
Comments :
Title=Carrion
Artist=Extinction
Album=Fatality
Tracknumber=01
Year=2020
Genre=Death Metal

[/more]

Register
(12) BugEyes, cesar, infiltrator, john73, kranger, Olethros, stumpheavyrock, tschunioronbeer, VALERY, Wail, wgs73, wn129aa,
Jul 30 2020, 11:41:45 Havoc - Meclet! [demo] (1995)


*Artist: Havoc
*Album: Meclet! [demo]
*Year: 1995
*Genre: Thrash/Heavy Metal
*Country: Italy
*Format: mp3@CBR320kbps
*Size: 53MB

Tracklist:
1. Attack (Instrumental) 02:22
2. Black Sky 05:27
3. Wind Of Death (Wind Prayer) 05:26
4. Meclet! 06:10
5. Funeral Bed 06:13
******************************
Total playing time: 25:38

[more=Extended info]Recorded and mixed in December 1994 at C. Rocchetto Studios.[/more]

[more=Technical info]
Input File: 02-Black Sky.mp3
Channels : 2
Sample Rate : 44100
Precision : 16-bit
Duration : 00:05:27.85 = 14457965 samples = 24588.4 CDDA sectors
File Size : 13.1M
Bit Rate : 320k
Sample Encoding: MPEG audio (layer I, II or III)
Comments :
Title=Black Sky
Artist=Havoc (Ita)
Album=Meclet! (Demo)
Tracknumber=02
Year=1995
Genre=Thrash Metal

[/more]

Register
(10) after21allD, Evilded, infiltrator, Olethros, Reverend, Rosen, stumpheavyrock, Svafrlami, Wail, wgs73,
Jul 30 2020, 11:11:09 Cavillator - Circulation [demo] (1995)


*Artist: Cavillator
*Album: Circulation [demo]
*Year: 1995
*Genre: Power/Thrash Metal
*Country: Germany
*Format: mp3@CBR128kbps
*Size: 39MB

Tracklist:
1. Circulation 04:18
2. Beyond The Shadows 01:20
3. Never Again 06:55
4. Reflections Of My Life 04:05
5. Equivocal 00:32
6. Memories Long Gone 02:55
7. Timeless 04:06
8. New Shores 01:01
9. Golden Age 04:37
10. War Aggression Prejudice 06:45
11. Indifference 06:09
******************************
Total playing time: 42:43

[more=Extended info]Trax 9-11 were recorded for the forthcoming CD re-release of this demo, but the deal was fake.
Recorded July & September 1994 by Alex Detig. Mixed March 1995 by Hippie and Cavillator at Sound & Words Studio.
[/more]

[more=Technical info]
Input File: 01-Circulation.mp3
Channels : 2
Sample Rate : 44100
Precision : 16-bit
Duration : 00:04:18.54 = 11401570 samples = 19390.4 CDDA sectors
File Size : 4.21M
Bit Rate : 130k
Sample Encoding: MPEG audio (layer I, II or III)
Comments :
Title=Circulation
Artist=Cavillator
Album=Circulation (Demo)
Tracknumber=01/18
Year=1995
Genre=Power/Speed Metal

[/more]

Register
(13) doomsword11, Evilded, gwar, infiltrator, Olethros, Reverend, Rosen, scorpionmk, Spork, Svafrlami, thenecromancer, Wail, wgs73,
Jul 30 2020, 10:39:37 Siege of Hate - Return To Ashes [demo] (1998)
slight better sounding rip (also 128 kbps) including demo + live set + rehearsal trax recorded in 1997 (59 mb):
Register
(2) scorpionmk, Wail,
Jul 30 2020, 09:11:27 Decadenza - Frolicking.../It Follows [single] (1993)
new link:
Register
(5) 555, lobosolitario, scorpionmk, thenecromancer, Wail,
Jul 29 2020, 13:02:08 Chimera - Demo 1995 [demo] (1995)


*Artist: Chimera
*Album: Demo 1995 [demo]
*Year: 1995
*Genre: Gothic/Heavy Metal
*Country: Czech Republic
*Format: mp3@CBR192kbps
*Size: 47MB

Tracklist:
1. Create & Destroy 05:34
2. Memory 01:04
3. Lazy Cats 03:03
4. Bye, L.D. 06:33
5. Way To Hell 02:49
6. You Cry 04:35
7. Three Worlds 02:50
8. Song For Heaven 06:32
******************************
Total playing time: 33:00




[more=Technical info]
Input File: 01-Create & Destroy.mp3
Channels : 2
Sample Rate : 44100
Precision : 16-bit
Duration : 00:05:34.98 = 14772750 samples = 25123.7 CDDA sectors
File Size : 8.04M
Bit Rate : 192k
Sample Encoding: MPEG audio (layer I, II or III)
Comments :
Title=Create & Destroy
Artist=Chimera
Album=Demo 1995
Tracknumber=01
Year=1995
Genre=Metal

[/more]

Register
(11) 555, after21allD, Cartman223, infiltrator, Olethros, Reverend, Rosen, stumpheavyrock, Svafrlami, valera2010, Wail,
Jul 29 2020, 12:41:43 Chimera - Chimera [demo] (1993)


*Artist: Chimera
*Album: Chimera [demo]
*Year: 1993
*Genre: Gothic/Heavy Metal
*Country: Czech Republic
*Format: mp3@CBR192kbps
*Size: 33MB

Tracklist:
1. Memory 01:05
2. Always 04:19
3. Our Life 03:40
4. Feelings 03:34
5. Way To Hell 02:49
6. My Home 04:35
7. Like A Paradise 03:49
******************************
Total playing time: 23:51




[more=Technical info]
Input File: 02-Always.mp3
Channels : 2
Sample Rate : 44100
Precision : 16-bit
Duration : 00:04:19.12 = 11427236 samples = 19434.1 CDDA sectors
File Size : 6.22M
Bit Rate : 192k
Sample Encoding: MPEG audio (layer I, II or III)
Comments :
Title=Always
Artist=Chimera (Cze)
Album=Chimera (Demo)
Tracknumber=02
Year=1993
Genre=Metal

[/more]

Register
(11) 555, after21allD, Cartman223, infiltrator, Olethros, Reverend, Rosen, stumpheavyrock, Svafrlami, valera2010, Wail,
Jul 29 2020, 12:25:32 Clinical - Journey To The Gate Of Eternity [demo] (1995)


*Artist: Clinical
*Album: Journey To The Gate Of Eternity [demo]
*Year: 1995
*Genre: Death Metal
*Country: Slovakia
*Format: mp3@CBR320kbps
*Size: 96MB

Tracklist:
1. Escape Out Of Disconsolate Life 05:26
2. Contra Vim Mortis Non Crescit Herba In Hortis 05:24
3. Journey To The Gate Of Eternity 04:54
4. The Face Of Fear 05:15
5. The End Of Life 05:55
6. In The Grip Of illusions 05:40
7. Hate 05:33
8. Mental Power 05:18
******************************
Total playing time: 43:25

[more=Extended info]Recorded at Exponent studio, Hlohovec, Slovakia, 1995.[/more]

[more=Technical info]
Input File: 01-Escape Out Of Disconsolate Life.mp3
Channels : 2
Sample Rate : 44100
Precision : 16-bit
Duration : 00:05:26.07 = 14379643 samples = 24455.2 CDDA sectors
File Size : 13.0M
Bit Rate : 320k
Sample Encoding: MPEG audio (layer I, II or III)
Comments :
Title=Escape Out Of Disconsolate Life
Artist=CLINICAL
Album=Journey To The Gate Of Eternity (Demo)
Tracknumber=01
Year=1995
Genre=Death Metal

[/more]

Register
(12) 555, Evilded, infiltrator, Olethros, Reverend, Rosen, scorpionmk, Spork, stumpheavyrock, Svafrlami, thenecromancer, Wail,
Jul 29 2020, 12:08:24 Powerface - Where From? [ep] (1995)


*Artist: Powerface
*Album: Where From? [ep]
*Year: 1995
*Genre: Groove/Thrash Metal
*Country: United States
*Format: mp3@CBR192kbps
*Size: 51MB

Tracklist:
1. D.K.M. 04:57
2. Eyes That Lie 05:15
3. Pain 04:37
4. Drifter 05:44
5. Wretch 04:34
6. Future Tense 06:16
7. Take This Hell (Live) 05:57
******************************
Total playing time: 37:20

[more=Extended info]Band from Michigan.[/more]

[more=Technical info]
Input File: 01-D.K.M..mp3
Channels : 2
Sample Rate : 44100
Precision : 16-bit
Duration : 00:04:57.03 = 13098847 samples = 22277 CDDA sectors
File Size : 7.13M
Bit Rate : 192k
Sample Encoding: MPEG audio (layer I, II or III)
Comments :
Title=D.K.M.
Artist=Powerface
Album=Where From? (EP)
Tracknumber=01
Year=1995
Genre=Metal

[/more]

Register
(10) 555, after21allD, boby9052, grimmstone, gwar, infiltrator, Olethros, Rosen, scorpionmk, Svafrlami,

503 Pages V   1 2 3 > » 
- Lo-Fi Version Support form
Copyrights and abuse reports form
Time is now: 4th August 2020 - 20:54:33

Состав ювентус 2014 незаменимый игрок в составе ювентуса.