Welcome Guest ( Log In | Register )

История благодарностей участнику Proteus_666 ::: Спасибо сказали: 74946 раз(а)
Дата поста: В теме: За сообщение: Спасибо сказали:
Yesterday, 13:44:34 Mortary - Amen [ep] (1997)


*Artist: Mortary
*Album: Amen [ep]
*Year: 1997
*Genre: Melodic Death Metal
*Country: Austria
*Format: mp3@CBR320kbps
*Size: 53MB

Tracklist:
1. Melodie Of Tragedy 01:29
2. Mortary 04:46
3. Remember 05:42
4. Knights Of Doom 03:00
5. Godless 06:40
6. The End Of The Beginning 01:40
******************************
Total playing time: 23:17

[more=Technical info]
Input File: 02-Mortary.mp3
Channels : 2
Sample Rate : 44100
Precision : 16-bit
Duration : 00:04:46.92 = 12653216 samples = 21519.1 CDDA sectors
File Size : 11.5M
Bit Rate : 320k
Sample Encoding: MPEG audio (layer I, II or III)
Comments :
Title=Mortary
Artist=Mortary (Austria)
Album=Amen (EP)
Tracknumber=02
Year=1997
Genre=Death Metal

[/more]

Register
(3) metalwoman, Olethros, zhol,
Yesterday, 13:25:43 Mandatory Suicide - Dead Society [demo] (1991)


*Artist: Mandatory Suicide
*Album: Dead Society [demo]
*Year: 1991
*Genre: Heavy Metal
*Country: Brazil
*Format: mp3@CBR320kbps
*Size: 45MB

Tracklist:
1. One Minute (Intro) 01:08
2. Dead Society 04:36
3. V.I.P. 04:42
4. Free No More 04:22
5. The Sentence 05:00
******************************
Total playing time: 19:48

[more=Technical info]
Input File: 02-Dead Society.mp3
Channels : 2
Sample Rate : 44100
Precision : 16-bit
Duration : 00:04:36.84 = 12208556 samples = 20762.9 CDDA sectors
File Size : 11.1M
Bit Rate : 320k
Sample Encoding: MPEG audio (layer I, II or III)
Comments :
Title=Dead Society
Artist=Mandatory Suicide (Bra)
Album=Dead Society (Demo)
Tracknumber=02
Year=1991
Genre=Thrash Metal

[/more]

Register
(2) Olethros, Wail,
Yesterday, 13:11:37 Lifebleed - A Wardrobe Full Of Bodies (1998)


*Artist: Lifebleed
*Album: A Wardrobe Full Of Bodies
*Year: 1998
*Genre: Death Metal/Hardcore
*Country: United States
*Format: mp3@CBR192kbps
*Size: 43MB

Tracklist:
1. Sun Dried Earth 03:09
2. Locust Coil Nourishment 03:04
3. Tear Of Muscle 03:41
4. 10w30 03:09
5. There Being Dead 02:57
6. Now I Am 03:21
7. Inject Asphalt 03:16
8. Faceplant Failure 03:35
9. Stab You 03:25
10. Complex 02:20
******************************
Total playing time: 31:57

[more=Extended info]Band from Lockport.
Recorded at Watchmen Studios
[/more]

[more=Technical info]
Input File: 01-Sun Dried Earth.mp3
Channels : 2
Sample Rate : 44100
Precision : 16-bit
Duration : 00:03:09.24 = 8345572 samples = 14193.1 CDDA sectors
File Size : 4.54M
Bit Rate : 192k
Sample Encoding: MPEG audio (layer I, II or III)
Comments :
Title=Sun Dried Earth
Artist=Lifebleed
Album=A Wardrobe Full of Bodies
Tracknumber=01
Year=1998
Genre=Death Metal

[/more]

Register
(1) Olethros,
Oct 14 2019, 14:10:09 Cryteria - End Of Time [demo] (1991)
new link:
Register
(6) infiltrator, James817, thenecromancer, traitor666, Wail, Z28517,
Oct 12 2019, 14:59:04 Machinery - World Of Confusion [demo] (1989)


*Artist: Machinery
*Album: World Of Confusion [demo]
*Year: 1989
*Genre: Thrash Metal
*Country: Germany
*Format: mp3@CBR320kbps
*Size: 73MB

Tracklist:
1. Flames Of Intolerance 04:42
2. Brutal Brain 04:33
3. Complacent 05:48
4. World Of Confusion 07:55
5. Searching The Cure 07:10
6. O.S.B.C.C. 01:13
******************************
Total playing time: 31:21

[more=Extended info]Produced at Zuckerfabrik studios, Stuttgart, 21-24 June 1989.
Originally uploaded by mr.Strappado on HMR.
Archive file includes scans.
[/more]

[more=Technical info]
Input File: 01-Flames of Intolerance.mp3
Channels : 2
Sample Rate : 44100
Precision : 16-bit
Duration : 00:04:47.44 = 12676280 samples = 21558.3 CDDA sectors
File Size : 11.5M
Bit Rate : 320k
Sample Encoding: MPEG audio (layer I, II or III)
Comments :
Title=Flames of Intolerance
Artist=Machinery
Album=World of Confusion
Tracknumber=01
Year=1989
Genre=Thrash Metal

[/more]

Register
(10) artscald, craP_cillA, doomsword11, Evilded, infiltrator, Olethros, Rosen, scorpionmk, wgs73, Z28517,
Oct 12 2019, 09:50:05 Hedonistic Cravings - Lead Us Into Temptation (1992)


*Artist: Hedonistic Cravings
*Album: Lead Us Into Temptation
*Year: 1992
*Genre: Thrash Metal
*Country: United States
*Format: mp3@CBR192kbps
*Size: 71MB

Tracklist:
1. Await The Impact 05:30
2. Beaten With The Ugly Stick 03:45
3. Jack In The Box 01:52
4. Blooming Of A Black Flower 04:18
5. Severed Heads 04:45
6. Slowly Drained 04:40
7. Sexual Frustration 03:58
8. Mount Her From The Backside 04:32
9. Tunnel Rat 06:18
10. Improper Burial 06:08
11. Hon, Dead Neopolitan Ape 01:33
12. She's Got A Headache 02:52
13. The Ending 01:43
******************************
Total playing time: 51:54

[more=Extended info]Band from Charlottesville, Virginia.[/more]

[more=Technical info]
Input File: 02-Beaten With The Ugly Stick.mp3
Channels : 2
Sample Rate : 44100
Precision : 16-bit
Duration : 00:03:45.19 = 9931055 samples = 16889.5 CDDA sectors
File Size : 5.41M
Bit Rate : 192k
Sample Encoding: MPEG audio (layer I, II or III)
Comments :
Title=Beaten With The Ugly Stick
Artist=Hedonistic Cravings
Album=Lead Us Into Temptation
Tracknumber=2/13
Year=1992
Genre=Thrash Metal
Discnumber=1/1

[/more]

Register
(8) artscald, boby9052, DTGB, metala, Olethros, Rosen, scorpionmk, Wail,
Oct 12 2019, 09:34:58 Judgment - Chemical Amusement Park [demo] (1988)


*Artist: Judgment
*Album: Chemical Amusement Park [demo]
*Year: 1988
*Genre: Thrash Metal
*Country: Ireland
*Format: mp3@VBR270kbps
*Size: 34MB

Tracklist:
1. Awakenings 05:26
2. Chemical Amusement Park 04:02
3. Personality Crisis 03:11
4. Immortal Death 04:42
******************************
Total playing time: 17:21




[more=Extended info]Thanks RunningWild_AT for this demo.[/more]

[more=Technical info]
Input File: 02-Chemical Amusement Park.mp3
Channels : 2
Sample Rate : 44100
Precision : 16-bit
Duration : 00:04:02.34 = 10687062 samples = 18175.3 CDDA sectors
File Size : 8.43M
Bit Rate : 278k
Sample Encoding: MPEG audio (layer I, II or III)
Comments :
Title=Chemical Amusement Park
Artist=Judgment (Irl)
Album=Chemical Amusement Park
Tracknumber=02
Year=1988
Genre=Thrash Metal

[/more]

Register
(5) Olethros, Rosen, scorpionmk, Wail, Z28517,
Oct 10 2019, 13:07:30 Berserkr - The Voice Of Our Ancestors (1994)
new link (128 kbps, 51 MB):
Register
(2) pichileon, thenecromancer,
Oct 10 2019, 12:33:48 Guillotine - Confession Of А Blasphemer (1994)
fresh link:
Register
(4) grinderrr, pichileon, scorpionmk, wendigo,
Oct 10 2019, 12:30:13 Guillotine - Humanity In Blood [ep] (1993)
fresh link:
Register
(4) grinderrr, pichileon, RunningWild_AT, scorpionmk,
Oct 10 2019, 12:16:07 Mindwarp - New Life [demo] (2001)


*Artist: Mindwarp
*Album: New Life [demo]
*Year: 2001
*Genre: Death Metal
*Country: France
*Format: mp3@CBR192kbps
*Size: 22MB

Tracklist:
1. Broken Land 04:01
2. Human Annihilation 04:39
3. No Tolerance 03:49
4. In Your Eyes 04:03
******************************
Total playing time: 16:32




[more=Technical info]
Input File: 01-Broken Land.mp3
Channels : 2
Sample Rate : 44100
Precision : 16-bit
Duration : 00:03:59.48 = 10560892 samples = 17960.7 CDDA sectors
File Size : 5.75M
Bit Rate : 192k
Sample Encoding: MPEG audio (layer I, II or III)
Comments :
Title=Broken Land
Artist=Mindwarp (Fra)
Album=New Life (Demo)
Tracknumber=01
Year=2001
Genre=Death Metal

[/more]

Register
(5) Evilded, Olethros, Rosen, scorpionmk, thenecromancer,
Oct 10 2019, 11:34:29 Necronom - A Darkening Path (2001)


*Artist: Necronom
*Album: A Darkening Path
*Year: 2001
*Genre: Death Metal
*Country: United States
*Format: mp3@CBR192kbps
*Size: 34MB

Tracklist:
1. Deadface: A Tale of Purity 04:16
2. Sanctuary 02:14
3. Shepherd To The Faithless a) Alone in the Rain b) Quandaries of the Spirit 10:23
4. In The Arms Of Nepenthe 04:09
5. Ex Tribas Lunaes 04:15
******************************
Total playing time: 25:17



[more=Extended info]Band from New Jersey.
Recorded at Toad Hall.
[/more]

[more=Technical info]
Input File: 01-Deadface - A Tale of Purity.mp3
Channels : 2
Sample Rate : 44100
Precision : 16-bit
Duration : 00:04:14.42 = 11219878 samples = 19081.4 CDDA sectors
File Size : 6.11M
Bit Rate : 192k
Sample Encoding: MPEG audio (layer I, II or III)
Comments :
Title=Deadface - A Tale of Purity
Artist=Necronom (US, NJ)
Album=A Darkening Path
Tracknumber=01
Year=2001
Genre=Death Metal

[/more]

Register
(8) Evilded, James817, jollo, multizwilling, Olethros, Rosen, scorpionmk, wanderer73,
Oct 10 2019, 11:23:13 Hypo-Christians - Demo 1996 [demo] (1996)


*Artist: Hypo-Christians
*Album: Demo 1996 [demo]
*Year: 1996
*Genre: Grindcore/Noise
*Country: United States
*Format: mp3@CBR192kbps
*Size: 16MB

Tracklist:
1. Intro: Jesus Who? 01:25
2. Hypo-Christians 01:31
3. No! 02:17
4. For Their Benefit 01:05
5. One Million Religions. One Million Lies 00:59
6. You Can't Change Me 00:44
7. Mass Murder (On Hypo-Christians) 02:58
******************************
Total playing time: 10:59

[more=Extended info]Band from Texas.[/more]

[more=Technical info]
Input File: 01-Intro - Jesus Who.mp3
Channels : 2
Sample Rate : 44100
Precision : 16-bit
Duration : 00:01:25.17 = 3755865 samples = 6387.53 CDDA sectors
File Size : 2.04M
Bit Rate : 192k
Sample Encoding: MPEG audio (layer I, II or III)
Comments :
Title=Intro / Jesus Who
Artist=Hypo-Christians (US)
Album=Demo 1996
Tracknumber=01
Year=1996
Genre=Grindcore

[/more]

Register
(6) Evilded, FUDEDOR, Olethros, Rosen, RunningWild_AT, wgs73,
Oct 10 2019, 10:20:40 One Last Sin - When Guilt Reigns (1999)


*Artist: One Last Sin
*Album: When Guilt Reigns
*Year: 1999
*Genre: Hardcore/Thrash Metal
*Country: United States
*Format: mp3@CBR320kbps
*Size: 77MB

Tracklist:
1. When Guilt Reigns 02:39
2. Time Of Torment 02:32
3. Mercy 02:46
4. Cringing 01:51
5. Watching It Burn 02:44
6. Downcast 03:58
7. Without A Trace 03:10
8. Face Of Neglect 02:26
9. Classical Song 01:26
10. Epiphany 02:48
11. With Our Demands 04:16
12. Scorn 01:53
13. Outrage 02:52
14. Fall Of Darkness 04:18
******************************
Total playing time: 39:39

[more=Extended info]Recorded, mixed and mastered on June 12, 13, 17, 21 1999 at Mind Magic Studio in Poughkeepsie, NY.[/more]

[more=Technical info]
Input File: 01-When Guilt Reigns.mp3
Channels : 2
Sample Rate : 44100
Precision : 16-bit
Duration : 00:02:39.61 = 7038845 samples = 11970.8 CDDA sectors
File Size : 6.38M
Bit Rate : 320k
Sample Encoding: MPEG audio (layer I, II or III)
Comments :
Title=When Guilt Reigns
Artist=One Last Sin
Album=When Guilt Reigns
Tracknumber=01
Year=1999
Genre=Crossover/Death

[/more]

Register
(7) Anger, artscald, Olethros, pichileon, Rosen, scrollbar, Z28517,
Oct 10 2019, 09:52:12 Alarum - Alarum [ep] (1992)


*Artist: Alarum
*Album: Alarum [ep]
*Year: 1992
*Genre: Heavy/Thrash Metal
*Country: New Zealand
*Format: mp3@CBR128kbps
*Size: 26MB

Tracklist:
1. Eternal Slave 06:41
2. Omen 02:16
3. Doomsday Clock 06:32
4. Misanthropedic Nation 09:08
5. Purgatory 04:28
******************************
Total playing time: 29:05



[more=Extended info]Recorded in April 1992 at Musicare Studios, Hamilton, NZ.[/more]

[more=Technical info]
Input File: 01-Eternal Slave.mp3
Channels : 2
Sample Rate : 44100
Precision : 16-bit
Duration : 00:06:41.10 = 17688642 samples = 30082.7 CDDA sectors
File Size : 6.42M
Bit Rate : 128k
Sample Encoding: MPEG audio (layer I, II or III)
Comments :
Title=Eternal Slave
Artist=Alarum (N.Zealand)
Album=Alarum EP
Tracknumber=01
Year=1992
Genre=Metal

[/more]

Register
(8) Evilded, metala, Olethros, pichileon, Rosen, scorpionmk, thenecromancer, Z28517,
Oct 10 2019, 09:41:11 Ain't No Use - Exquisite Tenderness (1996)


*Artist: Ain't No Use
*Album: Exquisite Tenderness
*Year: 1996
*Genre: Thrash Metal
*Country: Germany
*Format: mp3@CBR320kbps
*Size: 111MB

Tracklist:
1. Frustrated 04:29
2. Only Human 04:20
3. I Wanna Know 04:07
4. I Feel Sick 04:35
5. God Of My Addiction 05:19
6. Old Man 04:16
7. Burn 04:55
8. It's About Time 04:56
9. Strong Man 03:59
10. Wasted Love 05:23
11. Enough Is Enough 03:19
******************************
Total playing time: 49:38

[more=Technical info]
Input File: 01-Frustrated.mp3
Channels : 2
Sample Rate : 44100
Precision : 16-bit
Duration : 00:04:29.11 = 11867531 samples = 20182.9 CDDA sectors
File Size : 10.8M
Bit Rate : 320k
Sample Encoding: MPEG audio (layer I, II or III)
Comments :
Title=Frustrated
Artist=Aint' No Use (Ger)
Album=Exquisite Tenderness
Tracknumber=01
Year=1996
Genre=Thrash Metal

[/more]

Register
(8) boby9052, craP_cillA, Evilded, gwar, Olethros, pichileon, Rosen, scorpionmk,
Oct 8 2019, 13:29:03 Sepsis - To Make Rotten [demo] (1991)


*Artist: Sepsis
*Album: To Make Rotten [demo]
*Year: 1991
*Genre: Death Metal
*Country: United States
*Format: mp3@CBR192kbps
*Size: 38MB

Tracklist:
1. Spewing Innards 03:33
2. Necro Introvert Pesticide Injector 03:50
3. Fistula Bleeds 04:33
4. Foetal Embolism 01:29
5. Winter Of Despair 01:49
6. It's Too Late 03:18
7. Pain Hotel 02:37
8. Nustage 02:18
9. Fear Of What Is 03:57
******************************
Total playing time: 27:24



[more=Extended info]Band from Eugene, Oregon.
Recorded on September 23rd and 24th, 1991 at Michael Cooper Studios, Eugene, Oregon.
[/more]

[more=Technical info]
Input File: 01-Spewing Innards.mp3
Channels : 2
Sample Rate : 44100
Precision : 16-bit
Duration : 00:03:29.07 = 9219943 samples = 15680.2 CDDA sectors
File Size : 5.02M
Bit Rate : 192k
Sample Encoding: MPEG audio (layer I, II or III)
Comments :
Title=Spewing Innards
Artist=Sepsis (US, OR)
Album=To Make Rotten (Demo)
Tracknumber=01
Year=1991
Genre=Death Metal

[/more]

Register
(13) Evilded, FUDEDOR, infiltrator, MP101M, Olethros, Pinhead666, Rosen, RunningWild_AT, scorpionmk, stumpheavyrock, thenecromancer, wanderer73, wgs73,
Oct 8 2019, 13:14:39 Overture - Fallen Empire (1997)


*Artist: Overture
*Album: Fallen Empire
*Year: 1997
*Genre: Death Metal
*Country: United States
*Format: mp3@CBR192kbps
*Size: 75MB

Tracklist:
1. Cycles Of Blood 04:17
2. Purity 06:45
3. The Angels Decend 04:31
4. Chapter 1: Retribution 02:24
5. Martyr 05:32
6. The End Unto Those Mortal 06:00
7. Sacrifice 02:31
8. Chapter II: Deliverence 01:37
9. Revel In Darkness 04:48
10. Purgatory 05:35
11. Fallen Empire II 05:02
12. Chapter III: Ingestion 06:46
******************************
Total playing time: 55:48



[more=Extended info]Band from Olathe, Kansas.[/more]

[more=Technical info]
Input File: 01-Cycles of Blood.mp3
Channels : 2
Sample Rate : 44100
Precision : 16-bit
Duration : 00:04:17.66 = 11362718 samples = 19324.4 CDDA sectors
File Size : 6.18M
Bit Rate : 192k
Sample Encoding: MPEG audio (layer I, II or III)
Comments :
Title=Cycles of Blood
Artist=Overture (US, KS)
Album=Fallen Empire
Tracknumber=01
Year=1997
Genre=Death Metal

[/more]

Register
(11) draht, Evilded, infiltrator, jollo, Olethros, pichileon, Pinhead666, Rosen, stumpheavyrock, Tino, wgs73,
Sep 28 2019, 08:21:35 Intrepid - The Message [demo] (1989)
new link:
Register
(4) morbidangelo, pichileon, thenecromancer, Z28517,
Sep 25 2019, 12:24:06 Self-Murder Climax - Demo [demo] (2008)
new link:
Register
(3) RotAnus, RunningWild_AT, scorpionmk,
Sep 25 2019, 12:20:06 Phantasm - Sleep Like The Dead Recent And Vintage [demo] (1992)
new link:
Register
(5) James817, Pinhead666, RunningWild_AT, scorpionmk, thenecromancer,
Sep 25 2019, 12:15:32 Helllegion - Mortal Radiation [demo] (1993)
new link:
Register
(3) pichileon, scorpionmk, Wail,
Sep 25 2019, 12:12:12 Conscious Rot - The Soil [demo] (1994)
4 demos in one archive (172 MB):
1992 demo - Paranoia In the Evening
1993 demo - Blood For Blood
1993 demo - Congenital Passivity
1994 demo - The Soil
too lazy to do separate links in each separate subject:
Register
(3) LVXXVL, pichileon, scorpionmk,
Sep 25 2019, 11:42:19 Trast - Death Awaits Us All (1999)


*Artist: Trast
*Album: Death Awaits Us All
*Year: 1999
*Genre: Thrash/Heavy Metal
*Country: Japan
*Format: mp3@CBR320kbps
*Size: 105MB

Tracklist:
1. Death Awaits Us All 00:25
2. Dive Into Death 04:24
3. Dead To The World 03:12
4. Go Ahead To Heavy-Metal 04:19
5. Black Blaze 04:53
6. Death Awaits 05:27
7. Roar Of Soul 08:11
8. Nude Facts 04:05
9. Fight For Dear Life 04:36
10. I'll Trust 07:11
******************************
Total playing time: 46:43

[more=Technical info]
Input File: 01-Death Awaits Us All.mp3
Channels : 2
Sample Rate : 44100
Precision : 16-bit
Duration : 00:00:25.13 = 1108277 samples = 1884.82 CDDA sectors
File Size : 1.01M
Bit Rate : 321k
Sample Encoding: MPEG audio (layer I, II or III)
Comments :
Artist=Trast
Album=Death Awaits Us All
Tracknumber=1
Year=1999

[/more]

Register
(3) Olethros, pichileon, Rosen,
Sep 25 2019, 11:27:55 Hyaena - Kill Without Mercy [demo] (1986)


*Artist: Hyaena
*Album: Kill Without Mercy [demo]
*Year: 1986
*Genre: Heavy Metal
*Country: Italy
*Format: mp3@CBR192kbps
*Size: 34MB

Tracklist:
1. Kill Without Mercy 05:35
2. Unlimited Power 05:25
3. Queen Of Metal 06:40
4. Wrathchild 07:17
******************************
Total playing time: 24:57

[more=Technical info]
Input File: 01-Kill Without Mercy.mp3
Channels : 2
Sample Rate : 44100
Precision : 16-bit
Duration : 00:05:35.69 = 14803841 samples = 25176.6 CDDA sectors
File Size : 8.06M
Bit Rate : 192k
Sample Encoding: MPEG audio (layer I, II or III)
Comments :
Title=Kill Without Mercy
Artist=Hyaena (Ita)
Album=Kill Without Mercy (Demo)
Tracknumber=01
Year=1986
Genre=Heavy Metal

[/more]

Register
(7) Olethros, pichileon, Rosen, RunningWild_AT, thenecromancer, Wail, wgs73,

451 Pages V   1 2 3 > » 
- Lo-Fi Version Support form
Copyrights and abuse reports form
Time is now: 18th October 2019 - 07:26:57

Состав ювентус 2014 незаменимый игрок в составе ювентуса.