Welcome Guest ( Log In | Register )

История благодарностей участнику Proteus_666 ::: Спасибо сказали: 73182 раз(а)
Дата поста: В теме: За сообщение: Спасибо сказали:
Yesterday, 14:09:49 Melissa - In Mourning (1995)
new link:
Register
(1) wendigo,
Yesterday, 13:55:12 Melissa - Eyes Of The Earth (1993)


*Artist: Melissa
*Album: Eyes Of The Earth
*Year: 1993
*Genre: Thrash Metal
*Country: Bulgaria
*Format: mp3@CBR192kbps
*Size: 42MB

Tracklist:
1. Wild Fantasy 04:39
2. The Way 07:20
3. Dreams 05:20
4. Mystery 04:45
5. Transitions 01:20
6. Anathema 07:35
******************************
Total playing time: 30:59

[more=Extended info]Unreleased LP.[/more]

[more=Technical info]
Input File: 01-Wild Fantasy.mp3
Channels : 2
Sample Rate : 44100
Precision : 16-bit
Duration : 00:04:39.18 = 12312014 samples = 20938.8 CDDA sectors
File Size : 6.70M
Bit Rate : 192k
Sample Encoding: MPEG audio (layer I, II or III)
Comments :
Title=Wild Fantasy
Artist=Melissa (Bulg)
Album=Eyes Of The Earth
Tracknumber=01
Year=1993
Genre=Thrash Metal

[/more]

Register
(8) boby9052, Evilded, metala, Rosen, sergsazan, stumpheavyrock, wgs73, Z28517,
Yesterday, 13:33:09 Ira Deum - Reincarnation Of The Immortal Evil (1995)
new link (320 kbps):
Register
(1) thenecromancer,
Yesterday, 12:59:19 Comatose - Exdead (1993)


*Artist: Comatose
*Album: Exdead
*Year: 1993
*Genre: Progressive Thrash Metal
*Country: Bulgaria
*Format: mp3@CBR320kbps
*Size: 114MB

Tracklist:
1. Camel In The Desert 06:14
2. Exdead 05:05
3. Incubus 05:59
4. Little Symphony 05:01
5. Barren Fields 05:00
6. Two In One 04:40
7. Aweke In The Sleep 05:23
8. Breath 05:30
9. Ecclesiastes 05:05
10. The Past 02:06
******************************
Total playing time: 50:03

[more=Extended info]Recorded at City Studio - Sofia in September 1992.[/more]

[more=Technical info]
Input File: 02-Exdead.mp3
Channels : 2
Sample Rate : 44100
Precision : 16-bit
Duration : 00:05:08.02 = 13583594 samples = 23101.4 CDDA sectors
File Size : 12.3M
Bit Rate : 320k
Sample Encoding: MPEG audio (layer I, II or III)
Comments :
Title=Exdead
Artist=Comatose (Bulg)
Album=Exdead
Tracknumber=02
Year=1993-12-09
Genre=Thrash Metal

[/more]

Register
(7) avkruchinin, Evilded, kalmametallinen, metala, Rosen, stumpheavyrock, Z28517,
Yesterday, 12:41:19 No Future - The Total Death Ii. [demo] (1994)


*Artist: No Future
*Album: The Total Death Ii. [demo]
*Year: 1994
*Genre: Power/Thrash Metal
*Country: Hungary
*Format: mp3@CBR192kbps
*Size: 39MB

Tracklist:
1. Jack The Ripper 05:17
2. Horror House 06:18
3. Shark Attack 02:44
4. Delayed Action Death 05:26
5. Demon Of Perversion 04:36
6. Day Of Massace 04:04
******************************
Total playing time: 28:25



[more=Extended info]ex-Carnage.[/more]

[more=Technical info]
Input File: 02-Horror House.mp3
Channels : 2
Sample Rate : 44100
Precision : 16-bit
Duration : 00:06:18.71 = 16701243 samples = 28403.5 CDDA sectors
File Size : 9.09M
Bit Rate : 192k
Sample Encoding: MPEG audio (layer I, II or III)
Comments :
Title=Horror House
Artist=No Future (Hung)
Album=The Total Death II. demo
Tracknumber=02
Year=1994
Genre=Metal

[/more]

Register
(6) Evilded, gwar, Rosen, stumpheavyrock, wgs73, Z28517,
Jun 24 2019, 12:35:45 Inferi - Demo 1 [demo] (1994)


*Artist: Inferi
*Album: Demo 1 [demo]
*Year: 1994
*Genre: Speed Metal
*Country: Mexico
*Format: mp3@CBR128kbps
*Size: 14MB

Tracklist:
1. Win Or Lose 03:37
2. Quest For An Answer 03:51
3. One Thousand Lights 04:15
4. Decline Of Innocence 04:18
******************************
Total playing time: 16:01

[more=Technical info]
Input File: 01-Win Or Lose.mp3
Channels : 2
Sample Rate : 44100
Precision : 16-bit
Duration : 00:03:37.45 = 9589545 samples = 16308.8 CDDA sectors
File Size : 3.48M
Bit Rate : 128k
Sample Encoding: MPEG audio (layer I, II or III)
Comments :
Title=Win Or Lose
Artist=Inferi (Mex)
Album=Demo
Tracknumber=01
Year=1994
Genre=Metal

[/more]

Register
(5) Evilded, infiltrator, Rosen, Svafrlami, wgs73,
Jun 24 2019, 12:20:48 Insanity - Sentence Of Suffer [demo] (1992)


*Artist: Insanity
*Album: Sentence Of Suffer [demo]
*Year: 1992
*Genre: Death/Thrash Metal
*Country: Spain
*Format: mp3@CBR192kbps
*Size: 16MB

Tracklist:
1. Anarchy In The UK (Sex Pistols cover) 02:44
2. Dying In Eternity 04:18
3. Sentence Of Suffer 04:49
******************************
Total playing time: 11:51

[more=Extended info]Band from Don Benito, Badajoz, Extremadura.[/more]

[more=Technical info]
Input File: 02-Dying In Eternity.mp3
Channels : 2
Sample Rate : 44100
Precision : 16-bit
Duration : 00:04:18.99 = 11421503 samples = 19424.3 CDDA sectors
File Size : 6.22M
Bit Rate : 192k
Sample Encoding: MPEG audio (layer I, II or III)
Comments :
Title=Dying In Eternity
Artist=Insanity (Spa)
Album=Sentence of Suffer (Demo)
Tracknumber=02
Year=1992
Genre=Metal

[/more]

Register
(8) Alfredoelruso, Evilded, MP101M, Rosen, stumpheavyrock, Svafrlami, thenecromancer, wgs73,
Jun 24 2019, 12:02:12 Insufficient Memory - Insufficient Memory [demo] (1993)
new link:
Register
(2) Evilded, Z28517,
Jun 24 2019, 11:58:09 Horror - Demo 1993 [demo] (1993)
new link:
Register
(3) Alfredoelruso, Evilded, wendigo,
Jun 22 2019, 23:50:37 Immortal Flesh - Unleashed Terror [ep] (2005)


*Artist: Immortal Flesh
*Album: Unleashed Terror [ep]
*Year: 2005
*Genre: Brutal Death Metal
*Country: United States
*Format: mp3@CBR192kbps
*Size: 43MB

Tracklist:
1. Desolate Salvation 04:51
2. Sadistic Cleansing 03:21
3. Infernal Demise 04:41
4. Unleashed Terror 05:05
5. Doomed Existence (Rehersal 2003) 05:52
6. Motivated By Hatred (From Below Sessions 2003) 03:58
7. Infernal Demise (From Below Sessions 2003) 03:52
******************************
Total playing time: 31:40

[more=Extended info]Band from New York City, New York (ex-Angel Flesh).
Debut CD release. Original released and the collection tracks from old and recent Immortal Flesh. Extra 3 tracks taken from Immortal Flesh previous rehearsal tracks.
p.s. Their drummer Angel Cotte now plays in Demolition Hammer.
[/more]

[more=Technical info]
Input File: 01-Desolate Salvation.mp3
Channels : 2
Sample Rate : 44100
Precision : 16-bit
Duration : 00:04:51.02 = 12833894 samples = 21826.4 CDDA sectors
File Size : 6.99M
Bit Rate : 192k
Sample Encoding: MPEG audio (layer I, II or III)
Comments :
Title=Desolate Salvatio
Artist=Immortal Flesh
Album=Unleashed Terror (EP)
Tracknumber=01
Year=2005
Genre=Death Metal

[/more]

Register
(5) Corpuscul, Pinhead666, Rosen, Svafrlami, Герб,
Jun 22 2019, 23:34:52 Wort - Hatemachine [demo] (1995)


*Artist: Wort
*Album: Hatemachine [demo]
*Year: 1995
*Genre: Death/Thrash Metal
*Country: Italy
*Format: mp3@VBR146kbps
*Size: 20MB

Tracklist:
1. Black Sunrise 04:36
2. Sign In Flesh 03:00
3. ... And The Sky Became Red 03:06
4. Projections 03:00
5. The Essence 04:40
6. World's Decay 00:58
******************************
Total playing time: 19:20



[more=Technical info]
Input File: 01-Black Sunrise.mp3
Channels : 2
Sample Rate : 44100
Precision : 16-bit
Duration : 00:04:23.94 = 11639798 samples = 19795.6 CDDA sectors
File Size : 4.69M
Bit Rate : 142k
Sample Encoding: MPEG audio (layer I, II or III)
Comments :
Title=Black Sunrise
Artist=Wort (Ita)
Album=Hatemachine
Tracknumber=01
Year=1995
Genre=Death Metal

[/more]

Register
(9) Corpuscul, Evilded, metala, Rosen, stumpheavyrock, Svafrlami, thenecromancer, wgs73, Z28517,
Jun 22 2019, 22:13:19 Inner Sanctvm - Shadows In The Mirror [demo] (1991)


*Artist: Inner Sanctvm
*Album: Shadows In The Mirror [demo]
*Year: 1991
*Genre: Death/Thrash Metal
*Country: Uruguay
*Format: mp3@CBR192kbps
*Size: 24MB

Tracklist:
1. Deathless Prophet 03:41
2. Seatzled Klotsed 03:55
3. Seas Of Dread 04:35
4. Shadows In The Mirror 05:53
******************************
Total playing time: 18:04




[more=Extended info]Demo recorded by the band as promotional tape for their debut album, recorded a couple of years later and longly delayed.[/more]

[more=Technical info]
Input File: 01-Deathless Prophet.mp3
Channels : 2
Sample Rate : 44100
Precision : 16-bit
Duration : 00:03:41.45 = 9765725 samples = 16608.4 CDDA sectors
File Size : 5.31M
Bit Rate : 192k
Sample Encoding: MPEG audio (layer I, II or III)
Comments :
Title=Deathless Prophet
Artist=Inner Sanctum (Urug)
Album=Shadow In The Mirror (Demo)
Tracknumber=01
Year=1991
Genre=Death Metal

[/more]

Register
(7) Evilded, Olethros, Rosen, stumpheavyrock, Svafrlami, Wail, wgs73,
Jun 22 2019, 21:47:16 Impact Wrench - Greatest Hits Live [live] (1993)


*Artist: Impact Wrench
*Album: Greatest Hits Live [live]
*Year: 1993
*Genre: Thrash Metal
*Country: United States
*Format: mp3@CBR320kbps
*Size: 42MB

Tracklist:
1. Noxious Clouds Of Fear 04:43
2. Burdoned By Concern / Absolute Trust 04:10
3. I Could... (Hold A Grudge) 02:13
4. When All's Erased 02:36
5. Amidst The Confusion 03:36
******************************
Total playing time: 17:18



[more=Extended info]Band from Saint Paul, Minnesota.
Recorded live 5/31/93.
[/more]

[more=Technical info]
Input File: 01-Noxious Clouds of Fear.mp3
Channels : 2
Sample Rate : 44100
Precision : 16-bit
Duration : 00:04:43.91 = 12520255 samples = 21293 CDDA sectors
File Size : 11.4M
Bit Rate : 320k
Sample Encoding: MPEG audio (layer I, II or III)
Comments :
Title=Noxious Clouds of Fear
Artist=Impact Wrench
Album=Greastest Hits Live
Tracknumber=01
Year=1993
Genre=Thrash Metal

[/more]

Register
(7) canadaspaceman, Olethros, Rosen, RunningWild_AT, slack, Svafrlami, wgs73,
Jun 22 2019, 20:58:05 In Extremis - Punishment [demo] (1996)


*Artist: In Extremis
*Album: Punishment [demo]
*Year: 1996
*Genre: Melodic Death Metal
*Country: Poland
*Format: mp3@CBR128kbps
*Size: 40MB

Tracklist:
1. Intro 00:59
2. Fifth Element 03:58
3. Punishment 05:59
4. Scarlet 05:03
5. Tears In My Eyes 02:52
6. Light In The Dark 05:14
7. Salty Ocean 05:55
8. Earthquake 06:25
9. Butterfly 04:22
10. I 03:03
11. Outro 01:20
******************************
Total playing time: 45:10



[more=Technical info]
Input File: 02-Fifth Element.mp3
Channels : 2
Sample Rate : 44100
Precision : 16-bit
Duration : 00:03:58.40 = 10513308 samples = 17879.8 CDDA sectors
File Size : 3.82M
Bit Rate : 128k
Sample Encoding: MPEG audio (layer I, II or III)
Comments :
Title=Fifth Element
Artist=In Extremis (Pol)
Album=Punishment (Demo)
Tracknumber=02
Year=1996
Genre=Death Metal

[/more]

Register
(6) Evilded, Rosen, Svafrlami, thenecromancer, wgs73, yavamir,
Jun 22 2019, 20:08:10 Betrayel - Death Shall Overcome [demo] (1989)
"Dead Shall Overcome" (2018), released by Divebomb Records, flac rip + scans:
including 1987 demo cassette 'Helpless Souls', 1987 demo cassette 'Death Shall Overcome', demo cassette 'Raging Death Sessions', 1989 'Metal Massacre Sessions' compilation + live trax taken from the 1988 'Live at Casino Intl (Merced, CA)'.
Register
(3) thenecromancer, Wail, wgs73,
Jun 22 2019, 01:08:47 Unicorn - The Weirdest Of Tales [demo] (1991)
A Collection of Worlds, Part II (1989 demo), 128 kbps/34 mb, 2 первых трэка к сожалению не полные:
Register
(2) boba, Corpuscul,
Jun 22 2019, 00:45:43 Impious - Infernal Predomination [demo] (1995)


*Artist: Impious
*Album: Infernal Predomination [demo]
*Year: 1995
*Genre: Death/Thrash Metal
*Country: Sweden
*Format: mp3@CBR192kbps
*Size: 38MB

Tracklist:
1. Intro 00:35
2. Lords Of Brutality 05:17
3. Concrete Melting 04:46
4. Infernal Predomination 05:18
5. Formaldehyde 04:45
6. Caught In Flesh 02:49
7. Desert Of Death 04:06
******************************
Total playing time: 27:36




[more=Extended info]Band from Trollhättan.[/more]

[more=Technical info]
Input File: 02-Lords Of Brutality.mp3
Channels : 2
Sample Rate : 44100
Precision : 16-bit
Duration : 00:05:17.24 = 13990240 samples = 23792.9 CDDA sectors
File Size : 7.66M
Bit Rate : 193k
Sample Encoding: MPEG audio (layer I, II or III)
Comments :
Title=Lords Of Brutality
Artist=Impious
Album=Infernal Predomination (Demo)
Tracknumber=02
Year=1995
Genre=Death Metal

[/more]

Register
(9) Evilded, GorAtheist, Olethros, Rosen, stumpheavyrock, Svafrlami, wgs73, Xutun, Z28517,
Jun 22 2019, 00:30:57 Chaos And Technocracy - Chaos And Technocracy [ep] (2017)


*Artist: Chaos And Technocracy
*Album: Chaos And Technocracy [ep]
*Year: 2017
*Genre: Progressive Thrash Metal
*Country: Italy
*Format: mp3@CBR192kbps
*Size: 27MB

Tracklist:
1. The Others 03:28
2. A Better World 04:58
3. Believe Me 06:28
4. Savior 04:49
******************************
Total playing time: 19:43



[more=Technical info]
Input File: 01-The Others.mp3
Channels : 2
Sample Rate : 44100
Precision : 16-bit
Duration : 00:03:28.00 = 9172712 samples = 15599.9 CDDA sectors
File Size : 4.99M
Bit Rate : 192k
Sample Encoding: MPEG audio (layer I, II or III)
Comments :
Title=The Others
Artist=Chaos And Technocracy (Ita)
Album=Chaos And Technocracy
Tracknumber=01
Year=2017
Genre=Metal

[/more]

Register
(7) Corpuscul, GorAtheist, grinderrr, Olethros, Rosen, stumpheavyrock, Yarri,
Jun 21 2019, 10:35:09 Contrivisti - Advance Demo [demo] (1994)


*Artist: Contrivisti
*Album: Advance Demo [demo]
*Year: 1994
*Genre: Death/Doom Metal
*Country: United States
*Format: mp3@CBR256kbps
*Size: 12MB

Tracklist:
1. Saints Are Nailed On Top Of Crosses 03:45
2. I Return 01:52
3. Screams Of The Crucified 01:12
******************************
Total playing time: 6:49

[more=Extended info]Band from New York.[/more]

[more=Technical info]
Input File: 01-Saints Are Nailed On Top of Crosses.mp3
Channels : 2
Sample Rate : 44100
Precision : 16-bit
Duration : 00:03:45.31 = 9936127 samples = 16898.2 CDDA sectors
File Size : 7.21M
Bit Rate : 256k
Sample Encoding: MPEG audio (layer I, II or III)
Comments :
Title=Saints Are Nailed On Top of Crosses
Artist=Contrivisti (USA)
Album=Advance Demo
Tracknumber=01
Year=1994
Genre=Death Metal

[/more]

Register
(11) Evilded, FUDEDOR, krotovich, LordOvDarkness, Rosen, RunningWild_AT, Sphinx7, stumpheavyrock, thenecromancer, VALERY, wgs73,
Jun 20 2019, 09:52:40 Hideous Sun Demons - Twisted (1995)
new link:
Register
(4) Corpuscul, MEmethuselah, wgs73, Z28517,
Jun 20 2019, 09:43:41 Incursion Dementa - We're Just Us [demo] (1988)


*Artist: Incursion Dementa
*Album: We're Just Us [demo]
*Year: 1988
*Genre: Thrash/Heavy Metal
*Country: Netherlands
*Format: mp3@VBR151kbps
*Size: 24MB

Tracklist:
1. Born Out Of Home... 07:21
2. Restored Remember & Die 05:29
3. A.P.S. / Nucosm (Anti Poser Song) 05:03
4. Nightmare 04:48
******************************
Total playing time: 22:41



[more=Extended info]Recorded at Face Sound studio.[/more]

[more=Technical info]
Input File: 01-Born Out of Home....mp3
Channels : 2
Sample Rate : 44100
Precision : 16-bit
Duration : 00:07:21.39 = 19465343 samples = 33104.3 CDDA sectors
File Size : 7.55M
Bit Rate : 137k
Sample Encoding: MPEG audio (layer I, II or III)
Comments :
Title=Born Out of Home...
Artist=Incursion Dementa (Hol)
Album=We're Just Us
Tracknumber=01
Year=1988
Genre=Thrash Metal

[/more]

Register
(6) Evilded, Rosen, RunningWild_AT, stumpheavyrock, Svafrlami, Z28517,
Jun 16 2019, 13:18:56 Babylon - Left To Die [demo] (1987)


*Artist: Babylon
*Album: Left To Die [demo]
*Year: 1987
*Genre: Thrash Metal
*Country: United States
*Format: mp3@CBR320kbps
*Size: 65MB

Tracklist:
1. Autism 00:57
2. Setting An Example 01:38
3. No Prisoners 02:50
4. Babylon 02:13
5. Poverty 02:46
6. I Won't 03:23
7. Left To Die 03:28
8. Suicide 02:25
9. M.I.L. 01:50
10. Stop 01:15
11. Chronicle 02:14
12. This Is A Farm Song 04:46
******************************
Total playing time: 29:45

[more=Extended info]Band from Anaheim, California.
Thanks T-Mag Crew for this upload.
[/more]

[more=Technical info]
Input File: 05-Poverty.mp3
Channels : 2
Sample Rate : 44100
Precision : 16-bit
Duration : 00:02:57.27 = 7817739 samples = 13295.5 CDDA sectors
File Size : 7.09M
Bit Rate : 320k
Sample Encoding: MPEG audio (layer I, II or III)
Comments :
Title=Poverty
Artist=Babylon
Album=Left To Die (demo)
Tracknumber=05
Year=1987-19-04
Genre=Thrash Metal

[/more]

Register
(9) avkruchinin, Diflock, Evilded, FUDEDOR, gwar, Rosen, thenecromancer, wgs73, Z28517,
Jun 14 2019, 13:13:23 Apoplex - Straight To Zero [demo] (1993)


*Artist: Apoplex
*Album: Straight To Zero [demo]
*Year: 1993
*Genre: Thrash Metal
*Country: Germany
*Format: mp3@CBR128kbps
*Size: 24MB

Tracklist:
1. Vous Nous Faites Malade 03:43
2. My Heart Goes Off Beat 04:48
3. G.W.F.O. 05:03
4. Never The Less 06:22
5. One Whisper In The Silence 01:45
6. Seven 05:15
******************************
Total playing time: 26:56

[more=Extended info]Thanx mr. Strappado for uploading this.[/more]

[more=Technical info]
Input File: 01-Vous Nous Faites Malade.mp3
Channels : 2
Sample Rate : 44100
Precision : 16-bit
Duration : 00:03:43.96 = 9876416 samples = 16796.6 CDDA sectors
File Size : 3.58M
Bit Rate : 128k
Sample Encoding: MPEG audio (layer I, II or III)
Comments :
Title=Vous Nous Faites Malade
Artist=Apoplex
Album=Straight To Zero (Demo)
Tracknumber=01
Year=1993
Genre=Thrash Metal

[/more]

Register
(8) Evilded, gwar, Rosen, RunningWild_AT, Svafrlami, thenecromancer, wgs73, Z28517,
Jun 14 2019, 12:21:48 World Funeral - Suffer Life [demo] (1991)
new link:
Register
(5) Corpuscul, RotAnus, thenecromancer, traitor666, Z28517,
Jun 14 2019, 12:17:59 World Funeral - Pushin' Morality [demo] (1990)
new link:
Register
(5) Corpuscul, RotAnus, thenecromancer, traitor666, Z28517,

446 Pages V   1 2 3 > » 
- Lo-Fi Version Support form
Copyrights and abuse reports form
Time is now: 27th June 2019 - 13:26:16

Состав ювентус 2014 незаменимый игрок в составе ювентуса.