Welcome Guest ( Log In | Register )

История благодарностей участнику Proteus_666 ::: Спасибо сказали: 102173 раз(а)
Дата поста: В теме: За сообщение: Спасибо сказали:
Today, 13:41:44 Vox Interium - Promo ‘99 [demo] (1999)
new link:
Register
(1) thenecromancer,
Today, 13:36:56 Vox Interium - Głos Wewnętrzny [demo] (1999)
new link:
Register
(1) thenecromancer,
Today, 13:25:19 Amenthis - Dualism [demo] (1994)
new link:
Register
(1) thenecromancer,
Today, 13:07:20 Varech - Demo 1994 [demo] (1994)
new link:
Register
(1) thenecromancer,
Apr 16 2021, 15:40:00 Virago - Demo [demo] (1988)


*Artist: Virago
*Album: Demo [demo]
*Year: 1988
*Genre: Thrash Metal
*Country: Finland
*Format: mp3@CBR320kbps
*Size: 33MB

Tracklist:
1. Hazevisitor 03:17
2. Proclaim 04:40
3. Indisposed 03:15
4. Beerboys 03:36
******************************
Total playing time: 14:48

[more=Technical info]
Input File: 01-Hazevisitor.mp3
Channels : 2
Sample Rate : 44100
Precision : 16-bit
Duration : 00:03:17.99 = 8731271 samples = 14849.1 CDDA sectors
File Size : 7.92M
Bit Rate : 320k
Sample Encoding: MPEG audio (layer I, II or III)
Comments :
Title=Hazevisitor
Artist=Virago
Album=Demo
Tracknumber=01
Year=1988
Genre=Metal

[/more]

Register
(11) dimcho0, hell_armageddon, infiltrator, killingod, Marek, metala, Olethros, stumpheavyrock, thenecromancer, varlam4, wgs73,
Apr 16 2021, 15:29:20 Destiny Dreaming - Horizons [demo] (1994)


*Artist: Destiny Dreaming
*Album: Horizons [demo]
*Year: 1994
*Genre: Progressive Metal
*Country: Germany
*Format: mp3@CBR320kbps
*Size: 73MB

Tracklist:
1. Vanished 00:54
2. Infinity 07:37
3. Labyrinths Of Stranger 05:29
4. Delightful Tears 04:41
5. Stones 05:29
6. Acre Of Barrenness 07:20
******************************
Total playing time: 31:30

[more=Extended info]Recorded at Psycho-Sound Studio, K between February & July 1994, except "Acre of Barrenness" recorded April 1993.
Thanx HMR forum for this demo!
[/more]

[more=Technical info]
Input File: 01-Vanished & Infinity.mp3
Channels : 2
Sample Rate : 44100
Precision : 16-bit
Duration : 00:08:31.67 = 22564427 samples = 38374.9 CDDA sectors
File Size : 20.5M
Bit Rate : 320k
Sample Encoding: MPEG audio (layer I, II or III)
Comments :
Title=Vanished & Infinity
Artist=Destiny Dreaming (Ger)
Album=Horizons (Demo)
Tracknumber=01
Year=1994
Genre=Metal

[/more]

Register
(10) analbleeding, andgrek28, caro, infiltrator, killingod, metala, nord6666, Olethros, razor7, varlam4,
Apr 16 2021, 15:11:07 Censura - Key Of The Abattoir [demo] (1995)
320 kbps (provided by uaforever_ua):
Register
(2) stumpheavyrock, wanderer73,
Apr 16 2021, 15:04:32 Obscure Disaster - Zeitalter Der Unvernunft [demo] (1995)


*Artist: Obscure Disaster
*Album: Zeitalter Der Unvernunft [demo]
*Year: 1995
*Genre: Death Metal
*Country: Germany
*Format: mp3@CBR192kbps
*Size: 32MB

Tracklist:
1. The Opening (Intro) / Menschenfleisch 07:02
2. Your Last Dream 04:33
3. God's Enemy? 05:00
4. Obscure Life Disaster 04:02
5. Objective 04:05
******************************
Total playing time: 24:42

[more=Extended info]Recorded June 16-18, 1995 at Fresh-Tone (Freshtone) Studios, Lübeck, Germany.[/more]

[more=Technical info]
Input File: 01-The Opening (Intro) - Menschenfleisch.mp3
Channels : 2
Sample Rate : 44100
Precision : 16-bit
Duration : 00:07:02.08 = 18613640 samples = 31655.9 CDDA sectors
File Size : 10.1M
Bit Rate : 192k
Sample Encoding: MPEG audio (layer I, II or III)
Comments :
Title=The Opening (Intro) / Menschenfleisch
Artist=Obscure Disaster
Album=Zeitalter der Unvernunft (Demo)
Tracknumber=01
Year=1995
Genre=Death Metal

[/more]

Register
(10) caro, enslaver, infiltrator, killingod, Olethros, randumbum, stumpheavyrock, varlam4, wanderer73, wgs73,
Apr 16 2021, 14:54:08 Temptator - Medieval Torture [demo] (1992)


*Artist: Temptator
*Album: Medieval Torture [demo]
*Year: 1992
*Genre: Thrash/Death Metal
*Country: Poland
*Format: mp3@CBR192kbps
*Size: 17MB

Tracklist:
1. Medieval Torture 04:55
2. And Luhen Lue Die 03:47
3. Mortal Enemy 04:01
******************************
Total playing time: 12:43

[more=Extended info]Rehearsal demo.[/more]

[more=Technical info]
Input File: 01-Medieval Torture.mp3
Channels : 2
Sample Rate : 44100
Precision : 16-bit
Duration : 00:04:55.07 = 13012455 samples = 22130 CDDA sectors
File Size : 7.08M
Bit Rate : 192k
Sample Encoding: MPEG audio (layer I, II or III)
Comments :
Title=Medieval Torture
Artist=Temptator (Pol)
Album=Medieval Torture (Reh.demo)
Tracknumber=01
Year=1992
Genre=Metal

[/more]

Register
(11) caro, dermarsoran, infiltrator, killingod, metala, nord6666, Olethros, stumpheavyrock, varlam4, wgs73, Z28517,
Apr 16 2021, 14:44:47 Catacomb - Rehearsal-91 [demo] (1991)


*Artist: Catacomb
*Album: Rehearsal-91 [demo]
*Year: 1991
*Genre: Death Metal
*Country: Italy
*Format: mp3@CBR192kbps
*Size: 20MB

Tracklist:
1. Spontaneous Combustion 04:34
2. Foreseen Epitaph 05:24
3. The State Of Apparent Death (Catalepsy) 04:59
******************************
Total playing time: 14:57

[more=Extended info]Recorded June 1991 in two hours at "La Cantina", Rome, Italy.
Thanx mr. Mahler Haze for posting this!
[/more]

[more=Technical info]
Input File: 01-Spontaneous Combustion.mp3
Channels : 2
Sample Rate : 44100
Precision : 16-bit
Duration : 00:04:34.48 = 12104656 samples = 20586.1 CDDA sectors
File Size : 6.59M
Bit Rate : 192k
Sample Encoding: MPEG audio (layer I, II or III)
Comments :
Title=Spontaneous Combustion
Artist=Catacomb (Ita)
Album=Rehearsal-91
Tracknumber=01
Year=1991
Genre=Death Metal

[/more]

Register
(12) andreikun, deatholocaust, enslaver, hell_armageddon, infiltrator, killingod, Olethros, randumbum, smysl, stumpheavyrock, varlam4, wgs73,
Apr 16 2021, 14:17:41 School Of Violence - Promo [demo] (1987)


*Artist: School Of Violence
*Album: Promo [demo]
*Year: 1987
*Genre: Thrash Metal
*Country: United States
*Format: mp3@CBR192kbps
*Size: 31MB

Tracklist:
1. Religion 04:24
2. Stranger 03:34
3. Reign Of The Clown 03:41
4. Following Blind 02:16
5. U.S.B.S. 03:06
6. Man At The Top 02:21
******************************
Total playing time: 19:22

[more=Extended info]Band from New York.[/more]

[more=Technical info]
Input File: 01-Religion.mp3
Channels : 2
Sample Rate : 44100
Precision : 16-bit
Duration : 00:04:24.37 = 11658805 samples = 19827.9 CDDA sectors
File Size : 6.35M
Bit Rate : 192k
Sample Encoding: MPEG audio (layer I, II or III)
Comments :
Title=Religion
Artist=School Of Violence (US, NY)
Album=Promo
Tracknumber=01
Year=1987
Genre=Thrash Metal

[/more]

Register
(11) after21allD, caro, gwar, hell_armageddon, infiltrator, killingod, Olethros, stumpheavyrock, thenecromancer, varlam4, wgs73,
Apr 15 2021, 14:30:56 Velvet - The Days Of Sorrow [demo] (1996)


*Artist: Velvet
*Album: The Days Of Sorrow [demo]
*Year: 1996
*Genre: Doom/Death Metal
*Country: Poland
*Format: mp3@CBR192kbps
*Size: 28MB

Tracklist:
1. The Last Way 05:00
2. Remembering The Beauty 05:46
3. Separation And Sadness 02:26
4. The Days Of Sorrow 07:15
******************************
Total playing time: 20:27

[more=Extended info]Recorded on July 01-04, 1996.[/more]

[more=Technical info]
Input File: 01-The Last Way.mp3
Channels : 2
Sample Rate : 44100
Precision : 16-bit
Duration : 00:05:00.89 = 13269337 samples = 22566.9 CDDA sectors
File Size : 7.22M
Bit Rate : 192k
Sample Encoding: MPEG audio (layer I, II or III)
Comments :
Title=The Last Way
Artist=Velvet (Pol)
Album=The Days of Sorrow (Demo)
Tracknumber=01
Year=1996
Genre=Metal

[/more]

Register
(12) infiltrator, killingod, LightWizard, nord6666, Olethros, RENыч, Reverend, stumpheavyrock, thenecromancer, uaforever_ua, VALERY, Xtohar,
Apr 15 2021, 14:04:04 Void - In The Beginning There Was... [single] (1992)
new link:
Register
(3) hell_armageddon, stumpheavyrock, Xtohar,
Apr 15 2021, 13:56:43 Vortex Core - Deep In The Core [demo] (1995)


*Artist: Vortex Core
*Album: Deep In The Core [demo]
*Year: 1995
*Genre: Thrash Metal
*Country: Portugal
*Format: mp3@CBR192kbps
*Size: 32MB

Tracklist:
1. Beyond The Mirror 04:22
2. Stages 05:41
3. Symptom Of The Universe (Black Sabbath cover) 04:00
4. Brainwashed 05:49
5. Igrejahmanah 03:21
******************************
Total playing time: 23:13

[more=Technical info]
Input File: 01-Beyond the Mirror.mp3
Channels : 2
Sample Rate : 44100
Precision : 16-bit
Duration : 00:04:22.70 = 11585070 samples = 19702.5 CDDA sectors
File Size : 6.31M
Bit Rate : 192k
Sample Encoding: MPEG audio (layer I, II or III)
Comments :
Title=Beyond the Mirror
Artist=Vortex Core (Port)
Album=Deep In the Core (Demo)
Tracknumber=01
Year=1995
Genre=Thrash Metal

[/more]

Register
(13) after21allD, dimcho0, infiltrator, killingod, metala, nord6666, Reverend, stumpheavyrock, thenecromancer, traitor666, wgs73, Xtohar, Z28517,
Apr 15 2021, 13:37:51 Naven - Finally Dead [demo] (1996)


*Artist: Naven
*Album: Finally Dead [demo]
*Year: 1996
*Genre: Doom/Gothic Metal
*Country: Portugal
*Format: mp3@CBR128kbps
*Size: 20MB

Tracklist:
1. Eyes Of Illusion 05:01
2. Full Moon 05:52
3. Lost In Life 05:24
4. Finally Dead 04:07
******************************
Total playing time: 20:24

[more=Extended info]Thanx uaforever_ua for sharing this![/more]

[more=Technical info]
Input File: 01-Eyes of Illusion.mp3
Channels : 2
Sample Rate : 44100
Precision : 16-bit
Duration : 00:05:01.09 = 13277937 samples = 22581.5 CDDA sectors
File Size : 5.23M
Bit Rate : 139k
Sample Encoding: MPEG audio (layer I, II or III)
Comments :
Title=Eyes of Illusion
Artist=Naven
Album=Finally Dead (Demo)
Tracknumber=1/4
Year=1996
Genre=Gothic Doom Metal

[/more]

Register
(8) Cartman223, infiltrator, killingod, Olethros, Reverend, thenecromancer, uaforever_ua, VALERY,
Apr 15 2021, 13:25:26 Evocation - Evocation [demo] (1999)


*Artist: Evocation
*Album: Evocation [demo]
*Year: 1999
*Genre: Death/Doom Metal
*Country: Austria
*Format: mp3@CBR256kbps
*Size: 35MB

Tracklist:
1. Blind Eyes 07:05
2. I Am Here 04:14
3. The Gates To The Autumn Light 04:54
4. New Creation 04:07
******************************
Total playing time: 20:20

[more=Extended info]Thanx uaforever_ua for sharing this demo![/more]

[more=Technical info]
Input File: 01-Blind Eyes.mp3
Channels : 2
Sample Rate : 44100
Precision : 16-bit
Duration : 00:07:05.56 = 18767372 samples = 31917.3 CDDA sectors
File Size : 13.6M
Bit Rate : 256k
Sample Encoding: MPEG audio (layer I, II or III)
Comments :
Title=Blind Eyes
Artist=Evocation
Album=Evocation (Demo)
Tracknumber=01
Year=1999
Genre=Doom/Death Metal

[/more]

Register
(12) Borderline1991, infiltrator, killingod, kimkayoung, LightWizard, nord6666, Olethros, Reverend, stumpheavyrock, thenecromancer, uaforever_ua, Xtohar,
Apr 15 2021, 13:17:13 Evocation - The Day As The Sun Forever Disappears [demo] (1996)


*Artist: Evocation
*Album: The Day As The Sun Forever Disappears [demo]
*Year: 1996
*Genre: Death/Doom Metal
*Country: Austria
*Format: mp3@CBR256kbps
*Size: 52MB

Tracklist:
1. Fear Time 05:20
2. The Day As The Sun Forever Disappears 07:30
3. Escape From Your Innerself 03:44
4. Just Hear Me Cry 05:13
5. Feelings Get Lost 05:00
6. Phony Friendship 03:48
7. Stammtisch 01:00
******************************
Total playing time: 31:35

[more=Extended info]Recorded at Ursprung Tonträger Studios, 20.-23.07.1996.
Thanx uaforever_ua for sharing this demo!
[/more]

[more=Technical info]
Input File: 02-The Day As the Sun Forever Disappears.mp3
Channels : 2
Sample Rate : 44100
Precision : 16-bit
Duration : 00:07:30.80 = 19880236 samples = 33809.9 CDDA sectors
File Size : 14.4M
Bit Rate : 256k
Sample Encoding: MPEG audio (layer I, II or III)
Comments :
Title=The Day As the Sun Forever Disappears
Artist=Evocation
Album=The Day As The Sun Forever Disappears (Demo)
Tracknumber=02
Year=1996
Genre=Doom/Death Metal

[/more]

Register
(20) Borderline1991, caro, Geisteswaffe, infiltrator, kimkayoung, lacrimatorium, lacrimoza, LightWizard, nord6666, Olethros, randumbum, sergsazan, Shadechaser, sperminator, stumpheavyrock, thenecromancer, uaforever_ua, VALERY, varlam4, Xtohar,
Apr 15 2021, 13:02:59 Evocation - Gods Of Dawn [demo] (1992)


*Artist: Evocation
*Album: Gods Of Dawn [demo]
*Year: 1992
*Genre: Death/Doom Metal
*Country: Austria
*Format: mp3@CBR320kbps
*Size: 38MB

Tracklist:
1. Intro 01:23
2. Gods Of Dawn 03:29
3. Under Pressure Of The Dead 03:52
4. Mutilation Of Your Putrid Soul 03:20
5. Dark Illusions 06:22
******************************
Total playing time: 18:26

[more=Extended info]Recorded at S-Mix studios in 1992.
Thanks uaforever_ua for this demo!
[/more]

[more=Technical info]
Input File: 02-Gods of Dawn.mp3
Channels : 2
Sample Rate : 44100
Precision : 16-bit
Duration : 00:03:29.64 = 9244904 samples = 15722.6 CDDA sectors
File Size : 8.38M
Bit Rate : 320k
Sample Encoding: MPEG audio (layer I, II or III)
Comments :
Title=Gods of Dawn
Artist=Evocation
Album=Gods Of Dawn (Demo)
Tracknumber=02
Year=1992
Genre=Doom/Death Metal

[/more]

Register
(15) Borderline1991, enslaver, hell_armageddon, infiltrator, killingod, kimkayoung, LightWizard, nord6666, Olethros, stumpheavyrock, thenecromancer, uaforever_ua, VALERY, wgs73, Xtohar,
Apr 15 2021, 09:40:15 Epilepsia - Regreso A La Realidad [demo] (1998)
New link:
Register
(1) Wail,
Apr 15 2021, 09:34:07 Ominous - Sinister Avocation [demo] (1995)
new link:
Register
(1) razor7,
Apr 12 2021, 16:00:36 Via Dolorosa - Everything [demo] (1998)
new link:
Register
(2) kimkayoung, thenecromancer,
Apr 12 2021, 15:44:17 War 'n Pain - Nothing Left To Die For (1997)


*Artist: War 'n Pain
*Album: Nothing Left To Die For
*Year: 1997
*Genre: Heavy Metal
*Country: Germany
*Format: mp3@CBR320kbps
*Size: 103MB

Tracklist:
1. The Fall 06:01
2. Beyond 04:10
3. Terminated Death 03:40
4. I Can Stand 04:50
5. Annihilation 05:35
6. Overkill 06:03
7. Pain In Me 03:57
8. Time 15:10
******************************
Total playing time: 49:26

[more=Extended info]Recorded in 1997 at Down Town Studios, Rasdorf.[/more]

[more=Technical info]
Input File: 01-The Fall.mp3
Channels : 2
Sample Rate : 44100
Precision : 16-bit
Duration : 00:06:01.36 = 15935932 samples = 27101.9 CDDA sectors
File Size : 14.5M
Bit Rate : 320k
Sample Encoding: MPEG audio (layer I, II or III)
Comments :
Title=The Fall
Artist=War 'N' Pain
Album=Nothing Left To Die For
Tracknumber=01
Year=1997
Genre=Heavy Metal

[/more]

Register
(13) caro, dimcho0, HMHamster, infiltrator, killingod, Marek, metala, nord6666, Olethros, Rover, sergsazan, varlam4, Z28517,
Apr 12 2021, 15:32:10 Civilized Evil - Comically Insane [demo] (1985)


*Artist: Civilized Evil
*Album: Comically Insane [demo]
*Year: 1985
*Genre: Heavy Metal
*Country: United States
*Format: mp3@CBR192kbps
*Size: 13MB

Tracklist:
1. Call Of The Wild Wood 01:23
2. Until Death 08:12
******************************
Total playing time: 9:35



[more=Extended info]Band from Troy, New York (ex-Bloodlust).[/more]

[more=Technical info]
Input File: 02-Until Death.mp3
Channels : 2
Sample Rate : 44100
Precision : 16-bit
Duration : 00:08:05.22 = 21398114 samples = 36391.4 CDDA sectors
File Size : 11.8M
Bit Rate : 194k
Sample Encoding: MPEG audio (layer I, II or III)
Comments :
Title=Until Death
Artist=Civilized Evil
Album=Comically Insane (Demo)
Tracknumber=02
Year=1985
Genre=Metal

[/more]

Register
(8) dimcho0, infiltrator, killingod, Olethros, Reverend, stumpheavyrock, wgs73, Xtohar,
Apr 12 2021, 15:22:38 Wanted Breed - Knights In Armor (1986)


*Artist: Wanted Breed
*Album: Knights In Armor
*Year: 1986
*Genre: Heavy Metal
*Country: United States
*Format: mp3@CBR192kbps
*Size: 52MB

Tracklist:
1. Stormy Weather 04:20
2. Walk Away 04:05
3. Time To Rock 04:25
4. Knights In Armor 03:39
5. Hollywood 101 05:25
6. Screamer 04:57
7. Fighting Soldier 03:04
8. Beyond Time 07:23
******************************
Total playing time: 37:18

[more=Extended info]Band from Los Angeles, California.
Recorded at Apollo Studio, Buena Park - California.
[/more]

[more=Technical info]
Input File: 01-Stormy Weather.mp3
Channels : 2
Sample Rate : 44100
Precision : 16-bit
Duration : 00:04:16.69 = 11320117 samples = 19251.9 CDDA sectors
File Size : 6.16M
Bit Rate : 192k
Sample Encoding: MPEG audio (layer I, II or III)
Comments :
Title=Stormy Weather
Artist=Wanted Breed (US, CA)
Album=Knights In Armor
Tracknumber=01
Year=1986
Genre=Heavy Metal

[/more]

Register
(10) dimcho0, infiltrator, killingod, Marek, metala, Olethros, Reverend, sergsazan, wgs73, Xtohar,
Apr 12 2021, 15:12:14 Wages Of Sin - Wages Of Sin (1986)


*Artist: Wages Of Sin
*Album: Wages Of Sin
*Year: 1986
*Genre: Heavy Metal
*Country: United States
*Format: mp3@CBR128kbps
*Size: 36MB

Tracklist:
1. Sleazy 04:07
2. Closet Killers 04:10
3. Pleasures Of The Flesh 02:58
4. Head-On Collision 02:09
5. On The Prowl 04:23
6. Back From The Dead 03:05
7. Satan's Charm 02:40
8. Bump 'an Grind 03:56
9. Tantrum / Suicide Song 04:38
10. Pam Don't Cry 05:07
11. The Chase 03:00
******************************
Total playing time: 40:13

[more=Extended info]Band from Detroit, Michigan.
Recorded and mixed at the Old Schoolhouse in Ann Arbor, Michigan.
[/more]

[more=Technical info]
Input File: 02-Closet Killers.mp3
Channels : 2
Sample Rate : 44100
Precision : 16-bit
Duration : 00:04:10.04 = 11026764 samples = 18753 CDDA sectors
File Size : 4.00M
Bit Rate : 128k
Sample Encoding: MPEG audio (layer I, II or III)
Comments :
Title=Closet Killers
Artist=Wages Of Sin
Album=Wages Of Sin
Tracknumber=2/12
Year=1986
Genre=Heavy Metal

[/more]

Register
(9) dimcho0, infiltrator, killingod, metala, Olethros, Reverend, sergsazan, wgs73, Xtohar,

543 Pages V   1 2 3 > » 
- Lo-Fi Version Support form
Copyrights and abuse reports form
Time is now: 19th April 2021 - 19:50:04

Состав ювентус 2014 незаменимый игрок в составе ювентуса.