Welcome Guest ( Log In | Register )

История благодарностей участнику Proteus_666 ::: Спасибо сказали: 91637 раз(а)
Дата поста: В теме: За сообщение: Спасибо сказали:
Today, 14:03:36 Dissection - Dvojí Tvář (2012)
mirror:
Register
(2) infiltrator, thenecromancer,
Today, 13:32:29 Xenophobia - False Hope [demo] (1992)


*Artist: Xenophobia
*Album: False Hope [demo]
*Year: 1992
*Genre: Death/Thrash Metal
*Country: Chile
*Format: mp3@CBR192kbps
*Size: 20MB

Tracklist:
1. Xenophobia 03:51
2. Arts Is Die 03:02
3. False Hope 04:54
4. Death Before of Born 03:08
******************************
Total playing time: 14:55



[more=Extended info]Produced by Marcelo Saldías and Xenophobia
Recorded and Mixed at STS Studios (Viña del Mar, Chile) in May, 1992
[/more]

[more=Technical info]
Input File: 01-Xenophobia.mp3
Channels : 2
Sample Rate : 44100
Precision : 16-bit
Duration : 00:03:51.14 = 10193406 samples = 17335.7 CDDA sectors
File Size : 5.55M
Bit Rate : 192k
Sample Encoding: MPEG audio (layer I, II or III)
Comments :
Title=Xenophobia
Artist=Xenophobia
Album=False Hope (Demo)
Tracknumber=01
Year=1992
Genre=Death Metal

[/more]

Register
(7) infiltrator, metala, nord6666, Rosen, smysl, thenecromancer, wgs73,
Today, 13:20:02 Teofobia - El Arte De Matar A Dios [demo] (1996)


*Artist: Teofobia
*Album: El Arte De Matar A Dios [demo]
*Year: 1996
*Genre: Death Metal
*Country: Chile
*Format: mp3@CBR192kbps
*Size: 20MB

Tracklist:
1. Intro/Teofobia 02:59
2. Chancho´N Piedra 03:50
3. Des-Presión 04:03
4. Crisis 03:58
******************************
Total playing time: 14:50

[more=Extended info]The second demo of the band. Its title means "The Art of Killing God".
Recorded & mastered at Attic Studios in april 1996 Stgo. Chile.
[/more]

[more=Technical info]
Input File: 01-Intro - Teofobia.mp3
Channels : 2
Sample Rate : 44100
Precision : 16-bit
Duration : 00:02:59.47 = 7914671 samples = 13460.3 CDDA sectors
File Size : 4.31M
Bit Rate : 192k
Sample Encoding: MPEG audio (layer I, II or III)
Comments :
Title=Intro / Teofobia
Artist=Teofobia
Album=El Arte de Matar A Dios (Demo)
Tracknumber=01
Year=1996
Genre=Death Metal

[/more]

Register
(3) infiltrator, nord6666, Rosen,
Today, 13:04:37 Teofobia - Siempre Enfermo Nunca Muerto [demo] (1995)


*Artist: Teofobia
*Album: Siempre Enfermo Nunca Muerto [demo]
*Year: 1995
*Genre: Death Metal
*Country: Chile
*Format: mp3@CBR192kbps
*Size: 19MB

Tracklist:
1. Intro / Ultratmba 03:55
2. Dolor 03:34
3. Aborto 02:55
4. Autoinmolacion 03:49
******************************
Total playing time: 14:13

[more=Technical info]
Input File: 02-Dolor.mp3
Channels : 2
Sample Rate : 44100
Precision : 16-bit
Duration : 00:03:34.40 = 9454952 samples = 16079.9 CDDA sectors
File Size : 5.15M
Bit Rate : 192k
Sample Encoding: MPEG audio (layer I, II or III)
Comments :
Title=Dolor
Artist=Teofobia
Album=Siempre Enfermo Nunca Muerto (Demo)
Tracknumber=02
Year=1995
Genre=Death Metal

[/more]

Register
(3) infiltrator, nord6666, Rosen,
Today, 12:50:30 Dark Age - Mist [demo] (1996)


*Artist: Dark Age
*Album: Mist [demo]
*Year: 1996
*Genre: Death/Thrash Metal
*Country: Chile
*Format: mp3@CBR192kbps
*Size: 29MB

Tracklist:
1. Dark Age 04:44
2. Liver 04:36
3. Judge's Hammer 05:35
4. Metus In Ignorus 06:09
******************************
Total playing time: 21:04

[more=Extended info]Recorded & mixed during September & October, 1995 at Attic Estudio.[/more]

[more=Technical info]
Input File: 01-Dark Age.mp3
Channels : 2
Sample Rate : 44100
Precision : 16-bit
Duration : 00:04:44.30 = 12537806 samples = 21322.8 CDDA sectors
File Size : 6.82M
Bit Rate : 192k
Sample Encoding: MPEG audio (layer I, II or III)
Comments :
Title=Dark Age
Artist=Dark Age
Album=Mist (Demo)
Tracknumber=01
Year=1996
Genre=Death Metal

[/more]

Register
(4) infiltrator, nord6666, Rosen, thenecromancer,
Today, 12:34:21 Inquisicion - Demo 95 [demo] (1995)


*Artist: Inquisicion
*Album: Demo 95 [demo]
*Year: 1995
*Genre: Progressive Heavy/Power Meta
*Country: Chile
*Format: mp3@CBR192kbps
*Size: 26MB

Tracklist:
1. Mayday's Eve 03:45
2. Bats In The Bellfry 03:30
3. Holy Fire 05:28
4. The Dreamquest Of The Unknown Avalon 05:41
******************************
Total playing time: 18:24



[more=Technical info]
Input File: 01-Mayday\'s Eve.mp3
Channels : 2
Sample Rate : 44100
Precision : 16-bit
Duration : 00:03:41.92 = 9786760 samples = 16644.1 CDDA sectors
File Size : 5.33M
Bit Rate : 192k
Sample Encoding: MPEG audio (layer I, II or III)
Comments :
Title=Mayday's Eve
Artist=Inquisicion
Album=Demo 95
Tracknumber=01
Year=1995
Genre=Heavy Metal

[/more]

Register
(4) infiltrator, metala, nord6666, Rosen,
Today, 12:05:24 Hades Inc. - Demencia [ep] (1997)


*Artist: Hades Inc.
*Album: Demencia [ep]
*Year: 1997
*Genre: Power/Thrash Metal
*Country: Chile
*Format: mp3@CBR192kbps
*Size: 30MB

Tracklist:
1. Marcha Al Olvido 05:31
2. Cruel Demencia 04:44
3. Mi Mente 04:14
4. Sólo Un Lamento Más 07:56
******************************
Total playing time: 22:25

[more=Extended info]Recorded and mixed at Attic Studios in January 1997.Santiago, Chile.
Mastered at Konstanstinopla Studios in April 1997.Santiago, Chile.
[/more]

[more=Technical info]
Input File: 01-Marcha al Olvido.mp3
Channels : 2
Sample Rate : 44100
Precision : 16-bit
Duration : 00:05:27.36 = 14436356 samples = 24551.6 CDDA sectors
File Size : 7.86M
Bit Rate : 192k
Sample Encoding: MPEG audio (layer I, II or III)
Comments :
Title=Marcha al Olvido
Artist=Hades Inc.
Album=Demencia (EP)
Tracknumber=01
Year=1997
Genre=Metal

[/more]

Register
(6) infiltrator, metala, nord6666, Rosen, sergsazan, thenecromancer,
Today, 11:54:04 Requiem - My Fear Is Naked (1995)


*Artist: Requiem
*Album: My Fear Is Naked
*Year: 1995
*Genre: Thrash Metal
*Country: Chile
*Format: mp3@CBR192kbps
*Size: 59MB

Tracklist:
1. Self Brainwash 03:40
2. Under My Flag 02:47
3. Terminal Experience 04:41
4. Karolinawaltz / Taste The Decadence 06:40
5. I'm What I Am 04:25
6. Nihilist Crisis Prove 04:24
7. Piranha (Exodus cover) 03:41
8. Hard Bones 04:48
9. Smothered 04:07
10. We're Gonna Die 03:41
******************************
Total playing time: 42:54



[more=Technical info]
Input File: 01-Self Brainwash.mp3
Channels : 2
Sample Rate : 44100
Precision : 16-bit
Duration : 00:03:40.56 = 9726828 samples = 16542.2 CDDA sectors
File Size : 5.29M
Bit Rate : 192k
Sample Encoding: MPEG audio (layer I, II or III)
Comments :
Title=Self Brainwash
Artist=Requiem
Album=My Fear Is Naked
Tracknumber=01
Year=1995
Genre=Thrash Metal

[/more]

Register
(5) after21allD, infiltrator, nord6666, Rosen, sergsazan,
Today, 11:34:33 Saken - Hell Within (1997)


*Artist: Saken
*Album: Hell Within
*Year: 1997
*Genre: Death/Thrash Metal
*Country: Chile
*Format: mp3@CBR128kbps
*Size: 44MB

Tracklist:
1. Less Than Zero 04:55
2. Out Of Control 04:34
3. Walker 02:20
4. Our Blood 05:14
5. Wolf 04:30
6. Ways Of Fear 04:37
7. Nasty Gods 03:59
8. Inside Your Mind 04:42
9. Millenium 07:25
10. Pieces 04:42
******************************
Total playing time: 46:58



[more=Extended info]Recorded, Mixed and masterized at Procor Studio. Santiago, Chile, between August - October of 1997.[/more]

[more=Technical info]
Input File: 01-Less Than Zero.mp3
Channels : 2
Sample Rate : 44100
Precision : 16-bit
Duration : 00:04:55.64 = 13037592 samples = 22172.8 CDDA sectors
File Size : 4.73M
Bit Rate : 128k
Sample Encoding: MPEG audio (layer I, II or III)
Comments :
Title=Less Than Zero
Artist=Saken
Album=Hell Within
Tracknumber=01
Year=1997
Genre=Death Metal

[/more]

Register
(5) infiltrator, metala, nord6666, Rosen, sergsazan,
Oct 16 2020, 23:52:57 Taliön - Killing The World (1989)
new link:
Register
(1) Wail,
Oct 16 2020, 23:45:38 Syre - Between Fate & Fortune [demo] (1998)
new link:
Register
(2) thenecromancer, Wail,
Oct 16 2020, 14:43:01 Technakill - Technakill [demo] (1990)
new link:
Register
(3) thenecromancer, Wail, Z28517,
Oct 16 2020, 14:33:21 Tantrom - Sanctuary Of Foreboding [ep] (1994)
new link:
Register
(1) Wail,
Oct 16 2020, 14:29:24 Tarantula - Premature Violence [demo] (1997)
new link:
Register
(2) Wail, Z28517,
Oct 16 2020, 14:15:59 Teknikill - Secular Rising (2014)


*Artist: Teknikill
*Album: Secular Rising
*Year: 2014
*Genre: Thrash/Heavy Metal
*Country: United States
*Format: mp3@VBR152kbps
*Size: 57MB

Tracklist:
1. The Ignorant 04:53
2. Turn The Gun Around 03:24
3. An Individual 03:32
4. Ticket To Heaven 03:50
5. Return The Hate 03:20
6. Above The Law 05:13
7. Disgraced 05:03
8. Take The Pain 03:57
9. A Choice 04:27
10. R.F.F. 06:13
11. Hitler Song 02:14
12. The Devoted 06:41
******************************
Total playing time: 52:47



[more=Extended info]Band from Chicago, Illinois (ex-Technikill, the same what released s/t demo in 1988).[/more]

[more=Technical info]
Input File: 01-The Ignorant.mp3
Channels : 2
Sample Rate : 44100
Precision : 16-bit
Duration : 00:04:53.59 = 12947319 samples = 22019.2 CDDA sectors
File Size : 5.55M
Bit Rate : 151k
Sample Encoding: MPEG audio (layer I, II or III)
Comments :
Title=The Ignorant
Artist=Tekninkill (US, IL)
Album=Secular Rising
Tracknumber=01
Year=2014
Genre=Thrash Metal

[/more]

Register
(10) after21allD, boby9052, cast_iron, infiltrator, Olethros, Rosen, sergsazan, stumpheavyrock, thenecromancer, Wail,
Oct 16 2020, 14:14:03 Technikill - Demo 1988 [demo] (1988)
cover
(2) thenecromancer, Wail,
Oct 16 2020, 13:47:33 Tamrin - Emotional Holocaust [demo] (1992)


*Artist: Tamrin
*Album: Emotional Holocaust [demo]
*Year: 1992
*Genre: Alternative Rock/Progressive/Thrash Metal
*Country: United States
*Format: mp3@CBR192kbps
*Size: 21MB

Tracklist:
1. Isolation 04:57
2. Dead To Me 04:54
3. Emotional Holocaust 02:05
4. Falling Down 03:46
******************************
Total playing time: 15:42



[more=Extended info]Band from Willington, Connecticut.[/more]

[more=Technical info]
Input File: 02-Dead To Me.mp3
Channels : 2
Sample Rate : 44100
Precision : 16-bit
Duration : 00:04:54.94 = 13006678 samples = 22120.2 CDDA sectors
File Size : 7.08M
Bit Rate : 192k
Sample Encoding: MPEG audio (layer I, II or III)
Comments :
Title=Dead To Me
Artist=Tamrin (US, CT)
Album=Emotional Holocaust (Demo)
Tracknumber=02
Year=1992
Genre=Metal

[/more]

Register
(7) gwar, infiltrator, metala, Olethros, Rosen, thenecromancer, Wail,
Oct 16 2020, 13:26:26 Taetrabiblia - The Storm... That Would Never Come [demo] (1993)


*Artist: Taetrabiblia
*Album: The Storm... That Would Never Come [demo]
*Year: 1993
*Genre: Thrash Metal
*Country: Brazil
*Format: mp3@CBR256kbps
*Size: 28MB

Tracklist:
1. The Light 04:46
2. Vortex Of A New Age 04:13
3. Dealing With The Faith 05:43
******************************
Total playing time: 14:42

[more=Extended info]Recorded on 16 tacks at Anonimato Studios (São Paulo).[/more]

[more=Technical info]
Input File: 01-The Light.mp3
Channels : 2
Sample Rate : 44100
Precision : 16-bit
Duration : 00:04:46.42 = 12631254 samples = 21481.7 CDDA sectors
File Size : 9.28M
Bit Rate : 259k
Sample Encoding: MPEG audio (layer I, II or III)
Comments :
Title=The Light
Artist=Taetrabiblia
Album=The Storm... That Would Never Come (Demo)
Tracknumber=01
Year=1993
Genre=Thrash Metal

[/more]

Register
(6) after21allD, caro, Olethros, Rosen, stumpheavyrock, Wail,
Oct 16 2020, 12:14:05 Technikill - Demo 1988 [demo] (1988)
ЦИТАТА(metala @ Nov 4 2017, 15:47:24) *
Yes, these are the Brits; have nothing to do with the American band. and Their name is different; it's Technikill.

Nope, they were from Chicago, Illinois (proof https://www.metal-archives.com/albums/Techn...hnikill/771523). Now they calls themselves Teknikill.
Brits demo were released a year earlier https://www.metal-archives.com/albums/Techn...t_Warning/65563
(1) thenecromancer,
Oct 15 2020, 12:32:18 Sustained - Demo [demo] (1998)
new link:
Register


п.с. тетя на басу и клавишных, если б послушал, то вопросы отпали бы.
(4) thenecromancer, Wail, Xtohar, Z28517,
Oct 15 2020, 12:22:39 SxTxIx - Dead... But Havin' Fun!!! [demo] (1991)
new link:
Register
(2) Wail, Xtohar,
Oct 15 2020, 12:18:09 S.T.I. - Twen Two Visions (1993)
new link:
Register
(1) Wail,
Oct 15 2020, 11:19:01 T.H.C. - Christian Brainwash [demo] (1987)
new link:
Register
(4) thenecromancer, Wail, Xtohar, Z28517,
Oct 15 2020, 11:16:20 T.H.C. - Killing For Peace [demo] (1986)
new link:
Register
(1) Wail,
Oct 15 2020, 11:11:32 Sycoman - Social Outcasts (1987)


*Artist: Sycoman
*Album: Social Outcasts
*Year: 1987
*Genre: Heavy/Thrash Metal
*Country: United States
*Format: mp3@VBR146kbps
*Size: 37MB

Tracklist:
1. Lynch The Sinner 03:55
2. Soul Of The City 04:30
3. The Wanderers 03:41
4. Social Outcasts 03:19
5. My Rotting Mind 05:00
6. Total Fry 04:30
7. The Wild Ones 02:57
8. The Devil Went Down To Georgia 03:24
9. I'll Never Run (Bonus Track) 04:12
******************************
Total playing time: 35:28

[more=Extended info]One man band from Los Angeles, California.
Recorded, mixed and mastered at Earraid Studios, Golden, Colorado.
[/more]

[more=Technical info]
Input File: 01-Lynch the Sinner.mp3
Channels : 2
Sample Rate : 44100
Precision : 16-bit
Duration : 00:03:55.31 = 10377215 samples = 17648.3 CDDA sectors
File Size : 4.62M
Bit Rate : 157k
Sample Encoding: MPEG audio (layer I, II or III)
Comments :
Title=Lynch the Sinner
Artist=Sycoman (US, CA)
Album=Social Outcasts
Tracknumber=01
Year=1987
Genre=Metal

[/more]

Register
(12) after21allD, boby9052, gwar, infiltrator, metala, Olethros, Reverend, Rosen, stumpheavyrock, traitor666, Wail, Z28517,

517 Pages V   1 2 3 > » 
- Lo-Fi Version Support form
Copyrights and abuse reports form
Time is now: 20th October 2020 - 21:09:48

Состав ювентус 2014 незаменимый игрок в составе ювентуса.