Welcome Guest ( Log In | Register )

История благодарностей участнику Proteus_666 ::: Спасибо сказали: 78094 раз(а)
Дата поста: В теме: За сообщение: Спасибо сказали:
Yesterday, 08:21:09 Neandertal - Full Test Of Your Head [demo] (1994)


*Artist: Neandertal
*Album: Full Test Of Your Head [demo]
*Year: 1994
*Genre: Thrash Metal
*Country: Poland
*Format: mp3@ABR204kbps
*Size: 59MB

Tracklist:
1. Free The Soul 04:21
2. Lonely 04:53
3. Stop! 04:43
4. Great Fable 04:11
5. Two Sides 02:47
6. Hit! Hate You! 05:50
7. Your Not Your Woman 05:42
8. The Globe 05:04
9. Swim Away 03:31
******************************
Total playing time: 41:02

[more=Extended info]Demo recorded in "Warrior Studio" Gdynia 5-9.11.1994.[/more]

[more=Technical info]
Input File: 01-Free the Soul.mp3
Channels : 2
Sample Rate : 44100
Precision : 16-bit
Duration : 00:04:21.20 = 11518832 samples = 19589.9 CDDA sectors
File Size : 8.35M
Bit Rate : 256k
Sample Encoding: MPEG audio (layer I, II or III)
Comments :
Title=Free the Soul
Artist=Neandertal
Album=Full Test of Your Head
Tracknumber=1/9
Year=1994
Genre=Metal

[/more]

Register
(6) craP_cillA, Evilded, infiltrator, Olethros, Rosen, stumpheavyrock,
Yesterday, 08:10:51 Neandertal - Look And Go Away [demo] (1993)


*Artist: Neandertal
*Album: Look And Go Away [demo]
*Year: 1993
*Genre: Thrash Metal
*Country: Poland
*Format: mp3@ABR244kbps
*Size: 54MB

Tracklist:
1. Lucky Man 04:47
2. Otherwise 05:13
3. Neglect 04:58
4. Look And Go Away 09:35
5. Wherever I'll Find You (Final) 05:30
6. Neantro 00:57
******************************
Total playing time: 31:00

[more=Extended info]Recorded at Galeria EL (Elbląg - January 1993).[/more]

[more=Technical info]
Input File: 02-Otherwise.mp3
Channels : 2
Sample Rate : 44100
Precision : 16-bit
Duration : 00:05:13.29 = 13815913 samples = 23496.5 CDDA sectors
File Size : 10.0M
Bit Rate : 256k
Sample Encoding: MPEG audio (layer I, II or III)
Comments :
Title=Otherwise
Artist=Neandertal
Album=Look and Go Away
Tracknumber=2
Year=1993
Genre=22

[/more]

Register
(4) Evilded, infiltrator, Olethros, Rosen,
Yesterday, 07:49:45 Paradox - Through Pain There Is Joy [ep] (2000)


*Artist: Paradox
*Album: Through Pain There Is Joy [ep]
*Year: 2000
*Genre: Doom/Death Metal
*Country: United Kingdom
*Format: mp3@CBR192kbps
*Size: 25MB

Tracklist:
1. Dedication To The Sacrifice / Slavery 07:10
2. The Unapproachable Light 05:41
3. Save Your Soul 00:59
4. Life In Death 05:05
5. Outro 00:38
******************************
Total playing time: 19:33

[more=Technical info]
Input File: 01-Dedication To the Sacrifice - Slavery.mp3
Channels : 2
Sample Rate : 44100
Precision : 16-bit
Duration : 00:07:10.20 = 18971908 samples = 32265.1 CDDA sectors
File Size : 10.3M
Bit Rate : 192k
Sample Encoding: MPEG audio (layer I, II or III)
Comments :
Title=Dedication To the Sacrifice - Slavery
Artist=Paradox (UK)
Album=Through Pain There Is Joy (EP)
Tracknumber=01
Year=2000
Genre=Metal

[/more]

Register
(7) Evilded, infiltrator, Olethros, Rosen, sergsazan, stumpheavyrock, thenecromancer,
Yesterday, 07:39:00 The Neighbors - The More Money One Has - The More Important Is One's Life [ep] (1998)


*Artist: The Neighbors
*Album: The More Money One Has - The More Important Is One's Life [ep]
*Year: 1998
*Genre: Hardcore/Thrash Metal
*Country: United States
*Format: mp3@CBR192kbps
*Size: 23MB

Tracklist:
1. A Rich Person's Death 01:06
2. No Man's Land 00:50
3. Tough Guys Dogs 00:38
4. The End Of Mankind 01:49
5. Forgotten Problems 00:58
6. I Wanted A BB Gun 01:17
7. Thievery 00:29
8. Second Hand Man 01:32
9. Three Percent Of Mammals 01:12
10. Sometimes 01:50
11. Dying For Attention 01:01
12. Sponsorship Brah 00:39
13. Drug War 02:33
14. Hee Haw Uncle Pa 00:56
******************************
Total playing time: 16:50

[more=Technical info]
Input File: 01-A Rich Person\'s Death.mp3
Channels : 2
Sample Rate : 44100
Precision : 16-bit
Duration : 00:01:06.25 = 2921757 samples = 4968.97 CDDA sectors
File Size : 1.59M
Bit Rate : 192k
Sample Encoding: MPEG audio (layer I, II or III)
Comments :
Title=A Rich Person's Death
Artist=The Neighbors
Album=The More Money One Has, The More Important Is One's Life
Tracknumber=1/14
Year=1998
Genre=Punk

[/more]

Register
(3) infiltrator, Olethros, Rosen,
Yesterday, 07:22:49 The Neighbors - Negative Attraction (2001)


*Artist: The Neighbors
*Album: Negative Attraction
*Year: 2001
*Genre: Hardcore/Thrash Metal
*Country: United States
*Format: mp3@CBR192kbps
*Size: 23MB

Tracklist:
1. Same Shit 00:18
2. Lack Of Compassion 02:02
3. Mainstream Society 01:06
4. Everyday I Exist 01:16
5. Years Pass Me By 01:36
6. Monogamous Prostitute 00:32
7. Morons 00:18
8. Hopscotch On Your Grave 01:34
9. Cheese And Cologne 01:28
10. You Make Me Sick 00:27
11. Hats Off To Hardcore 01:14
12. Greedy Pigs 00:19
13. Punker Than You 00:59
14. Shut Up 00:17
15. Negative Attraction 01:04
16. Goodbye 01:08
17. I'm Over It 01:24
******************************
Total playing time: 17:02

[more=Technical info]
Input File: 02-Lack Of Compassion.mp3
Channels : 2
Sample Rate : 44100
Precision : 16-bit
Duration : 00:02:02.05 = 5382537 samples = 9153.97 CDDA sectors
File Size : 2.93M
Bit Rate : 192k
Sample Encoding: MPEG audio (layer I, II or III)
Comments :
Title=Lack Of Compassion
Artist=The Neighbors
Album=Negative Attraction
Tracknumber=2/17
Year=2001
Genre=Hardcore

[/more]

Register
(3) infiltrator, Olethros, Rosen,
Yesterday, 06:46:52 Diktátor - Distribuce V Rozkladu [demo] (1990)


*Artist: Diktátor
*Album: Distribuce V Rozkladu [demo]
*Year: 1990
*Genre: Thrash/Heavy Metal
*Country: Czech Republic
*Format: mp3@CBR320kbps
*Size: 106MB

Tracklist:
1. Zasviceni (Instrumental) 03:20
2. Hrad 03:49
3. Master The Exh 02:21
4. Lаska 04:51
5. Prokleti 03:45
6. Zombie 04:08
7. Diktаtor 04:32
8. Thrash 04:16
9. Otrok 04:04
10. Philleo 04:57
11. Sen 04:23
12. Untitled 02:15
******************************
Total playing time: 46:41

[more=Extended info]Obscure band according to MA.[/more]

[more=Technical info]
Input File: 02-Hrad.mp3
Channels : 2
Sample Rate : 44100
Precision : 16-bit
Duration : 00:03:49.53 = 10122141 samples = 17214.5 CDDA sectors
File Size : 9.18M
Bit Rate : 320k
Sample Encoding: MPEG audio (layer I, II or III)
Comments :
Title=Hrad
Artist=Diktátor (Cze)
Album=Distribuce V Rozkladu (Demo)
Tracknumber=02
Year=1990
Genre=Thrash Metal

[/more]

Register
(5) infiltrator, Olethros, Rosen, stumpheavyrock, thenecromancer,
Yesterday, 06:12:24 Juicio Final - Karkoma (1996)


*Artist: Juicio Final
*Album: Karkoma
*Year: 1996
*Genre: Melodic Hardcore/Heavy Metal
*Country: Spain
*Format: mp3@CBR192kbps
*Size: 33MB

Tracklist:
1. Karkoma 02:06
2. Apostol De Portal 02:23
3. Kontra Korriente 02:09
4. Juguetes Animados 02:44
5. N.N.(Ningun Nombre) 02:03
6. No Poder Salir 02:10
7. Telefrustración 02:26
8. Muñecos Rotos 02:42
9. Punk Panter 01:11
10. Tener Hijo Pa' Esto 02:03
11. Ace Of Spades (Motorhead Cover) 02:35
******************************
Total playing time: 24:32



[more=Extended info]Looking for the good rip of their first LP which was done in thrash metal/crossover way. Youtube preview from their debut LP.[/more]

[more=Technical info]
Input File: 01-Karkoma.mp3
Channels : 2
Sample Rate : 44100
Precision : 16-bit
Duration : 00:02:06.42 = 5575254 samples = 9481.72 CDDA sectors
File Size : 3.04M
Bit Rate : 192k
Sample Encoding: MPEG audio (layer I, II or III)
Comments :
Title=Karkoma
Artist=Juicio Finale (Spa)
Album=Karkoma
Tracknumber=01
Year=1996
Genre=Heavy Metal

[/more]

Register
(5) infiltrator, kimkayoung, Olethros, Rosen, Vintersorg,
Yesterday, 05:59:45 Intricate - Backwards [ep] (1991)


*Artist: Intricate
*Album: Backwards [ep]
*Year: 1991
*Genre: Thrash Metal/Crossover
*Country: Germany
*Format: mp3@CBR192kbps
*Size: 17MB

Tracklist:
1. Empty 04:10
2. Don't Laugh 03:05
3. Promises 03:13
4. Beware 02:34
******************************
Total playing time: 13:02

[more=Extended info]Recorded 3/91 at Da Capo.[/more]

[more=Technical info]
Input File: 01-Empty.mp3
Channels : 2
Sample Rate : 44100
Precision : 16-bit
Duration : 00:04:08.28 = 10949148 samples = 18621 CDDA sectors
File Size : 5.96M
Bit Rate : 192k
Sample Encoding: MPEG audio (layer I, II or III)
Comments :
Title=Empty
Artist=Intricate (Ger)
Album=Backwards (EP)
Tracknumber=01
Year=1991
Genre=Thrash Metal

[/more]

Register
(3) infiltrator, Olethros, Rosen,
Yesterday, 05:32:25 Negazione - Little Dreamer (1988)


*Artist: Negazione
*Album: Little Dreamer
*Year: 1988
*Genre: Hardcore/Heavy/Thrash Metal
*Country: Italy
*Format: mp3@CBR128kbps
*Size: 26MB

Tracklist:
1. Ho Pianto 04:36
2. Don't Forget 03:04
3. Love & Blood Will Come 03:41
4. I'll Do It Tonite 02:51
5. Little Dreamer 03:09
6. My Days 02:37
7. Death Is Around 04:01
8. Il Giorno Del Sole 02:24
9. Serenità Di Un Attimo 02:29
******************************
Total playing time: 28:52

[more=Extended info]Recorded & mixed on 16 Tracks, february 1998, at Tango Studio, Eindhoven, Holland.[/more]

[more=Technical info]
Input File: 01-Ho Pianto.mp3
Channels : 2
Sample Rate : 44100
Precision : 16-bit
Duration : 00:04:36.10 = 12175790 samples = 20707.1 CDDA sectors
File Size : 4.42M
Bit Rate : 128k
Sample Encoding: MPEG audio (layer I, II or III)
Comments :
Title=Ho Pianto
Artist=Negazione (Ita)
Album=Little Dreamer
Tracknumber=01
Year=1988
Genre=Hardcore

[/more]

Register
(3) infiltrator, Olethros, Rosen,
Yesterday, 03:54:09 Necropsy - In Front Of The Wall [demo] (1991)
new link:
Register
(4) thenecromancer, varlam4, Wail, wendigo,
Yesterday, 03:43:00 Morbideath - DT 91 [demo] (1991)


*Artist: Morbideath
*Album: DT 91 [demo]
*Year: 1991
*Genre: Grindcore
*Country: Brazil
*Format: mp3@CBR192kbps
*Size: 16MB

Tracklist:
1. Intro 00:06
2. Chemical Pollution 00:29
3. Death Inconcienty Society 00:16
4. Politic Conspiracy 00:13
5. Kaos 00:31
6. Total Anti-Music 00:22
7. Indirection To Death 00:10
8. No Poser, No Thrash 00:09
9. Discord 00:41
10. Pigs Of Society Civilized 00:08
11. Defected In Flesh From Racists 00:09
12. Repulsive Visions 00:46
13. Pray To Die 00:06
14. War, Hunger, Destruction 00:14
15. The People Inferior 00:08
16. Trick 00:12
17. Positive Noise 00:11
18. Scum 00:06
19. Poser's Critical 00:24
20. Ecologic Disaster 00:06
21. Extreme Violence 00:06
22. Die 00:09
23. Death For All 01:12
24. Decomposition 01:03
25. Bacteriologic Cancer 00:48
26. Anti-Religion 00:09
27. Rotting Corpses Burning 01:34
28. Morbideath 01:08
******************************
Total playing time: 11:36

[more=Extended info]Band from São Paulo (later changed name to Industrial Holocaust).[/more]

[more=Technical info]
Input File: 02-Chemical Pollution.mp3
Channels : 2
Sample Rate : 44100
Precision : 16-bit
Duration : 00:00:29.52 = 1302008 samples = 2214.3 CDDA sectors
File Size : 710k
Bit Rate : 192k
Sample Encoding: MPEG audio (layer I, II or III)
Comments :
Title=Chemical Pollution
Artist=Morbideath (Bra)
Album=DT 91
Tracknumber=02
Year=1991
Genre=Grindcore

[/more]

Register
(3) infiltrator, Olethros, Rosen,
Yesterday, 02:58:53 Nekro-Torso - Torso Grindcore 1991-1993 [compilation] (2006)


*Artist: Nekro-Torso
*Album: Torso Grindcore 1991-1993 [compilation]
*Year: 2006
*Genre: Grindcore/Death Metal
*Country: Finland
*Format: mp3@CBR192kbps
*Size: 85MB

Tracklist:
1. Torsodomic Motherfucker 00:52
2. Torso Using His Vote 00:36
3. Torso Intelligence 02:13
4. Dinner With Torso Fan Club 00:52
5. Rocking Torso 01:17
6. Torso Mekano Maskulino 00:50
7. Torso Said Yes 00:12
8. Torso Saluting The Semi-Legendary M.A. 00:14
9. Torso Ritual 00:23
10. Tekno-Torso 00:19
11. Torsosikalimppu 01:16
12. Torso Hiiohoi 01:39
13. Zombie Torso 00:53
14. Nekro-Fuck vs. Torso Youth 01:32
15. Torso Masturbation 01:33
16. Torso - The Fuckensteiner 00:59
17. Torsocusino On The Countryside 02:48
18. Satanic Torso 01:00
19. Torso Rave 02:54
20. Dick Stanley - The Legendary Torso Communist 01:19
21. The Word "Torso" Not Included 00:51
22. Torso Meets Jesus (Going Vitivaa) 00:23
23. Torso Visiting The Sikala 01:56
24. Bloodsuckin' Torso 01:23
25. Bring Me The Head Of George Torsowski 00:10
26. Torso Corpse 00:52
27. Torso The Great 00:59
28. Torso Rules O.K. 01:31
29. Don't Worry, The Word "Torso" This Time Included 00:46
30. Flashdancing Torso 01:52
31. Nekro-Torso Part 2 01:16
32. The Marvellous Sodom-o-Torso Orgy 01:30
33. Nekro-Torso Part 1 01:56
34. Yell Like Torso 01:42
35. Kiss Of(f) Torso 00:36
36. The Amazing Xmas Jingle Of Torso Family 01:27
37. Semi-Torso 01:39
38. Slobo Horo Torso 00:19
39. Torso - The Total Doom 03:25
40. Torso Chips 01:40
41. Anal Torso 01:14
42. Genital Hygien A La Torso 01:34
43. The Torso Piss Exzesse 01:09
44. Melena Of The Torso 02:28
45. Fetal Position Of The Torso (The Official Phil Spector Mix) 04:40
46. Super-Torso 01:53
******************************
Total playing time: 1:02:52

[more=Extended info]1-10: Recording Session 04/1993 aka "Advance Tape 4/4/1993"
11-12: Recording Session 10/1992 aka "Nekro-Session Autumn '92"
13-33: "Nekro-Babes - The Ultimate Torso Holocaust" Demo 07/1992
34-46: "The Torso - What Did Really Happen?" Demo 12/1991
Four cover songs were removed from the 1991 demo.
[/more]

[more=Technical info]
Input File: 01-Torsodomic Motherfucker.mp3
Channels : 2
Sample Rate : 44100
Precision : 16-bit
Duration : 00:00:52.72 = 2324996 samples = 3954.07 CDDA sectors
File Size : 1.27M
Bit Rate : 192k
Sample Encoding: MPEG audio (layer I, II or III)
Comments :
Title=Torsodomic Motherfucker
Artist=Nekro-Torso (Fin)
Album=Torso Grindcore 1991-1993
Tracknumber=01
Year=2006
Genre=????

[/more]

Register
(3) infiltrator, Olethros, Rosen,
Yesterday, 02:31:34 Necrotic - Ad Nauseum [demo] (1992)


*Artist: Necrotic
*Album: Ad Nauseum [demo]
*Year: 1992
*Genre: Grindcore/Death Metal
*Country: Spain
*Format: mp3@CBR160kbps
*Size: 37MB

Tracklist:
1. Cerebral Reject 06:41
2. Internal Re-organization Of Visceral Mass 02:40
3. Spasm Of Infection 04:45
4. Detached Moments In The Life of One Mummified Hippy Cottle In The Mustache Of James Hetfield 00:09
5. Asphixia 01:35
6. Disector (Nauseus Live) 01:15
7. Citotoxics Drugs 02:35
8. Necrorgasmic Dissection 03:08
9. Mass Production Of Human Carnage / Fracture Of The Sesamoid Bones In The Short Flexor Of The Big Toe 03:50
10. Origin Of The Blastemia In Regenerating Limbs Of The New Triturus Viridiscens 00:02
11. Ad Nauseum 02:16
12. Mausoleum (Where Are You, Mom?) 02:25
13. Necrotic (Nauseus Live) 01:28
14. Bulla Extrema (Nauseus Live) 00:40
15. Intestinal Disturbance (Nauseus Live) 00:04
******************************
Total playing time: 33:33

[more=Technical info]
Input File: 02-Internal Reorganization of Visceral Mass.mp3
Channels : 2
Sample Rate : 44100
Precision : 16-bit
Duration : 00:04:19.93 = 11462869 samples = 19494.7 CDDA sectors
File Size : 5.20M
Bit Rate : 160k
Sample Encoding: MPEG audio (layer I, II or III)
Comments :
Title=Internal Reorganization of Visceral Mass
Artist=Necrotic (Spa)
Album=Ad Nauseum (Demo)
Tracknumber=02
Year=1992
Genre=Grindcore

[/more]

Register
(3) infiltrator, Olethros, Rosen,
Jan 17 2020, 06:51:41 Некролог - 1992-1995 Demos [demo] (1995)


*Artist: Некролог
*Album: 1992-1995 Demos [demo]
*Year: 1995
*Genre: Death/Thrash Metal
*Country: Bulgaria
*Format: mp3@CBR160kbps
*Size: 32MB

Tracklist:
1. Разпъване На Кръст / Crucifixion 06:14
2. Шизофрения / Schizophrenia 06:22
3. Термоядрено Унищожение / Nuclear Destruction 06:27
4. Мрак, Зной И Миризма На Трупове / Dusk, Fervor And Smell Of Corpses 03:32
5. Труп В Ковчега / Corpse In The Casket 01:58
6. Садист / Sadist 03:42
******************************
Total playing time: 28:15



[more=Technical info]
Input File: 01-Разпъване На Кръст (Crucifixion).mp3
Channels : 2
Sample Rate : 44100
Precision : 16-bit
Duration : 00:06:14.90 = 16532914 samples = 28117.2 CDDA sectors
File Size : 7.50M
Bit Rate : 160k
Sample Encoding: MPEG audio (layer I, II or III)
Comments :
Title=Разпъване На Кръст
Artist=Nekrolog
Album=1992-1995 Demos
Tracknumber=01
Year=1995
Genre=Death Metal

[/more]

Register
(8) Evilded, infiltrator, METALHUNTER, NecroButcher, Olethros, Rosen, Wail, wanderer73,
Jan 17 2020, 05:59:17 Blaster Pain - Thou Art Pain [demo] (2000)


*Artist: Blaster Pain
*Album: Thou Art Pain [demo]
*Year: 2000
*Genre: Death Metal
*Country: Brazil
*Format: mp3@CBR192kbps
*Size: 22MB

Tracklist:
1. Throne Of Perverted Desire 04:26
2. Thou Art Pain 06:47
3. Razors Through Flesh 05:36
******************************
Total playing time: 16:49

[more=Technical info]
Input File: 01-Throne of Perverted Desire.mp3
Channels : 2
Sample Rate : 44100
Precision : 16-bit
Duration : 00:06:49.80 = 18072180 samples = 30735 CDDA sectors
File Size : 9.84M
Bit Rate : 192k
Sample Encoding: MPEG audio (layer I, II or III)
Comments :
Title=Throne of Perverted Desire
Artist=Blaster Pain (Bra)
Album=Thou Art Pain (Demo)
Tracknumber=01
Year=2000
Genre=Death Metal

[/more]

Register
(6) Evilded, infiltrator, Olethros, Rosen, Wail, wanderer73,
Jan 17 2020, 04:48:11 Некролог - Синове На Сатаната [demo] (1996)


*Artist: Некролог
*Album: Синове На Сатаната [demo]
*Year: 1996
*Genre: Heavy/Thrash Metal
*Country: Bulgaria
*Format: mp3@CBR160kbps
*Size: 47MB

Tracklist:
1. Синове На Сатаната 09:14
2. Убийството Е Моят Занаят 05:43
3. Най Добрият Християнин (Е Мъртвия Християнин) 05:27
4. Танцувам Върху Твоя Гроб 06:44
5. Вуду Магия 05:14
6. Аз Съм Твоя Гробар 04:58
7. Моят Бог Е Сатана (Моят Татко Е С Рога) 04:26
******************************
Total playing time: 41:46



[more=Extended info]Title translations:
1. Sons of Satan
2. Murder is my Business
3. The best Christian (is a Dead Christian)
4. I dance on your Grave
5. Voodoo Magic
6. I am your Undertaker
7. My God is Satan (My Father with the Horns)
[/more]

[more=Technical info]
Input File: 02-Убийството е Моят Занаят.mp3
Channels : 2
Sample Rate : 44100
Precision : 16-bit
Duration : 00:05:43.08 = 15129740 samples = 25730.9 CDDA sectors
File Size : 6.86M
Bit Rate : 160k
Sample Encoding: MPEG audio (layer I, II or III)
Comments :
Title=Óáèéñòâîòî å ìîÿò çàíàÿò
Artist=Íåêðîëîã
Album=Синове На Сатаната Demo
Tracknumber=02
Year=1996
Genre=Thrash Metal

[/more]

Register
(5) Evilded, infiltrator, Olethros, Rosen, Wail,
Jan 17 2020, 04:33:17 Holocausto - Inferior [single] (1993)
new link:
Register
(1) varlam4,
Jan 17 2020, 04:26:15 Deceiver - Nocturnal Death [demo] (1994)
320 kbps:
Register
(4) thenecromancer, varlam4, Wail, y3nd0r,
Jan 17 2020, 04:22:46 Crucifix - Visions Of Nihilism [best of/compilation] (2013)
new link:
Register
(2) varlam4, y3nd0r,
Jan 16 2020, 11:48:50 Necro Disseminator - Black Antichrist [demo] (1990)


*Artist: Necro Disseminator
*Album: Black Antichrist [demo]
*Year: 1990
*Genre: Black/Death Metal
*Country: Brazil
*Format: mp3@CBR192kbps
*Size: 8MB

Tracklist:
1. Necro Disseminator 02:57
2. Black Antichrist 03:09
******************************
Total playing time: 6:06

[more=Extended info]Rehearsal 1989.[/more]

[more=Technical info]
Input File: 01-Necro Disseminator.mp3
Channels : 2
Sample Rate : 44100
Precision : 16-bit
Duration : 00:03:01.07 = 7984967 samples = 13579.9 CDDA sectors
File Size : 4.35M
Bit Rate : 192k
Sample Encoding: MPEG audio (layer I, II or III)
Comments :
Title=Necro Disseminator
Artist=Necro Disseminator
Album=Black Antichrist (demo)
Tracknumber=1
Year=1989
Genre=Black Metal/Grindcore

[/more]

Register
(11) Evilded, FUDEDOR, infiltrator, Olethros, Rosen, stumpheavyrock, Styx, thenecromancer, tireheb, vasiljev_sergej, Wail,
Jan 16 2020, 11:41:49 Subjugator - Live [live] (1994)


*Artist: Subjugator
*Album: Live [live]
*Year: 1994
*Genre: Thrash Metal
*Country: United States
*Format: mp3@CBR320kbps
*Size: 29MB

Tracklist:
1. Leaders Of The Sheep 02:12
2. I Don't Need Society (D.R.I. cover) 01:42
3. Mortal Progression 02:39
4. Grocery Store Customer 02:57
5. United Forces (S.O.D. cover) 01:31
6. Political Disgust (bonus studio track) 01:28
******************************
Total playing time: 12:29



[more=Extended info]Band from Huntington Beach, California.
Tracks 1-5 recorded live on 9/18/93 in Anaheim, California.
Track 6 recorded 12/11/93 at Selah Recording Studio, Westminster, California.
[/more]

[more=Technical info]
Input File: 02-I Don't Need Society.mp3
Channels : 2
Sample Rate : 44100
Precision : 16-bit
Duration : 00:01:42.25 = 4509313 samples = 7668.9 CDDA sectors
File Size : 4.09M
Bit Rate : 320k
Sample Encoding: MPEG audio (layer I, II or III)
Comments :
Title=I Don't Need Society
Artist=Subjugator
Album=Live
Tracknumber=02
Year=1994
Genre=Thrash Metal

[/more]

Register
(5) FUDEDOR, infiltrator, METALHUNTER, Olethros, Rosen,
Jan 16 2020, 11:06:20 Necrofago - Del Mas Allá [demo] (1993)


*Artist: Necrofago
*Album: Del Mas Allá [demo]
*Year: 1993
*Genre: Death Metal
*Country: Venezuela
*Format: mp3@CBR192kbps
*Size: 27MB

Tracklist:
1. All In Hell 03:11
2. Organ Business 02:08
3. Condemned To Live 03:40
4. To Be Or Not To Be 03:09
5. Infinite Land 04:09
6. Evil Light 03:36
******************************
Total playing time: 19:53

[more=Technical info]
Input File: 01-All In Hell.mp3
Channels : 2
Sample Rate : 44100
Precision : 16-bit
Duration : 00:03:08.51 = 8313291 samples = 14138.2 CDDA sectors
File Size : 4.53M
Bit Rate : 192k
Sample Encoding: MPEG audio (layer I, II or III)
Comments :
Title=All In Hell
Artist=Necrofago (Ven)
Album=Del Mas Alla (Demo)
Tracknumber=01
Year=1993
Genre=Death Metal

[/more]

Register
(10) Evilded, FUDEDOR, infiltrator, Olethros, Rosen, stumpheavyrock, Styx, thenecromancer, Wail, wendigo,
Jan 16 2020, 10:51:46 Experiment - The Edge Of Within [demo] (1991)
new link:
Register
(8) FUDEDOR, METALHUNTER, thenecromancer, traitor666, varlam4, Wail, wendigo, Z28517,
Jan 16 2020, 10:40:27 Necromancer - Complete Collection [compilation] (2014)
[youtube]-Zn0cB11d2c[/youtube]

link for this rehearsal (this recording didn't fit in the compilation):
Register
(1) Wail,
Jan 16 2020, 04:22:41 Necromancer - Complete Collection [compilation] (2014)


*Artist: Necromancer
*Album: Complete Collection [compilation]
*Year: 2014
*Genre: Thrash Metal
*Country: Finland
*Format: mp3@CBR128kbps
*Size: 69MB

Tracklist:
1. Downfall 05:37
2. Liquid Sky 05:18
3. Violence Show 03:44
4. Intruder 03:55
5. Days Of Fury 04:26
6. Death Blow 03:38
7. Ravaged 04:42
8. Rocka Rolla (Judas Priest cover) 03:23
9. Malicious Death II 02:04
10. Rapid Fire 03:09
11. Head Hunter 03:26
12. Malicious Death 02:52
13. Prolicide (Instrumental) 04:42
14. Enforced To Kill 03:33
15. Cross Of Hate 05:52
16. Intro - The Necromancer 02:36
17. Raising Werewolf 02:46
18. Enforced To Kill 03:14
19. Malicious Death 03:06
20. Battery (Metallica cover) 03:53
******************************
Total playing time: 1:15:56

[more=Extended info]Self-released by the band:
01-02: "Downfall" Ep 1990
03-08: Demo III 1988
09-11: Demo II 1987
12-15: "Prolicide" Demo I 1987 (released as Necrotomic)
16-19: Unreleased Rehearsal 1986
20: Recorded in 1989
[/more]

[more=Technical info]
Input File: 01-Downfall (1990).mp3
Channels : 2
Sample Rate : 44100
Precision : 16-bit
Duration : 00:05:37.77 = 14895569 samples = 25332.6 CDDA sectors
File Size : 5.44M
Bit Rate : 129k
Sample Encoding: MPEG audio (layer I, II or III)
Comments :
Title=Downfall (1990)
Artist=Necromancer
Album=Complete Collection
Tracknumber=01/20
Year=1986-1991
Genre=Speed/Thrash Metal
Discnumber=01/01

[/more]

Register
(8) gwar, infiltrator, METALHUNTER, Olethros, Rosen, stumpheavyrock, Wail, Z28517,

468 Pages V   1 2 3 > » 
- Lo-Fi Version Support form
Copyrights and abuse reports form
Time is now: 19th January 2020 - 00:10:12

Состав ювентус 2014 незаменимый игрок в составе ювентуса.