Welcome Guest ( Log In | Register )

История благодарностей участнику wintherzorn ::: Спасибо сказали: 307 раз(а)
Дата поста: В теме: За сообщение: Спасибо сказали:
Aug 12 2017, 10:37:28 Frostborg - For Those Who Believe In The Hammer [demo] (1998)


*Artist: Frostborg
*Album: For Those Who Believe In The Hammer [demo]
*Year: 1998
*Genre: Viking Metal
*Country: Sweden
*Format: mp3@CBR256kbps
*Size: 34MB

Tracklist:
1. Into the Northern Abyss (Heidenhammer Rides to War) 02:27
2. For Those Who Believe in the Hammer 07:19
3. Mot portarna af ärofylld död 01:53
4. Wasteland Deathmarch 02:59
5. Nightfall in the Kingdom of the Gallows Part I and II 03:46
******************************
Total playing time: 18:24

[more=Extended info]Excellent stuff, comparable to Bathory, Falkenbach[/more]

Register
(15) beltane, Cartman223, dermarsoran, Druidir, fabriziomagno, Mihalik, morbidangelo, Ostinato, Raw1488, Rosen, RUSP73, stormhatt, thenecromancer, wreak, Xutun,
Sep 27 2016, 14:06:42 Aasfresser - The Heart Of The Tiger [ep] (2016)


*Artist: Aasfresser
*Album: The Heart Of The Tiger [ep]
*Year: 2016
*Genre: Raw Black Metal
*Country: Germany
*Format: mp3@CBR320kbps
*Size: 36MB

Tracklist:
1 - Introduction
2 - Carnage in the Temple of Night
3 - The Heart of the Tiger
4 - Torquemada
******************************
Total playing time: 14:06



[more=Extended info]Highly recommended if you adore old albums from Bathory or Graveland.

Disintegration is not for You! Your fate will be different![/more]

[more=Technical info]
Input File: Aasfresser - Aasfresser - The Heart of the Tiger - 01 Introduction.mp3
Channels : 2
Sample Rate : 44100
Precision : 16-bit
Duration : 00:00:58.39 = 2574955 samples = 4379.18 CDDA sectors
File Size : 2.46M
Bit Rate : 337k
Sample Encoding: MPEG audio (layer I, II or III)
Comments :
Title=Introduction
Artist=Aasfresser
Album=Aasfresser - The Heart of the Tiger
Tracknumber=1
Year=2016

[/more]

Register
(12) 1968_janeart, Blut aus Nord, kim666, morbidangelo, Occultas, rom666, Rosen, RUSP73, satanist666, tont, VALERY, varlam4,
Aug 12 2016, 13:37:05 Zorn - ...Denn Alle Lust Will Ewigkeit (1996)
reuploaded:
Register
(3) BlackArrow, ddarkthrone, RUSP73,
Jun 18 2015, 22:52:00 Poccolus - Rehearsal Demo [demo] (1994)
Thanks for the upload!

the tracks are earlier verions of
1. Rudens Misko Snabzdesiai
2. Ugnis Kyla Virs Azulo
3. (not used later?)
4. Ir as Nureisiu su Tamsa
(1) thenecromancer,
Jun 18 2015, 21:13:39 Poccolus - Live At Kilkim Zaibu 2010 [bootleg] (2010)
QUOTE(thenecromancer @ Apr 22 2015, 09:34:17) *
+1 pray.gif

reup, same conditions:
Register
(2) thenecromancer, varg-38ru,
Mar 24 2015, 21:31:41 Fornost - Namenlos [demo] (1999)
192:
Register

This seems to be something like a german answer to graveland and infernum with a glooming, cool atmosphere and a vocalist with an awkward german dialect. An obscure gem of the glorious 90s!
(1) varlam4,
Jul 1 2014, 20:46:35 Apostasy - Weltnacht Dunkel [demo] (1996)
seems to be an excellent demo: https://www.youtube.com/watch?v=tnhRH2uxev4

reupload please!
(1) dermarsoran,
Dec 1 2013, 17:33:05 Aasfresser - Rehearsal Tape [demo] (2012)


*Artist: Aasfresser
*Album: Rehearsal Tape [demo]
*Year: 2012
*Genre: Raw Black/Viking Metal
*Country: Germany
*Format: mp3@CBR224kbps
*Size: 34MB

Tracklist:
01 - untitled
******************************
Total playing time: 21:54

[more=Extended info]One of the most epic tape rehearsals I have ever heard!

Just one long untitled track. No tracklist, just a blank tape, so the track maybe consist of more parts connected with each other.

This is not the demo mentioned in the metal archives.[/more]

Register
(3) Cartman223, craP_cillA, tont,
Oct 15 2013, 16:30:09 Bathory - Blood Fire Death (1988)
QUOTE(soulskinner681 @ Apr 1 2012, 18:19:46) *
Can someone upload the remastered reissue from 2003? (320 CBR / mirror) pray.gif pray.gif pray.gif

that's this one.
QUOTE(Hevn @ Mar 8 2011, 15:58:58) *
1988 - Blood Fire Death
320 kbps (EAC + lame 3.98) + scans
Register

It's the original one I search, the only thing I know it has less compressin in the end mix.
(3) muskatnuss, nofate, Spork,
Sep 7 2013, 12:39:24 Benighted Leams - Obombrid Welkins (2006)
320:
Register

obscure stuff, but I like it.
(2) Constantinus I, varlam4,
Aug 28 2013, 19:51:54 Various Artists - Dark Fire Dancing III [compilation] (1997)


*Artist: Various Artists
*Album: Dark Fire Dancing III [compilation]
*Year: 1997
*Genre: Pagan/Black/Folk Metal/Neofolk
*Country: Lithuania
*Format: mp3@CBR256kbps
*Size: 254MB

Tracklist:
1. Zpoan Vtenz – Jos Brolis In Karelį 6:16
2. Tharaphita – Merekurat 6:32
3. Skyforger – Night Of The Winter Solstice 5:48
4. Anubi – Kranklys 2:53
5. Ha Lela – Išjojo Bernelis 6:48
6. Manatark – Roosteitk 9:49
7. Maze Of Cako Torments – The Shaft 4:08
8. Dissimulation – Mūšis Rūke 3:55
9. Menhyr – Amžinas Priešas 6:27
10. Winter Night Overture – Abysmal Winter Sky 3:22
11. Smolder – Ašarom Skausmo 7:22
12. Poccolus – Ir Aš Nueisiu Su Tamsa 6:06
13. Forgotten Sunrise – Blizzard 6:20
14. Girnų Giesmės – Veidrodis III 3:15
15. Skyforger – Sen Dzirdēju, Nu Leraugu 2:10
16. Laumė – Kur Ėjo Ji 5:42
17. Zpoan Vtenz – Voi Ūžkit Gauskit 9:08
18. King Lear's Convulsions – Mirror Into Mirror 5:40
19. Siela – Šviečia.Kviečia.Šaukia.Laukia. 5:42
20. Monkmort – Mother 7:28
21. Sala – Live Excerpt 4:10
22. Wejdas – Wejdas Excerpt 7:45
23. Sovijus – Liūdnas Ir Didingas 4:47
24. Donis – Ateičiai 3:56
25. Akys – Nutolimas 0:46
******************************
Total playing time: 2:16:15

[more=Extended info]2 Tapes. Some bands contributed rare/unreleased material

Sword Part:
A1 Zpoan Vtenz – Jos Brolis In Karelį 6:16
A2 Tharaphita – Merekurat 6:32
A3 Skyforger – Night Of The Winter Solstice 5:48
A4 Anubi – Kranklys 2:53
A5 Ha Lela – Išjojo Bernelis 6:48
A6 Manatark – Roosteitk 9:49
B1 Maze Of Cako Torments – The Shaft 4:08
B2 Dissimulation – Mūšis Rūke 3:55
B3 Menhyr – Amžinas Priešas 6:27
B4 Winter Night Overture – Abysmal Winter Sky 3:22
B5 Smolder – Ašarom Skausmo 7:22
B6 Poccolus – Ir Aš Nueisiu Su Tamsa 6:06
B7 Forgotten Sunrise – Blizzard 6:20
Amulet Part:
C1 Girnų Giesmės – Veidrodis III 3:15
C2 Skyforger – Sen Dzirdēju, Nu Leraugu 2:10
C3 Laumė – Kur Ėjo Ji 5:42
C4 Zpoan Vtenz – Voi Ūžkit Gauskit 9:08
C5 King Lear's Convulsions – Mirror Into Mirror 5:40
C6 Siela – Šviečia.Kviečia.Šaukia.Laukia. 5:42
D1 Monkmort – Mother 7:28
D2 Sala – Live Excerpt 4:10
D3 Wejdas – Wejdas Excerpt 7:45
D4 Sovijus – Liūdnas Ir Didingas 4:47
D5 Donis – Ateičiai 3:56
D6 Akys – Nutolimas 0:46[/more]

Register
(20) Boozer, caro, Cartman223, fabriziomagno, ghaaran, Hell_Is_Here, homelike, Ildjarn, Orkkh, ravendark, ringworm revenant, rom666, spiritualdecay666, supremo, thate_topa, tont, varlam4, vasiljev_sergej, Witchlord, wreak,
Aug 26 2013, 13:46:28 Vargulf & Fornost - Split CD [split] (2003)
QUOTE(The_Hound @ Mar 3 2008, 15:26:32) *
Split of two Great bands(Especially Fornost's part is very nice).
Note: It'sn't typical german depressive BM,it's more close to UK or U.S.A.
recommended.
It's not "depressive", Fornost play pagan black metal, maybe influenced by Nagelfar or Nachtfalke.

320, better quality:
Register
(4) Borderline1991, infiltrator, lestllk, varlam4,
Aug 9 2013, 13:40:34 Vegan Reich - Jihad [ep] (1999)


*Artist: Vegan Reich
*Album: Jihad [ep]
*Year: 1999
*Genre: Crossover/Thrash Metal/Hatecore
*Country: United States
*Format: mp3@CBR128kbps
*Size: 5MB

Tracklist:
1. Eternal Jihad 02:00
2. War Machine 01:27
3. Burn 02:12
******************************
Total playing time: 5:39

[more=Extended info]True Islamic Straight Edge Vegan Anarcho-NS Hardcore Punk[/more]

Register
(4) Tha, Ugly13, varlam4, wreak,
Aug 2 2013, 16:01:42 Alcest - Tristesse Hivernale [demo] (2001)
192:
Register

better sound quality.
(4) artscald, craP_cillA, fabriziomagno, VALERY,
Jul 24 2013, 12:21:36 Enslaved - Promo 1994 [demo] (1994)


*Artist: Enslaved
*Album: Promo 1994 [demo]
*Year: 1994
*Genre: Viking/Black Metal
*Country: Norway
*Format: mp3@CBR320kbps
*Size: 51MB

Tracklist:
1. Svarte vidder - 08:28
2. Wotan - 04:36
3. Gylfaginning - 05:18
4. Jotunblod - 04:10
******************************
Total playing time: 22:32

[more=Extended info]Unmixed versions of the Frost tracks, without keyboards.[/more]

[more=Technical info]
Input File: enslaved_-_4_jotunblod_(demo).mp3
Channels : 2
Sample Rate : 44100
Precision : 16-bit
Duration : 00:04:09.00 = 10980812 samples = 18674.9 CDDA sectors
File Size : 9.96M
Bit Rate : 320k
Sample Encoding: MPEG audio (layer I, II or III)
Comments :
Title=Jotunblod
Artist=Enslaved
Album=Promo
Year=1994
Genre=Metal

[/more]

Register
(7) Cartman223, craP_cillA, Occultas, RUSP73, tont, UlvhedinGrom, Unleashed,
Jul 13 2013, 21:06:59 Poccolus - Pakol Dega Laužai [studio clip] (1996)


*Performer: Poccolus
*Title: Pakol Dega Laužai
*Type: Studio Clip
*Album: Poccolus
*Year: 1996
*Genre: Pagan Black Metal
*Country: Lithuania

*Audio: mp3@320kbps
*Video: avi@1000kbps
*Resolution: 600x480
*Size: 58MB
******************************
*Length: 00:05:56

[more=Extended info]VHS video made for "Pakol Dega Laužai" from the "Poccolus"-album. Old tape, poor quality.[/more]

Register
(11) as71, Borderline1991, DMIYUR, Dorint, Evilded, heinz88, kefka, Rosen, suseka, varlam4, WerewolfSS,
Jul 7 2013, 12:34:00 Mistery - The Mistery Of The Dark War Comes True [demo] (1995)


*Artist: Mistery
*Album: The Mistery Of The Dark War Comes True [demo]
*Year: 1995
*Genre: Pagan Black Metal
*Country: Malaysia
*Format: mp3@CBR320kbps
*Size: 49MB

Tracklist:
1. Intro/Army Of Darkness 04:21
2. Annihilator Puaka 06:35
3. Land Of No Return, Outro 12:01
******************************
Total playing time: 22:57

[more=Extended info]raw black metal in the style of the first wave with some symphonic elements and a bizarre atmosphere.[/more]

[more=Technical info]
Input File: Mistery Army Of Darkness EP95.mp3
Channels : 2
Sample Rate : 44100
Precision : 16-bit
Duration : 00:04:21.10 = 11514290 samples = 19582.1 CDDA sectors
File Size : 10.4M
Bit Rate : 320k
Sample Encoding: MPEG audio (layer I, II or III)
Comments :
Title=Army of Darkness
Artist=Mistery
Album=The Mistery of the Dark War Come True
Tracknumber=1
Year=1995

[/more]

Register
(9) artscald, caro, homelike, maringlen, RENыч, rom666, tont, vasiljev_sergej, Velkaarn,
May 31 2013, 19:27:46 Imperium (Nor) (2) rocesid, thenecromancer,
May 10 2013, 13:36:17 Zorn - Heftig Aufflammender Unwille [ep] (1994)


*Artist: Zorn
*Album: Heftig Aufflammender Unwille [ep]
*Year: 1994
*Genre: Hardcore/Crust/Dark Metal
*Country: Germany
*Format: mp3@VBR294kbps
*Size: 22MB

Tracklist:
01. Flucht
02. Schwarzer Frühling
03. Hirnvergifter
04. Mord An Einer Seele
05. Messer
******************************
Total playing time: 11:55

[more=Extended info]7"[/more]

Register
(1) craP_cillA,
May 10 2013, 10:37:50 Zorn - ...Denn Alle Lust Will Ewigkeit (1996)


*Artist: Zorn
*Album: ...Denn Alle Lust Will Ewigkeit
*Year: 1996
*Genre: Atmospheric Black/Dark Metal
*Country: Germany
*Format: mp3@CBR192kbps
*Size: 56MB

Tracklist:
1. Zeremonie Des Abschieds
2. Magma
3. Hinter Der Sonne
4. Erebos II
5. Dornen
6. Im Nirgendwo
7. VII
8. Durch Schmerz, In Stein
9. Die Tödliche Sünde
******************************
Total playing time: 39:53

[more=Extended info]This band has their roots in hardcore/punk, but later evolved a more metallic sound. Zorn had a strong influence to the german black metal scene e.g. to bands Nagelfar or Nocte Obducta.

Not to be confused with the Black Metal bands called Zorn from Rhineland or Bavaria.[/more]

Register
(14) Buregon, craP_cillA, Daale, DarkHorde, Darkthronefoad, ILIAk, kronos, metala, Reverend, spiritualdecay666, Stringer, tont, VALERY, vasiljev_sergej,
Apr 29 2013, 13:43:57 Nagelfar - Als Die Tore Sich Öffnen [demo] (1995)
QUOTE(Constantinus I @ Jan 4 2013, 23:36:08) *
cbr 192kbps

we were fooled, someone just put the 3rd track from the full-length srontgorrth.

I got a chance to get a rip from the original track of the tape.
Register
(3) apo1, Fryz, zlvd,
Apr 6 2013, 17:14:35 Arsen AKA König Der Monster - Black Sunday [ep] (2002)
reup:
Register


apocalyptic hardcore punk with some black metal influences. highest recommended!
(1) 666BlackDeath,
Mar 1 2013, 11:58:45 Ordog - How The Moon Affect The Tides [demo] (1995)
all three demos of ordog in one file:
- denn die toten reiten so schnell (1994)
- how the moon affect the tides (1995)
- winter landscapes / 17.19.20. (1995)

Register
(1) Ildjarn,
Feb 14 2013, 01:33:49 Heemat - Der Klingelpütz - Eine Sinfonische Dichtung [single] (1999)
QUOTE(NachtWulf @ Dec 13 2012, 22:40:45) *
somebody reupload please
Register

enjoy!
(1) varlam4,
Feb 14 2013, 01:08:53 Poccolus - Live At Kilkim Zaibu 2010 [bootleg] (2010)


*Artist: Poccolus
*Album: Live At Kilkim Zaibu 2010 [bootleg]
*Year: 2010
*Genre: Pagan Metal
*Country: Lithuania
*Format: mp3@CBR192kbps
*Size: 59MB

Tracklist:
1. Vilkolakiai
2. Siratelis
3. Imperija
4. Begeyte poccole
5. Pakol dega lauzai
6. Kirsk medeine kirsk
7. Ten kazkur
8. Siratelis (acoustic)
9. Juodaragis
******************************
Total playing time: 44:10

[more=Extended info]Live recording of their show at kilkim zaibu festival 2010, featuring some previous unreleased tracks...[/more]

Register
(9) dermarsoran, Hell_Is_Here, neoatheist, oyhra_blood, spiritualdecay666, tont, varg-38ru, varlam4, waldemardr,

4 Pages V   1 2 3 > » 
- Lo-Fi Version Support form
Copyrights and abuse reports form
Time is now: 1st October 2020 - 01:00:34